osu file format v14

[General]
AudioFilename: audio.mp3
AudioLeadIn: 0
PreviewTime: 95831
Countdown: 1
SampleSet: Normal
StackLeniency: 0.7
Mode: 0
LetterboxInBreaks: 0
WidescreenStoryboard: 1

[Editor]
Bookmarks: 54903,68617,80617,82331,95831,109759,132044,133759
DistanceSpacing: 0.9
BeatDivisor: 4
GridSize: 8
TimelineZoom: 1

[Metadata]
Title:Still Here
TitleUnicode:Still Here
Artist:Kitcaliber
ArtistUnicode:Kitcaliber
Creator:Pruz
Version:Insane
Source:
Tags:
BeatmapID:978681
BeatmapSetID:456717

[Difficulty]
HPDrainRate:9
CircleSize:4.4
OverallDifficulty:8
ApproachRate:9
SliderMultiplier:1.4
SliderTickRate:1

[Events]
//Background and Video events
0,0,"bg2.jpg",0,0
//Break Periods
2,55103,67867
2,82531,95081
//Storyboard Layer 0 (Background)
//Storyboard Layer 1 (Fail)
//Storyboard Layer 2 (Pass)
//Storyboard Layer 3 (Foreground)
//Storyboard Sound Samples

[TimingPoints]
13761,428.571428571429,4,1,0,100,1,0
68617,857.142857142857,4,1,0,100,1,0
95831,-100,4,1,0,100,0,1
96902,428.571428571429,4,1,0,100,1,1
109759,-100,4,1,0,100,0,0

[HitObjects]
144,96,13760,5,0,0:0:0:0:
320,176,14189,1,0,0:0:0:0:
160,280,14618,1,0,0:0:0:0:
360,280,15260,5,0,0:0:0:0:
392,200,15475,2,0,P|392:152|304:104,1,140
240,352,16332,2,0,L|392:352,1,140
192,280,17189,5,0,0:0:0:0:
48,320,17618,2,0,L|48:160,1,140
272,168,18475,1,0,0:0:0:0:
136,144,18903,6,0,P|80:96|120:48,1,140
192,216,19761,2,0,L|192:360,1,140
368,312,20618,5,0,0:0:0:0:
240,192,21046,2,0,P|256:152|352:120,1,140
176,240,21903,1,0,0:0:0:0:
280,40,22332,6,0,L|432:40,1,140
232,104,23189,2,0,L|64:104,1,140
264,200,24046,6,0,P|320:240|384:192,1,140
192,200,24903,2,0,L|192:344,1,140
48,304,25546,5,0,0:0:0:0:
104,200,25761,1,0,0:0:0:0:
160,88,25975,1,0,0:0:0:0:
280,128,26189,1,0,0:0:0:0:
128,280,26618,1,0,0:0:0:0:
16,224,26832,1,0,0:0:0:0:
56,104,27046,1,0,0:0:0:0:
216,336,27475,6,0,L|376:336,1,140,4|0,0:0|0:0,0:0:0:0:
360,192,28118,1,0,0:0:0:0:
480,272,28332,1,0,0:0:0:0:
288,264,28761,2,0,L|136:264,1,140
192,96,30046,2,0,P|224:72|328:96,1,140
128,152,30903,6,0,B|48:152|48:152|48:80,1,140
40,200,31546,1,0,0:0:0:0:
136,232,31761,2,0,P|152:272|112:360,1,140
128,152,32618,2,0,L|272:152,1,140
160,40,33475,2,0,L|16:40,2,140
128,312,34761,1,0,0:0:0:0:
232,200,34975,1,0,0:0:0:0:
384,232,35189,1,0,0:0:0:0:
232,336,35618,5,0,0:0:0:0:
276,215,35832,1,0,0:0:0:0:
148,247,36046,2,0,P|156:295|260:327,1,140
192,128,36903,2,0,L|336:128,2,140
368,208,38189,1,0,0:0:0:0:
232,184,38403,1,0,0:0:0:0:
200,304,38618,1,0,0:0:0:0:
168,64,39046,5,0,0:0:0:0:
192,192,39261,1,0,0:0:0:0:
72,144,39475,2,0,P|48:96|48:48,1,70
80,216,39903,2,0,P|24:200|8:176,1,70
128,272,40332,2,0,L|216:272,1,70
272,192,40761,6,0,L|272:272,1,70
352,328,41189,2,0,P|376:280|336:184,1,140
280,48,42046,1,0,0:0:0:0:
440,72,42475,2,0,L|440:224,1,140
264,216,43332,1,0,0:0:0:0:
264,56,43761,2,0,P|208:64|176:80,1,70
120,168,44189,1,0,0:0:0:0:
232,176,44403,6,0,L|320:176,1,70
416,184,44832,1,0,0:0:0:0:
352,288,45046,2,0,P|296:304|264:304,1,70
272,88,45903,2,0,P|320:64|408:112,1,140
200,112,46761,2,0,P|112:104|88:48,1,140
136,208,47403,1,0,0:0:0:0:
256,104,47618,2,0,L|336:104,1,70
360,192,48046,6,0,P|336:136|408:72,1,140
408,248,48903,1,0,0:0:0:0:
280,72,49332,2,0,P|264:136|288:216,1,140
480,136,50189,2,0,L|328:136,1,140
192,312,51046,6,0,L|192:160,1,140
136,112,51689,1,0,0:0:0:0:
80,232,51903,2,0,L|80:320,1,70
392,304,52761,2,0,L|392:152,1,140
344,96,53403,1,0,0:0:0:0:
272,152,53618,2,0,P|216:144|184:64,1,140
248,224,54475,1,0,0:0:0:0:
344,96,54903,5,4,0:0:0:0:
171,107,68617,5,8,0:0:0:0:
371,161,68831,1,0,0:0:0:0:
225,307,69045,1,0,0:0:0:0:
296,240,69474,2,0,L|296:152,1,70,8|0,0:0|0:0,0:0:0:0:
128,72,70331,6,0,L|32:72,1,70,8|0,0:0|0:0,0:0:0:0:
368,208,71188,2,0,L|456:208,1,70
152,288,72045,6,8,P|136:248|152:192,1,70,8|0,0:0|0:0,0:0:0:0:
360,96,72902,2,8,P|376:136|360:192,1,70,8|0,0:0|0:0,0:0:0:0:
256,272,73759,5,8,0:0:0:0:
192,136,73974,1,0,0:0:0:0:
96,256,74188,1,0,0:0:0:0:
336,272,74617,2,0,L|432:272,1,70,8|0,0:0|0:0,0:0:0:0:
456,184,75259,5,0,0:0:0:0:
384,112,75474,1,8,0:0:0:0:
96,256,75902,2,0,P|40:256|8:232,1,70
168,56,76759,1,0,0:0:0:0:
264,264,77188,5,8,0:0:0:0:
256,80,77617,2,0,L|352:80,1,70,0|8,0:0|0:0,0:0:0:0:
152,216,78474,6,0,L|80:216,1,70,0|8,0:0|0:0,0:0:0:0:
280,88,79331,1,0,0:0:0:0:
320,320,79759,2,8,P|392:304|400:288,1,70,8|0,0:0|0:0,0:0:0:0:
256,192,80617,12,4,82331,0:0:0:0:
120,136,95831,5,0,0:0:0:0:
160,64,95938,1,0,0:0:0:0:
240,48,96045,1,2,0:0:0:0:
248,184,96259,1,0,0:0:0:0:
128,280,96474,1,0,0:0:0:0:
248,184,96688,1,0,0:0:0:0:
352,280,96902,5,2,0:0:0:0:
456,192,97116,1,0,0:0:0:0:
184,40,97330,1,2,0:0:0:0:
352,56,97544,1,0,0:0:0:0:
320,136,97652,1,0,0:0:0:0:
248,184,97759,5,2,0:0:0:0:
328,328,97973,2,0,L|384:272,1,70
160,272,98402,6,0,L|80:272,1,70,0|2,0:0|0:0,0:0:0:0:
184,128,98830,1,0,0:0:0:0:
264,272,99044,2,0,P|304:288|360:288,1,70
392,224,99366,1,0,0:0:0:0:
376,128,99473,6,2,P|352:80|264:64,1,140
200,208,100116,1,0,0:0:0:0:
368,200,100330,6,0,L|440:200,1,70,2|0,0:0|0:0,0:0:0:0:
168,280,100759,2,0,L|72:280,1,70
224,232,101187,6,0,P|240:296|176:352,1,140
264,160,101830,1,0,0:0:0:0:
72,208,102044,6,2,P|32:168|80:80,1,140
136,48,102580,1,0,0:0:0:0:
136,136,102687,1,0,0:0:0:0:
208,88,102794,6,0,L|256:88,1,35,0|2,0:0|0:0,0:0:0:0:
422,88,103116,2,0,L|352:88,2,70
456,256,103759,6,0,P|416:280|376:264,1,70,2|0,0:0|0:0,0:0:0:0:
424,88,104187,1,0,0:0:0:0:
288,192,104402,1,0,0:0:0:0:
272,288,104509,1,0,0:0:0:0:
336,360,104616,5,2,0:0:0:0:
297,123,104830,2,0,P|240:144|232:232,1,140
360,264,105473,6,2,L|288:264,1,70
112,80,105902,2,0,L|184:80,1,70
248,168,106223,1,0,0:0:0:0:
168,248,106330,6,0,P|104:240|80:152,1,140,0|2,0:0|0:0,0:0:0:0:
136,344,107187,2,0,B|64:344|64:344|16:288,1,140,0|2,0:0|0:0,0:0:0:0:
168,248,107830,1,0,0:0:0:0:
240,320,108044,6,2,P|296:352|376:304,1,140
400,248,108580,1,0,0:0:0:0:
384,168,108687,1,0,0:0:0:0:
232,232,108902,5,2,0:0:0:0:
184,160,109009,1,0,0:0:0:0:
248,96,109116,1,0,0:0:0:0:
296,168,109223,1,0,0:0:0:0:
296,256,109330,2,0,P|248:296|216:296,1,70,2|0,0:0|0:0,0:0:0:0:
384,168,109759,6,0,P|432:144|496:200,1,140,2|0,0:0|0:0,0:0:0:0:
296,256,110616,1,0,0:0:0:0:
208,112,111044,2,0,P|144:88|72:144,1,140
144,208,111687,1,0,0:0:0:0:
256,168,111902,6,0,L|416:168,2,140
328,56,113187,2,0,B|360:80|360:80|472:80,1,140
400,296,114044,2,0,L|400:136,1,140
328,304,114902,2,0,L|328:152,1,140
256,312,115759,2,0,L|256:160,1,140
256,312,116616,5,4,0:0:0:0:
136,240,116830,1,0,0:0:0:0:
248,176,117044,1,0,0:0:0:0:
160,144,117473,1,0,0:0:0:0:
312,88,117902,2,0,P|360:120|368:224,1,140
320,264,118544,1,0,0:0:0:0:
264,192,118759,1,0,0:0:0:0:
192,216,119187,2,0,P|192:160|279:118,1,140
112,248,120044,6,0,B|40:248|40:248|40:160,1,140
112,336,120902,2,0,L|260:337,1,140
304,200,121759,1,0,0:0:0:0:
400,304,122187,2,0,P|432:272|416:168,1,140
248,200,123044,6,0,P|280:232|384:216,1,140,0|4,0:0|0:0,0:0:0:0:
160,264,123902,1,0,0:0:0:0:
232,80,124330,1,0,0:0:0:0:
128,192,124759,2,0,P|88:248|120:336,1,140
208,344,125402,1,0,0:0:0:0:
320,320,125616,1,0,0:0:0:0:
424,232,126044,2,0,P|352:232|328:152,1,140
200,256,126902,5,0,0:0:0:0:
322,178,127330,2,0,L|170:178,1,140
320,88,128187,2,0,L|168:88,1,140
248,208,129044,1,0,0:0:0:0:
320,88,129473,2,0,P|376:72|424:152,1,140
296,256,130330,5,4,0:0:0:0:
184,240,130544,1,0,0:0:0:0:
256,144,130759,1,0,0:0:0:0:
176,312,131187,2,0,P|144:296|128:192,1,140
176,128,131830,1,0,0:0:0:0:
256,192,132044,12,0,133759,0:0:0:0:
