osu file format v14

[General]
AudioFilename: audio.mp3
AudioLeadIn: 0
PreviewTime: 95831
Countdown: 1
SampleSet: Normal
StackLeniency: 0.7
Mode: 0
LetterboxInBreaks: 0
WidescreenStoryboard: 1

[Editor]
Bookmarks: 54903,68617,80617,82331,95831,109759,132044,133759
DistanceSpacing: 0.9
BeatDivisor: 4
GridSize: 8
TimelineZoom: 1

[Metadata]
Title:Still Here
TitleUnicode:Still Here
Artist:Kitcaliber
ArtistUnicode:Kitcaliber
Creator:Pruz
Version:Hard
Source:
Tags:
BeatmapID:978680
BeatmapSetID:456717

[Difficulty]
HPDrainRate:8
CircleSize:4.3
OverallDifficulty:6
ApproachRate:7
SliderMultiplier:1.4
SliderTickRate:1

[Events]
//Background and Video events
0,0,"bg2.jpg",0,0
//Break Periods
2,55103,67717
2,82531,94931
//Storyboard Layer 0 (Background)
//Storyboard Layer 1 (Fail)
//Storyboard Layer 2 (Pass)
//Storyboard Layer 3 (Foreground)
//Storyboard Sound Samples

[TimingPoints]
13761,428.571428571429,4,1,0,100,1,0
68617,857.142857142857,4,1,0,100,1,0
95831,-100,4,1,0,100,0,1
96902,428.571428571429,4,1,0,100,1,1
109759,-100,4,1,0,100,0,0

[HitObjects]
168,224,13760,6,0,P|184:168|256:144,1,140
384,208,14618,1,0,0:0:0:0:
240,216,15046,1,0,0:0:0:0:
184,136,15260,6,0,B|176:120|179:123|176:88,2,35
312,152,15903,2,0,L|464:152,1,140
368,240,16760,6,0,L|208:240,1,140
208,144,17403,1,0,0:0:0:0:
320,144,17618,2,0,P|336:112|264:40,1,140
384,112,18475,1,0,0:0:0:0:
240,112,18689,5,0,0:0:0:0:
352,168,18903,2,0,L|352:320,1,140
464,360,19546,1,0,0:0:0:0:
464,256,19761,2,0,L|320:256,1,140
256,352,20403,5,0,0:0:0:0:
128,312,20618,2,0,P|72:304|40:216,1,140
200,304,21475,2,0,L|40:304,1,140
40,184,22332,6,0,L|192:184,1,140
280,256,23189,2,0,P|336:264|368:176,1,140
280,176,23939,5,0,0:0:0:0:
248,120,24046,2,0,P|200:88|136:144,1,140
136,280,24903,2,0,B|112:240|112:240|16:240,1,140
136,280,25546,5,0,0:0:0:0:
56,368,25761,2,0,B|96:368|96:368|120:344|120:344|200:344,1,140
328,336,26618,2,0,B|368:328|368:328|408:208,1,140
496,120,27475,6,0,B|496:224|496:224|456:272,1,140,4|0,0:0|0:0,0:0:0:0:
320,296,28332,2,0,B|248:296|248:296|328:296,1,140
200,248,29189,6,0,P|232:200|319:200,1,140
200,248,30046,1,0,0:0:0:0:
224,112,30475,1,0,0:0:0:0:
360,104,30903,6,0,P|416:112|456:208,1,140
376,224,31653,1,0,0:0:0:0:
312,240,31761,2,0,L|144:240,1,140
312,304,32618,6,0,P|256:328|160:304,1,140
168,160,33475,2,0,P|224:136|320:160,1,140
208,256,34332,6,0,B|104:256|104:256|64:216,1,140
216,168,35189,2,0,L|216:24,1,140
304,88,35939,5,0,0:0:0:0:
336,144,36046,2,0,L|336:296,1,140
144,328,36903,2,0,L|288:328,1,140
432,336,37761,6,0,P|376:352|344:264,1,140
448,296,38618,2,0,L|280:312,1,140
248,232,39261,5,0,0:0:0:0:
192,320,39475,2,0,L|104:320,1,70
48,264,39903,2,0,L|48:176,1,70
120,136,40332,2,0,L|192:136,1,70
256,200,40761,6,0,L|336:200,1,70
400,248,41189,2,0,P|336:288|272:240,1,140
336,320,42046,2,0,B|360:344|360:344|472:344,1,140
384,248,42903,2,0,B|280:248|280:248|240:272,1,140
160,360,43761,2,0,L|0:360,1,140
0,264,44403,5,0,0:0:0:0:
104,288,44618,2,0,L|104:216,1,70
112,136,45046,2,0,L|200:136,1,70
240,192,45475,1,0,0:0:0:0:
384,168,45903,1,0,0:0:0:0:
280,280,46332,6,0,L|200:280,1,70
120,336,46761,2,0,P|72:304|72:216,1,140
224,192,47618,1,0,0:0:0:0:
192,264,47832,6,0,L|112:264,1,70
88,152,48261,2,0,L|168:152,2,70
256,48,49332,1,0,0:0:0:0:
264,208,49761,5,0,0:0:0:0:
328,168,49975,2,0,L|328:80,1,70
400,40,50403,2,0,L|480:40,1,70
472,128,50832,2,0,L|472:224,2,70
376,144,51475,5,0,0:0:0:0:
408,48,51689,1,0,0:0:0:0:
312,64,51903,2,0,L|216:64,1,70
144,272,52761,2,0,P|80:296|32:224,1,140
64,144,53403,1,0,0:0:0:0:
160,104,53618,2,0,P|208:112|248:40,1,140
368,152,54475,1,0,0:0:0:0:
216,184,54903,5,4,0:0:0:0:
176,152,68617,6,8,P|224:136|328:160,1,140
136,288,70117,6,0,L|176:264,1,35
64,216,71188,6,8,B|64:176|64:176|80:160|80:160|80:80,1,140
128,240,72902,6,0,P|184:248|256:176,1,140
320,72,74617,6,8,L|368:72,1,35
248,32,75045,1,0,0:0:0:0:
192,88,75259,1,8,0:0:0:0:
160,160,75474,6,0,L|160:248,1,70
80,56,76974,6,0,L|128:56,1,35
240,144,77617,2,0,L|288:144,1,35
136,328,78688,6,0,L|136:280,1,35
328,224,79331,2,0,L|328:168,1,35
256,192,80617,12,4,82331,0:0:0:0:
184,120,95831,5,0,0:0:0:0:
256,176,96045,2,0,L|304:176,1,35,2|0,0:0|0:0,0:0:0:0:
152,200,96474,2,0,L|152:256,1,35
88,288,96902,5,2,0:0:0:0:
184,120,97116,1,0,0:0:0:0:
0,120,97330,1,0,0:0:0:0:
168,40,97544,1,0,0:0:0:0:
160,200,97759,5,2,0:0:0:0:
304,248,97973,2,0,L|384:248,1,70
368,120,98402,6,0,L|296:120,1,70,0|2,0:0|0:0,0:0:0:0:
336,328,98830,1,0,0:0:0:0:
496,200,99044,1,2,0:0:0:0:
296,120,99259,1,0,0:0:0:0:
248,224,99473,6,0,P|192:176|184:88,1,140,2|0,0:0|0:0,0:0:0:0:
152,264,100330,2,0,P|112:216|88:128,1,140,2|0,0:0|0:0,0:0:0:0:
224,296,101187,6,0,L|376:296,1,140,2|0,0:0|0:0,0:0:0:0:
384,224,102044,2,0,L|240:224,1,140,2|2,0:0|0:0,0:0:0:0:
120,256,102687,6,0,L|144:176,1,70,0|2,0:0|0:0,0:0:0:0:
280,96,103116,2,0,L|256:24,2,70
312,256,103759,5,2,0:0:0:0:
280,96,103973,1,0,0:0:0:0:
384,224,104187,2,0,P|392:272|368:304,1,70
128,328,104616,6,0,L|40:328,1,70,2|0,0:0|0:0,0:0:0:0:
136,224,105044,2,0,L|208:224,1,70
136,120,105473,6,0,L|64:120,1,70,2|0,0:0|0:0,0:0:0:0:
32,240,105902,2,0,L|32:320,1,70
208,344,106330,6,0,L|360:344,1,140,2|0,0:0|0:0,0:0:0:0:
296,224,107187,2,0,L|152:224,1,140,2|0,0:0|0:0,0:0:0:0:
280,152,108044,5,2,0:0:0:0:
352,64,108259,1,2,0:0:0:0:
424,152,108473,1,2,0:0:0:0:
160,224,108902,1,2,0:0:0:0:
280,152,109116,1,0,0:0:0:0:
160,80,109330,1,2,0:0:0:0:
288,304,109759,6,0,L|448:304,1,140,2|0,0:0|0:0,0:0:0:0:
352,176,110616,1,0,0:0:0:0:
288,304,111044,2,0,P|232:280|208:200,1,140
360,240,111902,1,0,0:0:0:0:
152,136,112330,6,0,L|296:136,2,140
208,280,113616,2,0,B|240:216|240:216|280:288,1,140
208,352,114473,2,0,L|64:352,1,140
40,208,115330,1,0,0:0:0:0:
160,280,115759,2,0,L|328:280,1,140
360,192,116616,6,0,P|416:208|312:320,1,280,4|0,0:0|0:0,0:0:0:0:
216,240,117902,1,0,0:0:0:0:
360,192,118330,2,0,P|376:152|352:56,1,140
288,176,119187,2,0,L|288:328,1,140
416,312,120044,5,0,0:0:0:0:
352,200,120473,1,0,0:0:0:0:
288,320,120902,2,0,P|232:320|144:272,1,140
88,280,121759,2,0,P|112:232|208:232,1,140
120,136,122616,2,0,L|280:136,1,140
312,64,123473,5,4,0:0:0:0:
376,128,123687,1,0,0:0:0:0:
456,88,123902,2,0,P|464:152|496:232,1,140
424,288,124759,2,0,L|272:288,1,140
208,168,125616,1,0,0:0:0:0:
144,288,126044,1,0,0:0:0:0:
280,280,126473,1,0,0:0:0:0:
208,168,126902,6,0,P|200:112|264:56,1,140
408,128,127759,2,0,L|264:128,1,140
336,232,128616,2,0,L|184:232,1,140
192,304,129473,2,0,P|144:280|152:176,1,140
192,104,130330,5,4,0:0:0:0:
272,104,130544,1,0,0:0:0:0:
352,104,130759,2,0,L|352:272,1,140
416,320,131616,1,0,0:0:0:0:
256,192,132044,12,0,133759,0:0:0:0:
