osu file format v14

[General]
AudioFilename: audio.mp3
AudioLeadIn: 0
PreviewTime: 113224
Countdown: 0
SampleSet: Soft
StackLeniency: 0.7
Mode: 0
LetterboxInBreaks: 0
WidescreenStoryboard: 1

[Editor]
Bookmarks: 31127,72418,93063,134353,152418,175643,196289
DistanceSpacing: 1.1
BeatDivisor: 4
GridSize: 32
TimelineZoom: 1.9

[Metadata]
Title:ONIRIC
TitleUnicode:ONIRIC
Artist:Kitazawa Kyouhei feat. Hatsune Miku
ArtistUnicode:北沢強兵 feat. 初音ミク
Creator:-Sylvari
Version:HOLLOW INSANE
Source:osu!
Tags:vocaloid japanese electronic mpg mappers guild fa featured artist
BeatmapID:2839868
BeatmapSetID:1373644

[Difficulty]
HPDrainRate:4.5
CircleSize:4.3
OverallDifficulty:7
ApproachRate:8
SliderMultiplier:2.6
SliderTickRate:1

[Events]
//Background and Video events
0,0,"ONIRIC_static.jpg",0,0
Video,0,"ONIRIC_mv.mp4"
//Break Periods
//Storyboard Layer 0 (Background)
//Storyboard Layer 1 (Fail)
//Storyboard Layer 2 (Pass)
//Storyboard Layer 3 (Foreground)
//Storyboard Layer 4 (Overlay)
//Storyboard Sound Samples

[TimingPoints]
160,645.161290322581,4,2,1,60,1,0
160,-133.333333333333,4,2,1,60,0,0
10482,-100,4,2,1,70,0,0
31127,-133.333333333333,4,2,1,60,0,0
51450,-133.333333333333,4,2,1,80,0,0
51772,-100,4,2,1,80,0,0
72418,-100,4,2,1,70,0,0
93063,-133.333333333333,4,2,1,60,0,0
113385,-100,4,2,1,80,0,0
134353,-66.6666666666667,4,2,1,90,0,1
134998,-100,4,2,1,90,0,1
135321,-66.6666666666667,4,2,1,90,0,1
135643,-100,4,2,1,90,0,1
136611,-133.333333333333,4,2,1,90,0,1
136934,-66.6666666666667,4,2,1,90,0,1
138224,-100,4,2,1,90,0,1
138547,-66.6666666666667,4,2,1,90,0,1
139192,-57.1428571428571,4,2,1,90,0,1
139514,-66.6666666666667,4,2,1,90,0,1
140160,-100,4,2,1,90,0,1
140482,-66.6666666666667,4,2,1,90,0,1
140805,-100,4,2,1,90,0,1
141772,-133.333333333333,4,2,1,90,0,1
142095,-66.6666666666667,4,2,1,90,0,1
143385,-100,4,2,1,90,0,1
143708,-66.6666666666667,4,2,1,90,0,1
144353,-57.1428571428571,4,2,1,90,0,1
144676,-66.6666666666667,4,2,1,90,0,1
145321,-100,4,2,1,90,0,1
145643,-66.6666666666667,4,2,1,90,0,1
145966,-100,4,2,1,90,0,1
146934,-133.333333333333,4,2,1,90,0,1
147256,-66.6666666666667,4,2,1,90,0,1
148547,-100,4,2,1,90,0,1
148869,-66.6666666666667,4,2,1,90,0,1
149514,-80,4,2,1,90,0,1
149837,-57.1428571428571,4,2,1,90,0,1
152418,-57.1428571428571,4,2,1,90,0,0
154837,-133.333333333333,4,2,1,80,0,0
154998,-100,4,2,1,80,0,0
175643,-100,4,2,1,70,0,0
196289,-133.333333333333,4,2,1,60,0,0
206611,-133.333333333333,4,2,1,50,0,0

[Colours]
Combo1 : 128,128,128
Combo2 : 255,0,0
Combo3 : 192,192,192
Combo4 : 255,128,128

[HitObjects]
123,96,160,6,0,L|103:153,1,48.750001859665,4|0,1:0|0:0,0:0:0:0:
224,224,482,1,0,3:0:0:0:
190,150,643,1,2,3:0:0:0:
160,283,805,1,8,0:0:0:0:
316,125,1127,1,2,3:0:0:0:
336,201,1289,1,2,3:0:0:0:
357,276,1450,2,0,P|388:325|433:356,1,97.50000371933,0|2,1:0|3:0,0:0:0:0:
472,218,2095,1,8,0:0:0:0:
336,201,2418,1,2,3:0:0:0:
461,58,2740,6,0,P|438:117|403:147,1,97.50000371933,4|0,1:0|3:0,0:0:0:0:
365,25,3224,1,2,3:0:0:0:
299,132,3385,2,0,L|296:83,1,48.750001859665,8|0,0:0|0:0,0:0:0:0:
226,30,3708,1,2,3:0:0:0:
226,30,3869,1,2,3:0:0:0:
204,111,4030,1,0,1:0:0:0:
63,78,4353,1,2,3:0:0:0:
172,190,4676,1,8,0:0:0:0:
0,192,4998,1,2,3:0:0:0:
226,263,5321,6,0,L|281:246,1,48.750001859665,4|0,1:0|0:0,0:0:0:0:
383,286,5643,1,0,3:0:0:0:
344,215,5805,1,2,3:0:0:0:
343,350,5966,1,8,0:0:0:0:
512,244,6289,1,2,3:0:0:0:
466,182,6450,1,2,3:0:0:0:
423,117,6611,2,0,P|418:65|441:15,1,97.50000371933,0|2,1:0|3:0,0:0:0:0:
303,117,7256,2,0,P|247:127|197:114,1,97.50000371933,8|2,0:0|3:0,0:0:0:0:
202,248,7901,6,0,L|191:194,1,48.750001859665,4|0,1:0|0:0,0:0:0:0:
132,90,8224,1,0,3:0:0:0:
117,174,8385,1,2,3:0:0:0:
36,195,8547,2,0,L|43:250,1,48.750001859665,8|0,0:0|0:0,0:0:0:0:
126,299,8869,1,2,3:0:0:0:
126,299,9030,1,2,3:0:0:0:
79,353,9192,2,0,P|141:335|199:351,1,97.50000371933,0|2,1:0|3:0,0:0:0:0:
308,310,9837,2,0,B|288:296|288:296|308:275|308:275|286:252|286:252|309:229|309:229|287:208|287:208|306:191,1,170.625006508827,8|0,0:0|0:0,0:0:0:0:
447,200,10482,6,0,P|407:199|376:180,1,65,4|0,1:0|0:0,0:0:0:0:
428,35,10805,1,0,3:0:0:0:
437,117,10966,1,2,3:0:0:0:
344,48,11127,1,8,0:0:0:0:
274,139,11289,1,0,3:0:0:0:
271,150,11369,1,0,3:0:0:0:
275,166,11450,1,2,3:0:0:0:
194,119,11611,1,2,3:0:0:0:
114,70,11772,2,0,P|69:49|-13:58,1,130,0|2,1:0|3:0,0:0:0:0:
35,197,12256,1,0,0:0:0:0:
112,154,12418,1,8,0:0:0:0:
164,287,12740,2,0,L|158:253,1,32.5,2|0,3:0|0:0,0:0:0:0:
14,370,13063,6,0,L|147:360,1,130,4|0,1:0|3:0,0:0:0:0:
274,315,13547,1,2,3:0:0:0:
164,287,13708,1,8,0:0:0:0:
265,231,13869,2,0,L|259:197,2,32.5,0|0|2,3:0|3:0|3:0,0:0:0:0:
265,231,14192,1,2,3:0:0:0:
368,350,14353,2,0,L|383:275,1,65,0|0,1:0|0:0,0:0:0:0:
451,264,14676,2,0,L|444:196,1,65,2|0,3:0|0:0,0:0:0:0:
463,115,14998,2,0,L|477:256,1,130,8|2,0:0|3:0,0:0:0:0:
316,138,15643,6,0,L|237:115,1,65,4|0,1:0|0:0,0:0:0:0:
197,18,15966,1,0,3:0:0:0:
283,22,16127,1,2,3:0:0:0:
166,108,16289,1,8,0:0:0:0:
105,14,16450,1,0,3:0:0:0:
99,10,16530,1,0,3:0:0:0:
94,2,16611,1,2,3:0:0:0:
64,96,16772,1,2,3:0:0:0:
20,188,16934,2,0,P|64:221|99:290,1,130,0|2,1:0|3:0,0:0:0:0:
183,215,17418,1,0,0:0:0:0:
183,215,17579,2,0,P|195:245|202:284,1,65,8|0,0:0|0:0,0:0:0:0:
315,352,17901,2,0,L|297:385,1,32.5,2|0,3:0|0:0,0:0:0:0:
495,325,18224,6,0,L|351:305,1,130,4|0,1:0|3:0,0:0:0:0:
380,178,18708,1,2,3:0:0:0:
320,240,18869,1,8,0:0:0:0:
296,157,19030,2,0,L|292:125,2,32.5,0|0|2,3:0|3:0|3:0,0:0:0:0:
296,157,19353,1,2,3:0:0:0:
203,244,19514,2,0,L|182:174,1,65,0|0,1:0|0:0,0:0:0:0:
86,189,19837,2,0,L|93:118,1,65,2|0,3:0|0:0,0:0:0:0:
68,57,20160,2,0,L|55:186,1,130,8|2,0:0|3:0,0:0:0:0:
157,23,20805,6,0,P|207:28|233:43,1,65,4|0,1:0|0:0,0:0:0:0:
293,156,21127,1,0,3:0:0:0:
212,124,21289,1,2,3:0:0:0:
306,42,21450,1,8,0:0:0:0:
380,142,21611,1,0,3:0:0:0:
387,155,21692,1,0,3:0:0:0:
385,170,21772,1,2,3:0:0:0:
426,88,21934,1,2,3:0:0:0:
476,11,22095,2,0,L|478:146,1,130,0|2,1:0|3:0,0:0:0:0:
458,233,22579,1,0,0:0:0:0:
385,170,22740,1,8,0:0:0:0:
258,235,23063,2,0,L|283:269,1,32.5,2|0,3:0|0:0,0:0:0:0:
111,380,23385,6,0,L|125:239,1,130,4|0,1:0|3:0,0:0:0:0:
46,173,23869,1,2,3:0:0:0:
125,127,24030,1,8,0:0:0:0:
46,72,24192,2,0,L|10:66,2,32.5,0|0|2,3:0|3:0|3:0,0:0:0:0:
46,72,24514,1,2,3:0:0:0:
135,29,24676,2,0,L|205:75,1,65,0|0,1:0|0:0,0:0:0:0:
283,49,24998,2,0,L|303:123,1,65,2|0,3:0|0:0,0:0:0:0:
347,169,25321,2,0,L|313:43,1,130,8|2,0:0|3:0,0:0:0:0:
155,213,25966,6,0,L|171:283,1,65,4|0,1:0|0:0,0:0:0:0:
183,360,26289,1,0,3:0:0:0:
241,286,26450,1,2,3:0:0:0:
321,353,26611,1,8,0:0:0:0:
319,235,26772,1,0,3:0:0:0:
313,225,26853,1,0,3:0:0:0:
296,219,26934,1,2,3:0:0:0:
381,271,27095,1,2,3:0:0:0:
468,320,27256,2,0,P|453:269|455:188,1,130,0|2,1:0|3:0,0:0:0:0:
359,156,27740,1,0,0:0:0:0:
359,156,27901,2,0,P|379:126|412:102,1,65,8|0,0:0|0:0,0:0:0:0:
287,21,28224,2,0,L|294:58,1,32.5,2|0,3:0|0:0,0:0:0:0:
195,187,28547,6,0,L|215:56,1,130,4|0,1:0|3:0,0:0:0:0:
90,16,29030,1,2,3:0:0:0:
121,107,29192,1,8,0:0:0:0:
35,151,29353,2,0,L|1:141,2,32.5,0|0|2,3:0|3:0|3:0,0:0:0:0:
35,151,29676,1,2,3:0:0:0:
96,237,29837,2,0,L|107:313,1,65,0|0,1:0|0:0,0:0:0:0:
194,284,30160,2,0,L|249:335,1,65,2|0,3:0|0:0,0:0:0:0:
327,365,30482,2,0,L|231:276,1,130,8|2,0:0|3:0,0:0:0:0:
255,112,31127,5,4,1:0:0:0:
370,202,31450,2,0,P|394:194|419:177,1,48.750001859665,0|2,3:0|3:0,0:0:0:0:
434,94,31772,1,8,0:0:0:0:
248,34,32095,2,0,P|224:42|199:59,1,48.750001859665,2|2,3:0|3:0,0:0:0:0:
184,142,32418,2,0,L|187:193,1,48.750001859665,0|0,1:0|0:0,0:0:0:0:
115,195,32740,2,0,L|118:246,1,48.750001859665,2|0,3:0|0:0,0:0:0:0:
40,243,33063,1,8,0:0:0:0:
161,353,33385,5,2,3:0:0:0:
206,288,33547,1,0,0:0:0:0:
293,369,33708,2,0,L|280:312,1,48.750001859665,4|0,1:0|0:0,0:0:0:0:
375,269,34030,2,0,L|364:316,1,48.750001859665,0|2,3:0|3:0,0:0:0:0:
293,235,34353,1,8,0:0:0:0:
293,235,34514,1,0,0:0:0:0:
364,179,34676,1,2,3:0:0:0:
364,179,34837,1,2,3:0:0:0:
447,212,34998,2,0,L|498:194,1,48.750001859665,0|0,1:0|0:0,0:0:0:0:
454,108,35321,2,0,L|477:65,1,48.750001859665,2|0,3:0|0:0,0:0:0:0:
387,28,35643,2,0,P|337:9|286:10,1,97.50000371933,8|2,0:0|3:0,0:0:0:0:
254,109,36289,5,4,1:0:0:0:
135,214,36611,2,0,P|110:213|85:202,1,48.750001859665,0|2,3:0|3:0,0:0:0:0:
31,147,36934,1,8,0:0:0:0:
150,42,37256,2,0,P|175:43|200:54,1,48.750001859665,2|2,3:0|3:0,0:0:0:0:
254,109,37579,2,0,L|258:161,1,48.750001859665,0|0,1:0|0:0,0:0:0:0:
333,156,37901,2,0,L|337:208,1,48.750001859665,2|0,3:0|0:0,0:0:0:0:
414,202,38224,1,8,0:0:0:0:
452,350,38547,6,0,L|405:378,1,48.750001859665,2|0,3:0|0:0,0:0:0:0:
333,286,38869,2,0,L|322:382,1,97.50000371933,4|0,1:0|3:0,0:0:0:0:
256,257,39353,1,2,3:0:0:0:
256,257,39514,2,0,L|249:305,1,48.750001859665,8|0,0:0|0:0,0:0:0:0:
167,351,39837,1,2,3:0:0:0:
167,351,39998,1,2,3:0:0:0:
77,328,40160,2,0,P|64:307|61:282,1,48.750001859665,0|0,1:0|0:0,0:0:0:0:
123,236,40482,1,2,3:0:0:0:
52,203,40643,1,0,0:0:0:0:
126,143,40805,2,0,P|182:159|211:191,1,97.50000371933,8|2,0:0|3:0,0:0:0:0:
352,283,41450,5,4,1:0:0:0:
483,175,41772,2,0,P|481:150|469:117,1,48.750001859665,0|2,3:0|3:0,0:0:0:0:
413,51,42095,1,8,0:0:0:0:
237,111,42418,2,0,P|239:136|251:169,1,48.750001859665,2|2,3:0|3:0,0:0:0:0:
307,235,42740,2,0,L|355:240,1,48.750001859665,0|0,1:0|0:0,0:0:0:0:
330,311,43063,2,0,L|378:316,1,48.750001859665,2|0,3:0|0:0,0:0:0:0:
349,384,43385,1,8,0:0:0:0:
217,345,43708,5,2,3:0:0:0:
217,345,43869,1,0,0:0:0:0:
133,311,44030,2,0,L|138:262,1,48.750001859665,4|0,1:0|0:0,0:0:0:0:
38,268,44353,2,0,L|31:220,1,48.750001859665,0|2,3:0|3:0,0:0:0:0:
133,177,44676,1,8,0:0:0:0:
133,177,44837,1,0,0:0:0:0:
42,118,44998,1,2,3:0:0:0:
42,118,45160,1,2,3:0:0:0:
140,50,45321,2,0,L|191:33,1,48.750001859665,0|0,1:0|0:0,0:0:0:0:
230,122,45643,2,0,L|276:135,1,48.750001859665,2|0,3:0|0:0,0:0:0:0:
241,247,45966,2,0,L|269:351,1,97.50000371933,8|2,0:0|3:0,0:0:0:0:
467,376,46611,5,4,1:0:0:0:
480,220,46934,2,0,P|459:201|430:195,1,48.750001859665,0|2,3:0|3:0,0:0:0:0:
359,233,47256,1,8,0:0:0:0:
315,377,47579,2,0,P|288:386|259:380,1,48.750001859665,2|2,3:0|3:0,0:0:0:0:
208,317,47901,2,0,L|182:262,1,48.750001859665,0|0,1:0|0:0,0:0:0:0:
112,314,48224,2,0,L|86:259,1,48.750001859665,2|0,3:0|0:0,0:0:0:0:
14,312,48547,1,8,0:0:0:0:
54,192,48869,6,0,L|73:112,1,48.750001859665,2|0,3:0|0:0,0:0:0:0:
156,118,49192,2,0,L|146:69,1,48.750001859665,4|0,1:0|0:0,0:0:0:0:
232,53,49514,1,0,3:0:0:0:
232,53,49676,1,2,3:0:0:0:
284,132,49837,1,8,0:0:0:0:
284,132,49998,1,0,0:0:0:0:
351,60,50160,2,0,L|365:111,1,48.750001859665,2|2,3:0|3:0,0:0:0:0:
447,182,50482,2,0,L|343:185,1,97.50000371933,0|2,1:0|3:0,0:0:0:0:
292,246,50966,1,0,0:0:0:0:
228,193,51127,1,8,0:0:0:0:
74,64,51450,5,2,3:0:0:0:
65,154,51611,1,0,0:0:0:0:
56,244,51772,1,4,1:0:0:0:
237,283,52095,5,0,3:0:0:0:
228,193,52256,1,2,3:0:0:0:
219,103,52417,1,8,0:0:0:0:
364,3,52740,5,2,3:0:0:0:
315,110,52901,1,2,3:0:0:0:
458,141,53224,5,0,0:0:0:0:
501,233,53385,1,2,3:0:0:0:
409,276,53547,1,0,0:0:0:0:
366,184,53708,1,8,0:0:0:0:
272,370,54030,6,0,P|269:330|256:291,1,65,2|0,3:0|0:0,0:0:0:0:
185,246,54353,1,0,1:0:0:0:
185,246,54514,1,0,0:0:0:0:
138,329,54676,2,0,L|146:259,1,65,0|2,3:0|3:0,0:0:0:0:
45,187,54998,2,0,L|52:254,1,65,8|0,0:0|0:0,0:0:0:0:
139,160,55321,1,2,3:0:0:0:
16,83,55482,1,2,3:0:0:0:
231,56,55805,5,0,0:0:0:0:
237,156,55966,1,2,3:0:0:0:
139,160,56127,1,0,0:0:0:0:
135,62,56289,1,8,0:0:0:0:
354,98,56611,6,0,P|384:109|412:130,1,65,2|0,3:0|0:0,0:0:0:0:
452,210,56934,1,0,1:0:0:0:
445,291,57095,1,0,0:0:0:0:
437,372,57256,2,0,P|403:384|368:384,1,65,0|2,3:0|3:0,0:0:0:0:
364,242,57579,1,8,0:0:0:0:
238,364,57901,5,2,3:0:0:0:
267,269,58063,1,2,3:0:0:0:
125,199,58385,5,0,0:0:0:0:
33,242,58546,1,2,3:0:0:0:
76,334,58708,1,0,0:0:0:0:
168,291,58869,1,8,0:0:0:0:
79,101,59192,5,2,3:0:0:0:
79,101,59353,1,0,0:0:0:0:
167,30,59514,1,0,1:0:0:0:
165,126,59676,1,0,0:0:0:0:
255,46,59837,1,0,3:0:0:0:
304,231,60160,2,0,L|290:145,1,65,8|0,0:0|0:0,0:0:0:0:
431,101,60482,5,2,3:0:0:0:
431,101,60643,1,2,3:0:0:0:
343,30,60804,1,0,1:0:0:0:
345,126,60966,1,0,0:0:0:0:
255,46,61127,1,2,3:0:0:0:
206,231,61450,2,0,L|220:145,1,65,8|0,0:0|0:0,0:0:0:0:
260,334,61772,5,2,3:0:0:0:
153,329,61934,1,0,0:0:0:0:
53,321,62095,1,4,1:0:0:0:
210,242,62418,5,0,3:0:0:0:
317,247,62579,1,2,3:0:0:0:
417,255,62741,1,8,0:0:0:0:
423,91,63063,5,2,3:0:0:0:
379,169,63224,1,2,3:0:0:0:
286,0,63547,5,0,0:0:0:0:
194,43,63708,1,2,3:0:0:0:
237,135,63870,1,0,0:0:0:0:
329,92,64030,1,8,0:0:0:0:
131,124,64353,5,2,3:0:0:0:
131,124,64514,1,0,0:0:0:0:
26,108,64676,2,0,L|33:209,1,65,0|0,1:0|0:0,0:0:0:0:
171,223,64998,2,0,L|97:229,1,65,0|2,3:0|3:0,0:0:0:0:
0,287,65321,1,8,0:0:0:0:
39,384,65482,1,0,0:0:0:0:
112,300,65643,1,2,3:0:0:0:
112,300,65805,1,2,3:0:0:0:
306,272,66127,5,0,0:0:0:0:
263,180,66288,1,2,3:0:0:0:
171,223,66450,1,0,0:0:0:0:
214,315,66611,1,8,0:0:0:0:
362,186,66934,6,0,P|376:155|374:119,1,65,2|0,3:0|0:0,0:0:0:0:
449,46,67256,1,0,1:0:0:0:
471,137,67418,1,0,0:0:0:0:
496,225,67579,2,0,P|465:230|429:249,1,65,0|2,3:0|3:0,0:0:0:0:
420,340,67901,1,8,0:0:0:0:
259,282,68224,5,2,3:0:0:0:
350,278,68385,1,2,3:0:0:0:
199,359,68708,5,0,0:0:0:0:
100,383,68869,1,2,3:0:0:0:
75,285,69031,1,0,0:0:0:0:
174,260,69192,1,8,0:0:0:0:
46,113,69514,5,2,3:0:0:0:
46,113,69676,1,0,0:0:0:0:
129,45,69837,1,0,1:0:0:0:
138,160,69998,1,0,0:0:0:0:
223,84,70160,1,0,3:0:0:0:
328,194,70482,2,0,L|263:210,1,65,8|0,0:0|0:0,0:0:0:0:
375,102,70805,5,2,3:0:0:0:
375,102,70967,1,2,3:0:0:0:
443,185,71127,1,0,1:0:0:0:
328,194,71289,1,0,0:0:0:0:
395,283,71450,1,2,3:0:0:0:
303,363,71773,2,0,L|287:298,1,65,8|0,0:0|0:0,0:0:0:0:
196,297,72095,2,0,L|212:232,1,65,2|0,3:0|0:0,0:0:0:0:
266,105,72418,6,0,L|277:174,1,65,4|0,1:0|0:0,0:0:0:0:
400,258,72740,1,0,3:0:0:0:
359,171,72901,1,2,3:0:0:0:
482,196,73063,1,8,0:0:0:0:
491,304,73224,1,0,3:0:0:0:
481,315,73305,1,0,3:0:0:0:
468,321,73385,1,2,3:0:0:0:
367,338,73547,1,2,3:0:0:0:
266,350,73708,2,0,P|191:341|144:304,1,130,0|2,1:0|3:0,0:0:0:0:
166,170,74192,1,0,0:0:0:0:
237,247,74353,1,8,0:0:0:0:
74,283,74676,2,0,L|75:319,1,32.5,2|0,3:0|0:0,0:0:0:0:
53,153,74998,6,0,L|66:23,1,130,4|0,1:0|3:0,0:0:0:0:
193,20,75482,1,2,3:0:0:0:
150,147,75643,1,8,0:0:0:0:
244,102,75805,2,0,L|240:67,2,32.5,0|0|2,3:0|3:0|3:0,0:0:0:0:
244,102,76127,1,2,3:0:0:0:
241,209,76289,2,0,L|312:240,1,65,0|0,1:0|0:0,0:0:0:0:
363,159,76611,2,0,L|431:141,1,65,2|0,3:0|0:0,0:0:0:0:
465,101,76934,2,0,L|339:134,1,130,8|2,0:0|3:0,0:0:0:0:
447,307,77579,6,0,L|438:226,1,65,4|0,1:0|0:0,0:0:0:0:
369,371,77901,1,0,3:0:0:0:
357,273,78063,1,2,3:0:0:0:
254,350,78224,1,8,0:0:0:0:
171,269,78385,1,0,3:0:0:0:
166,280,78466,1,0,3:0:0:0:
167,294,78547,1,2,3:0:0:0:
160,204,78708,1,2,3:0:0:0:
146,115,78869,2,0,P|98:80|27:93,1,130,0|2,1:0|3:0,0:0:0:0:
14,222,79353,1,0,0:0:0:0:
79,169,79514,1,8,0:0:0:0:
261,145,79837,2,0,L|220:149,1,32.5,2|0,3:0|0:0,0:0:0:0:
353,36,80160,6,0,L|342:165,1,130,4|0,1:0|3:0,0:0:0:0:
394,252,80643,1,2,3:0:0:0:
434,115,80805,1,8,0:0:0:0:
483,205,80966,2,0,L|521:200,2,32.5,0|0|2,3:0|3:0|3:0,0:0:0:0:
483,205,81289,1,2,3:0:0:0:
463,311,81450,2,0,L|411:357,1,65,0|0,1:0|0:0,0:0:0:0:
309,308,81772,2,0,L|241:319,1,65,2|0,3:0|0:0,0:0:0:0:
179,299,82095,2,0,L|307:278,1,130,8|2,0:0|3:0,0:0:0:0:
193,133,82740,6,0,L|182:205,1,65,4|0,1:0|0:0,0:0:0:0:
76,147,83063,1,0,3:0:0:0:
128,22,83224,1,2,3:0:0:0:
216,39,83385,1,8,0:0:0:0:
286,136,83547,1,0,3:0:0:0:
288,122,83627,1,0,3:0:0:0:
285,103,83708,1,2,3:0:0:0:
369,163,83869,1,2,3:0:0:0:
450,215,84030,2,0,L|467:83,1,130,0|2,1:0|3:0,0:0:0:0:
391,0,84514,1,0,0:0:0:0:
358,78,84676,1,8,0:0:0:0:
367,249,84998,2,0,L|378:291,1,32.5,2|0,3:0|0:0,0:0:0:0:
241,371,85321,6,0,L|267:238,1,130,4|0,1:0|3:0,0:0:0:0:
179,170,85805,1,2,3:0:0:0:
182,294,85966,1,8,0:0:0:0:
86,266,86127,2,0,L|64:291,2,32.5,0|0|2,3:0|3:0|3:0,0:0:0:0:
86,266,86450,1,2,3:0:0:0:
52,161,86611,2,0,L|32:82,1,65,0|0,1:0|0:0,0:0:0:0:
148,97,86934,2,0,L|180:34,1,65,2|0,3:0|0:0,0:0:0:0:
231,0,87256,2,0,L|172:115,1,130,8|2,0:0|3:0,0:0:0:0:
81,296,87901,6,0,L|144:284,1,65,4|0,1:0|0:0,0:0:0:0:
255,222,88224,1,0,3:0:0:0:
171,195,88385,1,2,3:0:0:0:
225,309,88547,1,8,0:0:0:0:
338,248,88708,1,0,3:0:0:0:
343,238,88789,1,0,3:0:0:0:
345,221,88869,1,2,3:0:0:0:
401,295,89030,1,2,3:0:0:0:
469,362,89192,2,0,P|494:313|477:239,1,130,0|2,1:0|3:0,0:0:0:0:
338,248,89676,1,0,0:0:0:0:
338,248,89837,2,0,P|334:204|344:167,1,65,8|0,0:0|0:0,0:0:0:0:
430,152,90160,2,0,L|466:147,1,32.5,2|0,3:0|0:0,0:0:0:0:
347,49,90482,6,0,L|209:60,1,130,4|0,1:0|3:0,0:0:0:0:
160,197,90966,1,2,3:0:0:0:
146,110,91127,1,8,0:0:0:0:
62,182,91289,2,0,L|25:175,2,32.5,0|0|2,3:0|3:0|3:0,0:0:0:0:
62,182,91611,1,2,3:0:0:0:
94,297,91772,2,0,L|112:365,1,65,0|0,1:0|0:0,0:0:0:0:
215,325,92095,2,0,L|287:341,1,65,2|0,3:0|0:0,0:0:0:0:
342,322,92418,2,0,L|215:293,1,130,8|2,0:0|3:0,0:0:0:0:
408,231,93063,6,0,L|389:171,1,48.750001859665,4|0,1:0|0:0,0:0:0:0:
413,105,93385,1,0,3:0:0:0:
413,105,93547,1,2,3:0:0:0:
309,140,93708,1,8,0:0:0:0:
327,12,94030,1,2,3:0:0:0:
327,12,94192,1,2,3:0:0:0:
213,128,94514,5,0,0:0:0:0:
147,147,94675,1,2,3:0:0:0:
129,82,94836,1,0,0:0:0:0:
194,63,94998,1,8,0:0:0:0:
206,215,95321,1,2,3:0:0:0:
43,133,95643,6,0,L|36:208,1,48.750001859665,4|0,1:0|0:0,0:0:0:0:
94,240,95966,1,0,3:0:0:0:
94,240,96127,1,2,3:0:0:0:
41,308,96289,2,0,L|65:357,1,48.750001859665,8|0,0:0|0:0,0:0:0:0:
145,311,96611,1,2,3:0:0:0:
190,384,96772,1,2,3:0:0:0:
246,319,96934,1,0,1:0:0:0:
348,275,97256,6,0,P|351:251|345:230,1,32.5000012397767,2|0,3:0|3:0,0:0:0:0:
283,197,97471,1,0,3:0:0:0:
283,197,97579,2,0,P|280:173|286:152,1,32.5000012397767,8|0,0:0|3:0,0:0:0:0:
356,134,97794,1,0,3:0:0:0:
356,134,97901,2,0,L|353:89,1,32.5000012397767,2|0,3:0|3:0,0:0:0:0:
418,52,98116,1,0,3:0:0:0:
418,52,98224,6,0,P|439:63|458:81,1,48.750001859665,4|0,1:0|0:0,0:0:0:0:
437,159,98547,2,0,P|458:170|477:188,1,48.750001859665,0|2,3:0|3:0,0:0:0:0:
460,269,98869,1,8,0:0:0:0:
312,344,99192,1,2,3:0:0:0:
312,344,99353,1,2,3:0:0:0:
280,215,99676,5,0,0:0:0:0:
266,148,99838,1,2,3:0:0:0:
200,162,99999,1,0,0:0:0:0:
214,229,100160,1,8,0:0:0:0:
371,162,100482,1,2,3:0:0:0:
227,49,100805,6,0,P|176:64|130:93,1,97.50000371933,4|0,1:0|3:0,0:0:0:0:
121,177,101289,1,2,3:0:0:0:
49,98,101450,1,8,0:0:0:0:
49,98,101611,1,0,0:0:0:0:
9,178,101772,1,2,3:0:0:0:
9,178,101934,2,0,L|18:237,1,48.750001859665,2|0,3:0|1:0,0:0:0:0:
103,327,102418,6,0,L|120:282,1,32.5000012397767,2|0,3:0|3:0,0:0:0:0:
198,297,102633,1,0,3:0:0:0:
198,297,102740,2,0,L|215:252,1,32.5000012397767,8|0,0:0|3:0,0:0:0:0:
293,271,102955,1,0,3:0:0:0:
293,271,103063,2,0,L|310:226,1,32.5000012397767,2|0,3:0|3:0,0:0:0:0:
380,247,103278,1,0,3:0:0:0:
380,247,103385,6,0,L|392:303,1,48.750001859665,4|0,1:0|0:0,0:0:0:0:
479,346,103708,1,0,3:0:0:0:
479,346,103869,1,2,3:0:0:0:
483,234,104030,1,8,0:0:0:0:
398,118,104353,1,2,3:0:0:0:
398,118,104514,1,2,3:0:0:0:
304,240,104837,5,0,0:0:0:0:
249,281,104998,1,2,3:0:0:0:
208,226,105160,1,0,0:0:0:0:
262,185,105321,1,8,0:0:0:0:
322,334,105643,1,2,3:0:0:0:
168,316,105966,6,0,P|131:268|125:242,1,48.750001859665,4|0,1:0|0:0,0:0:0:0:
23,250,106289,1,0,3:0:0:0:
23,250,106450,1,2,3:0:0:0:
127,192,106611,2,0,L|121:139,1,48.750001859665,8|0,0:0|0:0,0:0:0:0:
25,125,106934,1,2,3:0:0:0:
96,62,107095,1,2,3:0:0:0:
21,12,107256,1,0,1:0:0:0:
184,21,107579,6,0,L|188:61,1,32.5000012397767,2|0,3:0|3:0,0:0:0:0:
276,57,107794,1,0,3:0:0:0:
276,57,107901,2,0,L|280:97,1,32.5000012397767,8|0,0:0|3:0,0:0:0:0:
372,96,108116,1,0,3:0:0:0:
372,96,108224,2,0,L|376:136,1,32.5000012397767,2|0,3:0|3:0,0:0:0:0:
474,142,108439,1,0,3:0:0:0:
474,142,108547,6,0,L|434:197,1,48.750001859665,4|0,1:0|0:0,0:0:0:0:
424,292,108869,2,0,L|388:253,1,48.750001859665,0|2,3:0|3:0,0:0:0:0:
282,194,109192,1,8,0:0:0:0:
256,364,109514,1,2,3:0:0:0:
256,364,109676,1,2,3:0:0:0:
158,251,109998,5,0,0:0:0:0:
121,193,110159,1,2,3:0:0:0:
64,231,110320,1,0,0:0:0:0:
101,288,110482,1,8,0:0:0:0:
180,147,110805,1,2,3:0:0:0:
53,62,111127,6,0,L|59:165,1,97.50000371933,4|0,1:0|3:0,0:0:0:0:
180,147,111611,1,2,3:0:0:0:
164,35,111772,1,8,0:0:0:0:
292,83,112095,1,2,3:0:0:0:
292,83,112256,1,2,3:0:0:0:
286,186,112418,1,0,1:0:0:0:
417,220,112740,6,0,L|443:253,1,32.5000012397767,2|0,3:0|3:0,0:0:0:0:
377,304,112955,1,0,3:0:0:0:
377,304,113063,2,0,L|384:344,2,32.5000012397767,8|0|0,0:0|3:0|3:0,0:0:0:0:
285,324,113385,5,2,3:0:0:0:
193,317,113547,1,0,0:0:0:0:
102,310,113708,1,4,1:0:0:0:
0,159,114030,5,0,3:0:0:0:
91,166,114191,1,2,3:0:0:0:
183,173,114353,1,8,0:0:0:0:
256,0,114676,5,2,3:0:0:0:
219,84,114837,1,2,3:0:0:0:
391,55,115160,5,0,0:0:0:0:
467,87,115321,1,2,3:0:0:0:
435,165,115482,1,0,0:0:0:0:
356,131,115643,1,8,0:0:0:0:
455,244,115966,6,0,L|464:313,1,65,2|0,3:0|0:0,0:0:0:0:
351,361,116289,1,0,1:0:0:0:
351,361,116450,1,0,0:0:0:0:
321,247,116611,2,0,L|317:311,1,65,0|2,3:0|3:0,0:0:0:0:
205,384,116934,2,0,L|196:319,1,65,8|0,0:0|0:0,0:0:0:0:
218,194,117256,1,2,3:0:0:0:
121,309,117418,1,2,3:0:0:0:
155,113,117740,5,0,0:0:0:0:
80,75,117901,1,2,3:0:0:0:
44,153,118062,1,0,0:0:0:0:
121,187,118223,1,8,0:0:0:0:
205,28,118547,6,0,L|268:0,1,65,2|0,3:0|0:0,0:0:0:0:
376,68,118869,1,0,1:0:0:0:
394,150,119030,1,0,0:0:0:0:
411,239,119192,2,0,L|344:249,1,65,0|2,3:0|3:0,0:0:0:0:
275,146,119514,1,8,0:0:0:0:
239,330,119837,5,2,3:0:0:0:
256,236,119998,1,2,3:0:0:0:
409,379,120321,5,0,0:0:0:0:
489,352,120482,1,2,3:0:0:0:
459,272,120643,1,0,0:0:0:0:
381,302,120804,1,8,0:0:0:0:
509,191,121127,5,2,3:0:0:0:
509,191,121289,1,0,0:0:0:0:
446,98,121450,1,0,1:0:0:0:
395,198,121611,1,0,0:0:0:0:
344,99,121772,1,0,3:0:0:0:
300,297,122095,2,0,L|309:220,1,65,8|0,0:0|0:0,0:0:0:0:
179,191,122418,5,2,3:0:0:0:
179,191,122580,1,2,3:0:0:0:
242,98,122741,1,0,1:0:0:0:
293,198,122902,1,0,0:0:0:0:
344,99,123063,1,2,3:0:0:0:
388,297,123386,2,0,L|379:220,1,65,8|0,0:0|0:0,0:0:0:0:
236,198,123708,5,2,3:0:0:0:
227,289,123869,1,0,0:0:0:0:
218,380,124030,1,4,1:0:0:0:
84,282,124353,5,0,3:0:0:0:
75,191,124514,1,2,3:0:0:0:
66,100,124675,1,8,0:0:0:0:
208,4,124998,5,2,3:0:0:0:
149,96,125160,1,2,3:0:0:0:
363,153,125482,5,0,0:0:0:0:
333,73,125643,1,2,3:0:0:0:
255,103,125804,1,0,0:0:0:0:
283,180,125965,1,8,0:0:0:0:
462,79,126289,6,0,L|473:160,1,65,2|0,3:0|0:0,0:0:0:0:
395,262,126611,1,0,1:0:0:0:
485,221,126772,1,0,0:0:0:0:
473,340,126934,2,0,L|405:329,1,65,0|2,3:0|3:0,0:0:0:0:
326,223,127256,2,0,L|390:233,1,65,8|0,0:0|0:0,0:0:0:0:
306,325,127579,1,2,3:0:0:0:
238,253,127740,1,2,3:0:0:0:
57,279,128063,5,0,0:0:0:0:
87,359,128224,1,2,3:0:0:0:
165,329,128385,1,0,0:0:0:0:
137,252,128546,1,8,0:0:0:0:
11,159,128869,6,0,L|27:96,1,65,2|0,3:0|0:0,0:0:0:0:
128,12,129192,1,0,1:0:0:0:
180,90,129353,1,0,0:0:0:0:
164,181,129514,2,0,P|193:189|232:188,1,65,0|2,3:0|3:0,0:0:0:0:
292,60,129837,2,0,P|269:90|261:126,1,65,8|0,0:0|0:0,0:0:0:0:
308,247,130160,1,2,3:0:0:0:
359,130,130321,1,2,3:0:0:0:
484,277,130643,5,0,0:0:0:0:
512,354,130804,1,2,3:0:0:0:
434,384,130965,1,0,0:0:0:0:
404,304,131126,1,8,0:0:0:0:
484,277,131289,1,0,0:0:0:0:
407,198,131450,5,2,3:0:0:0:
478,154,131611,1,0,0:0:0:0:
345,149,131772,1,0,1:0:0:0:
458,68,131934,1,0,0:0:0:0:
354,45,132095,1,0,3:0:0:0:
301,209,132418,2,0,L|300:136,1,65,8|0,0:0|0:0,0:0:0:0:
220,64,132740,5,2,3:0:0:0:
157,11,132901,1,2,3:0:0:0:
193,138,133062,1,0,1:0:0:0:
80,59,133224,1,0,0:0:0:0:
92,164,133385,1,2,3:0:0:0:
102,286,133708,5,8,0:0:0:0:
223,243,133869,1,0,0:0:0:0:
107,192,134030,5,2,3:0:0:0:
156,357,134192,1,0,0:0:0:0:
250,186,134353,6,0,B|283:213|283:213|243:312|243:312|260:368,1,195.00000743866,0|0,1:0|3:0,0:0:0:0:
318,246,134837,1,2,3:0:0:0:
385,384,134998,2,0,L|376:303,1,65,8|0,0:0|0:0,0:0:0:0:
465,207,135321,2,0,B|472:220|472:220|473:236|473:236|466:252|466:252|452:261|452:261|428:262|428:262|410:252|410:252|403:234|403:234|404:218|404:218|411:206,1,146.250005578995,2|0,3:0|0:0,0:0:0:0:
437,110,135643,5,0,1:0:0:0:
437,110,135751,2,0,L|464:70,1,43.3333333333333,0|0,3:0|3:0,3:0:0:0:
351,41,135966,1,2,3:0:0:0:
351,41,136074,2,0,L|329:-2,1,43.3333333333333,0|0,3:0|3:0,3:0:0:0:
237,90,136289,6,0,B|229:103|229:103|238:142|238:142|233:169,1,65,8|0,0:0|0:0,0:0:0:0:
321,230,136611,2,0,L|321:177,1,48.750001859665,2|0,3:0|0:0,0:0:0:0:
286,303,136934,6,0,B|336:318|346:269|296:255|296:255|243:240|216:331,1,195.00000743866,0|0,1:0|3:0,0:0:0:0:
163,384,137418,1,2,3:0:0:0:
61,336,137579,2,0,L|8:326,1,48.750001859665,8|0,0:0|0:0,0:0:0:0:
29,252,137740,2,0,L|-19:243,1,48.750001859665
120,227,137901,2,0,L|167:211,1,48.750001859665,2|0,3:0|0:0,0:0:0:0:
134,138,138063,2,0,L|184:118,1,48.750001859665,2|0,3:0|0:0,0:0:0:0:
64,54,138224,6,0,L|13:12,1,65,0|0,1:0|0:0,0:0:0:0:
171,30,138547,6,0,B|188:25|188:25|242:58|242:58|263:52,1,97.50000371933,2|0,3:0|0:0,0:0:0:0:
390,80,138869,2,0,B|403:75|403:75|413:59|413:59|413:39|413:39|404:26|404:26|390:19|390:19|373:19,1,97.50000371933,8|0,0:0|0:0,0:0:0:0:
332,151,139192,6,0,B|319:164|319:164|332:200,1,56.8750005424023,2|0,3:0|0:0,0:0:0:0:
438,186,139353,2,0,B|450:199|450:199|437:236,1,56.8750005424023
282,239,139514,6,0,P|361:234|458:305,1,195.00000743866,0|0,1:0|3:0,0:0:0:0:
335,366,139998,1,2,3:0:0:0:
243,264,140160,2,0,L|235:352,1,65,8|0,0:0|0:0,0:0:0:0:
88,354,140482,2,0,B|91:369|91:369|109:383|109:383|137:385|137:385|157:374|157:374|160:358,1,97.50000371933,2|2,3:0|3:0,0:0:0:0:
66,268,140805,5,0,1:0:0:0:
66,268,140912,2,0,L|39:230,1,43.3333333333333,0|0,3:0|3:0,3:0:0:0:
155,194,141127,1,2,3:0:0:0:
155,194,141234,2,0,L|162:148,1,43.3333333333333,0|0,3:0|3:0,3:0:0:0:
276,174,141450,6,0,B|288:164|288:164|282:122|282:122|291:104,1,65,8|0,0:0|0:0,0:0:0:0:
360,13,141772,2,0,L|361:61,1,48.750001859665,2|0,3:0|0:0,0:0:0:0:
503,3,142095,6,0,B|511:42|511:42|471:145|471:145|479:193,1,195.00000743866,0|0,1:0|3:0,0:0:0:0:
498,305,142579,1,2,3:0:0:0:
388,258,142740,2,0,L|377:223,3,32.5000012397767,8|0|0|0,0:0|3:0|3:0|3:0,3:0:0:0:
317,350,143063,2,0,L|306:385,3,32.5000012397767,2|0|0|2,3:0|3:0|3:0|3:0,3:0:0:0:
269,235,143385,6,0,B|247:233|247:233|200:268,1,65,0|0,1:0|0:0,0:0:0:0:
104,352,143708,2,0,B|87:334|87:334|90:287|90:287|69:266,1,97.50000371933,2|0,3:0|0:0,0:0:0:0:
157,183,144030,2,0,B|147:193|147:193|132:202|132:202|112:207|112:207|93:201|93:201|78:194|78:194|69:182,1,97.50000371933,8|0,0:0|0:0,0:0:0:0:
150,89,144353,2,0,B|139:100|139:100|122:109|122:109|100:115|100:115|79:108|79:108|63:101|63:101|53:87,1,113.750001084805,2|0,3:0|0:0,0:0:0:0:
233,4,144676,6,0,B|256:42|256:42|233:145|233:145|259:204,1,195.00000743866,0|0,1:0|3:0,0:0:0:0:
293,58,145160,1,2,3:0:0:0:
413,129,145321,2,0,L|332:146,1,65,8|0,0:0|0:0,0:0:0:0:
353,266,145643,2,0,B|343:253|343:253|327:244|327:244|308:239|308:239|289:242|289:242|272:250|272:250|261:265,1,97.50000371933,2|2,3:0|3:0,0:0:0:0:
343,364,145966,5,0,1:0:0:0:
343,364,146073,2,0,L|386:387,1,43.3333333333333,0|0,3:0|3:0,3:0:0:0:
441,305,146289,1,2,3:0:0:0:
441,305,146396,2,0,L|487:290,1,43.3333333333333,0|0,3:0|3:0,3:0:0:0:
473,193,146611,2,0,L|487:120,1,65,8|0,0:0|0:0,0:0:0:0:
394,36,146934,2,0,L|400:84,1,48.750001859665,2|0,3:0|0:0,0:0:0:0:
375,234,147256,6,0,P|384:161|261:72,1,195.00000743866,0|0,1:0|3:0,0:0:0:0:
256,198,147740,1,2,3:0:0:0:
218,98,147901,2,0,L|206:44,1,48.750001859665,8|0,0:0|0:0,0:0:0:0:
126,71,148063,2,0,L|117:20,1,48.750001859665
151,164,148224,2,0,L|139:215,1,48.750001859665,2|0,3:0|0:0,0:0:0:0:
59,183,148385,2,0,L|46:235,1,48.750001859665,2|0,3:0|0:0,0:0:0:0:
52,326,148547,6,0,L|35:391,1,65,0|0,1:0|0:0,0:0:0:0:
153,293,148869,2,0,B|172:286|172:286|222:330|222:330|250:323,1,97.50000371933,2|0,3:0|0:0,0:0:0:0:
367,324,149192,2,0,B|372:338|372:338|372:357|372:357|364:376|364:376|344:387|344:387|317:384|317:384|298:377,1,97.50000371933,8|0,0:0|0:0,0:0:0:0:
301,263,149514,2,0,L|307:157,1,81.25,2|0,3:0|0:0,0:0:0:0:
447,229,149837,6,0,L|332:221,1,113.750001084805,0|0,1:0|0:0,0:0:0:0:
400,80,150160,2,0,L|392:194,1,113.750001084805,0|2,3:0|3:0,0:0:0:0:
252,121,150482,2,0,L|366:128,1,113.750001084805,8|0,0:0|0:0,0:0:0:0:
301,263,150805,2,0,L|308:148,1,113.750001084805,2|2,3:0|3:0,0:0:0:0:
236,47,151127,6,0,L|207:-1,1,56.8750005424023,0|0,1:0|0:0,0:0:0:0:
207,152,151289,2,0,L|190:222,1,56.8750005424023,0|0,3:0|3:0,3:0:0:0:
135,75,151450,2,0,L|111:18,1,56.8750005424023,2|0,3:0|3:0,3:0:0:0:
103,187,151611,2,0,L|85:243,1,56.8750005424023,0|0,3:0|3:0,3:0:0:0:
35,117,151772,5,8,0:0:0:0:
33,102,151853,1,0,3:0:0:0:
31,88,151934,1,0,3:0:0:0:
29,74,152014,1,0,3:0:0:0:
27,60,152095,1,2,3:0:0:0:
25,46,152176,1,0,3:0:0:0:
23,32,152256,1,0,3:0:0:0:
21,18,152337,1,0,3:0:0:0:
0,0,152418,5,0,1:0:0:0:
106,128,154837,6,0,L|100:166,1,24.3750009298325
98,186,154998,2,0,P|141:168|179:173,1,65,4|0,1:0|0:0,0:0:0:0:
175,278,155321,1,0,3:0:0:0:
164,295,155401,1,0,3:0:0:0:
148,305,155482,2,0,P|143:263|156:235,1,65,2|8,3:0|0:0,0:0:0:0:
300,138,155966,5,2,3:0:0:0:
279,240,156127,1,2,3:0:0:0:
414,362,156450,5,0,0:0:0:0:
485,305,156611,1,2,3:0:0:0:
428,234,156772,1,0,0:0:0:0:
357,291,156934,1,8,0:0:0:0:
495,172,157256,6,0,L|472:100,1,65,2|0,3:0|0:0,0:0:0:0:
402,55,157579,1,4,1:0:0:0:
402,55,157740,1,0,0:0:0:0:
366,138,157901,2,0,L|366:49,1,65,0|2,3:0|3:0,0:0:0:0:
287,25,158224,1,8,0:0:0:0:
287,25,158385,1,0,0:0:0:0:
223,90,158547,1,2,3:0:0:0:
165,19,158708,1,2,3:0:0:0:
60,167,159030,5,0,0:0:0:0:
131,110,159191,1,2,3:0:0:0:
74,39,159352,1,0,0:0:0:0:
7,96,159514,1,8,0:0:0:0:
154,203,159837,6,0,L|222:224,1,65,2|0,3:0|0:0,0:0:0:0:
289,276,160160,1,4,1:0:0:0:
312,188,160321,2,0,L|324:263,1,65,0|0,0:0|3:0,0:0:0:0:
408,222,160643,1,2,3:0:0:0:
436,308,160805,2,0,L|430:240,1,65,8|0,0:0|0:0,0:0:0:0:
494,179,161127,1,2,3:0:0:0:
494,179,161289,1,2,3:0:0:0:
416,132,161450,5,0,1:0:0:0:
473,61,161611,1,0,0:0:0:0:
402,4,161772,1,2,3:0:0:0:
345,75,161933,1,0,0:0:0:0:
416,132,162095,1,8,0:0:0:0:
240,81,162418,6,0,L|168:88,1,65,2|0,3:0|0:0,0:0:0:0:
109,150,162740,1,4,1:0:0:0:
51,323,163063,1,0,3:0:0:0:
228,284,163385,1,8,0:0:0:0:
282,210,163547,6,0,L|288:171,2,32.5,0|0|2,3:0|3:0|3:0,0:0:0:0:
320,292,163869,1,2,3:0:0:0:
364,370,164030,2,0,P|401:330|401:251,1,130,0|2,1:0|3:0,0:0:0:0:
494,245,164514,2,0,P|471:192|398:155,1,130
421,65,164998,2,0,P|374:68|343:85,1,65,2|0,3:0|0:0,0:0:0:0:
247,10,165321,6,0,L|241:77,1,65,4|0,1:0|0:0,0:0:0:0:
254,177,165643,1,0,3:0:0:0:
265,197,165724,1,0,3:0:0:0:
283,214,165805,2,0,P|241:200|193:206,1,65,2|8,3:0|0:0,0:0:0:0:
114,348,166289,5,2,3:0:0:0:
166,274,166450,1,2,3:0:0:0:
11,179,166772,5,0,0:0:0:0:
82,236,166933,1,2,3:0:0:0:
139,165,167094,1,0,0:0:0:0:
68,108,167256,1,8,0:0:0:0:
231,26,167579,6,0,L|255:95,1,65,2|0,3:0|0:0,0:0:0:0:
304,161,167901,1,4,1:0:0:0:
294,251,168063,2,0,L|314:187,1,65,0|0,0:0|3:0,0:0:0:0:
393,146,168385,1,2,3:0:0:0:
401,54,168547,2,0,L|421:128,1,65,8|0,0:0|0:0,0:0:0:0:
489,172,168869,1,2,3:0:0:0:
489,172,169030,1,2,3:0:0:0:
464,260,169192,6,0,L|453:329,1,65,0|0,1:0|0:0,0:0:0:0:
369,358,169514,1,2,3:0:0:0:
369,358,169676,1,0,0:0:0:0:
300,253,169837,1,8,0:0:0:0:
274,351,169998,1,0,0:0:0:0:
111,267,170321,5,0,0:0:0:0:
111,267,170482,2,0,L|183:272,1,65,4|0,1:0|0:0,0:0:0:0:
242,208,170805,1,0,3:0:0:0:
328,179,170966,2,0,L|257:190,1,65,2|8,3:0|0:0,0:0:0:0:
193,131,171289,2,0,L|167:104,2,32.5,0|0|2,3:0|3:0|3:0,0:0:0:0:
193,131,171611,1,2,3:0:0:0:
263,73,171772,2,0,L|301:12,1,65,0|0,1:0|0:0,0:0:0:0:
373,68,172095,2,0,L|420:131,1,65,2|0,3:0|0:0,0:0:0:0:
480,59,172418,2,0,L|447:196,1,130,8|2,0:0|3:0,0:0:0:0:
460,275,172901,5,0,0:0:0:0:
460,275,173063,2,0,L|397:243,1,65,4|0,1:0|0:0,0:0:0:0:
332,334,173385,1,0,3:0:0:0:
308,232,173547,1,2,3:0:0:0:
251,364,173708,1,8,0:0:0:0:
158,275,173869,1,0,0:0:0:0:
159,288,173950,1,0,3:0:0:0:
153,306,174030,2,0,P|142:262|147:232,1,65,2|2,3:0|3:0,0:0:0:0:
193,165,174353,6,0,P|148:190|55:173,1,130,0|2,1:0|3:0,0:0:0:0:
94,77,174837,2,0,P|49:70|-2:0,1,130
218,38,175321,2,0,L|291:34,1,65,2|0,3:0|0:0,0:0:0:0:
434,18,175643,6,0,B|441:59|404:121|359:78|359:78|414:75|431:133|405:169,1,260,4|0,1:0|0:0,0:0:0:0:
330,226,176450,1,0,0:0:0:0:
313,213,176530,1,0,3:0:0:0:
302,192,176611,1,2,3:0:0:0:
254,269,176772,1,2,3:0:0:0:
198,350,176934,2,0,P|138:328|103:264,1,130,0|2,1:0|3:0,0:0:0:0:
111,180,177418,1,0,0:0:0:0:
179,234,177579,1,8,0:0:0:0:
233,60,177901,2,0,L|227:92,1,32.5,2|0,3:0|0:0,0:0:0:0:
35,20,178224,6,0,L|173:40,1,130,4|0,1:0|3:0,0:0:0:0:
226,149,178708,1,2,3:0:0:0:
302,28,178869,1,8,0:0:0:0:
357,119,179030,2,0,L|396:120,2,32.5,0|0|2,3:0|3:0|3:0,0:0:0:0:
357,119,179353,1,2,3:0:0:0:
348,222,179514,2,0,L|335:293,1,65,0|0,1:0|0:0,0:0:0:0:
205,297,179837,2,0,L|160:354,1,65,2|0,3:0|0:0,0:0:0:0:
103,376,180160,2,0,L|183:273,1,130,8|2,0:0|3:0,0:0:0:0:
294,366,180805,6,0,L|370:378,1,65,4|0,1:0|0:0,0:0:0:0:
443,297,181127,1,0,3:0:0:0:
357,304,181289,1,2,3:0:0:0:
483,383,181450,1,8,0:0:0:0:
512,274,181611,1,0,3:0:0:0:
501,249,181692,1,0,3:0:0:0:
475,231,181772,1,2,3:0:0:0:
464,132,181934,1,2,3:0:0:0:
470,24,182095,2,0,P|413:52|339:39,1,130,0|2,1:0|3:0,0:0:0:0:
268,140,182579,1,0,0:0:0:0:
268,140,182740,2,0,P|242:99|238:61,1,65,8|0,0:0|0:0,0:0:0:0:
190,202,183063,2,0,L|185:240,1,32.5,2|0,3:0|0:0,0:0:0:0:
324,291,183385,6,0,L|180:324,1,130,4|0,1:0|3:0,0:0:0:0:
100,251,183869,1,2,3:0:0:0:
101,374,184030,1,8,0:0:0:0:
8,318,184192,2,0,L|-4:350,2,32.5,0|0|2,3:0|3:0|3:0,0:0:0:0:
8,318,184514,1,2,3:0:0:0:
100,251,184676,2,0,L|127:177,1,65,0|0,1:0|0:0,0:0:0:0:
211,171,184998,2,0,L|289:140,1,65,2|0,3:0|0:0,0:0:0:0:
317,96,185321,2,0,L|195:142,1,130,8|2,0:0|3:0,0:0:0:0:
267,9,185966,6,0,L|340:27,1,65,4|0,1:0|0:0,0:0:0:0:
404,130,186289,1,0,3:0:0:0:
317,96,186450,1,2,3:0:0:0:
458,68,186611,1,8,0:0:0:0:
503,170,186772,1,0,3:0:0:0:
484,199,186853,1,0,3:0:0:0:
460,213,186934,1,2,3:0:0:0:
353,257,187095,1,2,3:0:0:0:
239,312,187256,2,0,P|197:337|108:320,1,130,0|2,1:0|3:0,0:0:0:0:
82,217,187740,1,0,0:0:0:0:
175,259,187901,1,8,0:0:0:0:
263,90,188224,2,0,L|261:131,1,32.5,2|0,3:0|0:0,0:0:0:0:
124,126,188547,6,0,L|153:0,1,130,4|0,1:0|3:0,0:0:0:0:
261,122,189030,1,2,3:0:0:0:
256,0,189192,1,8,0:0:0:0:
359,55,189353,2,0,L|397:44,2,32.5,0|0|2,3:0|3:0|3:0,0:0:0:0:
359,55,189676,1,2,3:0:0:0:
405,149,189837,2,0,L|426:214,1,65,0|0,1:0|0:0,0:0:0:0:
336,276,190160,2,0,L|319:349,1,65,2|0,3:0|0:0,0:0:0:0:
281,378,190482,2,0,L|310:251,1,130,8|2,0:0|3:0,0:0:0:0:
192,152,191127,6,0,L|208:82,1,65,4|0,1:0|0:0,0:0:0:0:
220,5,191450,1,0,3:0:0:0:
278,79,191611,1,2,3:0:0:0:
358,12,191772,1,8,0:0:0:0:
356,130,191933,1,0,3:0:0:0:
350,140,192014,1,0,3:0:0:0:
333,146,192095,1,2,3:0:0:0:
418,94,192256,1,2,3:0:0:0:
505,45,192417,2,0,P|490:96|492:177,1,130,0|2,1:0|3:0,0:0:0:0:
396,209,192901,1,0,0:0:0:0:
396,209,193062,2,0,P|416:239|449:263,1,65,8|0,0:0|0:0,0:0:0:0:
324,344,193385,2,0,L|331:307,1,32.5,2|0,3:0|0:0,0:0:0:0:
232,178,193708,6,0,L|252:309,1,130,4|0,1:0|3:0,0:0:0:0:
127,349,194191,1,2,3:0:0:0:
158,258,194353,1,8,0:0:0:0:
72,214,194514,2,0,L|38:224,2,32.5,0|0|2,3:0|3:0|3:0,0:0:0:0:
72,214,194837,1,2,3:0:0:0:
133,128,194998,2,0,L|144:52,1,65,0|0,1:0|0:0,0:0:0:0:
231,81,195321,2,0,L|286:30,1,65,2|0,3:0|0:0,0:0:0:0:
364,0,195643,2,0,L|268:89,1,130,8|2,0:0|3:0,0:0:0:0:
123,288,196289,6,0,L|103:231,1,48.750001859665,4|0,1:0|0:0,0:0:0:0:
224,160,196611,1,0,3:0:0:0:
190,234,196772,1,2,3:0:0:0:
160,101,196934,1,8,0:0:0:0:
316,259,197256,1,2,3:0:0:0:
336,183,197418,1,2,3:0:0:0:
357,108,197579,2,0,P|388:59|433:28,1,97.50000371933,0|2,1:0|3:0,0:0:0:0:
472,166,198224,1,8,0:0:0:0:
336,183,198547,1,2,3:0:0:0:
461,326,198869,6,0,P|438:267|403:237,1,97.50000371933,4|0,1:0|3:0,0:0:0:0:
365,359,199353,1,2,3:0:0:0:
299,252,199514,2,0,L|296:301,1,48.750001859665,8|0,0:0|0:0,0:0:0:0:
226,354,199837,1,2,3:0:0:0:
226,354,199998,1,2,3:0:0:0:
204,273,200159,1,0,1:0:0:0:
63,306,200482,1,2,3:0:0:0:
172,194,200805,1,8,0:0:0:0:
0,192,201127,1,2,3:0:0:0:
66,52,201450,6,0,L|68:117,1,48.750001859665,4|0,1:0|0:0,0:0:0:0:
172,194,201772,1,0,3:0:0:0:
91,250,201934,1,2,3:0:0:0:
153,108,202095,1,8,0:0:0:0:
201,321,202418,1,2,3:0:0:0:
294,341,202579,1,2,3:0:0:0:
384,358,202740,2,0,P|426:351|466:309,1,97.50000371933,0|2,1:0|3:0,0:0:0:0:
466,176,203385,1,8,0:0:0:0:
350,248,203708,1,2,3:0:0:0:
374,66,204030,6,0,P|391:118|390:172,1,97.50000371933,4|0,1:0|3:0,0:0:0:0:
350,248,204514,1,2,3:0:0:0:
291,132,204676,1,8,0:0:0:0:
284,321,204998,1,2,3:0:0:0:
284,321,205160,1,2,3:0:0:0:
203,357,205321,2,0,P|142:354|103:319,1,97.50000371933,0|2,1:0|3:0,0:0:0:0:
177,169,205966,2,0,P|189:226|174:273,1,97.50000371933,8|2,0:0|3:0,0:0:0:0:
49,220,206611,6,0,B|28:165,1,48.750001859665,4|0,1:0|0:0,0:0:0:0:
80,103,206934,2,0,B|59:48,1,48.750001859665,0|2,3:0|3:0,0:0:0:0:
126,0,207256,1,8,0:0:0:0:
256,87,207579,1,2,3:0:0:0:
256,87,207740,1,2,3:0:0:0:
333,35,207901,2,0,P|383:29|431:51,1,97.50000371933,0|2,1:0|3:0,0:0:0:0:
475,158,208547,2,0,P|425:164|377:142,1,97.50000371933,8|2,0:0|3:0,0:0:0:0:
302,276,209192,6,0,P|317:236|303:180,1,97.50000371933,4|0,1:0|3:0,0:0:0:0:
251,95,209676,1,2,3:0:0:0:
203,187,209837,1,8,0:0:0:0:
84,142,210160,1,2,3:0:0:0:
84,142,210321,1,2,3:0:0:0:
29,206,210482,2,0,P|6:248|16:299,1,97.50000371933,0|2,1:0|3:0,0:0:0:0:
109,378,211127,2,0,P|132:336|122:285,1,97.50000371933,8|2,0:0|3:0,0:0:0:0:
195,207,211772,6,0,B|204:209|204:209|203:241|203:241|212:250,1,48.750001859665,4|0,1:0|0:0,0:0:0:0:
299,237,212095,2,0,B|308:239|308:239|307:271|307:271|316:280,1,48.750001859665,0|2,3:0|3:0,0:0:0:0:
401,265,212418,1,8,0:0:0:0:
473,147,212740,1,2,3:0:0:0:
473,147,212901,1,2,3:0:0:0:
399,72,213063,2,0,B|392:69|392:69|389:88|389:88|363:87|363:87|346:102|346:102|360:130|360:130,1,97.50000371933,0|2,1:0|3:0,0:0:0:0:
227,76,213708,2,0,B|220:80|220:80|235:92|235:92|221:114|221:114|227:137|227:137|195:143|195:143,1,97.50000371933,8|2,0:0|3:0,0:0:0:0:
118,36,214353,6,0,B|118:29|118:29|83:46|83:46|76:36,1,48.750001859665,4|0,1:0|0:0,0:0:0:0:
90,124,214676,2,0,B|90:117|90:117|55:134|55:134|48:124,1,48.750001859665,0|2,3:0|3:0,0:0:0:0:
141,209,214998,2,0,B|141:202|141:202|176:219|176:219|183:209,1,48.750001859665,8|0,0:0|0:0,0:0:0:0:
179,307,215321,2,0,B|179:300|179:300|214:317|214:317|221:307,1,48.750001859665,2|2,3:0|3:0,0:0:0:0:
298,273,215643,6,0,B|302:275|302:275|297:278|298:284|298:284|302:288|302:288|302:294|298:298|298:298|302:302|298:307|298:307|301:312|301:315,1,48.750001859665,0|0,1:0|0:0,0:0:0:0:
381,318,215966,2,0,B|385:320|385:320|380:323|381:329|381:329|385:333|385:333|385:339|381:343|381:343|385:347|381:352|381:352|384:357|384:360,1,48.750001859665,2|0,3:0|0:0,0:0:0:0:
467,292,216289,2,0,B|471:289|471:289|466:286|467:281|467:281|471:276|471:276|471:271|467:267|467:267|471:263|467:257|467:257|470:252|470:249,1,48.750001859665,8|0,0:0|0:0,0:0:0:0:
375,213,216611,2,0,B|382:207|382:207|374:202|375:191|375:191|382:182|382:182|383:171|375:163|375:163|382:155|375:144|375:144|381:134|381:127,1,97.50000371933,2|4,3:0|1:0,0:0:0:0:
