osu file format v14

[General]
AudioFilename: audio.mp3
AudioLeadIn: 0
PreviewTime: -1
Countdown: 1
SampleSet: Normal
StackLeniency: 0.7
Mode: 1
LetterboxInBreaks: 0
WidescreenStoryboard: 0

[Editor]
DistanceSpacing: 1.6
BeatDivisor: 4
GridSize: 32
TimelineZoom: 1.7

[Metadata]
Title:Vivace!
TitleUnicode:ヴィヴァーチェ!
Artist:Kitauji Quartet
ArtistUnicode:北宇治カルテット
Creator:EdamaMe411
Version:Brass Band!
Source:響け!ユーフォニアム2
Tags:黒沢 ともよ Kurosawa Tomoyo 朝井 彩加 Asai Ayaka 豊田 萌絵 Toyota Moe 安済 知佳 Anzai Chika Sound! Hibike! Euphonium
BeatmapID:1155611
BeatmapSetID:545453

[Difficulty]
HPDrainRate:6
CircleSize:5
OverallDifficulty:6
ApproachRate:5
SliderMultiplier:1.4
SliderTickRate:2

[Events]
//Background and Video events
0,0,"Konachan.com - 199871 sample.jpg",0,0
//Break Periods
//Storyboard Layer 0 (Background)
//Storyboard Layer 1 (Fail)
//Storyboard Layer 2 (Pass)
//Storyboard Layer 3 (Foreground)
//Storyboard Sound Samples

[TimingPoints]
1550,270.27027027027,4,1,0,100,1,0
14522,-125,4,1,0,100,0,0
23126,-100,4,1,0,100,0,0
49117,-100,4,1,0,100,0,1
81549,-100,4,1,0,100,0,0
142090,-100,4,1,0,100,0,1
174522,-100,4,1,0,100,0,0
226955,-133.333333333333,4,1,0,100,0,0
235063,-117.647058823529,4,1,0,100,0,0
235604,-105.263157894737,4,1,0,100,0,0
236144,-100,4,1,0,100,0,0
249387,-100,4,1,0,100,0,1
281549,-100,4,1,0,100,0,0

[HitObjects]
256,192,1550,5,4,0:0:0:0:
256,192,2090,1,0,0:0:0:0:
256,192,2631,1,8,0:0:0:0:
256,192,3036,1,8,0:0:0:0:
256,192,3441,1,8,0:0:0:0:
256,192,3577,12,12,5604,0:0:0:0:
256,192,5874,5,8,0:0:0:0:
256,192,6279,1,0,0:0:0:0:
256,192,6685,1,8,0:0:0:0:
256,192,6955,1,0,0:0:0:0:
256,192,7766,1,8,0:0:0:0:
256,192,8036,1,0,0:0:0:0:
256,192,8441,1,0,0:0:0:0:
256,192,8847,1,8,0:0:0:0:
256,192,9117,1,0,0:0:0:0:
256,192,9387,1,0,0:0:0:0:
256,192,9658,1,8,0:0:0:0:
256,192,9928,1,8,0:0:0:0:
256,192,10198,1,0,0:0:0:0:
256,192,10468,1,0,0:0:0:0:
256,192,10559,1,0,0:0:0:0:
256,192,10649,1,0,0:0:0:0:
256,192,10739,1,8,0:0:0:0:
256,192,11009,1,0,0:0:0:0:
256,192,11459,1,0,0:0:0:0:
256,192,11549,1,8,0:0:0:0:
256,192,11820,1,0,0:0:0:0:
256,192,12090,1,8,0:0:0:0:
256,192,12360,1,0,0:0:0:0:
256,192,12901,1,8,0:0:0:0:
256,192,13171,1,8,0:0:0:0:
256,192,13441,1,0,0:0:0:0:
256,192,13712,1,8,0:0:0:0:
256,192,13982,1,0,0:0:0:0:
256,192,14162,1,0,0:0:0:0:
256,192,14252,1,8,0:0:0:0:
256,192,14522,1,0,0:0:0:0:
256,192,14793,1,8,0:0:0:0:
256,192,15333,1,8,0:0:0:0:
256,192,15874,1,8,0:0:0:0:
256,192,16414,1,8,0:0:0:0:
256,192,16595,1,8,0:0:0:0:
256,192,16685,1,0,0:0:0:0:
256,192,16955,1,8,0:0:0:0:
256,192,17495,1,8,0:0:0:0:
256,160,18036,1,8,0:0:0:0:
256,192,18216,1,8,0:0:0:0:
256,192,18306,1,0,0:0:0:0:
256,192,18486,1,0,0:0:0:0:
256,160,18577,1,8,0:0:0:0:
256,192,18847,1,0,0:0:0:0:
256,192,19117,1,8,0:0:0:0:
256,192,19658,1,8,0:0:0:0:
256,192,20198,1,8,0:0:0:0:
256,192,20649,1,0,0:0:0:0:
256,192,20739,1,8,0:0:0:0:
256,192,21009,1,4,0:0:0:0:
256,192,21549,1,8,0:0:0:0:
256,192,22090,1,0,0:0:0:0:
256,192,22360,1,12,0:0:0:0:
256,192,22540,1,0,0:0:0:0:
256,192,22631,1,0,0:0:0:0:
256,192,22811,1,0,0:0:0:0:
256,192,22901,1,8,0:0:0:0:
256,192,23171,1,0,0:0:0:0:
256,192,23441,1,12,0:0:0:0:
256,192,23622,1,0,0:0:0:0:
256,192,23712,1,0,0:0:0:0:
256,192,23982,1,8,0:0:0:0:
256,192,24162,1,0,0:0:0:0:
256,192,24252,1,8,0:0:0:0:
256,192,24522,1,8,0:0:0:0:
256,192,24703,1,0,0:0:0:0:
256,160,24793,1,0,0:0:0:0:
256,192,24973,1,8,0:0:0:0:
224,192,25063,1,0,0:0:0:0:
256,192,25333,1,8,0:0:0:0:
256,192,25604,1,12,0:0:0:0:
256,192,25874,1,0,0:0:0:0:
256,192,26144,1,8,0:0:0:0:
256,192,26324,1,0,0:0:0:0:
256,192,26414,1,8,0:0:0:0:
256,192,26685,1,8,0:0:0:0:
256,192,26955,1,0,0:0:0:0:
224,192,27045,1,0,0:0:0:0:
256,192,27135,1,0,0:0:0:0:
256,192,27225,1,8,0:0:0:0:
256,192,27495,1,0,0:0:0:0:
256,192,27766,1,12,0:0:0:0:
256,192,27946,1,12,0:0:0:0:
256,192,28216,1,8,0:0:0:0:
256,192,28306,1,0,0:0:0:0:
256,192,28486,1,0,0:0:0:0:
256,192,28577,1,0,0:0:0:0:
256,192,28847,1,4,0:0:0:0:
256,192,29027,1,4,0:0:0:0:
256,192,29297,1,0,0:0:0:0:
256,192,29387,1,8,0:0:0:0:
256,192,29658,1,0,0:0:0:0:
256,192,29928,1,8,0:0:0:0:
288,192,30108,1,0,0:0:0:0:
256,192,30198,1,0,0:0:0:0:
288,128,30378,1,0,0:0:0:0:
256,192,30468,1,8,0:0:0:0:
288,192,30739,1,12,0:0:0:0:
256,192,30919,1,12,0:0:0:0:
256,192,31279,1,4,0:0:0:0:
256,160,31459,1,4,0:0:0:0:
256,192,31820,1,0,0:0:0:0:
288,192,32090,1,8,0:0:0:0:
288,192,32270,1,0,0:0:0:0:
288,192,32540,1,0,0:0:0:0:
288,192,32631,1,8,0:0:0:0:
288,192,32901,1,0,0:0:0:0:
288,192,33171,1,8,0:0:0:0:
288,192,33351,1,8,0:0:0:0:
288,192,33441,1,0,0:0:0:0:
288,192,33712,1,8,0:0:0:0:
288,192,33982,1,0,0:0:0:0:
288,192,34252,1,8,0:0:0:0:
288,160,34432,1,8,0:0:0:0:
288,192,34522,1,0,0:0:0:0:
288,192,34793,1,8,0:0:0:0:
288,192,35063,1,0,0:0:0:0:
288,192,35333,1,8,0:0:0:0:
288,192,35513,1,0,0:0:0:0:
288,192,35604,1,8,0:0:0:0:
288,192,35784,1,8,0:0:0:0:
288,192,35874,1,8,0:0:0:0:
288,192,36054,1,8,0:0:0:0:
288,192,36144,1,0,0:0:0:0:
288,192,36414,1,8,0:0:0:0:
288,192,36595,1,0,0:0:0:0:
320,192,36865,1,0,0:0:0:0:
256,192,36955,1,8,0:0:0:0:
320,192,37225,1,0,0:0:0:0:
320,192,37495,1,8,0:0:0:0:
320,192,37766,1,8,0:0:0:0:
320,192,37946,1,0,0:0:0:0:
320,192,38036,1,8,0:0:0:0:
320,192,38306,1,0,0:0:0:0:
320,192,38486,1,0,0:0:0:0:
320,192,38577,1,0,0:0:0:0:
320,192,38757,1,0,0:0:0:0:
320,192,38847,1,8,0:0:0:0:
320,192,39027,1,8,0:0:0:0:
320,192,39117,1,8,0:0:0:0:
320,192,39387,1,4,0:0:0:0:
288,192,39658,1,8,0:0:0:0:
256,192,39838,1,4,0:0:0:0:
256,192,40108,1,0,0:0:0:0:
288,192,40198,1,8,0:0:0:0:
288,192,40468,1,0,0:0:0:0:
256,192,40649,1,0,0:0:0:0:
288,224,40739,1,8,0:0:0:0:
256,192,40919,1,8,0:0:0:0:
288,224,41009,1,0,0:0:0:0:
256,192,41279,1,8,0:0:0:0:
256,192,41459,1,0,0:0:0:0:
256,192,41549,1,0,0:0:0:0:
256,192,41730,1,8,0:0:0:0:
288,224,41820,1,0,0:0:0:0:
256,192,42090,1,8,0:0:0:0:
256,192,42270,1,0,0:0:0:0:
256,192,42360,1,8,0:0:0:0:
256,160,42540,1,8,0:0:0:0:
256,224,42631,1,0,0:0:0:0:
256,160,42901,1,8,0:0:0:0:
256,160,43081,1,8,0:0:0:0:
256,160,43171,1,0,0:0:0:0:
256,160,43351,1,8,0:0:0:0:
256,192,43441,1,0,0:0:0:0:
256,160,43712,1,4,0:0:0:0:
256,160,43982,1,4,0:0:0:0:
256,160,44252,1,12,0:0:0:0:
256,160,44522,1,12,0:0:0:0:
256,160,44793,1,4,0:0:0:0:
256,160,45063,1,8,0:0:0:0:
256,160,45243,1,0,0:0:0:0:
256,160,45513,1,0,0:0:0:0:
256,160,45604,1,8,0:0:0:0:
256,192,45874,1,4,0:0:0:0:
256,160,46144,1,8,0:0:0:0:
256,192,46324,1,8,0:0:0:0:
256,192,46414,1,0,0:0:0:0:
256,192,46504,1,0,0:0:0:0:
256,192,46595,1,0,0:0:0:0:
256,192,46685,1,8,0:0:0:0:
256,192,46865,1,8,0:0:0:0:
256,192,46955,1,0,0:0:0:0:
256,192,47405,1,0,0:0:0:0:
288,192,47676,1,0,0:0:0:0:
256,192,47766,1,8,0:0:0:0:
256,192,47946,1,8,0:0:0:0:
256,192,48036,1,0,0:0:0:0:
288,192,48216,1,0,0:0:0:0:
256,192,48577,1,0,0:0:0:0:
256,192,48667,1,0,0:0:0:0:
256,192,48757,1,8,0:0:0:0:
256,192,48847,1,0,0:0:0:0:
256,192,48937,1,0,0:0:0:0:
256,192,49027,1,8,0:0:0:0:
256,192,49117,1,4,0:0:0:0:
224,192,49387,1,8,0:0:0:0:
256,160,49568,1,8,0:0:0:0:
256,192,49658,1,0,0:0:0:0:
256,160,49838,1,8,0:0:0:0:
256,192,49928,1,0,0:0:0:0:
256,160,50108,1,0,0:0:0:0:
256,160,50468,1,8,0:0:0:0:
256,160,50649,1,8,0:0:0:0:
256,160,50739,1,0,0:0:0:0:
256,160,50919,1,0,0:0:0:0:
256,160,51009,1,8,0:0:0:0:
256,160,51279,1,8,0:0:0:0:
288,192,51459,1,0,0:0:0:0:
288,192,51549,1,8,0:0:0:0:
256,160,51730,1,0,0:0:0:0:
256,160,51820,1,8,0:0:0:0:
288,192,52000,1,12,0:0:0:0:
288,160,52270,1,4,0:0:0:0:
320,192,52540,1,8,0:0:0:0:
320,192,52631,1,0,0:0:0:0:
288,192,52811,1,0,0:0:0:0:
320,192,52901,1,8,0:0:0:0:
288,160,53171,1,8,0:0:0:0:
288,192,53351,1,0,0:0:0:0:
288,192,53441,1,0,0:0:0:0:
256,160,53622,1,0,0:0:0:0:
256,192,53712,1,8,0:0:0:0:
256,160,53892,1,8,0:0:0:0:
256,192,53982,1,0,0:0:0:0:
256,192,54162,1,0,0:0:0:0:
256,192,54252,1,8,0:0:0:0:
256,192,54522,1,0,0:0:0:0:
256,192,54703,1,0,0:0:0:0:
288,192,54793,1,8,0:0:0:0:
256,192,54883,1,0,0:0:0:0:
288,192,54973,1,0,0:0:0:0:
288,192,55063,1,8,0:0:0:0:
288,160,55153,1,8,0:0:0:0:
288,192,55243,1,0,0:0:0:0:
288,192,55333,1,0,0:0:0:0:
256,160,55513,1,0,0:0:0:0:
352,192,55604,1,0,0:0:0:0:
288,160,55784,1,8,0:0:0:0:
288,192,56054,1,8,0:0:0:0:
288,192,56144,1,0,0:0:0:0:
320,192,56414,1,8,0:0:0:0:
320,192,56595,1,8,0:0:0:0:
320,192,56685,1,0,0:0:0:0:
288,192,56865,1,0,0:0:0:0:
320,192,56955,1,8,0:0:0:0:
288,128,57135,1,8,0:0:0:0:
288,160,57225,1,0,0:0:0:0:
288,160,57315,1,8,0:0:0:0:
288,160,57405,1,8,0:0:0:0:
288,160,57495,1,0,0:0:0:0:
288,160,57586,1,0,0:0:0:0:
288,160,57676,1,8,0:0:0:0:
288,160,57766,1,0,0:0:0:0:
288,160,58036,1,8,0:0:0:0:
256,160,58216,1,8,0:0:0:0:
256,160,58306,1,0,0:0:0:0:
256,160,58577,1,8,0:0:0:0:
256,160,58757,1,0,0:0:0:0:
256,160,58847,1,8,0:0:0:0:
256,160,59117,1,8,0:0:0:0:
256,160,59297,1,8,0:0:0:0:
256,160,59387,1,0,0:0:0:0:
256,160,59568,1,8,0:0:0:0:
256,160,59658,1,0,0:0:0:0:
256,160,59838,1,0,0:0:0:0:
256,160,59928,1,8,0:0:0:0:
288,160,60198,1,4,0:0:0:0:
288,160,60468,1,12,0:0:0:0:
288,160,60739,1,4,0:0:0:0:
288,160,61009,1,0,0:0:0:0:
320,160,61279,1,8,0:0:0:0:
288,192,61369,1,0,0:0:0:0:
288,192,61459,1,0,0:0:0:0:
288,192,61549,1,8,0:0:0:0:
288,160,61640,1,0,0:0:0:0:
288,160,61730,1,8,0:0:0:0:
288,160,61820,1,0,0:0:0:0:
288,160,61910,1,0,0:0:0:0:
288,160,62000,1,8,0:0:0:0:
288,160,62090,1,0,0:0:0:0:
288,160,62360,1,8,0:0:0:0:
224,192,62540,1,0,0:0:0:0:
256,160,62631,1,8,0:0:0:0:
224,192,62901,1,8,0:0:0:0:
256,160,63081,1,0,0:0:0:0:
288,192,63171,1,0,0:0:0:0:
288,160,63351,1,8,0:0:0:0:
288,160,63441,1,0,0:0:0:0:
256,160,63622,1,0,0:0:0:0:
256,160,63712,1,8,0:0:0:0:
256,160,63802,1,8,0:0:0:0:
256,160,63892,1,8,0:0:0:0:
256,160,63982,1,0,0:0:0:0:
256,128,64072,1,0,0:0:0:0:
256,160,64162,1,8,0:0:0:0:
256,160,64252,1,0,0:0:0:0:
224,160,64432,1,8,0:0:0:0:
128,128,64703,1,0,0:0:0:0:
224,128,64793,1,8,0:0:0:0:
128,128,64973,1,8,0:0:0:0:
128,128,65243,1,0,0:0:0:0:
192,128,65333,1,0,0:0:0:0:
224,128,65513,1,12,0:0:0:0:
224,128,65784,1,12,0:0:0:0:
256,128,66054,1,12,0:0:0:0:
256,160,66414,1,4,0:0:0:0:
256,160,66595,1,0,0:0:0:0:
256,160,66685,1,8,0:0:0:0:
256,128,66865,1,0,0:0:0:0:
256,128,66955,1,8,0:0:0:0:
256,160,67135,1,8,0:0:0:0:
256,160,67225,1,0,0:0:0:0:
256,160,67405,1,0,0:0:0:0:
224,160,67676,1,0,0:0:0:0:
256,160,67766,1,8,0:0:0:0:
256,160,67946,1,0,0:0:0:0:
256,160,68036,1,8,0:0:0:0:
256,160,68126,1,8,0:0:0:0:
256,160,68216,1,0,0:0:0:0:
288,160,68306,1,8,0:0:0:0:
288,160,68486,1,8,0:0:0:0:
288,160,68577,1,0,0:0:0:0:
288,160,68847,1,8,0:0:0:0:
256,160,69027,1,8,0:0:0:0:
256,128,69117,1,0,0:0:0:0:
288,160,69297,1,8,0:0:0:0:
256,160,69568,1,0,0:0:0:0:
256,160,69838,1,0,0:0:0:0:
256,160,69928,1,8,0:0:0:0:
256,160,70108,1,0,0:0:0:0:
256,160,70198,1,8,0:0:0:0:
256,160,70378,1,0,0:0:0:0:
256,160,70468,1,0,0:0:0:0:
256,160,70649,1,8,0:0:0:0:
256,160,70739,1,0,0:0:0:0:
256,160,71009,1,12,0:0:0:0:
224,96,71279,1,8,0:0:0:0:
224,96,71369,1,0,0:0:0:0:
224,96,71459,1,0,0:0:0:0:
224,96,71549,1,8,0:0:0:0:
224,96,71730,1,0,0:0:0:0:
224,96,71820,1,8,0:0:0:0:
256,160,72000,1,0,0:0:0:0:
256,160,72090,1,8,0:0:0:0:
256,160,72360,1,0,0:0:0:0:
256,160,72450,1,0,0:0:0:0:
256,160,72540,1,8,0:0:0:0:
256,160,72631,1,8,0:0:0:0:
256,160,72721,1,0,0:0:0:0:
256,160,72811,1,8,0:0:0:0:
256,160,72901,1,0,0:0:0:0:
256,160,73081,1,12,0:0:0:0:
256,160,73351,1,12,0:0:0:0:
256,160,73622,1,0,0:0:0:0:
256,160,73712,1,0,0:0:0:0:
256,160,73892,1,0,0:0:0:0:
256,160,73982,1,8,0:0:0:0:
256,160,74162,1,12,0:0:0:0:
256,128,74432,1,4,0:0:0:0:
256,192,74703,1,0,0:0:0:0:
256,192,74793,1,8,0:0:0:0:
256,192,75063,1,0,0:0:0:0:
256,192,75333,1,12,0:0:0:0:
256,160,75513,1,4,0:0:0:0:
256,192,75874,1,8,0:0:0:0:
256,192,76054,1,0,0:0:0:0:
256,192,76144,1,8,0:0:0:0:
256,192,76414,1,12,0:0:0:0:
256,192,76595,1,4,0:0:0:0:
256,192,76955,1,8,0:0:0:0:
288,192,77135,1,0,0:0:0:0:
288,192,77225,1,8,0:0:0:0:
288,192,77495,1,12,0:0:0:0:
288,192,77676,1,4,0:0:0:0:
288,192,78036,1,8,0:0:0:0:
288,192,78306,1,8,0:0:0:0:
288,192,78577,1,8,0:0:0:0:
288,192,78667,1,0,0:0:0:0:
288,192,78757,1,0,0:0:0:0:
288,192,78847,1,8,0:0:0:0:
288,192,78937,1,0,0:0:0:0:
288,192,79027,1,0,0:0:0:0:
288,192,79117,1,8,0:0:0:0:
288,192,79207,1,0,0:0:0:0:
288,192,79297,1,0,0:0:0:0:
288,192,79387,1,8,0:0:0:0:
256,160,79568,1,0,0:0:0:0:
256,160,79658,1,0,0:0:0:0:
256,160,79725,1,0,0:0:0:0:
256,128,79793,1,0,0:0:0:0:
256,128,79860,1,0,0:0:0:0:
288,224,79928,1,8,0:0:0:0:
288,192,79995,1,0,0:0:0:0:
272,224,80063,1,0,0:0:0:0:
272,224,80131,1,0,0:0:0:0:
272,224,80198,1,8,0:0:0:0:
256,192,80468,1,4,0:0:0:0:
288,224,80919,1,4,0:0:0:0:
288,224,81279,1,12,0:0:0:0:
288,224,81549,1,4,0:0:0:0:
256,192,81820,1,8,0:0:0:0:
256,192,82090,1,0,0:0:0:0:
256,192,82360,1,8,0:0:0:0:
256,192,82540,1,8,0:0:0:0:
256,192,82631,1,0,0:0:0:0:
256,192,82901,1,0,0:0:0:0:
256,192,83081,1,8,0:0:0:0:
256,192,83441,1,0,0:0:0:0:
256,192,83622,1,0,0:0:0:0:
256,192,83712,1,8,0:0:0:0:
256,192,83982,1,8,0:0:0:0:
256,192,84252,1,0,0:0:0:0:
256,192,84432,1,8,0:0:0:0:
256,160,84522,1,0,0:0:0:0:
256,192,84703,1,0,0:0:0:0:
256,160,84973,1,0,0:0:0:0:
256,160,85063,1,8,0:0:0:0:
256,160,85243,1,8,0:0:0:0:
256,160,85333,1,0,0:0:0:0:
256,160,85513,1,8,0:0:0:0:
256,160,85604,1,8,0:0:0:0:
256,160,85784,1,8,0:0:0:0:
256,160,85874,1,0,0:0:0:0:
256,192,86144,1,8,0:0:0:0:
256,192,86414,1,0,0:0:0:0:
256,192,86685,1,8,0:0:0:0:
256,192,86865,1,8,0:0:0:0:
256,192,86955,1,0,0:0:0:0:
256,192,87045,1,0,0:0:0:0:
256,192,87135,1,0,0:0:0:0:
256,192,87225,1,0,0:0:0:0:
256,192,87405,1,8,0:0:0:0:
256,192,87766,1,8,0:0:0:0:
256,192,88036,1,0,0:0:0:0:
256,192,88306,1,8,0:0:0:0:
224,192,88486,1,0,0:0:0:0:
256,192,88577,1,0,0:0:0:0:
224,192,88757,1,8,0:0:0:0:
224,192,88847,1,8,0:0:0:0:
224,160,89117,1,0,0:0:0:0:
224,160,89297,1,8,0:0:0:0:
224,160,89387,1,8,0:0:0:0:
224,160,89568,1,8,0:0:0:0:
224,160,89658,1,0,0:0:0:0:
224,160,89748,1,0,0:0:0:0:
224,160,89838,1,0,0:0:0:0:
224,160,89928,1,8,0:0:0:0:
224,160,90108,1,8,0:0:0:0:
224,160,90198,1,0,0:0:0:0:
224,160,90468,1,8,0:0:0:0:
224,160,90739,1,0,0:0:0:0:
224,160,91009,1,8,0:0:0:0:
224,192,91189,1,0,0:0:0:0:
224,192,91279,1,0,0:0:0:0:
256,160,91369,1,0,0:0:0:0:
256,160,91459,1,0,0:0:0:0:
256,160,91549,1,8,0:0:0:0:
256,192,91730,1,8,0:0:0:0:
256,160,92000,1,0,0:0:0:0:
256,160,92090,1,8,0:0:0:0:
256,160,92270,1,8,0:0:0:0:
256,160,92360,1,0,0:0:0:0:
256,160,92631,1,8,0:0:0:0:
256,192,92811,1,8,0:0:0:0:
256,192,92901,1,0,0:0:0:0:
256,192,93171,1,8,0:0:0:0:
256,160,93351,1,8,0:0:0:0:
256,160,93441,1,0,0:0:0:0:
256,160,93622,1,8,0:0:0:0:
256,160,93712,1,8,0:0:0:0:
224,160,93892,1,0,0:0:0:0:
224,160,93982,1,8,0:0:0:0:
256,160,94162,1,8,0:0:0:0:
224,160,94252,1,8,0:0:0:0:
256,160,94432,1,8,0:0:0:0:
256,160,94522,1,0,0:0:0:0:
256,192,94793,1,8,0:0:0:0:
256,160,95063,1,8,0:0:0:0:
256,160,95333,1,0,0:0:0:0:
256,160,95513,1,0,0:0:0:0:
256,160,95604,1,8,0:0:0:0:
256,160,95874,1,8,0:0:0:0:
256,160,96054,1,8,0:0:0:0:
256,160,96324,1,0,0:0:0:0:
256,160,96414,1,8,0:0:0:0:
256,160,96595,1,8,0:0:0:0:
256,160,96685,1,0,0:0:0:0:
288,192,96775,1,0,0:0:0:0:
288,192,96865,1,0,0:0:0:0:
288,192,96955,1,8,0:0:0:0:
288,192,97225,1,8,0:0:0:0:
288,224,97293,1,0,0:0:0:0:
288,192,97360,1,0,0:0:0:0:
288,192,97428,1,0,0:0:0:0:
288,224,97495,1,0,0:0:0:0:
288,224,97563,1,0,0:0:0:0:
288,224,97631,1,0,0:0:0:0:
288,224,97698,1,0,0:0:0:0:
288,224,97766,1,8,0:0:0:0:
288,224,98216,1,4,0:0:0:0:
288,192,98577,1,12,0:0:0:0:
320,192,98757,1,0,0:0:0:0:
320,192,98847,1,0,0:0:0:0:
320,192,99027,1,0,0:0:0:0:
320,192,99117,1,8,0:0:0:0:
320,192,99297,1,8,0:0:0:0:
320,192,99387,1,8,0:0:0:0:
320,160,99658,1,8,0:0:0:0:
320,160,99928,1,0,0:0:0:0:
320,160,100198,1,8,0:0:0:0:
288,192,100378,1,0,0:0:0:0:
320,160,100649,1,0,0:0:0:0:
320,128,100739,1,8,0:0:0:0:
320,192,101009,1,0,0:0:0:0:
320,160,101279,1,8,0:0:0:0:
320,160,101459,1,0,0:0:0:0:
320,160,101549,1,8,0:0:0:0:
320,128,101820,1,8,0:0:0:0:
288,160,102090,1,0,0:0:0:0:
288,192,102360,1,8,0:0:0:0:
288,160,102540,1,0,0:0:0:0:
320,192,102811,1,0,0:0:0:0:
320,192,102901,1,8,0:0:0:0:
320,160,103081,1,8,0:0:0:0:
320,160,103171,1,0,0:0:0:0:
320,160,103441,1,8,0:0:0:0:
320,160,103712,1,0,0:0:0:0:
320,160,103892,1,0,0:0:0:0:
320,160,103982,1,8,0:0:0:0:
288,160,104162,1,0,0:0:0:0:
320,160,104252,1,8,0:0:0:0:
288,128,104432,1,0,0:0:0:0:
288,160,104612,1,0,0:0:0:0:
288,160,104793,1,8,0:0:0:0:
288,160,104973,1,8,0:0:0:0:
288,160,105153,1,8,0:0:0:0:
288,160,105333,1,0,0:0:0:0:
256,160,105513,1,12,0:0:0:0:
256,160,105784,1,12,0:0:0:0:
256,160,106054,1,8,0:0:0:0:
256,160,106144,1,8,0:0:0:0:
256,160,106279,1,0,0:0:0:0:
256,160,106347,1,0,0:0:0:0:
256,160,106414,1,8,0:0:0:0:
256,96,106595,1,8,0:0:0:0:
256,128,106865,1,0,0:0:0:0:
256,160,107225,1,8,0:0:0:0:
224,160,107495,1,0,0:0:0:0:
256,192,108577,1,8,0:0:0:0:
256,192,109387,1,8,0:0:0:0:
256,192,109658,1,0,0:0:0:0:
256,192,110739,1,0,0:0:0:0:
256,160,111549,1,8,0:0:0:0:
256,160,111820,1,0,0:0:0:0:
256,160,112090,1,8,0:0:0:0:
256,160,112631,1,8,0:0:0:0:
256,160,113171,1,8,0:0:0:0:
256,128,113712,1,8,0:0:0:0:
256,128,113982,1,4,0:0:0:0:
256,128,115604,1,0,0:0:0:0:
256,128,115671,1,0,0:0:0:0:
256,128,115739,1,0,0:0:0:0:
256,192,115806,1,0,0:0:0:0:
256,128,115874,1,8,0:0:0:0:
288,192,116054,1,8,0:0:0:0:
288,192,116144,1,0,0:0:0:0:
288,192,116414,1,8,0:0:0:0:
288,192,116685,1,0,0:0:0:0:
288,192,116955,1,8,0:0:0:0:
288,160,117135,1,0,0:0:0:0:
288,160,117225,1,0,0:0:0:0:
288,160,117495,1,8,0:0:0:0:
288,160,117676,1,0,0:0:0:0:
288,160,117766,1,8,0:0:0:0:
288,160,117946,1,0,0:0:0:0:
288,160,118036,1,8,0:0:0:0:
288,160,118216,1,8,0:0:0:0:
288,160,118306,1,0,0:0:0:0:
288,160,118577,1,8,0:0:0:0:
288,160,118847,1,0,0:0:0:0:
288,160,119117,1,8,0:0:0:0:
288,160,119297,1,8,0:0:0:0:
288,160,119387,1,0,0:0:0:0:
288,160,119568,1,0,0:0:0:0:
288,160,119658,1,8,0:0:0:0:
288,160,119838,1,8,0:0:0:0:
288,160,119928,1,0,0:0:0:0:
288,160,120108,1,8,0:0:0:0:
288,160,120198,1,8,0:0:0:0:
288,160,120288,1,8,0:0:0:0:
288,160,120378,1,8,0:0:0:0:
288,160,120468,1,0,0:0:0:0:
288,128,120739,1,12,0:0:0:0:
288,128,120919,1,12,0:0:0:0:
256,160,121189,1,8,0:0:0:0:
256,160,121279,1,0,0:0:0:0:
256,160,121459,1,0,0:0:0:0:
256,160,121549,1,8,0:0:0:0:
288,128,121820,1,4,0:0:0:0:
288,128,122001,1,4,0:0:0:0:
256,160,122270,1,0,0:0:0:0:
256,160,122360,1,8,0:0:0:0:
256,160,122631,1,0,0:0:0:0:
256,160,122901,1,8,0:0:0:0:
256,160,123081,1,8,0:0:0:0:
288,160,123171,1,8,0:0:0:0:
288,160,123351,1,0,0:0:0:0:
224,192,123441,1,0,0:0:0:0:
192,192,123531,1,0,0:0:0:0:
192,192,123622,1,0,0:0:0:0:
192,224,123712,1,12,0:0:0:0:
192,224,123892,1,12,0:0:0:0:
192,224,124252,1,4,0:0:0:0:
192,224,124432,1,4,0:0:0:0:
256,192,124793,1,0,0:0:0:0:
288,192,125063,1,8,0:0:0:0:
288,192,125243,1,0,0:0:0:0:
288,192,125513,1,0,0:0:0:0:
288,192,125604,1,8,0:0:0:0:
288,192,125874,1,0,0:0:0:0:
288,192,126144,1,8,0:0:0:0:
288,192,126324,1,8,0:0:0:0:
288,192,126414,1,0,0:0:0:0:
288,192,126685,1,8,0:0:0:0:
288,192,126955,1,0,0:0:0:0:
288,192,127225,1,8,0:0:0:0:
288,160,127405,1,8,0:0:0:0:
288,192,127495,1,0,0:0:0:0:
288,192,127766,1,8,0:0:0:0:
288,192,128036,1,0,0:0:0:0:
288,192,128306,1,8,0:0:0:0:
288,192,128486,1,0,0:0:0:0:
288,192,128577,1,8,0:0:0:0:
288,192,128757,1,8,0:0:0:0:
288,192,128847,1,8,0:0:0:0:
288,192,129027,1,8,0:0:0:0:
288,192,129117,1,0,0:0:0:0:
288,192,129387,1,8,0:0:0:0:
288,192,129568,1,0,0:0:0:0:
320,192,129838,1,0,0:0:0:0:
256,192,129928,1,8,0:0:0:0:
320,192,130198,1,0,0:0:0:0:
320,192,130468,1,8,0:0:0:0:
320,192,130739,1,8,0:0:0:0:
320,192,130919,1,0,0:0:0:0:
320,192,131009,1,8,0:0:0:0:
320,192,131279,1,0,0:0:0:0:
320,192,131459,1,0,0:0:0:0:
320,192,131549,1,0,0:0:0:0:
320,192,131730,1,8,0:0:0:0:
288,160,131820,1,0,0:0:0:0:
320,192,132000,1,8,0:0:0:0:
320,192,132090,1,8,0:0:0:0:
320,192,132360,1,4,0:0:0:0:
288,192,132631,1,8,0:0:0:0:
256,192,132811,1,4,0:0:0:0:
256,192,133081,1,0,0:0:0:0:
288,192,133171,1,8,0:0:0:0:
288,192,133441,1,0,0:0:0:0:
256,192,133622,1,0,0:0:0:0:
288,224,133712,1,8,0:0:0:0:
256,192,133892,1,8,0:0:0:0:
256,192,133982,1,0,0:0:0:0:
256,192,134252,1,8,0:0:0:0:
256,192,134432,1,8,0:0:0:0:
256,192,134522,1,0,0:0:0:0:
256,192,134703,1,8,0:0:0:0:
256,192,134793,1,8,0:0:0:0:
256,192,135063,1,8,0:0:0:0:
256,192,135243,1,0,0:0:0:0:
256,192,135333,1,8,0:0:0:0:
256,160,135513,1,8,0:0:0:0:
256,192,135604,1,0,0:0:0:0:
256,160,135874,1,8,0:0:0:0:
256,160,136054,1,8,0:0:0:0:
256,160,136144,1,0,0:0:0:0:
256,160,136324,1,8,0:0:0:0:
256,192,136414,1,8,0:0:0:0:
256,160,136685,1,4,0:0:0:0:
256,160,136955,1,4,0:0:0:0:
256,160,137225,1,12,0:0:0:0:
256,160,137495,1,12,0:0:0:0:
256,160,137766,1,4,0:0:0:0:
256,160,138036,1,8,0:0:0:0:
256,160,138216,1,0,0:0:0:0:
256,160,138486,1,0,0:0:0:0:
256,160,138577,1,8,0:0:0:0:
256,192,138847,1,4,0:0:0:0:
256,160,139117,1,8,0:0:0:0:
256,192,139297,1,8,0:0:0:0:
256,192,139387,1,0,0:0:0:0:
256,192,139477,1,0,0:0:0:0:
256,192,139568,1,0,0:0:0:0:
256,192,139658,1,8,0:0:0:0:
256,192,139838,1,8,0:0:0:0:
256,192,139928,1,0,0:0:0:0:
256,192,140378,1,0,0:0:0:0:
288,192,140649,1,0,0:0:0:0:
256,192,140739,1,8,0:0:0:0:
288,128,140806,1,0,0:0:0:0:
288,160,140874,1,0,0:0:0:0:
288,192,140941,1,0,0:0:0:0:
256,128,141009,1,0,0:0:0:0:
288,192,141189,1,8,0:0:0:0:
256,192,141550,1,0,0:0:0:0:
256,192,141640,1,0,0:0:0:0:
256,192,141730,1,8,0:0:0:0:
256,192,141820,1,0,0:0:0:0:
256,192,141910,1,0,0:0:0:0:
256,192,142000,1,8,0:0:0:0:
256,192,142090,1,4,0:0:0:0:
224,192,142360,1,8,0:0:0:0:
256,160,142541,1,8,0:0:0:0:
256,192,142631,1,0,0:0:0:0:
256,160,142811,1,8,0:0:0:0:
256,192,142901,1,0,0:0:0:0:
256,160,143081,1,0,0:0:0:0:
256,160,143441,1,8,0:0:0:0:
256,160,143622,1,8,0:0:0:0:
256,160,143712,1,0,0:0:0:0:
256,160,143892,1,0,0:0:0:0:
256,160,143982,1,8,0:0:0:0:
256,160,144252,1,8,0:0:0:0:
288,192,144432,1,0,0:0:0:0:
288,192,144522,1,8,0:0:0:0:
256,160,144703,1,0,0:0:0:0:
256,160,144793,1,8,0:0:0:0:
288,192,144973,1,12,0:0:0:0:
288,160,145243,1,4,0:0:0:0:
320,192,145513,1,8,0:0:0:0:
320,192,145604,1,0,0:0:0:0:
288,192,145784,1,0,0:0:0:0:
320,192,145874,1,8,0:0:0:0:
288,160,145964,1,8,0:0:0:0:
288,160,146054,1,8,0:0:0:0:
288,160,146144,1,8,0:0:0:0:
288,192,146324,1,8,0:0:0:0:
288,192,146414,1,0,0:0:0:0:
288,192,146595,1,0,0:0:0:0:
256,192,146685,1,8,0:0:0:0:
256,192,146955,1,0,0:0:0:0:
256,192,147135,1,0,0:0:0:0:
256,192,147225,1,8,0:0:0:0:
256,192,147495,1,0,0:0:0:0:
256,192,147676,1,0,0:0:0:0:
288,192,147766,1,8,0:0:0:0:
256,192,147856,1,0,0:0:0:0:
288,192,147946,1,0,0:0:0:0:
288,192,148036,1,8,0:0:0:0:
288,160,148126,1,8,0:0:0:0:
288,192,148216,1,0,0:0:0:0:
288,192,148306,1,0,0:0:0:0:
256,160,148486,1,0,0:0:0:0:
352,192,148577,1,0,0:0:0:0:
288,160,148757,1,8,0:0:0:0:
288,192,149027,1,8,0:0:0:0:
288,192,149117,1,0,0:0:0:0:
320,192,149387,1,8,0:0:0:0:
320,192,149568,1,8,0:0:0:0:
320,192,149658,1,0,0:0:0:0:
288,160,149838,1,0,0:0:0:0:
320,192,149928,1,8,0:0:0:0:
288,160,150198,1,0,0:0:0:0:
288,160,150288,1,8,0:0:0:0:
288,160,150378,1,8,0:0:0:0:
288,160,150468,1,0,0:0:0:0:
288,160,150649,1,8,0:0:0:0:
288,160,150739,1,0,0:0:0:0:
288,160,151009,1,8,0:0:0:0:
256,160,151189,1,8,0:0:0:0:
256,160,151279,1,0,0:0:0:0:
256,160,151550,1,8,0:0:0:0:
256,160,151730,1,0,0:0:0:0:
256,160,151820,1,8,0:0:0:0:
256,160,152090,1,8,0:0:0:0:
256,160,152360,1,0,0:0:0:0:
256,192,152450,1,0,0:0:0:0:
256,160,152541,1,8,0:0:0:0:
256,160,152631,1,0,0:0:0:0:
256,160,152811,1,0,0:0:0:0:
256,160,152901,1,8,0:0:0:0:
288,160,153171,1,4,0:0:0:0:
288,160,153441,1,12,0:0:0:0:
288,160,153712,1,4,0:0:0:0:
320,192,153982,1,8,0:0:0:0:
320,192,154049,1,0,0:0:0:0:
320,192,154117,1,0,0:0:0:0:
320,192,154185,1,0,0:0:0:0:
320,160,154252,1,8,0:0:0:0:
288,128,154432,1,0,0:0:0:0:
288,160,154522,1,0,0:0:0:0:
288,192,154703,1,0,0:0:0:0:
288,160,154793,1,8,0:0:0:0:
288,160,154973,1,8,0:0:0:0:
288,160,155063,1,0,0:0:0:0:
288,160,155333,1,8,0:0:0:0:
224,192,155513,1,0,0:0:0:0:
256,160,155604,1,8,0:0:0:0:
224,192,155874,1,8,0:0:0:0:
256,160,156054,1,0,0:0:0:0:
288,192,156144,1,0,0:0:0:0:
288,160,156324,1,8,0:0:0:0:
288,160,156414,1,0,0:0:0:0:
256,160,156595,1,0,0:0:0:0:
256,160,156685,1,8,0:0:0:0:
256,160,156775,1,8,0:0:0:0:
256,160,156865,1,8,0:0:0:0:
256,160,156955,1,0,0:0:0:0:
256,128,157045,1,0,0:0:0:0:
256,160,157135,1,8,0:0:0:0:
256,160,157225,1,0,0:0:0:0:
224,160,157405,1,8,0:0:0:0:
128,128,157676,1,0,0:0:0:0:
224,128,157766,1,8,0:0:0:0:
128,128,157946,1,8,0:0:0:0:
288,192,158036,1,0,0:0:0:0:
128,128,158216,1,0,0:0:0:0:
192,128,158306,1,0,0:0:0:0:
224,128,158486,1,12,0:0:0:0:
224,128,158757,1,12,0:0:0:0:
256,128,159027,1,12,0:0:0:0:
256,160,159387,1,4,0:0:0:0:
256,160,159568,1,0,0:0:0:0:
256,160,159658,1,8,0:0:0:0:
256,128,159838,1,0,0:0:0:0:
256,128,159928,1,8,0:0:0:0:
256,160,160108,1,8,0:0:0:0:
256,160,160378,1,8,0:0:0:0:
224,160,160649,1,0,0:0:0:0:
256,160,160739,1,8,0:0:0:0:
256,160,160919,1,0,0:0:0:0:
256,160,161009,1,8,0:0:0:0:
256,160,161099,1,8,0:0:0:0:
256,160,161189,1,0,0:0:0:0:
288,160,161279,1,8,0:0:0:0:
288,160,161459,1,8,0:0:0:0:
288,160,161550,1,0,0:0:0:0:
288,160,161730,1,0,0:0:0:0:
288,160,161820,1,8,0:0:0:0:
256,160,162000,1,8,0:0:0:0:
256,128,162090,1,0,0:0:0:0:
288,160,162270,1,12,0:0:0:0:
256,160,162541,1,4,0:0:0:0:
256,160,162811,1,0,0:0:0:0:
256,160,162901,1,8,0:0:0:0:
256,160,163081,1,0,0:0:0:0:
256,160,163171,1,8,0:0:0:0:
256,160,163351,1,0,0:0:0:0:
256,160,163441,1,0,0:0:0:0:
256,160,163622,1,8,0:0:0:0:
256,160,163712,1,0,0:0:0:0:
256,160,163982,1,12,0:0:0:0:
224,96,164252,1,8,0:0:0:0:
224,96,164342,1,0,0:0:0:0:
224,96,164432,1,0,0:0:0:0:
224,96,164522,1,8,0:0:0:0:
224,96,164703,1,0,0:0:0:0:
224,96,164793,1,8,0:0:0:0:
256,160,164973,1,0,0:0:0:0:
256,160,165063,1,8,0:0:0:0:
256,160,165333,1,0,0:0:0:0:
256,160,165401,1,0,0:0:0:0:
256,160,165468,1,0,0:0:0:0:
256,192,165536,1,0,0:0:0:0:
256,160,165604,1,8,0:0:0:0:
256,160,165694,1,0,0:0:0:0:
256,160,165784,1,8,0:0:0:0:
256,160,165874,1,0,0:0:0:0:
256,160,166054,1,12,0:0:0:0:
256,160,166324,1,12,0:0:0:0:
256,160,166595,1,0,0:0:0:0:
256,160,166685,1,0,0:0:0:0:
256,160,166865,1,0,0:0:0:0:
256,160,166955,1,8,0:0:0:0:
256,160,167135,1,12,0:0:0:0:
256,128,167405,1,4,0:0:0:0:
256,192,167676,1,0,0:0:0:0:
256,192,167766,1,8,0:0:0:0:
256,192,168036,1,0,0:0:0:0:
256,192,168306,1,12,0:0:0:0:
256,160,168486,1,4,0:0:0:0:
256,192,168847,1,8,0:0:0:0:
256,192,169027,1,0,0:0:0:0:
256,192,169117,1,8,0:0:0:0:
256,192,169387,1,12,0:0:0:0:
256,192,169568,1,4,0:0:0:0:
256,192,169928,1,8,0:0:0:0:
288,192,170108,1,0,0:0:0:0:
288,192,170198,1,8,0:0:0:0:
288,192,170468,1,12,0:0:0:0:
288,192,170649,1,4,0:0:0:0:
288,192,171009,1,8,0:0:0:0:
288,192,171279,1,8,0:0:0:0:
288,192,171459,1,8,0:0:0:0:
288,192,171550,1,0,0:0:0:0:
288,192,171640,1,0,0:0:0:0:
288,192,171730,1,0,0:0:0:0:
288,192,171820,1,8,0:0:0:0:
288,192,171910,1,0,0:0:0:0:
256,160,172000,1,0,0:0:0:0:
288,192,172090,1,8,0:0:0:0:
288,192,172158,1,0,0:0:0:0:
288,192,172225,1,0,0:0:0:0:
320,160,172293,1,0,0:0:0:0:
288,192,172360,1,8,0:0:0:0:
256,160,172541,1,0,0:0:0:0:
256,160,172631,1,8,0:0:0:0:
256,128,172811,1,0,0:0:0:0:
256,128,172901,1,0,0:0:0:0:
256,192,172968,1,0,0:0:0:0:
288,192,173036,1,0,0:0:0:0:
256,192,173104,1,0,0:0:0:0:
256,192,173171,1,8,0:0:0:0:
256,192,173441,1,4,0:0:0:0:
288,224,173892,1,4,0:0:0:0:
288,224,174252,1,12,0:0:0:0:
288,224,174522,1,4,0:0:0:0:
256,192,174793,1,8,0:0:0:0:
256,192,175063,1,0,0:0:0:0:
256,192,175333,1,8,0:0:0:0:
256,192,175513,1,8,0:0:0:0:
256,192,175604,1,0,0:0:0:0:
256,192,175874,1,0,0:0:0:0:
256,192,176054,1,8,0:0:0:0:
256,192,176414,1,0,0:0:0:0:
256,192,176595,1,0,0:0:0:0:
256,192,176685,1,8,0:0:0:0:
256,192,176955,1,8,0:0:0:0:
256,192,177225,1,0,0:0:0:0:
256,192,177405,1,8,0:0:0:0:
256,160,177495,1,0,0:0:0:0:
256,192,177676,1,0,0:0:0:0:
256,160,177946,1,0,0:0:0:0:
256,160,178036,1,8,0:0:0:0:
256,160,178216,1,8,0:0:0:0:
256,160,178306,1,0,0:0:0:0:
256,160,178486,1,8,0:0:0:0:
256,160,178577,1,8,0:0:0:0:
256,160,178757,1,8,0:0:0:0:
256,160,178847,1,0,0:0:0:0:
256,192,179117,1,8,0:0:0:0:
256,192,179387,1,0,0:0:0:0:
256,192,179658,1,8,0:0:0:0:
256,192,179838,1,8,0:0:0:0:
256,192,179928,1,0,0:0:0:0:
256,192,180018,1,0,0:0:0:0:
256,192,180108,1,0,0:0:0:0:
256,192,180198,1,0,0:0:0:0:
256,192,180378,1,8,0:0:0:0:
256,192,180739,1,8,0:0:0:0:
256,192,181009,1,0,0:0:0:0:
256,192,181279,1,8,0:0:0:0:
224,192,181459,1,0,0:0:0:0:
256,192,181550,1,0,0:0:0:0:
224,192,181730,1,8,0:0:0:0:
224,192,181820,1,8,0:0:0:0:
224,160,182000,1,8,0:0:0:0:
256,192,182090,1,0,0:0:0:0:
256,192,182270,1,8,0:0:0:0:
256,192,182360,1,8,0:0:0:0:
256,192,182450,1,8,0:0:0:0:
256,192,182540,1,0,0:0:0:0:
256,192,182631,1,8,0:0:0:0:
256,192,182721,1,0,0:0:0:0:
256,192,182811,1,0,0:0:0:0:
256,192,182901,1,8,0:0:0:0:
256,192,183081,1,8,0:0:0:0:
256,192,183171,1,0,0:0:0:0:
224,160,183441,1,8,0:0:0:0:
224,160,183712,1,0,0:0:0:0:
224,160,183982,1,8,0:0:0:0:
224,192,184162,1,0,0:0:0:0:
224,192,184252,1,0,0:0:0:0:
256,160,184342,1,0,0:0:0:0:
256,160,184432,1,0,0:0:0:0:
256,160,184522,1,8,0:0:0:0:
256,192,184703,1,8,0:0:0:0:
256,160,184973,1,0,0:0:0:0:
256,160,185063,1,8,0:0:0:0:
256,160,185243,1,8,0:0:0:0:
256,160,185333,1,0,0:0:0:0:
256,160,185604,1,8,0:0:0:0:
256,192,185784,1,8,0:0:0:0:
256,192,185874,1,0,0:0:0:0:
256,192,186144,1,8,0:0:0:0:
256,160,186324,1,8,0:0:0:0:
256,160,186414,1,0,0:0:0:0:
256,160,186595,1,8,0:0:0:0:
224,160,186685,1,0,0:0:0:0:
256,160,186865,1,8,0:0:0:0:
256,160,186955,1,0,0:0:0:0:
256,160,187135,1,8,0:0:0:0:
224,160,187225,1,0,0:0:0:0:
224,160,187315,1,0,0:0:0:0:
256,160,187405,1,0,0:0:0:0:
256,160,187495,1,8,0:0:0:0:
256,192,187766,1,8,0:0:0:0:
256,160,188036,1,8,0:0:0:0:
256,160,188306,1,0,0:0:0:0:
256,160,188486,1,0,0:0:0:0:
256,160,188577,1,8,0:0:0:0:
256,160,188847,1,8,0:0:0:0:
256,160,189027,1,8,0:0:0:0:
256,160,189297,1,0,0:0:0:0:
256,160,189387,1,8,0:0:0:0:
256,160,189568,1,8,0:0:0:0:
256,160,189658,1,0,0:0:0:0:
288,192,189838,1,0,0:0:0:0:
288,192,189928,1,8,0:0:0:0:
288,192,190108,1,8,0:0:0:0:
288,192,190198,1,8,0:0:0:0:
288,192,190288,1,0,0:0:0:0:
288,192,190378,1,0,0:0:0:0:
288,224,190468,1,0,0:0:0:0:
288,224,190536,1,0,0:0:0:0:
288,224,190604,1,0,0:0:0:0:
288,224,190671,1,0,0:0:0:0:
288,224,190739,1,8,0:0:0:0:
320,224,191279,1,8,0:0:0:0:
320,224,191369,1,0,0:0:0:0:
320,224,191459,1,0,0:0:0:0:
288,224,191549,1,8,0:0:0:0:
288,224,191617,1,0,0:0:0:0:
288,224,191685,1,0,0:0:0:0:
288,224,191752,1,0,0:0:0:0:
288,224,191820,1,8,0:0:0:0:
288,192,192000,1,0,0:0:0:0:
288,192,192090,1,8,0:0:0:0:
288,224,192225,1,0,0:0:0:0:
288,224,192293,1,0,0:0:0:0:
288,224,192360,1,8,0:0:0:0:
288,224,192540,1,8,0:0:0:0:
288,224,192811,1,8,0:0:0:0:
256,224,192901,1,0,0:0:0:0:
288,224,193081,1,8,0:0:0:0:
288,256,193171,1,0,0:0:0:0:
256,192,193351,1,0,0:0:0:0:
256,224,193441,1,8,0:0:0:0:
256,224,193644,1,8,0:0:0:0:
288,224,193892,1,8,0:0:0:0:
288,224,193937,1,8,0:0:0:0:
288,224,193982,1,0,0:0:0:0:
288,224,194162,1,8,0:0:0:0:
256,224,194432,1,8,0:0:0:0:
256,224,194522,1,0,0:0:0:0:
256,224,194703,1,0,0:0:0:0:
256,224,194793,1,0,0:0:0:0:
256,224,194973,1,8,0:0:0:0:
256,224,195063,1,0,0:0:0:0:
224,192,195131,1,0,0:0:0:0:
256,192,195198,1,0,0:0:0:0:
256,192,195266,1,0,0:0:0:0:
288,192,195333,1,8,0:0:0:0:
256,192,195513,1,8,0:0:0:0:
224,192,195604,1,0,0:0:0:0:
224,192,195784,1,0,0:0:0:0:
256,224,196144,1,0,0:0:0:0:
256,224,196414,1,8,0:0:0:0:
256,224,196504,1,0,0:0:0:0:
256,224,196595,1,0,0:0:0:0:
256,224,196685,1,8,0:0:0:0:
256,224,196775,1,0,0:0:0:0:
256,224,196865,1,0,0:0:0:0:
256,224,196955,1,8,0:0:0:0:
256,224,197135,1,8,0:0:0:0:
256,256,197405,1,0,0:0:0:0:
256,256,197495,1,8,0:0:0:0:
256,256,197676,1,8,0:0:0:0:
288,256,197766,1,0,0:0:0:0:
256,256,197968,1,8,0:0:0:0:
288,256,198036,1,0,0:0:0:0:
224,160,198104,1,0,0:0:0:0:
288,256,198216,1,0,0:0:0:0:
288,224,198306,1,0,0:0:0:0:
256,224,198486,1,8,0:0:0:0:
256,256,198712,1,8,0:0:0:0:
256,256,198847,1,0,0:0:0:0:
256,224,199027,1,0,0:0:0:0:
256,224,199117,1,8,0:0:0:0:
256,192,199297,1,8,0:0:0:0:
256,224,199387,1,0,0:0:0:0:
256,224,199477,1,0,0:0:0:0:
256,224,199568,1,0,0:0:0:0:
256,224,199658,1,8,0:0:0:0:
256,192,199838,1,0,0:0:0:0:
256,192,199928,1,8,0:0:0:0:
224,192,200108,1,8,0:0:0:0:
224,224,200198,1,8,0:0:0:0:
224,192,200378,1,8,0:0:0:0:
224,192,200468,1,0,0:0:0:0:
224,192,200739,1,8,0:0:0:0:
192,192,200919,1,0,0:0:0:0:
192,192,201009,1,8,0:0:0:0:
192,192,201189,1,8,0:0:0:0:
192,192,201459,1,8,0:0:0:0:
192,192,201549,1,8,0:0:0:0:
192,192,201730,1,0,0:0:0:0:
192,192,201820,1,8,0:0:0:0:
192,224,202000,1,8,0:0:0:0:
192,192,202270,1,0,0:0:0:0:
192,192,202360,1,8,0:0:0:0:
192,192,202540,1,0,0:0:0:0:
224,192,202631,1,0,0:0:0:0:
224,224,202901,1,8,0:0:0:0:
192,192,203081,1,8,0:0:0:0:
224,192,203171,1,0,0:0:0:0:
288,160,203351,1,0,0:0:0:0:
256,192,203441,1,8,0:0:0:0:
256,192,203622,1,0,0:0:0:0:
256,192,203712,1,8,0:0:0:0:
256,192,203892,1,0,0:0:0:0:
256,192,203982,1,8,0:0:0:0:
256,160,204162,1,8,0:0:0:0:
256,160,204432,1,0,0:0:0:0:
256,160,204703,1,0,0:0:0:0:
256,160,204793,1,8,0:0:0:0:
224,160,204973,1,0,0:0:0:0:
224,160,205063,1,8,0:0:0:0:
224,160,205243,1,0,0:0:0:0:
224,192,205333,1,0,0:0:0:0:
224,160,205513,1,0,0:0:0:0:
224,160,205604,1,8,0:0:0:0:
224,160,205784,1,8,0:0:0:0:
224,160,205874,1,0,0:0:0:0:
224,192,206054,1,0,0:0:0:0:
224,192,206144,1,8,0:0:0:0:
224,192,206324,1,0,0:0:0:0:
224,192,206414,1,0,0:0:0:0:
224,192,206595,1,0,0:0:0:0:
224,192,206685,1,8,0:0:0:0:
224,192,206955,1,0,0:0:0:0:
224,192,207135,1,12,0:0:0:0:
224,192,207315,1,12,0:0:0:0:
224,192,207495,1,4,0:0:0:0:
224,192,207676,1,12,0:0:0:0:
224,192,207856,1,12,0:0:0:0:
224,224,208036,1,4,0:0:0:0:
256,192,208216,12,4,209928,0:0:0:0:
288,192,210198,5,4,0:0:0:0:
288,224,210468,1,4,0:0:0:0:
256,192,210739,1,12,0:0:0:0:
256,192,211009,1,12,0:0:0:0:
256,192,211549,1,8,0:0:0:0:
256,192,211820,1,0,0:0:0:0:
256,192,212360,1,4,0:0:0:0:
256,192,212631,1,12,0:0:0:0:
256,192,212901,1,4,0:0:0:0:
256,192,213171,1,12,0:0:0:0:
256,192,213712,1,8,0:0:0:0:
256,192,213982,1,0,0:0:0:0:
256,192,214522,1,4,0:0:0:0:
256,192,214928,1,0,0:0:0:0:
256,192,214995,1,0,0:0:0:0:
256,192,215063,1,8,0:0:0:0:
256,192,215333,1,0,0:0:0:0:
256,192,215513,1,8,0:0:0:0:
256,192,215604,1,0,0:0:0:0:
288,192,215874,1,8,0:0:0:0:
288,192,216144,1,0,0:0:0:0:
320,192,216324,1,8,0:0:0:0:
288,192,216414,1,0,0:0:0:0:
320,192,216685,1,4,0:0:0:0:
320,224,216865,1,8,0:0:0:0:
320,192,217045,1,8,0:0:0:0:
320,192,217225,1,4,0:0:0:0:
320,192,217405,1,8,0:0:0:0:
320,192,217586,1,8,0:0:0:0:
320,192,217766,1,4,0:0:0:0:
320,192,217946,1,8,0:0:0:0:
320,192,218126,1,8,0:0:0:0:
320,192,218306,1,4,0:0:0:0:
320,224,218486,1,0,0:0:0:0:
320,256,218577,1,8,0:0:0:0:
320,256,218757,1,8,0:0:0:0:
320,224,218847,1,0,0:0:0:0:
288,192,219117,1,8,0:0:0:0:
288,192,219387,1,0,0:0:0:0:
288,192,219658,1,8,0:0:0:0:
288,192,219838,1,8,0:0:0:0:
288,192,219928,1,0,0:0:0:0:
288,192,220198,1,8,0:0:0:0:
288,192,220378,1,0,0:0:0:0:
288,192,220468,1,8,0:0:0:0:
288,160,220649,1,0,0:0:0:0:
288,160,220739,1,8,0:0:0:0:
288,160,221009,1,8,0:0:0:0:
288,160,221279,1,0,0:0:0:0:
320,192,221459,1,0,0:0:0:0:
320,192,221549,1,8,0:0:0:0:
320,192,221820,1,8,0:0:0:0:
320,160,222000,1,8,0:0:0:0:
320,192,222090,1,0,0:0:0:0:
320,160,222270,1,0,0:0:0:0:
320,160,222360,1,0,0:0:0:0:
320,160,222540,1,8,0:0:0:0:
320,160,222631,1,0,0:0:0:0:
320,160,222721,1,0,0:0:0:0:
320,160,222811,1,0,0:0:0:0:
320,160,222901,1,8,0:0:0:0:
320,160,223171,1,4,0:0:0:0:
256,192,223441,1,8,0:0:0:0:
256,224,223577,1,4,0:0:0:0:
256,192,223982,1,8,0:0:0:0:
256,224,224252,1,4,0:0:0:0:
256,192,224522,1,8,0:0:0:0:
256,224,224658,1,4,0:0:0:0:
288,224,224973,1,0,0:0:0:0:
288,224,225063,1,8,0:0:0:0:
288,224,225153,1,8,0:0:0:0:
288,224,225243,1,8,0:0:0:0:
256,192,225333,12,0,226955,0:0:0:0:
256,192,227495,5,8,0:0:0:0:
256,192,228577,1,8,0:0:0:0:
256,192,229658,1,8,0:0:0:0:
256,192,230198,1,8,0:0:0:0:
256,192,230604,1,8,0:0:0:0:
256,192,231279,1,8,0:0:0:0:
256,192,231549,1,8,0:0:0:0:
256,192,231820,1,8,0:0:0:0:
256,160,232360,1,8,0:0:0:0:
256,160,232901,1,8,0:0:0:0:
256,160,233306,1,8,0:0:0:0:
256,160,233712,1,8,0:0:0:0:
256,160,233982,1,8,0:0:0:0:
256,160,235063,1,8,0:0:0:0:
256,160,235604,1,8,0:0:0:0:
256,160,236144,1,4,0:0:0:0:
256,160,236685,1,8,0:0:0:0:
256,160,236955,1,4,0:0:0:0:
256,160,238306,1,4,0:0:0:0:
256,160,238577,1,0,0:0:0:0:
256,160,238847,1,0,0:0:0:0:
256,160,239117,1,8,0:0:0:0:
256,192,239568,1,0,0:0:0:0:
256,192,239658,1,8,0:0:0:0:
256,192,239838,1,8,0:0:0:0:
256,192,239928,1,0,0:0:0:0:
256,192,240018,1,0,0:0:0:0:
256,192,240108,1,0,0:0:0:0:
256,192,240198,1,8,0:0:0:0:
256,192,240288,1,0,0:0:0:0:
256,192,240378,1,0,0:0:0:0:
256,192,240468,1,8,0:0:0:0:
288,192,240739,1,0,0:0:0:0:
288,192,240874,1,12,0:0:0:0:
288,192,241279,1,8,0:0:0:0:
288,192,241347,1,0,0:0:0:0:
288,192,241414,1,0,0:0:0:0:
288,192,241482,1,0,0:0:0:0:
288,192,241549,1,8,0:0:0:0:
288,192,241617,1,0,0:0:0:0:
288,192,241685,1,0,0:0:0:0:
288,192,241752,1,0,0:0:0:0:
288,192,241820,1,8,0:0:0:0:
288,192,242000,1,8,0:0:0:0:
288,192,242090,1,0,0:0:0:0:
288,192,242270,1,0,0:0:0:0:
288,192,242360,1,8,0:0:0:0:
288,192,242631,1,4,0:0:0:0:
288,224,242901,1,8,0:0:0:0:
256,256,243036,1,4,0:0:0:0:
288,224,243306,1,0,0:0:0:0:
288,224,243441,1,8,0:0:0:0:
288,256,243712,1,8,0:0:0:0:
288,256,243779,1,0,0:0:0:0:
288,256,243847,1,0,0:0:0:0:
288,256,243914,1,0,0:0:0:0:
288,256,243982,1,8,0:0:0:0:
288,256,244049,1,8,0:0:0:0:
288,256,244117,1,0,0:0:0:0:
288,256,244185,1,0,0:0:0:0:
288,256,244252,1,8,0:0:0:0:
256,256,244432,1,8,0:0:0:0:
256,256,244522,1,0,0:0:0:0:
256,256,244793,1,4,0:0:0:0:
256,256,245063,1,8,0:0:0:0:
256,256,245243,1,0,0:0:0:0:
256,256,245333,1,0,0:0:0:0:
288,288,245514,1,0,0:0:0:0:
288,288,245604,1,8,0:0:0:0:
288,288,245784,1,8,0:0:0:0:
288,288,245874,1,0,0:0:0:0:
288,288,246054,1,8,0:0:0:0:
288,288,246144,1,8,0:0:0:0:
288,288,246324,1,8,0:0:0:0:
288,288,246414,1,0,0:0:0:0:
288,288,246504,1,0,0:0:0:0:
288,288,246595,1,0,0:0:0:0:
288,288,246685,1,8,0:0:0:0:
288,288,246955,1,0,0:0:0:0:
288,288,247135,1,8,0:0:0:0:
288,288,247225,1,8,0:0:0:0:
288,288,247405,1,0,0:0:0:0:
288,288,247495,1,8,0:0:0:0:
288,288,247676,1,0,0:0:0:0:
288,288,247766,1,8,0:0:0:0:
288,288,247901,1,8,0:0:0:0:
288,288,248036,1,4,0:0:0:0:
288,288,248216,1,0,0:0:0:0:
288,288,248306,1,8,0:0:0:0:
288,288,248396,1,8,0:0:0:0:
288,288,248486,1,8,0:0:0:0:
288,288,248577,1,0,0:0:0:0:
320,256,248644,1,0,0:0:0:0:
320,288,248712,1,8,0:0:0:0:
288,256,248779,1,8,0:0:0:0:
288,256,248847,1,8,0:0:0:0:
320,288,248914,1,8,0:0:0:0:
320,288,248982,1,8,0:0:0:0:
320,288,249049,1,8,0:0:0:0:
320,288,249117,1,0,0:0:0:0:
352,288,249387,1,12,0:0:0:0:
288,288,249658,1,8,0:0:0:0:
288,288,249725,1,0,0:0:0:0:
288,288,249793,1,0,0:0:0:0:
288,288,249860,1,0,0:0:0:0:
288,288,249928,1,8,0:0:0:0:
288,288,249995,1,0,0:0:0:0:
288,288,250063,1,8,0:0:0:0:
288,288,250131,1,8,0:0:0:0:
288,288,250198,1,0,0:0:0:0:
288,224,250378,1,0,0:0:0:0:
288,224,250468,1,8,0:0:0:0:
288,224,250649,1,8,0:0:0:0:
288,224,250739,1,0,0:0:0:0:
288,224,250829,1,0,0:0:0:0:
288,224,250919,1,8,0:0:0:0:
288,224,251009,1,0,0:0:0:0:
288,224,251099,1,0,0:0:0:0:
288,224,251189,1,8,0:0:0:0:
288,224,251279,1,0,0:0:0:0:
288,224,251549,1,8,0:0:0:0:
288,224,251730,1,0,0:0:0:0:
288,224,251820,1,0,0:0:0:0:
288,224,252000,1,0,0:0:0:0:
288,224,252090,1,8,0:0:0:0:
288,224,252270,1,8,0:0:0:0:
288,224,252360,1,0,0:0:0:0:
288,224,252540,1,8,0:0:0:0:
288,224,252631,1,8,0:0:0:0:
288,224,252811,1,8,0:0:0:0:
288,224,252901,1,0,0:0:0:0:
288,224,252991,1,0,0:0:0:0:
288,224,253081,1,0,0:0:0:0:
288,224,253171,1,8,0:0:0:0:
288,224,253261,1,8,0:0:0:0:
288,224,253351,1,8,0:0:0:0:
288,224,253441,1,0,0:0:0:0:
288,192,253712,1,8,0:0:0:0:
288,192,253892,1,8,0:0:0:0:
288,192,253982,1,0,0:0:0:0:
288,192,254252,1,8,0:0:0:0:
288,192,254432,1,0,0:0:0:0:
288,192,254522,1,0,0:0:0:0:
320,224,254703,1,0,0:0:0:0:
288,224,254793,1,8,0:0:0:0:
320,192,254973,1,8,0:0:0:0:
320,192,255063,1,0,0:0:0:0:
288,224,255131,1,0,0:0:0:0:
288,224,255198,1,0,0:0:0:0:
288,192,255266,1,8,0:0:0:0:
288,192,255333,1,0,0:0:0:0:
288,192,255401,1,0,0:0:0:0:
288,192,255468,1,0,0:0:0:0:
288,192,255536,1,8,0:0:0:0:
288,192,255604,1,0,0:0:0:0:
288,192,255784,1,8,0:0:0:0:
320,192,256054,1,8,0:0:0:0:
320,192,256144,1,0,0:0:0:0:
320,192,256324,1,8,0:0:0:0:
320,192,256595,1,0,0:0:0:0:
320,192,256685,1,0,0:0:0:0:
320,192,256955,1,8,0:0:0:0:
320,192,257135,1,8,0:0:0:0:
320,192,257225,1,0,0:0:0:0:
320,192,257315,1,0,0:0:0:0:
320,192,257405,1,0,0:0:0:0:
320,192,257495,1,8,0:0:0:0:
320,192,257586,1,8,0:0:0:0:
320,192,257676,1,8,0:0:0:0:
320,192,257766,1,0,0:0:0:0:
320,192,258036,1,8,0:0:0:0:
352,224,258216,1,0,0:0:0:0:
320,192,258306,1,8,0:0:0:0:
320,224,258486,1,8,0:0:0:0:
320,224,258577,1,0,0:0:0:0:
320,224,258757,1,0,0:0:0:0:
320,192,258847,1,0,0:0:0:0:
320,192,259027,1,0,0:0:0:0:
320,192,259117,1,8,0:0:0:0:
320,192,259387,1,0,0:0:0:0:
320,192,259568,1,8,0:0:0:0:
320,192,259658,1,0,0:0:0:0:
320,192,259838,1,8,0:0:0:0:
320,192,259928,1,8,0:0:0:0:
320,192,260198,1,4,0:0:0:0:
320,192,260468,1,12,0:0:0:0:
320,192,260739,1,4,0:0:0:0:
320,192,261009,1,8,0:0:0:0:
320,192,261076,1,8,0:0:0:0:
320,192,261144,1,0,0:0:0:0:
320,192,261212,1,0,0:0:0:0:
320,160,261279,1,8,0:0:0:0:
288,128,261459,1,0,0:0:0:0:
288,160,261549,1,8,0:0:0:0:
288,192,261730,1,8,0:0:0:0:
288,160,261820,1,8,0:0:0:0:
288,160,262000,1,8,0:0:0:0:
288,160,262090,1,0,0:0:0:0:
288,160,262360,1,8,0:0:0:0:
224,192,262540,1,0,0:0:0:0:
256,160,262631,1,8,0:0:0:0:
224,192,262901,1,8,0:0:0:0:
256,160,263081,1,0,0:0:0:0:
288,192,263171,1,0,0:0:0:0:
288,160,263351,1,8,0:0:0:0:
288,160,263441,1,0,0:0:0:0:
256,160,263622,1,0,0:0:0:0:
256,160,263712,1,8,0:0:0:0:
256,160,263802,1,8,0:0:0:0:
256,160,263892,1,8,0:0:0:0:
256,160,263982,1,0,0:0:0:0:
256,128,264072,1,0,0:0:0:0:
256,160,264162,1,8,0:0:0:0:
256,160,264252,1,0,0:0:0:0:
224,160,264432,1,8,0:0:0:0:
256,192,264522,1,0,0:0:0:0:
128,128,264703,1,0,0:0:0:0:
224,128,264793,1,8,0:0:0:0:
256,192,264883,1,0,0:0:0:0:
128,128,264973,1,0,0:0:0:0:
288,192,265063,1,8,0:0:0:0:
128,128,265243,1,0,0:0:0:0:
192,128,265333,1,0,0:0:0:0:
224,128,265513,1,12,0:0:0:0:
224,128,265784,1,12,0:0:0:0:
256,128,266054,1,12,0:0:0:0:
256,160,266414,1,0,0:0:0:0:
256,160,266595,1,0,0:0:0:0:
256,160,266685,1,8,0:0:0:0:
256,160,266865,1,8,0:0:0:0:
256,160,266955,1,0,0:0:0:0:
256,160,267135,1,0,0:0:0:0:
256,160,267225,1,0,0:0:0:0:
256,160,267405,1,8,0:0:0:0:
256,160,267495,1,8,0:0:0:0:
256,160,267766,1,8,0:0:0:0:
288,160,267946,1,0,0:0:0:0:
288,160,268036,1,8,0:0:0:0:
288,192,268216,1,0,0:0:0:0:
288,192,268306,1,8,0:0:0:0:
288,192,268577,1,0,0:0:0:0:
320,160,268757,1,8,0:0:0:0:
288,160,268847,1,0,0:0:0:0:
288,192,269027,1,0,0:0:0:0:
288,192,269117,1,8,0:0:0:0:
288,192,269297,1,8,0:0:0:0:
288,192,269568,1,0,0:0:0:0:
288,160,269838,1,0,0:0:0:0:
288,160,269928,1,8,0:0:0:0:
288,160,270108,1,0,0:0:0:0:
288,160,270198,1,0,0:0:0:0:
320,192,270378,1,8,0:0:0:0:
320,192,270468,1,8,0:0:0:0:
320,192,270559,1,0,0:0:0:0:
320,192,270649,1,0,0:0:0:0:
320,192,270739,1,8,0:0:0:0:
320,192,271009,1,8,0:0:0:0:
320,192,271279,1,0,0:0:0:0:
320,192,271459,1,0,0:0:0:0:
320,192,271549,1,8,0:0:0:0:
320,192,271730,1,0,0:0:0:0:
288,192,271820,1,0,0:0:0:0:
320,160,272000,1,0,0:0:0:0:
320,160,272090,1,8,0:0:0:0:
320,160,272270,1,8,0:0:0:0:
320,160,272360,1,0,0:0:0:0:
320,160,272450,1,8,0:0:0:0:
320,160,272540,1,0,0:0:0:0:
320,160,272631,1,8,0:0:0:0:
320,160,272721,1,8,0:0:0:0:
320,160,272811,1,8,0:0:0:0:
320,160,272901,1,0,0:0:0:0:
320,192,273081,1,12,0:0:0:0:
320,160,273351,1,12,0:0:0:0:
320,192,273622,1,0,0:0:0:0:
320,192,273712,1,8,0:0:0:0:
288,160,273892,1,8,0:0:0:0:
288,160,273982,1,0,0:0:0:0:
288,224,274162,1,12,0:0:0:0:
288,224,274432,1,4,0:0:0:0:
288,224,274703,1,0,0:0:0:0:
288,224,274793,1,8,0:0:0:0:
288,224,275063,1,0,0:0:0:0:
256,192,275333,1,12,0:0:0:0:
256,160,275513,1,4,0:0:0:0:
256,192,275874,1,8,0:0:0:0:
256,192,276054,1,0,0:0:0:0:
256,192,276144,1,8,0:0:0:0:
256,192,276414,1,12,0:0:0:0:
256,192,276595,1,4,0:0:0:0:
256,192,276955,1,8,0:0:0:0:
288,192,277135,1,0,0:0:0:0:
288,192,277225,1,8,0:0:0:0:
288,192,277495,1,12,0:0:0:0:
288,192,277676,1,4,0:0:0:0:
288,192,278036,1,8,0:0:0:0:
288,192,278306,1,8,0:0:0:0:
288,192,278486,1,8,0:0:0:0:
288,192,278577,1,0,0:0:0:0:
288,192,278667,1,0,0:0:0:0:
288,192,278757,1,0,0:0:0:0:
288,192,278847,1,8,0:0:0:0:
288,192,278937,1,0,0:0:0:0:
256,160,279027,1,0,0:0:0:0:
288,192,279117,1,8,0:0:0:0:
288,192,279185,1,0,0:0:0:0:
288,192,279252,1,0,0:0:0:0:
320,160,279320,1,0,0:0:0:0:
288,192,279387,1,8,0:0:0:0:
256,160,279568,1,0,0:0:0:0:
256,160,279658,1,8,0:0:0:0:
256,128,279838,1,0,0:0:0:0:
256,128,279928,1,0,0:0:0:0:
256,192,279995,1,0,0:0:0:0:
288,192,280063,1,0,0:0:0:0:
256,192,280131,1,0,0:0:0:0:
256,192,280198,1,8,0:0:0:0:
256,192,280468,1,4,0:0:0:0:
288,224,280919,1,4,0:0:0:0:
288,224,281279,1,12,0:0:0:0:
288,224,281549,1,4,0:0:0:0:
256,192,281820,1,8,0:0:0:0:
256,192,282090,1,0,0:0:0:0:
256,192,282360,1,8,0:0:0:0:
256,192,282540,1,8,0:0:0:0:
256,192,282631,1,0,0:0:0:0:
256,192,282901,1,0,0:0:0:0:
256,192,283081,1,8,0:0:0:0:
256,192,283171,1,0,0:0:0:0:
256,192,283261,1,0,0:0:0:0:
256,192,283351,1,0,0:0:0:0:
256,192,283441,1,8,0:0:0:0:
256,192,283622,1,0,0:0:0:0:
256,192,283712,1,8,0:0:0:0:
256,192,283982,1,8,0:0:0:0:
256,192,284252,1,0,0:0:0:0:
256,192,284432,1,8,0:0:0:0:
256,192,284522,1,0,0:0:0:0:
256,160,284793,1,0,0:0:0:0:
256,160,284973,1,0,0:0:0:0:
256,160,285063,1,8,0:0:0:0:
256,160,285243,1,8,0:0:0:0:
256,160,285333,1,0,0:0:0:0:
256,160,285513,1,8,0:0:0:0:
256,160,285604,1,8,0:0:0:0:
256,160,285784,1,8,0:0:0:0:
256,160,285874,1,0,0:0:0:0:
256,192,286144,1,8,0:0:0:0:
256,192,286414,1,0,0:0:0:0:
256,192,286685,1,8,0:0:0:0:
256,192,286865,1,8,0:0:0:0:
256,192,286955,1,0,0:0:0:0:
256,192,287135,1,0,0:0:0:0:
256,192,287225,1,0,0:0:0:0:
256,192,287405,1,8,0:0:0:0:
256,192,287766,1,8,0:0:0:0:
256,192,288036,1,0,0:0:0:0:
256,192,288306,1,8,0:0:0:0:
224,192,288486,1,0,0:0:0:0:
256,192,288577,1,0,0:0:0:0:
224,192,288847,1,8,0:0:0:0:
224,160,289027,1,8,0:0:0:0:
256,192,289117,1,0,0:0:0:0:
256,192,289297,1,8,0:0:0:0:
256,192,289387,1,8,0:0:0:0:
256,192,289567,1,0,0:0:0:0:
256,192,289658,1,8,0:0:0:0:
256,192,289748,1,0,0:0:0:0:
256,192,289838,1,0,0:0:0:0:
256,192,289928,1,8,0:0:0:0:
256,192,290108,1,8,0:0:0:0:
256,192,290198,1,0,0:0:0:0:
224,160,290468,1,8,0:0:0:0:
224,160,290739,1,0,0:0:0:0:
224,160,291009,1,8,0:0:0:0:
224,192,291189,1,0,0:0:0:0:
224,192,291279,1,0,0:0:0:0:
256,160,291369,1,0,0:0:0:0:
256,160,291459,1,0,0:0:0:0:
256,160,291549,1,8,0:0:0:0:
256,192,291730,1,8,0:0:0:0:
256,160,292000,1,0,0:0:0:0:
256,160,292090,1,8,0:0:0:0:
256,160,292270,1,8,0:0:0:0:
256,160,292360,1,0,0:0:0:0:
256,160,292631,1,8,0:0:0:0:
256,192,292811,1,8,0:0:0:0:
256,192,292901,1,0,0:0:0:0:
256,192,293171,1,8,0:0:0:0:
256,160,293351,1,8,0:0:0:0:
256,160,293441,1,0,0:0:0:0:
256,160,293622,1,8,0:0:0:0:
224,160,293712,1,0,0:0:0:0:
256,160,293892,1,8,0:0:0:0:
256,160,293982,1,0,0:0:0:0:
256,160,294162,1,8,0:0:0:0:
224,160,294252,1,0,0:0:0:0:
224,160,294342,1,0,0:0:0:0:
256,160,294432,1,0,0:0:0:0:
256,160,294522,1,8,0:0:0:0:
256,192,294793,1,8,0:0:0:0:
256,160,295063,1,8,0:0:0:0:
256,160,295333,1,0,0:0:0:0:
256,160,295513,1,0,0:0:0:0:
256,160,295604,1,8,0:0:0:0:
256,160,295874,1,8,0:0:0:0:
256,160,296054,1,8,0:0:0:0:
256,160,296324,1,0,0:0:0:0:
256,160,296414,1,8,0:0:0:0:
256,160,296595,1,8,0:0:0:0:
256,160,296685,1,0,0:0:0:0:
288,192,296865,1,0,0:0:0:0:
288,192,296955,1,8,0:0:0:0:
288,192,297135,1,8,0:0:0:0:
288,192,297225,1,8,0:0:0:0:
288,192,297315,1,0,0:0:0:0:
288,192,297405,1,0,0:0:0:0:
288,224,297495,1,0,0:0:0:0:
288,224,297563,1,0,0:0:0:0:
288,224,297631,1,0,0:0:0:0:
288,224,297698,1,0,0:0:0:0:
288,224,297766,1,8,0:0:0:0:
256,128,298036,1,0,0:0:0:0:
288,192,298171,1,0,0:0:0:0:
256,192,298577,1,12,0:0:0:0:
256,192,298712,12,12,301009,0:0:0:0:
