osu file format v14

[General]
AudioFilename: audio.mp3
AudioLeadIn: 0
PreviewTime: 59060
Countdown: 0
SampleSet: Soft
StackLeniency: 0.7
Mode: 3
LetterboxInBreaks: 0
SpecialStyle: 0
WidescreenStoryboard: 0

[Editor]
DistanceSpacing: 0.5
BeatDivisor: 4
GridSize: 4
TimelineZoom: 2.5

[Metadata]
Title:Tutti! (TV Size)
TitleUnicode:トゥッティ! (TV Size)
Artist:Kitauji Quartet
ArtistUnicode:北宇治カルテット
Creator:KeppSado
Version:Normal
Source:響け!ユーフォニアム
Tags:-mysticeyes famoss hibike! sound euphonium ending ED
BeatmapID:1841324
BeatmapSetID:877844

[Difficulty]
HPDrainRate:7
CircleSize:4
OverallDifficulty:7
ApproachRate:5
SliderMultiplier:1.4
SliderTickRate:1

[Events]
//Background and Video events
0,0,"bg.jpg",0,0
//Break Periods
//Storyboard Layer 0 (Background)
//Storyboard Layer 1 (Fail)
//Storyboard Layer 2 (Pass)
//Storyboard Layer 3 (Foreground)
//Storyboard Sound Samples

[TimingPoints]
916,309.278350515464,4,2,1,60,1,0
59060,-100,4,2,1,60,0,1
73905,-100,4,2,1,60,0,0

[HitObjects]
448,192,722,128,0,916:0:0:0:0:
192,192,916,1,2,0:0:0:0:
64,192,1225,1,2,0:0:0:0:
448,192,1534,1,2,0:0:0:0:
64,192,1843,1,2,0:0:0:0:
320,192,2153,1,2,0:0:0:0:
192,192,2462,1,2,0:0:0:0:
448,192,2771,1,2,0:0:0:0:
320,192,3080,1,2,0:0:0:0:
64,192,3235,1,0,0:0:0:0:
448,192,3390,1,0,0:0:0:80:F6S_s.wav
448,192,3699,128,0,4008:0:0:0:80:F6S_s.wav
64,192,4008,1,0,0:0:0:80:D#6S_Eb6S_s.wav
320,192,4163,128,0,4472:0:0:0:80:F6S_s.wav
64,192,4472,128,0,4781:0:0:0:80:G#6S_Ab6S_s.wav
192,192,4781,128,0,5091:0:0:0:80:F6S_s.wav
448,192,5091,128,0,5400:0:0:0:80:D#6S_Eb6S_s.wav
64,192,5400,1,0,0:0:0:80:F6S_s.wav
320,192,5555,1,0,0:0:0:80:G#6S_Ab6S_s.wav
448,192,5709,1,0,0:0:0:80:A#6S_Bb6S_s.wav
192,192,5864,1,0,0:0:0:80:B6S_s.wav
64,192,5864,1,2,0:0:0:0:
192,192,6173,1,0,0:0:0:80:B6S_s.wav
64,192,6173,1,2,0:0:0:0:
448,192,6483,128,0,6946:0:0:0:80:A#6S_Bb6S_s.wav
192,192,6637,1,0,0:0:0:80:G#6S_Ab6S_s.wav
64,192,6946,1,0,0:0:0:80:F6S_s.wav
320,192,6946,1,2,0:0:0:0:
448,192,7410,128,4,7720:0:0:0:0:
192,192,7410,1,0,0:0:0:0:
64,192,7720,1,0,0:0:0:70:tom1.wav
320,192,7874,1,8,0:0:0:0:
192,192,8029,1,8,0:0:0:0:
192,192,8184,1,8,0:0:0:0:
448,192,8338,1,2,0:0:0:0:
320,192,8338,1,4,0:0:0:0:
64,192,8647,1,8,0:0:0:0:
448,192,8647,1,0,0:0:0:0:
320,192,8957,1,2,0:0:0:0:
192,192,9111,1,2,0:0:0:0:
448,192,9266,1,8,0:0:0:0:
64,192,9266,1,0,0:0:0:0:
320,192,9575,1,2,0:0:0:0:
448,192,9885,1,8,0:0:0:0:
192,192,9885,1,0,0:0:0:0:
64,192,10194,1,2,0:0:0:0:
192,192,10348,1,2,0:0:0:0:
320,192,10503,1,8,0:0:0:0:
448,192,10503,1,0,0:0:0:0:
192,192,10812,1,2,0:0:0:0:
320,192,11122,1,8,0:0:0:0:
64,192,11122,1,0,0:0:0:0:
448,192,11431,1,2,0:0:0:0:
320,192,11586,1,2,0:0:0:0:
192,192,11740,1,8,0:0:0:0:
64,192,11740,1,0,0:0:0:0:
320,192,12050,1,2,0:0:0:0:
448,192,12359,1,8,0:0:0:0:
192,192,12359,1,0,0:0:0:0:
64,192,12668,1,2,0:0:0:0:
192,192,12823,1,2,0:0:0:0:
320,192,12977,1,8,0:0:0:0:
448,192,12977,128,0,13287:0:0:0:0:
192,192,13287,1,2,0:0:0:0:
64,192,13287,1,4,0:0:0:0:
64,192,13596,1,8,0:0:0:0:
320,192,13596,1,0,0:0:0:0:
448,192,13905,1,2,0:0:0:0:
320,192,14060,1,2,0:0:0:0:
192,192,14214,1,8,0:0:0:0:
64,192,14214,1,0,0:0:0:0:
320,192,14524,1,2,0:0:0:0:
448,192,14833,1,8,0:0:0:0:
64,192,14833,1,0,0:0:0:0:
192,192,15142,1,2,0:0:0:0:
320,192,15142,1,4,0:0:0:0:
64,192,15297,1,2,0:0:0:0:
448,192,15452,1,8,0:0:0:0:
320,192,15452,1,0,0:0:0:0:
448,192,15761,1,2,0:0:0:0:
64,192,15761,128,4,16998:0:0:0:0:
448,192,16998,128,0,17230:0:0:0:80:A#5S_Bb5S_s.wav
192,192,17230,128,0,17462:0:0:0:80:A5S_s.wav
320,192,17462,1,0,0:0:0:80:A#5S_Bb5S_s.wav
448,192,17617,1,0,0:0:0:80:C6S_s.wav
64,192,17617,1,8,0:0:0:0:
320,192,17771,1,2,0:0:0:0:
192,192,17926,1,8,0:0:0:0:
448,192,18235,1,2,0:0:0:0:
64,192,18235,1,4,0:0:0:0:
64,192,18390,1,8,0:0:0:0:
320,192,18544,1,2,0:0:0:0:
192,192,18699,1,8,0:0:0:0:
448,192,18854,1,2,0:0:0:0:
64,192,19008,1,8,0:0:0:0:
192,192,19163,1,2,0:0:0:0:
320,192,19318,1,8,0:0:0:0:
448,192,19472,1,2,0:0:0:0:
192,192,19627,1,8,0:0:0:0:
64,192,19781,1,2,0:0:0:0:
320,192,19936,1,8,0:0:0:0:
192,192,20091,1,2,0:0:0:0:
448,192,20245,1,8,0:0:0:0:
64,192,20400,1,2,0:0:0:0:
320,192,20555,1,8,0:0:0:0:
192,192,20709,1,2,0:0:0:0:
192,192,20864,1,8,0:0:0:0:
448,192,21019,1,2,0:0:0:0:
64,192,21173,1,8,0:0:0:0:
320,192,21328,1,2,0:0:0:0:
448,192,21483,1,8,0:0:0:0:
64,192,21637,1,2,0:0:0:0:
192,192,21792,1,8,0:0:0:0:
320,192,21946,1,2,0:0:0:0:
64,192,22101,1,8,0:0:0:0:
448,192,22256,1,2,0:0:0:0:
320,192,22410,1,8,0:0:0:0:
192,192,22565,1,2,0:0:0:0:
448,192,22720,1,8,0:0:0:0:
64,192,22874,1,2,0:0:0:0:
192,192,23029,1,8,0:0:0:0:
320,192,23184,1,0,0:0:0:80:F6S.wav
448,192,23184,1,6,0:0:0:0:
448,192,23338,1,8,0:0:0:0:
64,192,23493,1,2,0:0:0:0:
320,192,23647,1,8,0:0:0:0:
448,192,23802,1,0,0:0:0:80:C5S_s.wav
64,192,23957,128,0,24266:0:0:0:80:A#5S_Bb5S_s.wav
192,192,24111,1,2,0:0:0:0:
320,192,24266,128,0,24575:0:0:0:80:A5S_s.wav
448,192,24421,1,2,0:0:0:0:
192,192,24575,128,0,24885:0:0:0:80:A#5S_Bb5S_s.wav
64,192,24730,1,0,0:0:0:80:G5S_s.wav
448,192,24885,128,0,25348:0:0:0:80:F5S.wav
320,192,25039,1,2,0:0:0:0:
64,192,25194,1,8,0:0:0:0:
192,192,25348,1,2,0:0:0:0:
320,192,25503,1,8,0:0:0:0:
64,192,25658,1,2,0:0:0:0:
64,192,25812,1,8,0:0:0:0:
448,192,25967,1,2,0:0:0:0:
192,192,26122,1,8,0:0:0:0:
320,192,26276,1,0,0:0:0:80:E5S_s.wav
64,192,26431,1,8,0:0:0:0:
448,192,26586,128,2,26895:0:0:0:0:
192,192,26895,1,0,0:0:0:80:F5S_s.wav
64,192,26895,1,6,0:0:0:0:
320,192,27204,1,0,0:0:0:80:G5S_s.wav
192,192,27204,1,8,0:0:0:0:
448,192,27513,1,0,0:0:0:80:G5S_s.wav
64,192,27513,1,12,0:0:0:0:
320,192,27668,1,8,0:0:0:0:
192,192,27823,128,8,28132:0:0:0:0:
320,192,28132,1,2,0:0:0:0:
448,192,28132,1,4,0:0:0:0:
64,192,28287,1,8,0:0:0:0:
448,192,28441,1,2,0:0:0:0:
192,192,28596,1,8,0:0:0:0:
320,192,28751,1,2,0:0:0:0:
64,192,28905,1,8,0:0:0:0:
448,192,29060,1,2,0:0:0:0:
192,192,29214,1,8,0:0:0:0:
320,192,29369,1,2,0:0:0:0:
448,192,29524,1,8,0:0:0:0:
64,192,29678,1,2,0:0:0:0:
320,192,29833,1,8,0:0:0:0:
64,192,29988,1,2,0:0:0:0:
320,192,30142,1,8,0:0:0:0:
192,192,30297,1,2,0:0:0:0:
448,192,30452,1,8,0:0:0:0:
64,192,30606,1,2,0:0:0:0:
64,192,30761,1,8,0:0:0:0:
448,192,30916,1,2,0:0:0:0:
320,192,31070,1,8,0:0:0:0:
192,192,31225,1,2,0:0:0:0:
448,192,31379,1,8,0:0:0:0:
64,192,31534,1,2,0:0:0:0:
192,192,31689,1,8,0:0:0:0:
320,192,31843,1,2,0:0:0:0:
64,192,31998,1,8,0:0:0:0:
448,192,32153,1,2,0:0:0:0:
192,192,32307,1,8,0:0:0:0:
448,192,32462,1,2,0:0:0:0:
192,192,32617,1,8,0:0:0:0:
320,192,32771,1,2,0:0:0:0:
64,192,32926,1,8,0:0:0:0:
320,192,33080,1,0,0:0:0:80:C7S_s.wav
192,192,33080,1,6,0:0:0:0:
448,192,33235,128,0,33390:0:0:0:80:A#6S_Bb6S_s.wav
64,192,33390,1,2,0:0:0:0:
320,192,33544,128,0,33699:0:0:0:80:A6S_s.wav
448,192,33699,1,2,0:0:0:0:
192,192,33854,128,0,34008:0:0:0:80:G6S_s.wav
320,192,34008,1,2,0:0:0:0:
64,192,34163,128,0,34472:0:0:0:80:F6S.wav
448,192,34318,1,2,0:0:0:0:
320,192,34472,128,8,34627:0:0:0:0:
192,192,34627,128,0,34781:0:0:0:80:G6S_s.wav
448,192,34781,128,0,34936:0:0:0:80:A6S_s.wav
64,192,34936,1,2,0:0:0:0:
192,192,35091,1,8,0:0:0:0:
448,192,35245,1,2,0:0:0:0:
320,192,35400,1,8,0:0:0:0:
64,192,35555,1,2,0:0:0:0:
192,192,35555,1,4,0:0:0:0:
64,192,35709,1,8,0:0:0:0:
448,192,35864,1,2,0:0:0:0:
192,192,36019,1,8,0:0:0:0:
320,192,36173,1,2,0:0:0:0:
448,192,36328,1,8,0:0:0:0:
64,192,36483,128,2,36792:0:0:0:0:
448,192,36792,1,0,0:0:0:80:C6S.wav
320,192,36792,1,6,0:0:0:0:
448,192,36946,1,0,0:0:0:80:D6S_s.wav
192,192,37101,1,8,0:0:0:0:
64,192,37256,1,0,0:0:0:80:E6S.wav
320,192,37256,1,6,0:0:0:0:
64,192,37565,1,0,0:0:0:80:G6S.wav
448,192,37565,128,6,38029:0:0:0:0:
192,192,38029,1,2,0:0:0:0:
320,192,38029,1,4,0:0:0:0:
64,192,38184,128,0,38338:0:0:0:0:
320,192,38338,1,8,0:0:0:0:
448,192,38493,128,0,38647:0:0:0:0:
192,192,38647,1,2,0:0:0:0:
320,192,38802,128,2,38957:0:0:0:0:
64,192,38957,1,8,0:0:0:0:
192,192,39111,128,0,39266:0:0:0:0:
448,192,39266,1,2,0:0:0:0:
320,192,39421,128,0,39575:0:0:0:0:
64,192,39575,1,8,0:0:0:0:
192,192,39730,128,0,39885:0:0:0:0:
448,192,39885,1,2,0:0:0:0:
320,192,40039,128,2,40194:0:0:0:0:
64,192,40194,1,8,0:0:0:0:
192,192,40348,128,0,40503:0:0:0:0:
448,192,40503,1,2,0:0:0:0:
320,192,40658,128,0,40812:0:0:0:0:
64,192,40812,1,8,0:0:0:0:
448,192,40967,128,0,41122:0:0:0:80:C6S_s.wav
192,192,41122,1,0,0:0:0:80:C6S_s.wav
64,192,41276,128,0,41431:0:0:0:80:C6S_s.wav
448,192,41431,1,0,0:0:0:80:C6S_s.wav
320,192,41586,128,0,41740:0:0:0:80:C6S_s.wav
192,192,41740,1,0,0:0:0:80:C6S_s.wav
64,192,41895,128,0,42050:0:0:0:80:C6S_s.wav
448,192,42050,1,0,0:0:0:80:D6S_s.wav
192,192,42204,128,0,42359:0:0:0:80:E6S.wav
320,192,42359,1,2,0:0:0:0:
448,192,42513,128,2,42668:0:0:0:0:
64,192,42668,1,8,0:0:0:0:
192,192,42823,128,0,42977:0:0:0:0:
320,192,42977,1,2,0:0:0:0:
448,192,43132,128,0,43287:0:0:0:0:
64,192,43287,1,8,0:0:0:0:
192,192,43441,128,0,43596:0:0:0:0:
320,192,43596,1,2,0:0:0:0:
448,192,43751,128,2,43905:0:0:0:0:
64,192,43905,1,8,0:0:0:0:
192,192,44060,128,0,44214:0:0:0:0:
320,192,44214,1,2,0:0:0:0:
448,192,44369,128,0,44524:0:0:0:0:
64,192,44524,1,8,0:0:0:0:
320,192,44678,128,0,44833:0:0:0:0:
192,192,44833,1,2,0:0:0:0:
64,192,44988,128,2,45142:0:0:0:0:
448,192,45142,1,8,0:0:0:0:
320,192,45297,128,0,45452:0:0:0:0:
192,192,45452,1,2,0:0:0:0:
448,192,45606,128,0,45761:0:0:0:0:
64,192,45761,1,8,0:0:0:0:
192,192,45916,128,8,46070:0:0:0:0:
320,192,46070,1,0,0:0:0:80:C6S_s.wav
64,192,46225,128,2,46379:0:0:0:0:
448,192,46379,1,0,0:0:0:70:G5S_s.wav
192,192,46379,1,12,0:0:0:0:
320,192,46534,1,2,0:0:0:0:
192,192,46689,128,0,46998:0:0:0:80:E5S.wav
64,192,46689,1,2,0:0:0:0:
448,192,46998,1,0,0:0:0:80:F5S_s.wav
320,192,47153,128,0,47307:0:0:0:80:G5S.wav
64,192,47307,1,0,0:0:0:70:tom1.wav
448,192,47462,128,0,47771:0:0:0:0:
64,192,47771,1,8,0:0:0:0:
320,192,47926,1,2,0:0:0:0:
192,192,47926,1,4,0:0:0:0:
448,192,48235,1,8,0:0:0:0:
64,192,48235,128,0,48544:0:0:0:0:
448,192,48544,1,2,0:0:0:0:
320,192,48699,1,2,0:0:0:0:
192,192,48854,1,8,0:0:0:0:
64,192,49008,1,0,0:0:0:0:
448,192,49163,1,2,0:0:0:0:
192,192,49472,128,8,49781:0:0:0:0:
64,192,49472,1,0,0:0:0:0:
448,192,49781,1,2,0:0:0:0:
320,192,49936,1,2,0:0:0:0:
192,192,50091,128,8,50400:0:0:0:0:
64,192,50091,1,0,0:0:0:0:
320,192,50400,1,2,0:0:0:0:
448,192,50709,128,8,51019:0:0:0:0:
192,192,50709,1,0,0:0:0:0:
64,192,51019,1,2,0:0:0:0:
192,192,51173,1,2,0:0:0:0:
448,192,51328,128,8,51637:0:0:0:0:
320,192,51328,1,0,0:0:0:0:
64,192,51637,1,2,0:0:0:0:
448,192,51946,128,8,52256:0:0:0:0:
320,192,51946,1,0,0:0:0:0:
64,192,52256,1,2,0:0:0:0:
320,192,52410,1,2,0:0:0:0:
192,192,52565,1,8,0:0:0:0:
448,192,52720,1,0,0:0:0:70:tom1.wav
64,192,52874,1,2,0:0:0:0:
192,192,52874,1,4,0:0:0:0:
64,192,53029,1,2,0:0:0:0:
448,192,53338,1,2,0:0:0:0:
192,192,53647,1,2,0:0:0:0:
64,192,53957,128,2,55348:0:0:0:0:
320,192,53957,1,4,0:0:0:0:
448,192,54421,1,10,0:0:0:0:
192,192,54730,1,10,0:0:0:0:
448,192,55039,1,10,0:0:0:0:
320,192,55348,1,0,0:0:0:80:C#6S_Db6S.wav
192,192,55348,128,6,55967:0:0:0:0:
320,192,55967,128,0,56586:0:0:0:80:D6S.wav
192,192,56586,1,0,0:0:0:80:E6S.wav
64,192,56740,128,0,56895:0:0:0:70:tom1.wav
320,192,56895,128,0,57050:0:0:0:70:tom2.wav
192,192,57204,128,0,57359:0:0:0:70:tom2.wav
448,192,57359,128,0,57513:0:0:0:70:tom1.wav
64,192,57513,1,2,0:0:0:0:
192,192,57668,128,8,57823:0:0:0:0:
320,192,57823,128,0,57977:0:0:0:70:tom1.wav
448,192,57977,1,2,0:0:0:0:
64,192,58132,128,8,58287:0:0:0:0:
448,192,58287,128,8,58441:0:0:0:0:
192,192,58441,1,0,0:0:0:70:tom2.wav
320,192,58596,1,8,0:0:0:0:
64,192,58751,1,8,0:0:0:0:
64,192,58905,1,8,0:0:0:0:
448,192,59060,1,2,0:0:0:0:
320,192,59060,1,4,0:0:0:0:
192,192,59214,1,8,0:0:0:0:
64,192,59369,1,2,0:0:0:0:
448,192,59524,1,8,0:0:0:0:
192,192,59678,1,2,0:0:0:0:
320,192,59833,1,8,0:0:0:0:
64,192,59988,1,2,0:0:0:0:
448,192,60142,1,8,0:0:0:0:
192,192,60297,1,2,0:0:0:0:
320,192,60452,1,8,0:0:0:0:
64,192,60606,1,2,0:0:0:0:
448,192,60761,1,8,0:0:0:0:
320,192,60916,1,2,0:0:0:0:
64,192,61070,1,8,0:0:0:0:
192,192,61225,1,2,0:0:0:0:
320,192,61379,1,8,0:0:0:0:
64,192,61534,1,2,0:0:0:0:
448,192,61534,1,4,0:0:0:0:
192,192,61689,1,8,0:0:0:0:
320,192,61843,1,2,0:0:0:0:
448,192,61998,1,8,0:0:0:0:
192,192,62153,1,2,0:0:0:0:
320,192,62307,1,8,0:0:0:0:
64,192,62462,1,2,0:0:0:0:
448,192,62617,1,8,0:0:0:0:
320,192,62771,1,2,0:0:0:0:
192,192,62926,1,8,0:0:0:0:
64,192,63080,128,2,63235:0:0:0:0:
448,192,63235,1,8,0:0:0:0:
320,192,63390,128,2,63544:0:0:0:0:
192,192,63544,1,8,0:0:0:0:
448,192,63699,128,2,63854:0:0:0:0:
64,192,63854,128,8,64008:0:0:0:0:
192,192,64008,1,2,0:0:0:0:
320,192,64008,1,4,0:0:0:0:
448,192,64163,1,8,0:0:0:0:
192,192,64318,1,2,0:0:0:0:
320,192,64472,1,8,0:0:0:0:
64,192,64627,1,2,0:0:0:0:
192,192,64781,1,8,0:0:0:0:
448,192,64936,1,2,0:0:0:0:
320,192,65091,1,8,0:0:0:0:
64,192,65245,1,2,0:0:0:0:
448,192,65400,1,8,0:0:0:0:
320,192,65555,1,2,0:0:0:0:
192,192,65709,1,8,0:0:0:0:
64,192,65864,128,2,66483:0:0:0:0:
448,192,66019,1,8,0:0:0:0:
320,192,66173,1,2,0:0:0:0:
448,192,66483,1,2,0:0:0:0:
192,192,66483,1,4,0:0:0:0:
64,192,66792,1,8,0:0:0:0:
192,192,66946,1,0,0:0:0:0:
448,192,67101,1,2,0:0:0:0:
320,192,67256,1,2,0:0:0:0:
64,192,67410,1,8,0:0:0:0:
192,192,67565,1,10,0:0:0:0:
192,192,67874,1,10,0:0:0:0:
448,192,68029,1,10,0:0:0:0:
320,192,68184,1,10,0:0:0:0:
64,192,68338,128,2,68647:0:0:0:0:
192,192,68338,1,0,0:0:0:80:tom1.wav
320,192,68647,128,8,68957:0:0:0:0:
64,192,68957,1,2,0:0:0:0:
192,192,68957,1,4,0:0:0:0:
448,192,69111,1,8,0:0:0:0:
320,192,69266,1,2,0:0:0:0:
192,192,69421,1,8,0:0:0:0:
448,192,69575,1,2,0:0:0:0:
64,192,69730,1,8,0:0:0:0:
320,192,69885,1,2,0:0:0:0:
192,192,70039,1,8,0:0:0:0:
64,192,70194,128,2,70503:0:0:0:0:
448,192,70348,1,8,0:0:0:0:
192,192,70503,1,2,0:0:0:0:
320,192,70658,1,8,0:0:0:0:
448,192,70812,128,2,71122:0:0:0:0:
192,192,70967,1,8,0:0:0:0:
64,192,71122,1,2,0:0:0:0:
320,192,71276,1,8,0:0:0:0:
192,192,71431,128,2,71586:0:0:0:0:
448,192,71586,1,8,0:0:0:0:
64,192,71740,128,2,71895:0:0:0:0:
192,192,71895,1,8,0:0:0:0:
448,192,72050,128,2,72204:0:0:0:0:
320,192,72204,1,8,0:0:0:0:
64,192,72359,1,2,0:0:0:0:
448,192,72513,1,8,0:0:0:0:
192,192,72668,1,6,0:0:0:0:
320,192,72823,1,2,0:0:0:0:
448,192,72977,1,8,0:0:0:0:
64,192,73132,1,6,0:0:0:0:
320,192,73441,1,2,0:0:0:0:
192,192,73596,128,8,73905:0:0:0:0:
448,192,73905,1,2,0:0:0:0:
64,192,73905,1,4,0:0:0:0:
64,192,74060,1,8,0:0:0:0:
320,192,74214,1,2,0:0:0:0:
448,192,74369,1,8,0:0:0:0:
192,192,74524,1,2,0:0:0:0:
320,192,74678,1,8,0:0:0:0:
64,192,74833,1,2,0:0:0:0:
448,192,74988,1,8,0:0:0:0:
320,192,75142,1,2,0:0:0:0:
192,192,75297,1,8,0:0:0:0:
64,192,75452,1,2,0:0:0:0:
448,192,75606,1,8,0:0:0:0:
192,192,75761,1,2,0:0:0:0:
320,192,75916,1,8,0:0:0:0:
64,192,76070,1,2,0:0:0:0:
192,192,76225,1,8,0:0:0:0:
448,192,76379,1,2,0:0:0:0:
320,192,76379,1,4,0:0:0:0:
448,192,76534,1,8,0:0:0:0:
192,192,76689,1,2,0:0:0:0:
320,192,76843,1,8,0:0:0:0:
64,192,76998,1,2,0:0:0:0:
192,192,77153,1,8,0:0:0:0:
320,192,77307,1,2,0:0:0:0:
64,192,77462,1,8,0:0:0:0:
448,192,77617,1,2,0:0:0:0:
320,192,77771,1,8,0:0:0:0:
192,192,77926,1,2,0:0:0:0:
64,192,78080,1,8,0:0:0:0:
320,192,78235,1,2,0:0:0:0:
192,192,78390,1,8,0:0:0:0:
448,192,78544,128,8,78854:0:0:0:0:
320,192,78854,1,0,0:0:0:80:D5S.wav
192,192,78854,1,6,0:0:0:0:
64,192,79008,1,8,0:0:0:0:
320,192,79163,1,2,0:0:0:0:
64,192,79318,128,8,79472:0:0:0:0:
448,192,79472,1,2,0:0:0:0:
320,192,79627,128,8,79781:0:0:0:0:
192,192,79781,128,2,79936:0:0:0:0:
448,192,79936,128,8,80091:0:0:0:0:
64,192,80091,1,2,0:0:0:0:
320,192,80245,128,8,80400:0:0:0:0:
448,192,80400,1,2,0:0:0:0:
192,192,80555,128,8,80709:0:0:0:0:
320,192,80709,1,2,0:0:0:0:
64,192,80864,128,8,81019:0:0:0:0:
448,192,81019,128,2,81173:0:0:0:0:
192,192,81173,1,8,0:0:0:0:
320,192,81328,1,2,0:0:0:0:
64,192,81483,1,8,0:0:0:0:
448,192,81637,1,2,0:0:0:0:
192,192,81792,128,8,81946:0:0:0:0:
64,192,81946,1,2,0:0:0:0:
320,192,82101,128,8,82256:0:0:0:0:
448,192,82256,128,2,82410:0:0:0:0:
64,192,82410,128,8,82565:0:0:0:0:
192,192,82565,1,2,0:0:0:0:
320,192,82720,128,8,82874:0:0:0:0:
64,192,82874,1,2,0:0:0:0:
448,192,83029,128,8,83184:0:0:0:0:
320,192,83184,1,2,0:0:0:0:
64,192,83338,128,8,83493:0:0:0:0:
320,192,83493,128,8,83647:0:0:0:0:
192,192,83647,128,8,83802:0:0:0:0:
64,192,83802,1,0,0:0:0:80:D6S_s.wav
448,192,83802,1,6,0:0:0:0:
192,192,84111,128,0,84421:0:0:0:80:D6S_s.wav
320,192,84421,1,0,0:0:0:80:C6S_s.wav
448,192,84575,128,0,84885:0:0:0:80:D6S_s.wav
192,192,84885,128,0,85194:0:0:0:80:F6S_s.wav
64,192,84885,1,2,0:0:0:0:
320,192,85194,1,0,0:0:0:80:D6S_s.wav
448,192,85348,1,8,0:0:0:0:
64,192,85348,1,0,0:0:0:0:
320,192,85503,128,0,85812:0:0:0:80:C6S_s.wav
64,192,85812,1,0,0:0:0:80:D6S_s.wav
192,192,85967,1,0,0:0:0:80:F6S_s.wav
192,192,86122,1,0,0:0:0:80:G6S_s.wav
448,192,86276,1,0,0:0:0:80:G#6S_Ab6S_s.wav
448,192,86586,128,0,86895:0:0:0:80:G#6S_Ab6S_s.wav
64,192,86895,128,0,87050:0:0:0:80:G6S_s.wav
320,192,87050,128,0,87204:0:0:0:80:F6S_s.wav
192,192,87204,1,8,0:0:0:0:
448,192,87359,1,0,0:0:0:80:D6S.wav
64,192,87359,1,2,0:0:0:0:
320,192,87823,128,0,88287:0:0:0:80:D7S.wav
448,192,87823,128,6,88287:0:0:0:0:
