osu file format v14

[General]
AudioFilename: audio.mp3
AudioLeadIn: 0
PreviewTime: 59060
Countdown: 0
SampleSet: Soft
StackLeniency: 0.7
Mode: 3
LetterboxInBreaks: 0
SpecialStyle: 0
WidescreenStoryboard: 0

[Editor]
DistanceSpacing: 0.5
BeatDivisor: 4
GridSize: 4
TimelineZoom: 2.8

[Metadata]
Title:Tutti! (TV Size)
TitleUnicode:トゥッティ! (TV Size)
Artist:Kitauji Quartet
ArtistUnicode:北宇治カルテット
Creator:KeppSado
Version:Euphonium
Source:響け!ユーフォニアム
Tags:-mysticeyes famoss hibike! sound euphonium ending ED
BeatmapID:1835991
BeatmapSetID:877844

[Difficulty]
HPDrainRate:8
CircleSize:4
OverallDifficulty:8
ApproachRate:5
SliderMultiplier:1.4
SliderTickRate:1

[Events]
//Background and Video events
0,0,"bg.jpg",0,0
//Break Periods
//Storyboard Layer 0 (Background)
//Storyboard Layer 1 (Fail)
//Storyboard Layer 2 (Pass)
//Storyboard Layer 3 (Foreground)
//Storyboard Sound Samples

[TimingPoints]
916,309.278350515464,4,2,1,60,1,0
59060,-100,4,2,1,60,0,1
73905,-100,4,2,1,60,0,0

[HitObjects]
64,192,722,5,0,0:0:0:0:
192,192,780,1,0,0:0:0:0:
320,192,838,1,0,0:0:0:0:
448,192,916,1,2,0:0:0:0:
64,192,916,128,0,1070:0:0:0:0:
192,192,1070,1,0,0:0:0:0:
448,192,1225,1,2,0:0:0:0:
64,192,1225,128,0,1379:0:0:0:0:
192,192,1379,1,0,0:0:0:0:
64,192,1534,1,2,0:0:0:0:
448,192,1534,128,0,1689:0:0:0:0:
192,192,1689,128,0,1843:0:0:0:0:
448,192,1843,1,2,0:0:0:0:
64,192,1843,1,0,0:0:0:0:
320,192,1998,128,0,2153:0:0:0:0:
64,192,2153,1,2,0:0:0:0:
448,192,2153,1,0,0:0:0:0:
192,192,2307,128,0,2462:0:0:0:0:
448,192,2462,1,2,0:0:0:0:
64,192,2462,1,0,0:0:0:0:
192,192,2617,128,0,2771:0:0:0:0:
320,192,2771,1,2,0:0:0:0:
448,192,2771,1,0,0:0:0:0:
64,192,2926,128,0,3080:0:0:0:0:
192,192,3080,1,2,0:0:0:0:
320,192,3080,1,0,0:0:0:0:
320,192,3235,1,0,0:0:0:0:
448,192,3390,128,0,4781:0:0:0:80:F6S_s.wav
192,192,3390,128,2,3544:0:0:0:0:
192,192,3699,128,0,4008:0:0:0:80:F6S_s.wav
64,192,4008,128,0,4318:0:0:0:80:D#6S_Eb6S_s.wav
320,192,4163,128,0,4472:0:0:0:80:F6S_s.wav
192,192,4472,128,0,5091:0:0:0:80:G#6S_Ab6S_s.wav
64,192,4781,128,0,5091:0:0:0:80:F6S_s.wav
320,192,5091,128,0,5400:0:0:0:80:D#6S_Eb6S_s.wav
448,192,5400,1,0,0:0:0:80:F6S_s.wav
64,192,5400,128,2,5555:0:0:0:0:
192,192,5555,1,0,0:0:0:80:G#6S_Ab6S_s.wav
448,192,5555,128,0,5709:0:0:0:70:tom1.wav
320,192,5709,1,0,0:0:0:80:A#6S_Bb6S_s.wav
192,192,5709,128,0,5864:0:0:0:70:tom2.wav
64,192,5864,128,0,6019:0:0:0:80:B6S_s.wav
448,192,5864,128,2,6019:0:0:0:0:
64,192,6173,128,0,6328:0:0:0:80:B6S_s.wav
448,192,6173,128,2,6328:0:0:0:0:
64,192,6483,1,0,0:0:0:80:A#6S_Bb6S_s.wav
192,192,6483,1,8,0:0:0:0:
320,192,6560,1,2,0:0:0:0:
448,192,6560,1,0,0:0:0:0:
192,192,6637,1,0,0:0:0:80:G#6S_Ab6S_s.wav
64,192,6637,1,8,0:0:0:0:
448,192,6714,1,0,0:0:0:0:
320,192,6792,1,0,0:0:0:0:
192,192,6869,1,0,0:0:0:0:
448,192,6946,1,0,0:0:0:80:F6S_s.wav
64,192,6946,128,2,7101:0:0:0:0:
192,192,7410,128,0,7642:0:0:0:0:
320,192,7410,128,4,7642:0:0:0:0:
448,192,7410,128,0,7642:0:0:0:0:
64,192,7410,128,0,7642:0:0:0:0:
64,192,7720,1,0,0:0:0:70:tom1.wav
192,192,7720,1,0,0:0:0:0:
320,192,7874,1,8,0:0:0:0:
448,192,7874,1,0,0:0:0:0:
64,192,7952,1,8,0:0:0:0:
192,192,7952,1,0,0:0:0:0:
448,192,8029,1,8,0:0:0:0:
320,192,8068,1,0,0:0:0:0:
192,192,8106,1,0,0:0:0:0:
64,192,8145,1,0,0:0:0:0:
448,192,8184,1,8,0:0:0:0:
320,192,8222,1,0,0:0:0:0:
64,192,8261,1,0,0:0:0:0:
192,192,8300,1,0,0:0:0:0:
320,192,8338,1,2,0:0:0:0:
448,192,8338,128,4,8647:0:0:0:0:
64,192,8647,128,8,8802:0:0:0:0:
192,192,8647,1,0,0:0:0:0:
320,192,8802,128,0,8957:0:0:0:0:
64,192,8957,1,2,0:0:0:0:
192,192,8957,128,0,9885:0:0:0:0:
448,192,9111,1,2,0:0:0:0:
320,192,9111,1,0,0:0:0:0:
448,192,9266,1,8,0:0:0:0:
64,192,9266,1,0,0:0:0:0:
64,192,9421,1,0,0:0:0:0:
448,192,9575,1,2,0:0:0:0:
320,192,9575,1,0,0:0:0:0:
320,192,9730,1,0,0:0:0:0:
64,192,9885,1,8,0:0:0:0:
448,192,9885,128,0,10194:0:0:0:0:
64,192,10039,128,0,10194:0:0:0:0:
320,192,10194,1,2,0:0:0:0:
192,192,10194,1,0,0:0:0:0:
448,192,10348,128,2,10503:0:0:0:0:
64,192,10348,1,0,0:0:0:0:
320,192,10503,128,8,10658:0:0:0:0:
192,192,10503,1,0,0:0:0:0:
64,192,10658,128,0,10812:0:0:0:0:
448,192,10812,1,2,0:0:0:0:
192,192,10812,128,0,11122:0:0:0:0:
448,192,11122,128,8,11276:0:0:0:0:
64,192,11122,1,0,0:0:0:0:
320,192,11276,128,0,11431:0:0:0:0:
64,192,11431,128,2,12359:0:0:0:0:
192,192,11431,1,0,0:0:0:0:
448,192,11586,1,2,0:0:0:0:
320,192,11586,1,0,0:0:0:0:
448,192,11740,1,8,0:0:0:0:
192,192,11740,1,0,0:0:0:0:
192,192,11895,1,0,0:0:0:0:
448,192,12050,1,2,0:0:0:0:
320,192,12050,1,0,0:0:0:0:
320,192,12204,1,0,0:0:0:0:
192,192,12359,1,8,0:0:0:0:
448,192,12359,1,0,0:0:0:0:
64,192,12513,1,8,0:0:0:0:
448,192,12513,128,0,12668:0:0:0:0:
320,192,12668,1,2,0:0:0:0:
192,192,12668,1,0,0:0:0:0:
64,192,12823,128,2,12977:0:0:0:0:
192,192,12823,1,0,0:0:0:0:
448,192,12977,1,8,0:0:0:0:
320,192,12977,1,0,0:0:0:0:
192,192,13055,1,8,0:0:0:0:
64,192,13055,1,0,0:0:0:0:
320,192,13132,1,8,0:0:0:0:
448,192,13132,1,0,0:0:0:0:
192,192,13209,1,8,0:0:0:0:
64,192,13287,1,2,0:0:0:0:
320,192,13287,1,4,0:0:0:0:
448,192,13287,128,0,13596:0:0:0:0:
192,192,13596,1,8,0:0:0:0:
64,192,13596,128,0,13751:0:0:0:0:
320,192,13751,128,0,13905:0:0:0:0:
448,192,13905,128,2,14833:0:0:0:0:
192,192,13905,1,0,0:0:0:0:
64,192,14060,1,2,0:0:0:0:
320,192,14060,1,0,0:0:0:0:
192,192,14214,1,8,0:0:0:0:
64,192,14214,1,0,0:0:0:0:
320,192,14369,1,0,0:0:0:0:
64,192,14524,1,2,0:0:0:0:
320,192,14524,1,0,0:0:0:0:
192,192,14678,1,0,0:0:0:0:
192,192,14833,1,8,0:0:0:0:
64,192,14833,1,0,0:0:0:0:
448,192,14988,1,0,0:0:0:0:
320,192,15065,1,0,0:0:0:0:
192,192,15142,128,2,15761:0:0:0:0:
64,192,15142,1,4,0:0:0:0:
448,192,15142,1,0,0:0:0:0:
320,192,15297,1,2,0:0:0:0:
64,192,15297,1,0,0:0:0:0:
320,192,15452,1,8,0:0:0:0:
448,192,15452,1,0,0:0:0:0:
64,192,15761,128,2,16998:0:0:0:0:
448,192,15761,1,4,0:0:0:0:
320,192,15761,1,0,0:0:0:0:
320,192,16070,1,0,0:0:0:0:
192,192,16225,1,2,0:0:0:0:
448,192,16302,1,2,0:0:0:0:
320,192,16379,1,2,0:0:0:0:
192,192,16379,1,0,0:0:0:70:tom1.wav
448,192,16534,1,2,0:0:0:0:
320,192,16611,1,2,0:0:0:0:
448,192,16689,1,0,0:0:0:70:tom2.wav
192,192,16689,1,0,0:0:0:0:
448,192,16998,128,0,17462:0:0:0:80:A#5S_Bb5S_s.wav
320,192,16998,1,2,0:0:0:0:
64,192,17230,128,0,17694:0:0:0:80:A5S_s.wav
192,192,17462,128,0,17694:0:0:0:80:A#5S_Bb5S_s.wav
448,192,17617,128,0,17694:0:0:0:80:C6S_s.wav
320,192,17617,128,8,17694:0:0:0:0:
64,192,17771,1,2,0:0:0:0:
192,192,17848,1,2,0:0:0:0:
448,192,17926,1,8,0:0:0:0:
320,192,17926,1,0,0:0:0:0:
64,192,18235,128,2,18312:0:0:0:0:
192,192,18235,128,4,18312:0:0:0:0:
448,192,18235,1,0,0:0:0:0:
192,192,18390,128,8,18467:0:0:0:0:
64,192,18390,128,0,18467:0:0:0:0:
320,192,18544,1,2,0:0:0:0:
448,192,18699,1,8,0:0:0:0:
64,192,18699,1,0,0:0:0:0:
192,192,18854,1,2,0:0:0:0:
448,192,19008,1,8,0:0:0:0:
320,192,19008,1,0,0:0:0:0:
192,192,19163,1,2,0:0:0:0:
448,192,19318,1,8,0:0:0:0:
64,192,19318,1,0,0:0:0:0:
320,192,19472,1,2,0:0:0:0:
192,192,19627,1,8,0:0:0:0:
64,192,19627,1,0,0:0:0:0:
320,192,19781,1,2,0:0:0:0:
448,192,19936,1,8,0:0:0:0:
192,192,19936,1,0,0:0:0:0:
448,192,20091,1,2,0:0:0:0:
64,192,20245,1,8,0:0:0:0:
320,192,20245,1,0,0:0:0:0:
192,192,20400,1,2,0:0:0:0:
448,192,20555,1,8,0:0:0:0:
320,192,20555,1,0,0:0:0:0:
192,192,20709,128,2,20787:0:0:0:0:
64,192,20709,128,0,20787:0:0:0:0:
64,192,20864,128,8,20941:0:0:0:0:
192,192,20864,128,0,20941:0:0:0:0:
320,192,21019,1,2,0:0:0:0:
192,192,21173,1,8,0:0:0:0:
64,192,21173,1,0,0:0:0:0:
320,192,21328,1,2,0:0:0:0:
448,192,21483,1,8,0:0:0:0:
192,192,21483,1,0,0:0:0:0:
64,192,21637,1,2,0:0:0:0:
448,192,21792,1,8,0:0:0:0:
320,192,21792,1,0,0:0:0:0:
192,192,21946,1,2,0:0:0:0:
448,192,22101,1,8,0:0:0:0:
64,192,22101,1,0,0:0:0:0:
320,192,22256,1,2,0:0:0:0:
64,192,22410,1,8,0:0:0:0:
192,192,22410,1,0,0:0:0:0:
192,192,22565,1,2,0:0:0:0:
448,192,22720,1,8,0:0:0:0:
320,192,22720,1,0,0:0:0:0:
64,192,22874,1,2,0:0:0:0:
320,192,23029,1,8,0:0:0:0:
192,192,23029,1,0,0:0:0:0:
448,192,23184,128,0,23261:0:0:0:80:F6S.wav
64,192,23184,128,2,23261:0:0:0:0:
320,192,23184,1,4,0:0:0:0:
64,192,23338,128,8,23416:0:0:0:0:
448,192,23338,128,0,23416:0:0:0:0:
192,192,23493,1,2,0:0:0:0:
320,192,23647,1,8,0:0:0:0:
64,192,23647,1,0,0:0:0:0:
192,192,23802,128,0,23957:0:0:0:80:C5S_s.wav
448,192,23802,1,2,0:0:0:0:
64,192,23957,1,0,0:0:0:80:A#5S_Bb5S_s.wav
320,192,23957,128,8,24266:0:0:0:0:
192,192,24111,1,2,0:0:0:0:
64,192,24266,128,0,24575:0:0:0:80:A5S_s.wav
448,192,24266,1,8,0:0:0:0:
192,192,24421,1,2,0:0:0:0:
320,192,24575,1,0,0:0:0:80:A#5S_Bb5S_s.wav
448,192,24575,128,8,24730:0:0:0:0:
192,192,24730,128,0,24885:0:0:0:80:G5S_s.wav
64,192,24730,1,2,0:0:0:0:
320,192,24885,128,0,25194:0:0:0:80:F5S.wav
448,192,24885,1,8,0:0:0:0:
192,192,25039,1,2,0:0:0:0:
64,192,25194,1,8,0:0:0:0:
448,192,25194,1,0,0:0:0:0:
320,192,25348,1,2,0:0:0:0:
64,192,25503,1,8,0:0:0:0:
192,192,25503,1,0,0:0:0:0:
448,192,25658,128,2,25735:0:0:0:0:
320,192,25658,128,0,25735:0:0:0:0:
320,192,25812,128,8,25890:0:0:0:0:
448,192,25812,128,0,25890:0:0:0:0:
192,192,25967,1,2,0:0:0:0:
64,192,26122,1,8,0:0:0:0:
320,192,26122,1,0,0:0:0:0:
192,192,26276,128,0,26354:0:0:0:80:E5S_s.wav
448,192,26276,128,2,26354:0:0:0:0:
64,192,26431,1,8,0:0:0:0:
320,192,26431,1,0,0:0:0:0:
192,192,26586,1,2,0:0:0:0:
320,192,26663,1,8,0:0:0:0:
192,192,26740,1,0,0:0:0:80:E5S_s.wav
320,192,26818,1,8,0:0:0:0:
192,192,26895,128,0,27050:0:0:0:80:F5S_s.wav
64,192,26895,128,2,27050:0:0:0:0:
448,192,26895,128,4,27050:0:0:0:0:
448,192,27204,128,0,27359:0:0:0:80:G5S_s.wav
64,192,27204,1,8,0:0:0:0:
320,192,27359,1,2,0:0:0:0:
192,192,27436,1,2,0:0:0:0:
64,192,27513,128,0,27668:0:0:0:80:G5S_s.wav
448,192,27513,128,8,27668:0:0:0:0:
320,192,27668,1,8,0:0:0:0:
192,192,27668,1,0,0:0:0:0:
448,192,27745,1,8,0:0:0:0:
64,192,27823,1,8,0:0:0:0:
192,192,27900,1,8,0:0:0:0:
448,192,27977,1,2,0:0:0:0:
320,192,28055,1,2,0:0:0:0:
192,192,28132,128,2,28209:0:0:0:0:
64,192,28132,128,4,28209:0:0:0:0:
448,192,28132,1,0,0:0:0:0:
320,192,28287,1,8,0:0:0:0:
192,192,28287,1,0,0:0:0:0:
64,192,28441,1,2,0:0:0:0:
448,192,28596,1,8,0:0:0:0:
192,192,28596,1,0,0:0:0:0:
320,192,28751,1,2,0:0:0:0:
64,192,28905,1,8,0:0:0:0:
448,192,28905,128,0,29678:0:0:0:0:
320,192,29060,1,2,0:0:0:0:
64,192,29214,1,8,0:0:0:0:
192,192,29214,1,0,0:0:0:0:
320,192,29369,1,2,0:0:0:0:
192,192,29524,1,8,0:0:0:0:
64,192,29524,1,0,0:0:0:0:
320,192,29678,128,2,29756:0:0:0:0:
192,192,29756,128,0,29833:0:0:0:0:
448,192,29833,1,8,0:0:0:0:
64,192,29833,128,0,29910:0:0:0:0:
320,192,29988,128,2,30065:0:0:0:0:
192,192,30065,128,0,30142:0:0:0:0:
64,192,30142,128,8,30220:0:0:0:0:
448,192,30142,1,0,0:0:0:0:
192,192,30297,128,2,30452:0:0:0:0:
448,192,30452,1,8,0:0:0:0:
320,192,30452,1,0,0:0:0:0:
64,192,30606,128,2,31070:0:0:0:0:
192,192,30606,1,0,0:0:0:0:
320,192,30761,1,8,0:0:0:0:
448,192,30761,1,0,0:0:0:0:
192,192,30916,1,2,0:0:0:0:
448,192,31070,1,8,0:0:0:0:
320,192,31070,128,0,31534:0:0:0:0:
192,192,31225,1,2,0:0:0:0:
448,192,31379,1,8,0:0:0:0:
64,192,31379,1,0,0:0:0:0:
192,192,31534,128,2,31843:0:0:0:0:
320,192,31689,1,8,0:0:0:0:
64,192,31689,1,0,0:0:0:0:
448,192,31843,128,2,32153:0:0:0:0:
192,192,31998,1,8,0:0:0:0:
64,192,31998,1,0,0:0:0:0:
320,192,32153,128,2,32230:0:0:0:0:
64,192,32230,128,0,32307:0:0:0:0:
448,192,32307,128,8,32385:0:0:0:0:
192,192,32307,1,0,0:0:0:0:
320,192,32462,128,2,32539:0:0:0:0:
64,192,32539,128,0,32617:0:0:0:0:
448,192,32617,128,8,32694:0:0:0:0:
192,192,32617,1,0,0:0:0:0:
320,192,32771,1,2,0:0:0:0:
64,192,32926,1,8,0:0:0:0:
192,192,32926,1,0,0:0:0:0:
448,192,33080,128,0,33158:0:0:0:80:C7S_s.wav
64,192,33080,128,2,33158:0:0:0:0:
320,192,33080,1,4,0:0:0:0:
320,192,33235,128,0,33390:0:0:0:80:A#6S_Bb6S_s.wav
192,192,33235,1,8,0:0:0:0:
64,192,33390,1,2,0:0:0:0:
192,192,33544,128,0,33699:0:0:0:80:A6S_s.wav
448,192,33544,1,8,0:0:0:0:
320,192,33699,1,2,0:0:0:0:
64,192,33854,128,0,34008:0:0:0:80:G6S_s.wav
448,192,33854,1,8,0:0:0:0:
320,192,34008,1,2,0:0:0:0:
64,192,34163,1,0,0:0:0:80:F6S.wav
192,192,34163,128,8,34627:0:0:0:0:
448,192,34318,1,2,0:0:0:0:
64,192,34472,128,8,34627:0:0:0:0:
320,192,34472,1,0,0:0:0:0:
448,192,34627,128,0,34704:0:0:0:80:G6S_s.wav
320,192,34704,128,0,34781:0:0:0:0:
64,192,34781,1,0,0:0:0:80:A6S_s.wav
192,192,34781,128,8,34936:0:0:0:0:
448,192,34936,128,2,35013:0:0:0:0:
64,192,35013,128,0,35091:0:0:0:0:
192,192,35091,1,8,0:0:0:0:
320,192,35091,1,0,0:0:0:0:
448,192,35245,1,2,0:0:0:0:
320,192,35400,1,8,0:0:0:0:
192,192,35400,1,0,0:0:0:0:
64,192,35555,128,2,35632:0:0:0:0:
448,192,35555,128,4,35632:0:0:0:0:
320,192,35555,1,0,0:0:0:0:
448,192,35709,128,8,35787:0:0:0:0:
64,192,35709,128,0,35787:0:0:0:0:
192,192,35864,1,2,0:0:0:0:
448,192,36019,1,8,0:0:0:0:
64,192,36019,1,0,0:0:0:0:
320,192,36173,128,2,36637:0:0:0:0:
64,192,36328,1,8,0:0:0:0:
448,192,36328,1,0,0:0:0:0:
192,192,36483,1,2,0:0:0:0:
64,192,36560,1,8,0:0:0:0:
448,192,36637,1,8,0:0:0:0:
320,192,36714,1,8,0:0:0:0:
192,192,36792,128,0,36869:0:0:0:80:C6S.wav
64,192,36792,128,2,36869:0:0:0:0:
448,192,36792,1,4,0:0:0:0:
64,192,36946,128,0,37024:0:0:0:80:D6S_s.wav
320,192,36946,128,8,37024:0:0:0:0:
192,192,37101,1,8,0:0:0:0:
448,192,37101,1,0,0:0:0:0:
448,192,37256,128,0,37333:0:0:0:80:E6S.wav
320,192,37256,128,2,37333:0:0:0:0:
64,192,37256,128,4,37333:0:0:0:0:
320,192,37565,128,0,37797:0:0:0:80:G6S.wav
448,192,37565,128,2,37874:0:0:0:0:
192,192,37565,128,4,37720:0:0:0:0:
64,192,37720,1,8,0:0:0:0:
192,192,37874,1,0,0:0:0:0:
320,192,37952,1,0,0:0:0:0:
64,192,38029,1,2,0:0:0:0:
448,192,38029,1,4,0:0:0:0:
192,192,38029,1,0,0:0:0:0:
320,192,38184,1,0,0:0:0:0:
192,192,38338,1,8,0:0:0:0:
448,192,38338,1,0,0:0:0:0:
64,192,38493,1,0,0:0:0:0:
192,192,38570,1,0,0:0:0:0:
448,192,38647,1,2,0:0:0:0:
320,192,38647,1,0,0:0:0:0:
448,192,38802,1,2,0:0:0:0:
192,192,38802,1,0,0:0:0:0:
320,192,38957,1,8,0:0:0:0:
64,192,38957,1,0,0:0:0:0:
192,192,39111,1,0,0:0:0:0:
448,192,39266,1,2,0:0:0:0:
320,192,39266,1,0,0:0:0:0:
192,192,39421,1,0,0:0:0:0:
64,192,39575,1,8,0:0:0:0:
448,192,39575,1,0,0:0:0:0:
320,192,39730,1,0,0:0:0:0:
192,192,39807,1,0,0:0:0:0:
448,192,39885,1,2,0:0:0:0:
64,192,39885,1,0,0:0:0:0:
64,192,40039,1,2,0:0:0:0:
320,192,40039,1,0,0:0:0:0:
192,192,40194,1,8,0:0:0:0:
448,192,40194,1,0,0:0:0:0:
320,192,40348,1,0,0:0:0:0:
192,192,40503,1,2,0:0:0:0:
64,192,40503,1,0,0:0:0:0:
320,192,40658,1,0,0:0:0:0:
448,192,40812,1,8,0:0:0:0:
192,192,40812,1,0,0:0:0:0:
64,192,40967,1,0,0:0:0:80:C6S_s.wav
192,192,41044,1,0,0:0:0:0:
448,192,41122,1,0,0:0:0:80:C6S_s.wav
320,192,41122,1,2,0:0:0:0:
320,192,41276,1,0,0:0:0:80:C6S_s.wav
192,192,41276,1,2,0:0:0:0:
448,192,41431,1,0,0:0:0:80:C6S_s.wav
64,192,41431,1,8,0:0:0:0:
192,192,41586,1,0,0:0:0:80:C6S_s.wav
448,192,41740,1,0,0:0:0:80:C6S_s.wav
320,192,41740,1,2,0:0:0:0:
192,192,41895,1,0,0:0:0:80:C6S_s.wav
448,192,42050,1,0,0:0:0:80:D6S_s.wav
64,192,42050,1,8,0:0:0:0:
320,192,42204,1,0,0:0:0:80:E6S.wav
192,192,42281,1,0,0:0:0:0:
64,192,42359,1,2,0:0:0:0:
448,192,42359,1,0,0:0:0:0:
64,192,42513,1,2,0:0:0:0:
192,192,42513,1,0,0:0:0:0:
448,192,42668,1,8,0:0:0:0:
320,192,42668,1,0,0:0:0:0:
192,192,42823,1,0,0:0:0:0:
64,192,42977,1,2,0:0:0:0:
448,192,42977,1,0,0:0:0:0:
320,192,43132,1,0,0:0:0:0:
448,192,43287,1,8,0:0:0:0:
192,192,43287,1,0,0:0:0:0:
64,192,43441,1,0,0:0:0:0:
192,192,43519,1,0,0:0:0:0:
448,192,43596,1,2,0:0:0:0:
320,192,43596,1,0,0:0:0:0:
320,192,43751,1,2,0:0:0:0:
64,192,43751,1,0,0:0:0:0:
192,192,43905,1,8,0:0:0:0:
448,192,43905,1,0,0:0:0:0:
320,192,44060,1,0,0:0:0:0:
64,192,44214,1,2,0:0:0:0:
192,192,44214,1,0,0:0:0:0:
320,192,44369,1,0,0:0:0:0:
448,192,44524,1,8,0:0:0:0:
192,192,44524,1,0,0:0:0:0:
320,192,44678,1,0,0:0:0:0:
192,192,44756,1,0,0:0:0:0:
64,192,44833,1,2,0:0:0:0:
448,192,44833,1,0,0:0:0:0:
448,192,44988,1,2,0:0:0:0:
192,192,44988,1,0,0:0:0:0:
320,192,45142,1,8,0:0:0:0:
64,192,45142,1,0,0:0:0:0:
192,192,45297,1,0,0:0:0:0:
448,192,45452,1,2,0:0:0:0:
320,192,45452,1,0,0:0:0:0:
192,192,45606,1,0,0:0:0:0:
448,192,45761,1,8,0:0:0:0:
64,192,45761,1,0,0:0:0:0:
64,192,45916,1,8,0:0:0:0:
448,192,45916,1,0,0:0:0:0:
192,192,45993,1,0,0:0:0:0:
320,192,46070,1,2,0:0:0:0:
448,192,46070,1,0,0:0:0:80:C6S_s.wav
192,192,46225,1,2,0:0:0:0:
64,192,46225,1,0,0:0:0:0:
448,192,46379,1,8,0:0:0:0:
320,192,46379,1,4,0:0:0:0:
64,192,46379,1,0,0:0:0:80:G5S_s.wav
320,192,46534,1,0,0:0:0:0:
192,192,46534,1,2,0:0:0:0:
64,192,46689,128,0,46998:0:0:0:80:E5S.wav
448,192,46689,1,2,0:0:0:0:
320,192,46843,1,2,0:0:0:0:
192,192,46843,1,0,0:0:0:0:
448,192,46998,1,0,0:0:0:80:F5S_s.wav
320,192,46998,1,8,0:0:0:0:
448,192,47153,128,0,47307:0:0:0:80:G5S.wav
192,192,47230,1,0,0:0:0:0:
64,192,47307,1,0,0:0:0:70:tom1.wav
320,192,47307,1,0,0:0:0:0:
448,192,47462,128,0,47771:0:0:0:0:
64,192,47539,1,8,0:0:0:0:
192,192,47617,1,8,0:0:0:0:
320,192,47617,1,0,0:0:0:0:
320,192,47771,1,8,0:0:0:0:
64,192,47771,1,0,0:0:0:0:
64,192,47926,1,2,0:0:0:0:
448,192,47926,1,4,0:0:0:0:
192,192,47926,1,0,0:0:0:0:
320,192,48080,1,0,0:0:0:0:
448,192,48235,128,8,48544:0:0:0:0:
64,192,48235,128,0,48544:0:0:0:0:
320,192,48544,1,2,0:0:0:0:
192,192,48544,128,0,48622:0:0:0:0:
64,192,48699,1,2,0:0:0:0:
320,192,48699,128,0,48776:0:0:0:0:
192,192,48854,128,8,48931:0:0:0:0:
448,192,48854,1,0,0:0:0:0:
64,192,49008,128,0,49086:0:0:0:0:
320,192,49163,1,2,0:0:0:0:
448,192,49163,128,0,49240:0:0:0:0:
192,192,49318,1,0,0:0:0:0:
448,192,49472,128,8,49550:0:0:0:0:
64,192,49472,1,0,0:0:0:0:
320,192,49550,128,0,49627:0:0:0:0:
192,192,49627,128,8,49704:0:0:0:0:
64,192,49704,1,8,0:0:0:0:
320,192,49781,1,2,0:0:0:0:
448,192,49781,1,0,0:0:0:0:
192,192,49936,1,2,0:0:0:0:
320,192,49936,1,0,0:0:0:0:
64,192,50091,128,8,50168:0:0:0:0:
448,192,50091,1,0,0:0:0:0:
320,192,50168,128,0,50245:0:0:0:0:
192,192,50245,128,0,50323:0:0:0:0:
64,192,50400,1,2,0:0:0:0:
448,192,50400,1,0,0:0:0:0:
192,192,50555,1,0,0:0:0:0:
448,192,50709,128,8,50787:0:0:0:0:
320,192,50709,1,0,0:0:0:0:
192,192,50787,128,0,50864:0:0:0:0:
64,192,50864,128,0,50941:0:0:0:0:
448,192,51019,1,2,0:0:0:0:
320,192,51019,1,0,0:0:0:0:
320,192,51173,1,2,0:0:0:0:
192,192,51173,1,0,0:0:0:0:
64,192,51328,128,8,51405:0:0:0:0:
448,192,51328,1,0,0:0:0:0:
320,192,51405,128,0,51483:0:0:0:0:
192,192,51483,128,8,51560:0:0:0:0:
64,192,51637,1,2,0:0:0:0:
448,192,51637,1,0,0:0:0:0:
192,192,51792,1,0,0:0:0:0:
448,192,51946,1,8,0:0:0:0:
320,192,51946,128,0,52024:0:0:0:0:
192,192,52024,128,0,52101:0:0:0:0:
64,192,52101,128,0,52178:0:0:0:0:
320,192,52256,1,2,0:0:0:0:
448,192,52256,1,0,0:0:0:0:
320,192,52410,1,2,0:0:0:0:
448,192,52410,1,0,0:0:0:0:
64,192,52565,1,8,0:0:0:0:
192,192,52565,1,0,0:0:0:0:
64,192,52720,1,0,0:0:0:70:tom1.wav
192,192,52720,1,0,0:0:0:0:
64,192,52874,1,2,0:0:0:0:
448,192,52874,128,4,52952:0:0:0:0:
320,192,52874,128,0,52952:0:0:0:0:
448,192,53029,128,2,53106:0:0:0:0:
320,192,53029,128,4,53106:0:0:0:0:
64,192,53338,128,2,53416:0:0:0:0:
320,192,53338,128,0,53416:0:0:0:0:
64,192,53647,128,2,53725:0:0:0:0:
192,192,53647,128,0,53725:0:0:0:0:
448,192,53957,128,2,54111:0:0:0:0:
320,192,53957,128,4,54111:0:0:0:0:
64,192,53957,128,0,54111:0:0:0:0:
448,192,54266,1,2,0:0:0:0:
192,192,54266,1,8,0:0:0:0:
320,192,54421,1,2,0:0:0:0:
448,192,54421,1,8,0:0:0:0:
64,192,54575,1,2,0:0:0:0:
320,192,54575,1,8,0:0:0:0:
64,192,54730,1,2,0:0:0:0:
192,192,54730,1,8,0:0:0:0:
448,192,54885,1,2,0:0:0:0:
192,192,54885,1,8,0:0:0:0:
448,192,55039,1,2,0:0:0:0:
64,192,55039,1,8,0:0:0:0:
192,192,55194,1,2,0:0:0:0:
320,192,55194,1,8,0:0:0:0:
320,192,55348,1,0,0:0:0:80:C#6S_Db6S.wav
448,192,55348,1,2,0:0:0:0:
64,192,55348,1,4,0:0:0:0:
192,192,55503,1,0,0:0:0:0:
448,192,55658,1,8,0:0:0:0:
320,192,55658,1,0,0:0:0:0:
64,192,55812,1,0,0:0:0:0:
192,192,55890,1,8,0:0:0:0:
320,192,55967,1,0,0:0:0:80:D6S.wav
448,192,56122,1,8,0:0:0:0:
320,192,56199,1,8,0:0:0:0:
192,192,56276,1,8,0:0:0:0:
64,192,56276,1,0,0:0:0:0:
192,192,56431,1,8,0:0:0:0:
64,192,56431,1,0,0:0:0:0:
320,192,56508,1,8,0:0:0:0:
448,192,56586,1,0,0:0:0:80:E6S.wav
192,192,56740,128,0,56818:0:0:0:70:tom1.wav
64,192,56740,128,0,56818:0:0:0:0:
192,192,56895,128,0,56972:0:0:0:70:tom2.wav
64,192,56895,128,0,56972:0:0:0:0:
448,192,57050,1,0,0:0:0:0:
64,192,57204,128,0,57281:0:0:0:70:tom2.wav
320,192,57204,128,0,57281:0:0:0:0:
64,192,57359,128,0,57436:0:0:0:70:tom1.wav
320,192,57359,128,0,57436:0:0:0:0:
192,192,57513,1,2,0:0:0:0:
448,192,57513,1,0,0:0:0:0:
64,192,57668,1,8,0:0:0:0:
320,192,57668,128,0,57745:0:0:0:0:
192,192,57745,128,0,57823:0:0:0:0:
320,192,57823,128,0,57900:0:0:0:70:tom1.wav
64,192,57977,1,2,0:0:0:0:
192,192,57977,1,0,0:0:0:0:
320,192,58132,128,8,58209:0:0:0:0:
448,192,58132,128,0,58209:0:0:0:0:
448,192,58287,128,8,58364:0:0:0:0:
320,192,58287,128,0,58364:0:0:0:0:
64,192,58441,1,0,0:0:0:70:tom2.wav
192,192,58441,1,0,0:0:0:0:
320,192,58596,1,8,0:0:0:0:
448,192,58596,1,0,0:0:0:0:
192,192,58673,1,8,0:0:0:0:
64,192,58673,1,0,0:0:0:0:
320,192,58751,1,8,0:0:0:0:
448,192,58751,1,0,0:0:0:0:
448,192,58905,1,8,0:0:0:0:
64,192,58905,1,0,0:0:0:0:
192,192,59060,1,2,0:0:0:0:
320,192,59060,1,4,0:0:0:0:
64,192,59060,128,0,60916:0:0:0:0:
320,192,59214,1,8,0:0:0:0:
448,192,59214,1,0,0:0:0:0:
192,192,59369,1,2,0:0:0:0:
448,192,59524,1,8,0:0:0:0:
320,192,59524,1,0,0:0:0:0:
448,192,59678,1,2,0:0:0:0:
320,192,59833,1,8,0:0:0:0:
192,192,59833,1,0,0:0:0:0:
448,192,59988,1,2,0:0:0:0:
320,192,60142,1,8,0:0:0:0:
192,192,60142,1,0,0:0:0:0:
192,192,60297,1,2,0:0:0:0:
320,192,60452,1,8,0:0:0:0:
448,192,60452,1,0,0:0:0:0:
192,192,60606,1,2,0:0:0:0:
448,192,60761,1,8,0:0:0:0:
320,192,60761,1,0,0:0:0:0:
320,192,60916,128,2,61534:0:0:0:0:
192,192,60916,1,0,0:0:0:0:
448,192,61070,1,8,0:0:0:0:
64,192,61070,1,0,0:0:0:0:
192,192,61225,1,2,0:0:0:0:
64,192,61379,1,8,0:0:0:0:
448,192,61379,1,0,0:0:0:0:
448,192,61534,128,2,62771:0:0:0:0:
192,192,61534,1,4,0:0:0:0:
64,192,61534,1,0,0:0:0:0:
320,192,61689,1,8,0:0:0:0:
192,192,61689,1,0,0:0:0:0:
64,192,61843,1,2,0:0:0:0:
192,192,61998,1,8,0:0:0:0:
320,192,61998,1,0,0:0:0:0:
320,192,62153,1,2,0:0:0:0:
64,192,62307,1,8,0:0:0:0:
192,192,62307,1,0,0:0:0:0:
320,192,62462,1,2,0:0:0:0:
192,192,62617,1,8,0:0:0:0:
64,192,62617,1,0,0:0:0:0:
320,192,62771,1,2,0:0:0:0:
448,192,62926,1,8,0:0:0:0:
192,192,62926,1,0,0:0:0:0:
64,192,63080,128,2,63235:0:0:0:0:
192,192,63235,1,8,0:0:0:0:
320,192,63235,1,0,0:0:0:0:
64,192,63312,1,0,0:0:0:0:
448,192,63390,128,2,63544:0:0:0:0:
192,192,63544,128,8,63699:0:0:0:0:
64,192,63544,1,0,0:0:0:0:
320,192,63699,128,2,63854:0:0:0:0:
64,192,63854,1,8,0:0:0:0:
192,192,63905,1,0,0:0:0:0:
320,192,63957,1,0,0:0:0:0:
64,192,64008,128,2,64163:0:0:0:0:
448,192,64008,1,4,0:0:0:0:
192,192,64163,1,8,0:0:0:0:
448,192,64163,1,0,0:0:0:0:
320,192,64240,128,0,64318:0:0:0:0:
64,192,64318,1,2,0:0:0:0:
448,192,64472,128,8,65864:0:0:0:0:
320,192,64472,1,0,0:0:0:0:
64,192,64627,1,2,0:0:0:0:
320,192,64781,1,8,0:0:0:0:
192,192,64781,1,0,0:0:0:0:
64,192,64936,1,2,0:0:0:0:
192,192,65091,1,8,0:0:0:0:
320,192,65091,1,0,0:0:0:0:
320,192,65245,1,2,0:0:0:0:
64,192,65400,1,8,0:0:0:0:
192,192,65400,1,0,0:0:0:0:
320,192,65555,1,2,0:0:0:0:
192,192,65709,1,8,0:0:0:0:
64,192,65709,1,0,0:0:0:0:
320,192,65864,1,2,0:0:0:0:
64,192,65916,128,0,66483:0:0:0:0:
448,192,66019,1,8,0:0:0:0:
192,192,66019,1,0,0:0:0:0:
320,192,66173,1,2,0:0:0:0:
192,192,66328,1,8,0:0:0:0:
448,192,66328,1,0,0:0:0:0:
448,192,66483,1,2,0:0:0:0:
320,192,66483,128,4,66792:0:0:0:0:
192,192,66483,1,0,0:0:0:0:
64,192,66792,1,0,0:0:0:0:
448,192,66792,128,8,66946:0:0:0:0:
192,192,66946,128,0,67101:0:0:0:0:
320,192,67101,1,2,0:0:0:0:
64,192,67101,128,0,67256:0:0:0:0:
320,192,67256,1,2,0:0:0:0:
448,192,67410,1,8,0:0:0:0:
192,192,67410,1,0,0:0:0:0:
64,192,67565,128,2,67642:0:0:0:0:
192,192,67565,128,8,67642:0:0:0:0:
192,192,67874,128,8,67952:0:0:0:0:
64,192,67874,128,2,67952:0:0:0:0:
448,192,68029,128,2,68106:0:0:0:0:
320,192,68029,128,8,68106:0:0:0:0:
192,192,68184,128,2,68261:0:0:0:0:
320,192,68184,128,8,68261:0:0:0:0:
64,192,68338,128,2,68416:0:0:0:0:
192,192,68338,128,0,68493:0:0:0:80:tom1.wav
320,192,68416,128,0,68570:0:0:0:0:
448,192,68493,128,8,68647:0:0:0:0:
64,192,68570,128,8,68725:0:0:0:0:
192,192,68647,128,8,68802:0:0:0:0:
320,192,68725,128,0,68879:0:0:0:0:
448,192,68802,128,8,68957:0:0:0:0:
64,192,68879,128,8,68957:0:0:0:0:
320,192,68957,1,2,0:0:0:0:
192,192,68957,128,4,70194:0:0:0:0:
448,192,69111,1,8,0:0:0:0:
64,192,69111,1,0,0:0:0:0:
320,192,69266,1,2,0:0:0:0:
64,192,69421,1,8,0:0:0:0:
448,192,69421,1,0,0:0:0:0:
64,192,69575,1,2,0:0:0:0:
320,192,69730,1,8,0:0:0:0:
448,192,69730,1,0,0:0:0:0:
64,192,69885,1,2,0:0:0:0:
448,192,70039,1,8,0:0:0:0:
320,192,70039,1,0,0:0:0:0:
64,192,70194,128,2,70812:0:0:0:0:
320,192,70194,1,0,0:0:0:0:
448,192,70348,1,8,0:0:0:0:
192,192,70348,1,0,0:0:0:0:
320,192,70503,1,2,0:0:0:0:
192,192,70658,1,8,0:0:0:0:
448,192,70658,1,0,0:0:0:0:
448,192,70812,128,2,71431:0:0:0:0:
320,192,70812,1,0,0:0:0:0:
192,192,70967,1,8,0:0:0:0:
64,192,70967,1,0,0:0:0:0:
192,192,71122,1,2,0:0:0:0:
320,192,71276,1,8,0:0:0:0:
64,192,71276,1,0,0:0:0:0:
192,192,71431,128,2,71508:0:0:0:0:
320,192,71508,128,0,71586:0:0:0:0:
192,192,71586,128,8,71663:0:0:0:0:
448,192,71586,1,0,0:0:0:0:
64,192,71740,128,2,71818:0:0:0:0:
320,192,71818,128,0,71895:0:0:0:0:
64,192,71895,128,8,71972:0:0:0:0:
192,192,71895,1,0,0:0:0:0:
448,192,72050,128,2,72127:0:0:0:0:
320,192,72127,128,0,72204:0:0:0:0:
448,192,72204,128,8,72281:0:0:0:0:
64,192,72204,1,0,0:0:0:0:
192,192,72359,128,2,72513:0:0:0:0:
320,192,72513,1,8,0:0:0:0:
448,192,72513,1,0,0:0:0:0:
64,192,72668,128,2,72745:0:0:0:0:
192,192,72668,128,4,72745:0:0:0:0:
448,192,72668,1,0,0:0:0:0:
320,192,72823,128,2,72900:0:0:0:0:
64,192,72823,128,0,72900:0:0:0:0:
448,192,72977,128,8,73287:0:0:0:0:
192,192,72977,128,0,73055:0:0:0:0:
64,192,73132,128,4,73287:0:0:0:0:
320,192,73132,128,2,73287:0:0:0:0:
192,192,73287,1,0,0:0:0:0:
320,192,73441,1,2,0:0:0:0:
64,192,73596,1,8,0:0:0:0:
448,192,73596,1,0,0:0:0:0:
448,192,73751,1,8,0:0:0:0:
64,192,73751,1,0,0:0:0:0:
320,192,73828,1,8,0:0:0:0:
64,192,73905,128,2,73983:0:0:0:0:
192,192,73905,128,4,73983:0:0:0:0:
448,192,73905,1,0,0:0:0:0:
64,192,74060,128,8,74137:0:0:0:0:
192,192,74060,128,0,74137:0:0:0:0:
320,192,74214,1,2,0:0:0:0:
448,192,74369,1,8,0:0:0:0:
64,192,74369,1,0,0:0:0:0:
192,192,74524,1,2,0:0:0:0:
320,192,74678,1,8,0:0:0:0:
448,192,74678,1,0,0:0:0:0:
192,192,74833,1,2,0:0:0:0:
64,192,74988,1,8,0:0:0:0:
320,192,74988,1,0,0:0:0:0:
448,192,75142,1,2,0:0:0:0:
192,192,75297,1,8,0:0:0:0:
64,192,75297,1,0,0:0:0:0:
192,192,75452,1,2,0:0:0:0:
320,192,75606,1,8,0:0:0:0:
448,192,75606,1,0,0:0:0:0:
64,192,75761,1,2,0:0:0:0:
192,192,75916,1,8,0:0:0:0:
448,192,75916,1,0,0:0:0:0:
320,192,76070,1,2,0:0:0:0:
192,192,76225,1,8,0:0:0:0:
64,192,76225,1,0,0:0:0:0:
320,192,76379,128,2,76457:0:0:0:0:
448,192,76379,128,4,76457:0:0:0:0:
64,192,76379,1,0,0:0:0:0:
320,192,76534,128,8,76611:0:0:0:0:
448,192,76534,128,0,76611:0:0:0:0:
192,192,76689,1,2,0:0:0:0:
64,192,76843,1,8,0:0:0:0:
448,192,76843,1,0,0:0:0:0:
320,192,76998,1,2,0:0:0:0:
192,192,77153,1,8,0:0:0:0:
64,192,77153,128,0,77307:0:0:0:0:
320,192,77307,128,2,77462:0:0:0:0:
192,192,77462,1,8,0:0:0:0:
448,192,77462,128,0,77617:0:0:0:0:
64,192,77617,128,2,77771:0:0:0:0:
192,192,77771,1,8,0:0:0:0:
448,192,77771,128,0,77926:0:0:0:0:
64,192,77926,128,2,78080:0:0:0:0:
448,192,78080,1,8,0:0:0:0:
192,192,78080,128,0,78235:0:0:0:0:
320,192,78235,128,2,78390:0:0:0:0:
192,192,78390,1,8,0:0:0:0:
448,192,78390,128,0,78544:0:0:0:0:
64,192,78544,1,8,0:0:0:0:
320,192,78622,1,8,0:0:0:0:
64,192,78699,1,8,0:0:0:0:
320,192,78776,1,8,0:0:0:0:
64,192,78854,1,0,0:0:0:80:D5S.wav
192,192,78854,1,4,0:0:0:0:
448,192,78854,1,2,0:0:0:0:
320,192,79008,1,8,0:0:0:0:
448,192,79008,1,0,0:0:0:0:
192,192,79163,1,2,0:0:0:0:
448,192,79318,1,8,0:0:0:0:
64,192,79318,128,0,79472:0:0:0:0:
192,192,79472,1,2,0:0:0:0:
448,192,79627,1,8,0:0:0:0:
320,192,79627,128,0,79781:0:0:0:0:
192,192,79781,128,2,79936:0:0:0:0:
448,192,79936,128,8,80091:0:0:0:0:
64,192,79936,1,0,0:0:0:0:
192,192,80091,1,2,0:0:0:0:
64,192,80245,128,8,80400:0:0:0:0:
448,192,80245,1,0,0:0:0:0:
320,192,80400,1,2,0:0:0:0:
448,192,80555,128,8,80709:0:0:0:0:
192,192,80555,1,0,0:0:0:0:
64,192,80709,1,2,0:0:0:0:
192,192,80864,128,8,81019:0:0:0:0:
320,192,80864,1,0,0:0:0:0:
64,192,81019,128,2,81173:0:0:0:0:
320,192,81173,1,8,0:0:0:0:
192,192,81173,1,0,0:0:0:0:
448,192,81328,128,2,82256:0:0:0:0:
192,192,81483,1,8,0:0:0:0:
64,192,81483,1,0,0:0:0:0:
320,192,81637,1,2,0:0:0:0:
64,192,81792,128,8,81946:0:0:0:0:
192,192,81792,1,0,0:0:0:0:
320,192,81946,1,2,0:0:0:0:
192,192,82101,128,8,82256:0:0:0:0:
64,192,82101,1,0,0:0:0:0:
320,192,82256,128,2,82410:0:0:0:0:
448,192,82410,128,8,82565:0:0:0:0:
64,192,82410,1,0,0:0:0:0:
64,192,82565,128,2,83338:0:0:0:0:
192,192,82565,1,0,0:0:0:0:
320,192,82720,128,8,82874:0:0:0:0:
448,192,82720,1,0,0:0:0:0:
192,192,82874,1,2,0:0:0:0:
448,192,83029,128,8,83184:0:0:0:0:
320,192,83029,1,0,0:0:0:0:
192,192,83184,1,2,0:0:0:0:
448,192,83338,1,8,0:0:0:0:
192,192,83416,1,0,0:0:0:0:
320,192,83493,1,8,0:0:0:0:
448,192,83493,1,0,0:0:0:0:
192,192,83570,1,8,0:0:0:0:
64,192,83570,1,0,0:0:0:0:
320,192,83647,1,8,0:0:0:0:
448,192,83647,1,0,0:0:0:0:
192,192,83725,1,8,0:0:0:0:
64,192,83802,128,0,83957:0:0:0:80:D6S_s.wav
320,192,83802,128,2,84421:0:0:0:0:
448,192,83802,128,4,84730:0:0:0:0:
64,192,84111,128,0,84421:0:0:0:80:D6S_s.wav
192,192,84421,128,0,84885:0:0:0:80:C6S_s.wav
64,192,84575,128,0,84885:0:0:0:80:D6S_s.wav
320,192,84885,128,0,85194:0:0:0:80:F6S_s.wav
448,192,84885,1,2,0:0:0:0:
64,192,85194,1,0,0:0:0:80:D6S_s.wav
192,192,85194,1,0,0:0:0:0:
448,192,85348,1,8,0:0:0:0:
64,192,85348,1,0,0:0:0:0:
192,192,85503,128,0,85812:0:0:0:80:C6S_s.wav
448,192,85658,1,0,0:0:0:0:
320,192,85812,1,0,0:0:0:80:D6S_s.wav
448,192,85967,1,0,0:0:0:80:F6S_s.wav
64,192,85967,1,2,0:0:0:0:
192,192,86122,1,0,0:0:0:80:G6S_s.wav
448,192,86122,1,2,0:0:0:0:
64,192,86276,128,0,86431:0:0:0:80:G#6S_Ab6S_s.wav
320,192,86276,128,2,86431:0:0:0:0:
64,192,86586,128,0,86740:0:0:0:80:G#6S_Ab6S_s.wav
320,192,86586,128,2,86740:0:0:0:0:
448,192,86895,1,0,0:0:0:80:G6S_s.wav
64,192,86895,1,8,0:0:0:0:
192,192,86972,1,2,0:0:0:0:
320,192,87050,1,0,0:0:0:80:F6S_s.wav
448,192,87050,1,8,0:0:0:0:
192,192,87127,1,8,0:0:0:0:
64,192,87127,1,0,0:0:0:0:
320,192,87204,1,8,0:0:0:0:
448,192,87204,1,0,0:0:0:0:
192,192,87359,128,0,87513:0:0:0:80:D6S.wav
64,192,87359,128,2,87513:0:0:0:0:
448,192,87823,128,0,88287:0:0:0:80:D7S.wav
320,192,87823,128,4,88209:0:0:0:0:
192,192,87823,128,2,88132:0:0:0:0:
