osu file format v14

[General]
AudioFilename: audio.mp3
AudioLeadIn: 0
PreviewTime: 54840
Countdown: 0
SampleSet: Soft
StackLeniency: 0.3
Mode: 0
LetterboxInBreaks: 0
WidescreenStoryboard: 1

[Editor]
DistanceSpacing: 1.2
BeatDivisor: 4
GridSize: 16
TimelineZoom: 1.7

[Metadata]
Title:Dramatic Market Ride (TV Size)
TitleUnicode:ドラマチックマーケットライド (TV Size)
Artist:Kitashirakawa Tamako (CV: Suzaki Aya)
ArtistUnicode:北白川たまこ(CV:洲崎 綾)
Creator:melleganol
Version:Hard
Source:たまこまーけっと
Tags:op opening moe kyoto tamako market japanese anime pop jpop j-pop animation kyoani female vocals vocalist PCCG-70172 animax pony canyon sentai filmworks animation do
BeatmapID:4149683
BeatmapSetID:1996592

[Difficulty]
HPDrainRate:5
CircleSize:3.5
OverallDifficulty:6
ApproachRate:7
SliderMultiplier:1.5
SliderTickRate:0.5

[Events]
//Background and Video events
0,0,"tamakocute.jpg",0,0
Video,-410,"tamakomarketvideo.mp4"
//Break Periods
//Storyboard Layer 0 (Background)
//Storyboard Layer 1 (Fail)
//Storyboard Layer 2 (Pass)
//Storyboard Layer 3 (Foreground)
//Storyboard Layer 4 (Overlay)
//Storyboard Sound Samples

[TimingPoints]
1594,350.877192982456,4,2,77,70,1,0
1594,-100,4,2,77,70,0,0
12822,-166.666666666667,4,2,77,60,0,0
15805,-100,4,2,77,80,0,0
18436,-166.666666666667,4,2,77,60,0,0
40892,-166.666666666667,4,2,77,70,0,0
50717,-1000,4,2,77,70,0,0
52647,-166.666666666667,4,2,77,60,0,0
54927,-100,4,2,77,80,0,1
77383,-166.666666666667,4,2,77,60,0,0
79664,-100,4,2,77,70,0,0
80366,-100,4,2,77,80,0,0

[Colours]
Combo1 : 128,255,255
Combo2 : 255,128,128
Combo3 : 128,255,128
Combo4 : 255,255,128

[HitObjects]
55,43,191,6,0,L|144:20,1,75,4|8,3:2|2:0,0:0:0:0:
137,29,454,2,0,L|150:117,1,75,8|8,2:0|2:0,2:0:0:0:
157,108,717,2,0,L|145:191,1,75,8|8,2:0|2:0,0:0:0:0:
144,193,980,1,8,2:0:0:0:
67,239,1155,1,8,2:0:0:0:
62,247,1243,2,0,L|71:289,3,37.5,8|8|4|0,2:0|0:3|0:3|0:0,0:0:0:0:
78,301,1594,6,0,B|115:312|115:312|148:297,1,75,12|0,2:0|3:0,0:0:0:0:
191,376,1945,2,0,B|228:365|228:365|261:380,1,75,8|0,2:0|3:0,0:0:0:0:
326,318,2296,2,0,B|363:329|363:329|396:314,1,75,8|0,2:0|3:0,0:0:0:0:
475,367,2647,1,8,2:0:0:0:
475,367,2822,1,0,3:0:0:0:
511,284,2998,6,0,L|495:194,1,75,8|0,2:0|3:0,0:0:0:0:
409,222,3348,2,0,L|393:132,1,75,8|0,2:0|3:0,0:0:0:0:
310,177,3699,2,0,L|294:87,1,75,8|0,2:0|3:0,0:0:0:0:
225,57,4050,1,8,2:0:0:0:
225,57,4226,1,0,3:0:0:0:
305,17,4401,6,0,B|342:3|342:3|389:25,1,75,8|0,2:0|3:0,0:0:0:0:
380,108,4752,2,0,B|417:94|417:94|464:116,1,75,8|0,2:0|3:0,0:0:0:0:
443,199,5103,2,0,B|480:185|480:185|527:207,1,75,8|0,2:0|3:0,0:0:0:0:
512,294,5454,1,8,2:0:0:0:
512,294,5629,1,0,3:0:0:0:
444,354,5805,6,0,B|408:370|408:370|370:356,2,75,8|0|8,2:0|3:0|2:0,0:0:0:0:
404,272,6331,2,0,L|306:258,1,75,0|8,3:0|2:0,0:0:0:0:
254,210,6682,2,0,L|89:240,1,150,0|0,3:0|3:0,0:0:0:0:
28,190,7208,6,0,B|10:153|10:153|20:120,1,75,12|0,2:0|0:0,0:0:0:0:
110,131,7559,2,0,B|92:94|92:94|102:61,1,75,8|0,2:0|3:0,0:0:0:0:
192,68,7910,2,0,B|174:31|174:31|184:-1,1,75,8|0,2:0|3:0,0:0:0:0:
273,31,8261,1,8,2:0:0:0:
273,31,8436,1,0,3:0:0:0:
309,113,8612,6,0,L|288:205,1,75,8|0,2:0|3:0,0:0:0:0:
381,172,8962,2,0,L|360:264,1,75,8|0,2:0|3:0,0:0:0:0:
453,228,9313,2,0,L|432:320,1,75,8|0,2:0|3:0,0:0:0:0:
376,369,9664,1,8,2:0:0:0:
376,369,9840,1,0,3:0:0:0:
287,353,10015,6,0,B|273:318|273:318|288:274,1,75,8|0,2:0|3:0,0:0:0:0:
194,287,10366,2,0,B|208:252|208:252|193:208,1,75,8|0,2:0|3:0,0:0:0:0:
285,202,10717,2,0,B|271:167|271:167|286:123,1,75,8|0,2:0|3:0,0:0:0:0:
196,130,11068,1,8,2:0:0:0:
196,130,11243,6,0,L|112:114,1,75,0|8,3:0|2:0,0:0:0:0:
107,26,11594,2,0,L|191:42,1,75,0|8,3:0|2:0,0:0:0:0:
270,40,11945,2,0,B|323:30|323:30|362:52|362:52|417:41,1,150,0|0,3:0|3:0,0:0:0:0:
477,104,12471,1,8,2:0:0:0:
477,104,12822,6,0,P|450:161|481:230,1,134.999995880127,4|0,3:2|3:0,0:0:0:0:
414,285,13524,2,0,P|454:341|407:387,2,134.999995880127,0|0|8,3:0|0:0|2:0,0:0:0:0:
263,170,14927,1,0,3:0:0:0:
263,170,15103,2,0,L|273:124,2,44.999998626709,8|4|0,0:3|0:3|0:0,0:0:0:0:
110,267,15805,6,0,P|56:246|65:151,1,150,12|0,2:0|3:0,0:0:0:0:
30,75,16331,6,0,P|78:33|153:68,1,150,12|0,2:0|3:0,0:0:0:0:
164,152,16857,6,0,P|217:184|278:115,1,150,12|0,2:0|3:0,0:0:0:0:
292,45,17383,6,0,P|356:17|408:79,1,150,12|0,2:0|3:0,0:0:0:0:
403,158,17910,6,0,P|366:210|435:276,1,150,12|0,2:0|3:0,0:0:0:0:
490,321,18436,5,4,3:2:0:0:
490,321,18787,2,0,L|494:267,1,44.999998626709,10|2,2:0|2:0,0:0:0:0:
502,181,19138,1,2,3:2:0:0:
502,181,19489,2,0,L|506:127,1,44.999998626709,10|2,2:0|2:0,0:0:0:0:
456,60,19840,1,2,3:2:0:0:
456,60,20015,2,0,B|419:28|419:28|368:34,2,89.9999972534181,2|2|2,2:0|2:0|3:2,0:0:0:0:
382,120,20892,1,8,2:0:0:0:
282,278,21243,5,0,3:0:0:0:
282,278,21594,2,0,L|229:266,1,44.999998626709,10|2,2:0|2:0,0:0:0:0:
235,173,21945,2,0,L|182:161,1,44.999998626709,2|2,3:2|3:2,0:0:0:0:
197,68,22296,2,0,L|144:56,1,44.999998626709,10|2,2:0|2:0,0:0:0:0:
65,21,22647,2,0,B|53:62|53:62|74:123,1,89.9999972534181,2|8,3:2|2:0,0:0:0:0:
93,198,23173,1,0,0:0:0:0:
217,340,23524,6,0,L|208:386,2,44.999998626709,2|10|2,3:2|2:0|2:0,0:0:0:0:
178,254,24050,1,0,3:0:0:0:
178,254,24401,2,0,L|231:243,1,44.999998626709,10|2,2:0|2:0,0:0:0:0:
311,278,24752,1,2,3:2:0:0:
311,278,24927,2,0,L|405:259,1,89.9999972534181,2|2,3:2|2:0,0:0:0:0:
481,212,25454,2,0,B|499:253|499:253|492:312,2,89.9999972534181,0|8|0,3:0|2:0|3:0,0:0:0:0:
511,122,26331,6,0,L|496:70,2,44.999998626709,2|10|2,3:2|2:0|2:0,0:0:0:0:
419,145,26857,1,0,3:0:0:0:
419,145,27208,2,0,L|322:124,1,89.9999972534181,10|2,2:0|3:2,0:0:0:0:
292,39,27734,2,0,L|191:58,1,89.9999972534181,2|2,3:2|2:0,0:0:0:0:
131,117,28261,5,0,3:0:0:0:
131,117,28436,1,8,2:0:0:0:
131,117,28612,1,8,2:0:0:0:
51,66,28787,5,4,3:2:0:0:
51,66,29138,1,4,3:2:0:0:
0,145,29313,5,8,2:0:0:0:
5,155,29401,1,8,2:0:0:0:
8,163,29489,1,8,2:0:0:0:
87,212,29664,5,4,3:2:0:0:
87,212,30015,2,0,L|150:226,1,44.999998626709,10|2,2:0|2:0,0:0:0:0:
222,245,30366,1,2,3:2:0:0:
222,245,30717,2,0,L|285:259,1,44.999998626709,8|2,2:0|2:0,0:0:0:0:
340,321,31068,1,2,3:2:0:0:
340,321,31243,2,0,L|437:300,2,89.9999972534181,2|2|2,2:0|2:0|3:2,0:0:0:0:
246,339,32120,1,8,2:0:0:0:
63,383,32471,5,0,3:0:0:0:
63,383,32822,2,0,L|76:320,1,44.999998626709,10|2,2:0|2:0,0:0:0:0:
166,335,33173,2,0,L|179:272,1,44.999998626709,2|2,3:2|3:2,0:0:0:0:
268,276,33524,2,0,L|281:213,1,44.999998626709,10|2,2:0|2:0,0:0:0:0:
356,180,33875,1,2,3:2:0:0:
356,180,34226,5,8,2:0:0:0:
353,168,34313,1,0,0:0:0:0:
350,156,34401,1,0,0:0:0:0:
267,108,34577,5,0,3:0:0:0:
270,96,34664,1,0,0:0:0:0:
273,84,34752,2,0,L|264:38,2,44.999998626709,2|10|2,3:2|2:0|2:0,0:0:0:0:
366,69,35278,5,0,3:0:0:0:
366,69,35629,2,0,L|413:80,1,44.999998626709,10|2,2:0|2:0,0:0:0:0:
494,132,35980,1,2,3:2:0:0:
494,132,36155,2,0,L|472:230,1,89.9999972534181,2|2,3:2|2:0,0:0:0:0:
424,301,36682,2,0,B|383:324|383:324|331:318,1,89.9999972534181,0|8,3:0|2:0,0:0:0:0:
254,358,37208,1,0,0:0:0:0:
65,340,37559,6,0,L|52:395,2,44.999998626709,2|10|2,3:2|2:0|2:0,0:0:0:0:
67,245,38085,1,0,3:0:0:0:
67,245,38436,2,0,L|158:259,1,89.9999972534181,10|2,2:0|3:2,0:0:0:0:
197,343,38962,2,0,L|288:329,1,89.9999972534181,2|2,3:2|2:0,0:0:0:0:
367,379,39489,5,4,3:2:0:0:
458,355,39665,1,8,2:0:0:0:
448,261,39840,1,8,2:0:0:0:
354,249,40015,6,0,L|363:191,1,44.999998626709,4|8,3:2|2:0,0:0:0:0:
365,194,40278,2,0,L|350:138,1,44.999998626709,8|8,2:0|2:0,0:0:0:0:
347,135,40541,2,0,L|352:99,3,22.4999993133545,8|8|8|4,2:0|2:0|2:0|0:3,0:0:0:0:
355,94,40892,5,4,3:2:0:0:
355,94,41243,2,0,L|444:80,1,89.9999972534181,10|8,2:0|2:0,0:0:0:0:
390,1,41769,2,0,L|301:15,1,89.9999972534181,2|0,3:2|3:0,0:0:0:0:
239,87,42296,2,0,L|148:73,1,89.9999972534181,10|8,2:0|2:0,0:0:0:0:
75,15,42822,1,2,3:2:0:0:
75,15,43173,1,2,3:2:0:0:
18,90,43348,1,10,2:0:0:0:
148,226,43699,5,12,2:0:0:0:
148,226,44050,2,0,L|55:248,1,89.9999972534181,10|8,2:0|2:0,0:0:0:0:
71,340,44576,2,0,L|164:318,1,89.9999972534181,2|0,3:2|3:0,0:0:0:0:
235,263,45103,2,0,L|333:284,1,89.9999972534181,10|8,2:0|2:0,0:0:0:0:
396,341,45629,1,2,3:2:0:0:
396,341,45980,1,2,3:2:0:0:
472,286,46155,1,10,2:0:0:0:
472,286,46506,6,0,B|487:247|487:247|464:200,1,89.9999972534181,10|10,2:0|2:0,0:0:0:0:
508,120,47033,1,2,3:2:0:0:
508,120,47208,2,0,L|451:107,1,44.999998626709,10|2,2:0|3:2,0:0:0:0:
403,44,47559,1,10,2:0:0:0:
403,44,47734,2,0,L|267:80,1,134.999995880127,2|8,2:0|2:0,0:0:0:0:
206,146,48436,2,0,L|147:134,1,44.999998626709,2|10,3:2|2:0,0:0:0:0:
75,176,48787,2,0,L|50:78,1,89.9999972534181,2|2,3:2|2:0,0:0:0:0:
24,8,49313,5,2,3:2:0:0:
24,8,49489,1,10,2:0:0:0:
24,8,49664,1,4,0:3:0:0:
117,25,49840,1,4,3:2:0:0:
221,181,50190,6,0,L|211:231,2,44.999998626709,8|4|8,0:3|0:3|0:3,0:0:0:0:
298,133,50717,6,0,L|321:127,1,22.5,2|10,3:2|2:0,0:0:0:0:
395,104,52120,5,4,3:2:0:0:
503,0,52647,5,0,3:0:0:0:
499,11,52734,1,0,0:0:0:0:
495,22,52822,2,0,L|488:54,3,22.4999993133545,8|0|0|8,2:0|0:0|0:0|2:0,0:0:0:0:
473,66,53173,2,0,L|483:98,3,22.4999993133545,8|0|8|8,2:0|0:0|2:0|2:0,0:0:0:0:
486,105,53524,1,0,3:0:0:0:
417,169,53699,1,8,2:0:0:0:
406,172,53787,1,8,2:0:0:0:
395,174,53875,1,0,3:0:0:0:
387,177,53962,1,8,2:0:0:0:
376,181,54050,1,8,2:0:0:0:
298,235,54226,2,0,L|272:226,3,22.4999993133545,4|0|0|0,3:0|0:0|0:0|0:0,0:0:0:0:
255,216,54576,2,0,L|229:225,3,22.4999993133545,4|0|8|0,3:0|0:0|2:0|0:0,0:0:0:0:
215,232,54927,6,0,L|49:208,1,150,6|10,3:2|2:0,0:0:0:0:
2,135,55454,2,0,B|17:101|17:101|-10:52,1,75,2|0,2:0|3:0,0:0:0:0:
96,68,55805,2,0,B|111:34|111:34|84:-15,1,75,2|8,3:2|2:0,0:0:0:0:
193,4,56155,1,2,2:0:0:0:
193,4,56331,6,0,L|272:18,2,75,0|0|8,3:0|0:0|2:0,0:0:0:0:
177,100,56857,2,0,L|202:260,1,150,0|0,0:0|3:0,0:0:0:0:
148,331,57383,1,8,2:0:0:0:
148,331,57734,6,0,B|215:356|215:356|283:309,1,150,2|10,3:2|2:0,0:0:0:0:
367,354,58261,2,0,L|383:270,1,75,2|0,2:0|3:0,0:0:0:0:
470,320,58612,2,0,L|486:236,1,75,2|8,3:2|2:0,0:0:0:0:
512,156,58962,1,2,2:0:0:0:
512,156,59138,6,0,B|481:148|481:148|432:75|432:75|395:63,2,150,0|8|0,3:0|2:0|3:0,0:0:0:0:
317,168,60190,1,8,2:0:0:0:
317,168,60541,6,0,L|225:183,1,75,2|0,3:2|0:0,0:0:0:0:
278,271,60892,2,0,L|186:286,1,75,10|0,2:0|0:0,0:0:0:0:
242,372,61243,2,0,L|150:387,1,75,2|0,3:2|3:0,0:0:0:0:
71,371,61594,1,10,2:0:0:0:
8,296,61769,1,8,0:3:0:0:
12,286,61857,1,4,0:3:0:0:
17,277,61945,1,2,3:2:0:0:
84,207,62120,6,0,P|132:198|184:286,1,150,6|10,3:2|2:0,0:0:0:0:
267,327,62647,1,4,3:2:0:0:
267,327,62998,1,12,2:0:0:0:
267,327,63348,6,0,L|283:245,1,75,2|0,3:2|0:0,0:0:0:0:
332,171,63699,1,10,2:0:0:0:
332,171,63875,1,0,3:0:0:0:
287,90,64050,1,2,2:0:0:0:
287,90,64226,2,0,L|204:109,1,75,2|8,3:2|2:0,0:0:0:0:
141,41,64576,1,2,2:0:0:0:
60,95,64752,5,4,3:2:0:0:
62,103,64840,1,0,3:0:0:0:
65,112,64927,2,0,L|60:158,2,37.5,8|8|4,2:0|2:0|0:3,0:0:0:0:
141,41,65278,2,0,L|182:31,3,37.5,4|0|0|0,3:2|3:0|3:0|3:0,0:0:0:0:
191,23,65629,1,2,3:2:0:0:
287,7,65805,1,10,2:0:0:0:
297,11,65892,1,8,2:0:0:0:
306,14,65980,1,10,2:0:0:0:
314,18,66068,1,8,2:0:0:0:
324,24,66155,6,0,L|401:6,2,75,2|8|4,3:2|0:3|0:3,0:0:0:0:
273,108,66682,2,0,P|251:164|377:206,1,225,6|8,3:2|2:0,0:0:0:0:
451,154,67383,1,2,2:0:0:0:
511,231,67559,1,0,3:0:0:0:
511,231,67910,5,8,2:0:0:0:
511,240,67998,1,0,0:0:0:0:
511,249,68085,1,0,0:0:0:0:
434,310,68261,2,0,L|446:405,2,75,0|0|8,3:0|3:0|2:0,0:0:0:0:
351,268,68787,1,0,0:0:0:0:
351,268,68962,6,0,B|280:243|280:243|202:305,1,150,2|10,3:2|2:0,0:0:0:0:
123,284,69489,2,0,L|108:210,1,75,2|0,2:0|3:0,0:0:0:0:
21,256,69840,2,0,L|6:182,1,75,2|8,3:2|2:0,0:0:0:0:
5,89,70190,1,2,2:0:0:0:
5,89,70366,6,0,B|54:86|54:86|99:126|99:126|149:121,1,150,0|8,3:0|2:0,0:0:0:0:
133,24,70892,2,0,B|182:21|182:21|227:61|227:61|277:56,1,150,0|0,3:0|3:0,0:0:0:0:
361,99,71419,1,8,2:0:0:0:
361,99,71594,1,0,0:0:0:0:
306,179,71769,6,0,L|224:196,2,75,2|2|10,3:2|2:0|2:0,0:0:0:0:
380,242,72296,1,2,3:2:0:0:
380,242,72647,2,0,L|365:320,2,75,2|10|2,3:2|2:0|3:2,0:0:0:0:
462,189,73173,5,0,0:0:0:0:
464,178,73261,1,8,2:0:0:0:
466,165,73348,2,0,L|449:86,1,75,0|8,3:0|2:0,0:0:0:0:
415,0,73699,1,2,3:2:0:0:
323,33,73875,1,2,3:2:0:0:
315,39,73962,1,8,2:0:0:0:
307,45,74050,1,2,3:2:0:0:
298,51,74138,1,8,2:0:0:0:
290,58,74226,2,0,L|243:49,3,37.5,8|8|8|8,2:0|2:0|2:0|2:0,0:0:0:0:
226,38,74576,6,0,L|70:62,1,150,6|8,3:2|2:0,0:0:0:0:
0,121,75103,1,2,3:2:0:0:
3,222,75278,1,10,2:0:0:0:
3,222,75454,1,0,3:0:0:0:
71,283,75629,2,0,L|150:300,1,75,10|0,2:0|3:0,0:0:0:0:
191,213,75980,2,0,L|270:230,1,75,8|0,2:0|3:0,0:0:0:0:
258,326,76331,2,0,L|337:343,1,75,10|0,2:0|3:0,0:0:0:0:
360,248,76682,2,0,L|439:265,1,75,8|0,2:0|3:0,0:0:0:0:
487,345,77033,1,10,2:0:0:0:
487,345,77383,6,0,P|449:371|400:364,1,89.9999972534181,4|0,3:2|0:0,0:0:0:0:
321,384,77910,1,0,3:0:0:0:
321,384,78085,2,0,L|334:287,1,89.9999972534181,0|0,3:0|0:0,0:0:0:0:
395,229,78612,2,0,L|381:132,1,89.9999972534181,0|0,3:0|0:0,0:0:0:0:
396,50,79138,2,0,L|301:69,1,89.9999972534181,0|0,3:0|3:0,0:0:0:0:
228,97,79664,1,4,0:3:0:0:
228,97,79840,1,8,0:3:0:0:
228,97,80015,1,8,0:3:0:0:
366,226,80366,6,0,P|356:290|263:288,1,150,12|0,2:0|3:0,0:0:0:0:
208,357,80892,6,0,P|136:361|110:279,1,150,12|0,2:0|3:0,0:0:0:0:
23,259,81419,6,0,P|1:210|68:152,1,150,12|0,2:0|3:0,0:0:0:0:
118,80,81945,6,0,P|175:47|236:104,1,150,12|0,2:0|3:0,0:0:0:0:
323,108,82471,6,0,P|373:140|357:221,1,150,12|0,2:0|3:0,0:0:0:0:
301,290,82998,6,0,P|222:306|188:239,1,150,12|0,2:0|3:0,0:0:0:0:
133,183,83524,6,0,P|116:127|190:86,1,150,12|0,2:0|3:0,0:0:0:0:
229,162,84050,5,12,2:0:0:0:
