osu file format v14

[General]
AudioFilename: audio.mp3
AudioLeadIn: 0
PreviewTime: 58924
Countdown: 0
SampleSet: Soft
StackLeniency: 0.4
Mode: 0
LetterboxInBreaks: 0
WidescreenStoryboard: 1

[Editor]
DistanceSpacing: 1.6
BeatDivisor: 4
GridSize: 32
TimelineZoom: 2.100001

[Metadata]
Title:witch spat out a curse
TitleUnicode:witch spat out a curse
Artist:Kitamura Eri
ArtistUnicode:喜多村英梨
Creator:Mordred
Version:dkblaze's Insane
Source:
Tags:illusion dream dystopia record necchi rock lasse dkblaze agatsu japanese
BeatmapID:2475264
BeatmapSetID:1133446

[Difficulty]
HPDrainRate:7
CircleSize:3.8
OverallDifficulty:8.5
ApproachRate:9
SliderMultiplier:1.7
SliderTickRate:1

[Events]
//Background and Video events
0,0,"63227924_p0_master1200.jpg",0,0
//Break Periods
2,141047,145170
2,165463,167324
//Storyboard Layer 0 (Background)
//Storyboard Layer 1 (Fail)
//Storyboard Layer 2 (Pass)
//Storyboard Layer 3 (Foreground)
//Storyboard Layer 4 (Overlay)
//Storyboard Sound Samples

[TimingPoints]
540,307.692307692308,4,2,1,70,1,0
540,-125,4,2,1,70,0,0
1847,-125,4,2,1,5,0,0
1924,-125,4,2,1,70,0,0
4309,-125,4,2,1,5,0,0
4386,-125,4,2,1,70,0,0
5463,-142.857142857143,4,2,1,70,0,0
10386,-125,4,2,1,70,0,0
11693,-125,4,2,1,5,0,0
11770,-125,4,2,1,70,0,0
14155,-125,4,2,1,5,0,0
14232,-125,4,2,1,70,0,0
19309,-125,4,2,1,60,0,0
19616,-125,4,2,1,50,0,0
19924,-125,4,2,1,40,0,0
20232,-111.111111111111,4,2,2,50,0,0
20386,-111.111111111111,4,2,2,5,0,0
20463,-111.111111111111,4,2,2,50,0,0
22847,-111.111111111111,4,2,2,5,0,0
22924,-111.111111111111,4,2,2,50,0,0
25309,-111.111111111111,4,2,2,5,0,0
25386,-111.111111111111,4,2,2,50,0,0
27770,-111.111111111111,4,2,2,5,0,0
27847,-111.111111111111,4,2,2,50,0,0
28847,-142.857142857143,4,2,2,50,0,0
29078,-142.857142857143,4,2,2,5,0,0
29155,-142.857142857143,4,2,1,50,0,0
29386,-142.857142857143,4,2,1,5,0,0
29463,-142.857142857143,4,2,1,60,0,0
29693,-142.857142857143,4,2,1,5,0,0
29770,-142.857142857143,4,2,1,70,0,0
30001,-142.857142857143,4,2,1,5,0,0
30078,-142.857142857143,4,2,1,80,0,0
30386,-142.857142857143,4,2,1,60,0,0
39924,-142.857142857143,4,2,1,70,0,0
40463,-142.857142857143,4,2,1,5,0,0
40540,-142.857142857143,4,2,1,70,0,0
41232,-142.857142857143,4,2,1,5,0,0
41309,-142.857142857143,4,2,1,70,0,0
42924,-142.857142857143,4,2,1,5,0,0
43001,-142.857142857143,4,2,1,70,0,0
43693,-142.857142857143,4,2,1,5,0,0
43770,-142.857142857143,4,2,1,70,0,0
44847,-142.857142857143,4,2,1,60,0,0
48155,-142.857142857143,4,2,1,5,0,0
48232,-142.857142857143,4,2,1,60,0,0
49770,-142.857142857143,4,2,1,70,0,0
50309,-142.857142857143,4,2,1,5,0,0
50386,-142.857142857143,4,2,1,70,0,0
51078,-142.857142857143,4,2,1,5,0,0
51155,-142.857142857143,4,2,1,70,0,0
52770,-142.857142857143,4,2,1,5,0,0
52847,-142.857142857143,4,2,1,70,0,0
53540,-142.857142857143,4,2,1,5,0,0
53616,-142.857142857143,4,2,1,70,0,0
54693,-111.111111111111,4,2,1,70,0,0
57155,-111.111111111111,4,2,1,80,0,0
59616,-90.9090909090909,4,2,1,80,0,1
60770,-90.9090909090909,4,2,1,5,0,1
60847,-90.9090909090909,4,2,1,80,0,1
67232,-90.9090909090909,4,2,1,5,0,1
67309,-90.9090909090909,4,2,1,80,0,1
67540,-90.9090909090909,4,2,1,5,0,1
67616,-90.9090909090909,4,2,1,80,0,1
67847,-90.9090909090909,4,2,1,5,0,1
67924,-90.9090909090909,4,2,1,80,0,1
68155,-90.9090909090909,4,2,1,5,0,1
68232,-90.9090909090909,4,2,1,80,0,1
72155,-90.9090909090909,4,2,1,5,0,1
72232,-90.9090909090909,4,2,1,80,0,1
72463,-90.9090909090909,4,2,1,5,0,1
72540,-90.9090909090909,4,2,1,80,0,1
72770,-90.9090909090909,4,2,1,5,0,1
72847,-90.9090909090909,4,2,1,80,0,1
73386,-90.9090909090909,4,2,1,5,0,1
73463,-90.9090909090909,4,2,1,80,0,1
74616,-90.9090909090909,4,2,1,5,0,1
74693,-90.9090909090909,4,2,1,80,0,1
75847,-90.9090909090909,4,2,1,5,0,1
75924,-90.9090909090909,4,2,1,80,0,1
77463,-90.9090909090909,4,2,1,60,0,1
77616,-90.9090909090909,4,2,1,65,0,1
77770,-90.9090909090909,4,2,1,70,0,1
77924,-90.9090909090909,4,2,1,75,0,1
78078,-100,4,2,1,80,0,0
79309,-200,4,2,1,60,0,0
79616,-200,4,2,1,50,0,0
79924,-125,4,2,1,50,0,0
80232,-200,4,2,1,50,0,0
81155,-200,4,2,1,60,0,0
81770,-111.111111111111,4,2,1,70,0,0
91616,-142.857142857143,4,2,1,60,0,0
96693,-142.857142857143,4,2,1,5,0,0
96770,-142.857142857143,4,2,1,60,0,0
96924,-142.857142857143,4,2,1,5,0,0
97001,-142.857142857143,4,2,1,60,0,0
101463,-142.857142857143,4,2,1,70,0,0
102001,-142.857142857143,4,2,1,5,0,0
102078,-142.857142857143,4,2,1,70,0,0
102770,-142.857142857143,4,2,1,5,0,0
102847,-142.857142857143,4,2,1,70,0,0
104463,-142.857142857143,4,2,1,5,0,0
104540,-142.857142857143,4,2,1,70,0,0
105232,-142.857142857143,4,2,1,5,0,0
105309,-142.857142857143,4,2,1,70,0,0
106386,-142.857142857143,4,2,1,60,0,0
111309,-142.857142857143,4,2,1,70,0,0
111847,-142.857142857143,4,2,1,5,0,0
111924,-142.857142857143,4,2,1,70,0,0
112616,-142.857142857143,4,2,1,5,0,0
112693,-142.857142857143,4,2,1,70,0,0
114309,-142.857142857143,4,2,1,5,0,0
114386,-142.857142857143,4,2,1,70,0,0
115078,-142.857142857143,4,2,1,5,0,0
115155,-142.857142857143,4,2,1,70,0,0
116232,-111.111111111111,4,2,1,70,0,0
118693,-111.111111111111,4,2,1,80,0,0
121155,-90.9090909090909,4,2,1,80,0,1
122309,-90.9090909090909,4,2,1,5,0,1
122386,-90.9090909090909,4,2,1,80,0,1
128770,-90.9090909090909,4,2,1,5,0,1
128847,-90.9090909090909,4,2,1,80,0,1
129078,-90.9090909090909,4,2,1,5,0,1
129155,-90.9090909090909,4,2,1,80,0,1
129386,-90.9090909090909,4,2,1,5,0,1
129463,-90.9090909090909,4,2,1,80,0,1
129693,-90.9090909090909,4,2,1,5,0,1
129770,-90.9090909090909,4,2,1,80,0,1
130001,-90.9090909090909,4,2,1,5,0,1
130078,-90.9090909090909,4,2,1,80,0,1
133693,-90.9090909090909,4,2,1,5,0,1
133770,-90.9090909090909,4,2,1,80,0,1
134001,-90.9090909090909,4,2,1,5,0,1
134078,-90.9090909090909,4,2,1,80,0,1
134309,-90.9090909090909,4,2,1,5,0,1
134386,-90.9090909090909,4,2,1,80,0,1
134924,-90.9090909090909,4,2,1,5,0,1
135001,-90.9090909090909,4,2,1,80,0,1
136155,-90.9090909090909,4,2,1,5,0,1
136232,-90.9090909090909,4,2,1,80,0,1
137386,-90.9090909090909,4,2,1,5,0,1
137463,-90.9090909090909,4,2,1,80,0,1
139616,-142.857142857143,4,2,1,70,0,0
140232,-142.857142857143,4,2,1,60,0,0
140540,-142.857142857143,4,2,1,50,0,0
140847,-142.857142857143,4,2,1,40,0,0
145770,-142.857142857143,4,2,1,80,0,0
149463,-100,4,2,1,80,0,0
150693,-142.857142857143,4,2,1,70,0,0
150963,-142.857142857143,4,2,1,5,0,0
151001,-142.857142857143,4,2,1,70,0,0
151270,-142.857142857143,4,2,1,5,0,0
151309,-142.857142857143,4,2,1,70,0,0
153693,-142.857142857143,4,2,1,5,0,0
153770,-142.857142857143,4,2,1,70,0,0
154001,-142.857142857143,4,2,1,5,0,0
154078,-142.857142857143,4,2,1,70,0,0
154309,-142.857142857143,4,2,1,5,0,0
154386,-142.857142857143,4,2,1,70,0,0
155616,-142.857142857143,4,2,1,80,0,0
160540,-111.111111111111,4,2,1,80,0,0
163001,-111.111111111111,4,2,1,90,0,0
163463,-111.111111111111,4,2,1,80,0,0
167924,-90.9090909090909,4,2,1,80,0,1
173078,-90.9090909090909,4,2,1,5,0,1
173155,-90.9090909090909,4,2,1,80,0,1
173386,-90.9090909090909,4,2,1,5,0,1
173463,-90.9090909090909,4,2,1,80,0,1
173693,-90.9090909090909,4,2,1,5,0,1
173770,-90.9090909090909,4,2,1,80,0,1
174001,-90.9090909090909,4,2,1,5,0,1
174078,-90.9090909090909,4,2,1,80,0,1
178001,-90.9090909090909,4,2,1,5,0,1
178078,-90.9090909090909,4,2,1,80,0,1
178309,-90.9090909090909,4,2,1,5,0,1
178386,-90.9090909090909,4,2,1,80,0,1
178616,-90.9090909090909,4,2,1,5,0,1
178693,-90.9090909090909,4,2,1,80,0,1
180463,-90.9090909090909,4,2,1,5,0,1
180540,-90.9090909090909,4,2,1,80,0,1
181693,-90.9090909090909,4,2,1,5,0,1
181770,-90.9090909090909,4,2,1,80,0,1
185155,-111.111111111111,4,2,1,80,0,1
188847,-111.111111111111,4,2,1,80,0,0
190078,-111.111111111111,4,2,1,70,0,0
191386,-111.111111111111,4,2,1,5,0,0
191463,-111.111111111111,4,2,1,70,0,0
193078,-111.111111111111,4,2,1,5,0,0
193155,-111.111111111111,4,2,1,70,0,0
193847,-111.111111111111,4,2,1,5,0,0
193924,-111.111111111111,4,2,1,70,0,0
200463,-111.111111111111,4,2,1,5,0,0
200540,-111.111111111111,4,2,1,70,0,0
201232,-111.111111111111,4,2,1,5,0,0
201309,-111.111111111111,4,2,1,70,0,0
203693,-111.111111111111,4,2,1,5,0,0
203770,-111.111111111111,4,2,1,70,0,0
208847,-111.111111111111,4,2,1,60,0,0
209155,-111.111111111111,4,2,1,50,0,0
209463,-111.111111111111,4,2,1,40,0,0
209770,-111.111111111111,4,2,3,60,0,0
211001,-111.111111111111,4,2,4,55,0,0
212232,-111.111111111111,4,2,3,50,0,0
213463,-111.111111111111,4,2,4,45,0,0
214693,-111.111111111111,4,2,3,40,0,0
215924,-111.111111111111,4,2,4,30,0,0
217155,-111.111111111111,4,2,3,20,0,0
218386,-111.111111111111,4,2,4,10,0,0
219616,-111.111111111111,4,2,3,5,0,0

[Colours]
Combo1 : 230,215,236
Combo2 : 250,182,199
Combo3 : 253,209,190
Combo4 : 230,170,170

[HitObjects]
275,114,540,5,6,1:2:0:0:
275,114,693,1,6,1:2:0:0:
275,114,847,2,0,P|282:166|287:205,1,68,6|0,1:2|0:2,0:0:0:0:
416,268,1155,2,0,P|422:236|434:182,2,68,10|10|10,0:2|0:2|0:2,0:0:0:0:
291,370,1616,6,0,B|225:364|246:310|155:300,1,136,6|2,1:2|1:2,0:0:0:0:
79,358,2078,1,10,0:2:0:0:
7,222,2232,1,0,1:2:0:0:
7,222,2309,1,0,1:2:0:0:
7,222,2386,2,0,L|0:188,3,34,10|0|0|0,0:2|1:2|1:2|1:2,0:0:0:0:
113,121,2693,2,0,L|106:154,3,34,0|0|0|0,1:2|1:2|1:2|1:2,0:0:0:0:
23,12,3001,5,6,1:2:0:0:
23,12,3155,1,6,1:2:0:0:
23,12,3309,2,0,L|110:33,1,68,6|0,1:2|0:0,0:0:0:0:
173,127,3616,2,0,L|86:148,2,68,10|10|10,0:2|0:2|0:2,0:0:0:0:
274,24,4078,6,0,P|322:62|326:134,1,136,6|2,1:2|1:2,0:0:0:0:
209,272,4540,1,8,0:2:0:0:
173,127,4693,1,0,1:2:0:0:
173,127,4770,1,0,1:2:0:0:
173,127,4847,1,0,1:2:0:0:
327,186,5001,1,0,1:2:0:0:
327,186,5078,1,0,1:2:0:0:
327,186,5155,1,8,0:2:0:0:
336,149,5232,1,8,0:2:0:0:
345,112,5309,1,8,0:2:0:0:
354,75,5386,1,8,0:2:0:0:
354,75,5616,5,6,1:2:0:0:
473,124,5770,2,0,P|478:96|485:61,1,59.4999981842042,2|2,1:2|0:2,0:0:0:0:
423,212,6078,2,0,P|449:226|482:227,1,59.4999981842042,10|0,0:2|0:2,0:0:0:0:
354,75,6386,2,0,P|323:85|290:94,1,59.4999981842042,2|0,1:2|0:2,0:0:0:0:
141,159,6693,5,2,1:2:0:0:
313,341,7001,2,0,L|361:356,2,39.6666654561361,2|2|2,1:2|0:0|0:0,0:0:0:0:
301,349,7309,2,0,P|296:308|286:252,1,89.2499972763062,8|0,0:2|0:0,0:0:0:0:
236,234,7616,2,0,P|213:258|211:299,1,59.4999981842042,2|0,1:2|0:2,0:0:0:0:
385,255,7924,6,0,P|391:212|401:131,1,118.999996368408,6|0,1:2|1:2,0:0:0:0:
265,16,8386,1,2,0:2:0:0:
265,16,8463,1,2,0:2:0:0:
265,16,8540,1,8,0:2:0:0:
191,96,8693,1,0,1:2:0:0:
311,181,8847,1,8,0:2:0:0:
172,306,9001,1,2,1:2:0:0:
172,306,9077,1,2,1:2:0:0:
172,306,9154,5,10,0:2:0:0:
138,318,9231,1,8,0:2:0:0:
104,304,9309,2,0,L|93:262,1,29.7499990921021,0|0,1:2|1:2,0:0:0:0:
82,188,9463,1,2,1:2:0:0:
191,96,9616,1,0,1:2:0:0:
191,96,9693,1,0,1:2:0:0:
191,96,9770,1,2,1:2:0:0:
311,181,9924,1,0,1:2:0:0:
311,181,10001,1,0,1:2:0:0:
311,181,10078,1,10,0:2:0:0:
338,142,10155,1,8,0:2:0:0:
380,120,10232,1,8,0:2:0:0:
427,117,10309,1,8,0:2:0:0:
475,141,10386,5,6,1:2:0:0:
475,141,10540,1,4,1:2:0:0:
475,141,10693,1,6,1:2:0:0:
346,372,11001,1,10,0:2:0:0:
314,266,11155,1,10,0:2:0:0:
343,377,11309,1,10,0:2:0:0:
309,261,11463,6,0,P|373:283|445:304,1,136,6|0,1:2|1:2,0:0:0:0:
233,321,11924,1,8,0:2:0:0:
259,158,12078,1,0,1:2:0:0:
259,158,12155,1,0,1:2:0:0:
259,158,12232,2,0,L|214:176,3,34,10|0|0|0,0:2|1:2|1:2|1:2,0:0:0:0:
128,150,12540,2,0,L|119:192,3,34,0|0|0|0,1:2|1:2|1:2|1:2,0:0:0:0:
64,302,12847,5,6,1:2:0:0:
64,302,13001,1,6,1:2:0:0:
64,302,13155,1,6,1:2:0:0:
212,86,13463,1,10,0:2:0:0:
163,196,13617,1,10,0:2:0:0:
217,81,13770,1,10,0:2:0:0:
168,200,13924,6,0,P|96:178|23:156,1,136,6|0,1:2|1:2,0:0:0:0:
149,24,14386,1,8,0:2:0:0:
251,162,14540,1,0,1:2:0:0:
251,162,14616,1,0,1:2:0:0:
251,162,14693,1,2,1:2:0:0:
375,115,14847,1,0,1:2:0:0:
375,115,14924,1,0,1:2:0:0:
375,115,15001,1,8,0:2:0:0:
367,157,15078,1,8,0:2:0:0:
359,200,15155,1,8,0:2:0:0:
351,242,15232,1,8,0:2:0:0:
351,242,15463,5,6,1:2:0:0:
408,378,15616,2,0,P|417:346|407:307,1,68,2|2,1:2|0:2,0:0:0:0:
270,208,15924,2,0,P|238:220|197:233,1,68,10|0,0:2|0:2,0:0:0:0:
152,378,16232,2,0,P|121:364|78:351,1,68,2|0,1:2|0:2,0:0:0:0:
0,266,16540,5,2,1:2:0:0:
140,135,16847,2,0,P|135:113|129:82,2,45.3333333333333,2|2|2,1:2|0:0|0:0,0:0:0:0:
148,148,17155,2,0,P|121:179|49:182,1,102,10|0,0:2|0:0,0:0:0:0:
25,153,17463,2,0,P|33:121|44:73,1,68,2|0,1:2|0:2,0:0:0:0:
227,14,17770,6,0,P|234:82|242:149,1,136,2|0,1:2|1:2,0:0:0:0:
262,321,18232,1,2,0:2:0:0:
262,321,18309,1,2,0:2:0:0:
262,321,18386,1,10,0:2:0:0:
419,252,18540,1,0,1:2:0:0:
419,252,18616,1,0,1:2:0:0:
419,252,18693,1,10,0:2:0:0:
376,263,18770,1,10,0:2:0:0:
337,248,18847,1,2,1:2:0:0:
311,215,18924,1,2,1:2:0:0:
307,174,19001,5,6,1:2:0:0:
408,84,19309,1,2,0:2:0:0:
489,153,19616,1,2,0:2:0:0:
512,139,19924,1,2,0:2:0:0:
346,24,20232,6,0,P|320:73|336:132,2,114.749996498108,2|0|8,1:2|1:2|0:2,0:0:0:0:
408,84,20847,1,2,1:2:0:0:
408,84,21155,1,0,1:2:0:0:
289,233,21463,5,2,1:2:0:0:
212,178,21770,1,2,0:2:0:0:
295,230,22078,1,2,1:2:0:0:
276,321,22386,1,2,1:2:0:0:
91,365,22693,6,0,P|98:329|116:230,2,114.749996498108,2|0|8,1:2|1:2|0:2,0:0:0:0:
20,259,23309,1,2,1:2:0:0:
20,259,23616,1,0,1:2:0:0:
178,137,23924,5,2,1:2:0:0:
114,63,24232,1,2,0:2:0:0:
184,135,24540,1,2,1:2:0:0:
138,217,24847,1,2,1:2:0:0:
336,83,25155,6,0,P|395:84|436:130,2,114.749996498108,2|0|8,1:2|1:2|0:2,0:0:0:0:
263,171,25770,1,2,1:2:0:0:
263,171,26078,1,0,1:2:0:0:
9,114,26386,5,2,1:2:0:0:
74,54,26693,1,2,0:2:0:0:
0,115,27001,1,2,1:2:0:0:
14,201,27309,1,2,1:2:0:0:
169,373,27616,6,0,P|226:354|293:334,2,114.749996498108,2|0|8,1:2|1:2|0:2,0:0:0:0:
58,335,28232,1,2,1:2:0:0:
58,335,28540,1,0,1:2:0:0:
179,190,28847,5,2,1:2:0:0:
57,146,29155,2,0,P|34:177|33:217,1,59.4999981842042,2|0,0:2|0:0,0:0:0:0:
137,295,29463,2,0,P|170:284|211:270,1,59.4999981842042,2|0,1:2|0:0,0:0:0:0:
306,232,29770,1,2,1:2:0:0:
512,384,30078,6,0,P|503:341|485:251,1,118.999996368408,6|8,1:2|0:2,0:0:0:0:
418,143,30540,1,2,0:2:0:0:
418,143,30693,2,0,P|413:172|409:202,1,59.4999981842042,2|0,1:2|0:0,0:0:0:0:
385,340,31001,1,8,0:2:0:0:
267,211,31155,6,0,P|295:202|323:192,1,59.4999981842042,2|2,0:2|1:2,0:0:0:0:
253,289,31463,1,2,0:2:0:0:
56,215,31616,2,0,P|56:254|75:283,1,59.4999981842042,10|0,0:2|0:2,0:0:0:0:
178,248,31924,2,0,P|178:209|159:180,1,59.4999981842042,2|0,1:2|0:2,0:0:0:0:
44,100,32232,1,10,0:2:0:0:
33,115,32540,6,0,P|87:103|152:88,1,118.999996368408,2|8,1:2|0:2,0:0:0:0:
232,196,33001,1,2,0:2:0:0:
232,196,33155,2,0,P|207:189|168:178,1,59.4999981842042,2|0,1:2|0:0,0:0:0:0:
110,276,33463,1,8,0:2:0:0:
235,375,33616,6,0,P|281:333|346:337,1,118.999996368408,2|2,0:2|0:2,0:0:0:0:
473,306,34078,2,0,P|465:341|461:374,1,59.4999981842042,10|0,0:2|3:2,0:0:0:0:
375,203,34386,1,2,1:2:0:0:
397,280,34540,1,8,0:2:0:0:
375,203,34693,1,2,1:2:0:0:
492,9,35001,6,0,P|429:29|354:47,1,118.999996368408,6|8,1:2|0:2,0:0:0:0:
205,12,35463,1,2,0:2:0:0:
205,12,35616,2,0,L|215:79,1,59.4999981842042,2|0,1:2|0:0,0:0:0:0:
298,145,35924,2,0,L|288:212,1,59.4999981842042,8|0,0:2|0:0,0:0:0:0:
254,323,36232,5,0,1:2:0:0:
73,209,36540,2,0,P|100:224|136:236,1,59.4999981842042,10|0,0:2|0:2,0:0:0:0:
0,350,36847,2,0,P|32:326|93:302,2,89.2499972763062,2|2|2,1:2|0:2|0:2,0:0:0:0:
173,379,37463,6,0,L|161:305,1,59.4999981842042,2|0,1:2|0:2,0:0:0:0:
236,232,37770,2,0,L|248:158,1,59.4999981842042,10|0,0:2|0:2,0:0:0:0:
78,33,38078,2,0,P|36:72|48:143,1,118.999996368408,2|8,1:2|0:2,0:0:0:0:
38,129,38693,5,2,1:2:0:0:
38,129,38847,1,0,1:2:0:0:
149,207,39001,1,14,0:2:0:0:
289,98,39155,1,0,1:2:0:0:
289,98,39232,1,0,1:2:0:0:
289,98,39309,2,0,P|285:118|281:149,1,29.7499990921021,14|0,0:2|1:0,0:0:0:0:
241,196,39463,2,0,P|245:217|249:242,1,29.7499990921021,0|0,1:2|1:0,0:0:0:0:
294,326,39616,2,0,P|290:345|287:363,3,29.7499990921021,0|0|0|0,1:2|1:2|1:2|1:2,0:0:0:0:
265,381,39924,5,6,1:2:0:0:
265,381,40078,1,6,1:2:0:0:
265,381,40232,1,6,1:2:0:0:
475,219,40540,1,10,0:2:0:0:
371,148,40693,1,8,0:2:0:0:
475,219,40847,1,10,0:2:0:0:
371,148,41001,6,0,P|385:210|394:265,1,118.999996368408,6|2,1:2|1:2,0:0:0:0:
481,131,41463,2,0,L|495:61,1,59.4999981842042,10|0,0:2|1:2,0:0:0:0:
347,8,41770,2,0,P|360:13|384:21,3,29.7499990921021,10|0|0|0,0:2|1:2|1:2|1:2,0:0:0:0:
252,81,42078,2,0,P|268:74|292:63,3,29.7499990921021,10|0|0|0,0:2|1:2|1:2|1:2,0:0:0:0:
134,45,42386,5,6,1:2:0:0:
134,45,42540,1,4,1:2:0:0:
134,45,42693,1,6,1:2:0:0:
36,256,43001,1,10,0:2:0:0:
150,191,43155,1,8,0:2:0:0:
36,256,43309,1,10,0:2:0:0:
150,191,43463,6,0,P|138:253|130:312,1,118.999996368408,6|2,1:2|1:2,0:0:0:0:
235,237,43924,1,10,0:2:0:0:
208,121,44078,1,0,1:2:0:0:
208,121,44155,1,0,1:2:0:0:
208,121,44232,1,10,0:2:0:0:
69,187,44386,1,0,1:2:0:0:
69,187,44463,1,0,1:2:0:0:
69,187,44540,1,10,0:2:0:0:
76,152,44616,1,8,0:2:0:0:
83,117,44693,1,8,0:2:0:0:
90,82,44770,1,8,0:2:0:0:
97,47,44847,6,0,P|26:62|6:158,1,178.499994552612,6|2,1:2|1:2,0:0:0:0:
101,291,45463,1,8,0:2:0:0:
101,291,45770,2,0,B|134:281|173:275|173:275|187:244|187:244|225:236|271:225,1,178.499994552612,6|2,1:2|1:2,0:0:0:0:
345,311,46386,1,8,0:2:0:0:
449,111,46693,6,0,P|438:202|427:305,1,178.499994552612,6|0,1:2|0:0,0:0:0:0:
248,178,47309,6,0,P|221:138|276:28,1,178.499994552612,6|0,1:2|1:2,0:0:0:0:
361,152,47924,1,10,0:2:0:0:
361,152,48232,6,0,B|331:205|326:274|326:274|304:253|263:241,1,178.499994552612,6|0,1:2|1:2,0:0:0:0:
135,207,48847,1,10,0:2:0:0:
238,361,49001,1,0,1:2:0:0:
238,361,49078,1,0,1:2:0:0:
238,361,49155,2,0,L|248:323,3,29.7499990921021,10|0|0|0,0:2|1:2|1:2|1:2,0:0:0:0:
105,290,49463,2,0,L|118:328,3,29.7499990921021,0|0|0|0,1:2|1:2|1:2|1:2,0:0:0:0:
213,177,49770,5,6,1:2:0:0:
213,177,49924,1,6,1:2:0:0:
213,177,50078,1,6,1:2:0:0:
77,13,50386,1,10,0:2:0:0:
33,113,50540,1,8,0:2:0:0:
77,13,50693,1,10,0:2:0:0:
33,113,50847,6,0,P|88:101|153:86,1,118.999996368408,6|2,1:2|1:2,0:0:0:0:
269,4,51309,1,10,0:2:0:0:
338,128,51463,1,0,1:2:0:0:
338,128,51540,1,0,1:2:0:0:
338,128,51616,2,0,L|330:174,3,29.7499990921021,10|0|0|0,0:2|1:2|1:2|1:2,0:0:0:0:
226,209,51924,2,0,L|233:237,3,29.7499990921021,10|0|0|0,0:2|1:2|1:2|1:2,0:0:0:0:
283,340,52232,5,6,1:2:0:0:
283,340,52386,1,4,1:2:0:0:
283,340,52540,1,6,1:2:0:0:
474,230,52847,1,10,0:2:0:0:
436,128,53001,1,8,0:2:0:0:
474,230,53155,1,10,0:2:0:0:
436,128,53309,6,0,P|370:148|315:164,1,118.999996368408,6|2,1:2|1:2,0:0:0:0:
176,195,53770,1,10,0:2:0:0:
262,79,53924,1,0,1:2:0:0:
262,79,54001,1,0,1:2:0:0:
262,79,54078,1,10,0:2:0:0:
226,69,54155,1,0,1:2:0:0:
191,59,54232,1,0,1:2:0:0:
156,49,54309,1,0,1:2:0:0:
121,40,54386,1,10,1:2:0:0:
35,141,54540,1,0,1:2:0:0:
35,141,54616,1,0,1:2:0:0:
35,141,54693,6,0,L|47:221,1,76.4999976654053,14|0,0:2|1:2,0:0:0:0:
65,323,55001,1,0,1:2:0:0:
262,219,55155,6,0,P|226:207|180:186,1,76.4999976654053,14|0,0:2|1:2,0:0:0:0:
116,133,55463,1,0,1:2:0:0:
164,340,55616,6,0,P|201:322|245:304,1,76.4999976654053,14|0,0:2|1:2,0:0:0:0:
351,261,55924,1,0,1:2:0:0:
234,45,56078,6,0,P|242:87|249:128,1,76.4999976654053,14|0,0:2|1:2,0:0:0:0:
262,219,56386,1,0,1:2:0:0:
444,115,56540,6,0,P|406:103|356:81,1,76.4999976654053,10|0,0:2|1:2,0:0:0:0:
372,88,56770,1,0,1:2:0:0:
372,88,56847,1,2,1:2:0:0:
262,219,57001,1,0,1:2:0:0:
262,219,57078,1,0,1:2:0:0:
262,219,57155,6,0,P|256:183|246:134,1,76.4999976654053,6|0,1:2|0:2,0:0:0:0:
226,39,57463,1,14,0:2:0:0:
146,105,57616,1,2,1:2:0:0:
146,105,57693,1,0,1:2:0:0:
146,105,57770,1,8,0:2:0:0:
37,97,57924,1,2,1:2:0:0:
106,218,58078,2,0,P|145:200|203:177,1,76.4999976654053,10|0,0:2|1:2,0:0:0:0:
216,172,58309,1,0,1:2:0:0:
216,172,58386,5,10,0:2:0:0:
192,278,58540,1,8,0:2:0:0:
326,144,58693,1,8,0:2:0:0:
366,309,58847,1,8,0:2:0:0:
366,309,59616,6,0,P|424:285|503:257,1,140.25000428009,6|0,1:2|1:2,0:0:0:0:
496,258,59924,1,8,0:2:0:0:
311,225,60078,2,0,P|267:313|312:389,1,187.000005706787,2|0,1:2|1:2,0:0:0:0:
512,346,60540,2,0,P|499:301|486:237,1,93.5000028533936,10|0,0:2|0:0,0:0:0:0:
434,96,60847,6,0,L|328:133,1,93.5000028533936,2|0,1:2|3:2,0:0:0:0:
277,174,61078,1,0,3:2:0:0:
277,174,61155,2,0,P|259:132|271:88,1,93.5000028533936,10|0,0:2|1:2,0:0:0:0:
455,181,61463,2,0,L|436:284,1,93.5000028533936,2|0,3:2|1:2,0:0:0:0:
287,269,61770,2,0,P|330:288|361:336,1,93.5000028533936,10|0,0:2|0:2,0:0:0:0:
183,384,62078,6,0,P|171:328|141:231,1,140.25000428009,2|0,1:2|1:2,0:0:0:0:
147,248,62386,1,10,0:2:0:0:
6,285,62540,2,0,P|1:333|39:380,1,93.5000028533936,2|0,1:2|0:0,0:0:0:0:
140,245,62847,1,2,1:2:0:0:
272,356,63001,2,0,L|175:386,1,93.5000028533936,10|0,0:2|0:2,0:0:0:0:
59,213,63309,6,0,P|67:181|86:104,1,93.5000028533936,2|0,1:2|0:2,0:0:0:0:
99,48,63540,1,0,1:2:0:0:
99,48,63616,1,8,0:2:0:0:
186,136,63770,1,0,1:2:0:0:
329,86,63924,2,0,P|342:48|318:-9,1,93.5000028533936,2|0,0:2|1:2,0:0:0:0:
193,129,64232,2,0,P|205:179|214:227,1,93.5000028533936,10|0,0:2|1:2,0:0:0:0:
323,372,64540,6,0,P|352:334|436:328,1,93.5000028533936,6|0,1:2|0:2,0:0:0:0:
475,346,64770,1,2,1:2:0:0:
475,346,64847,2,0,P|483:313|499:239,1,93.5000028533936,8|2,0:2|1:2,0:0:0:0:
440,154,65155,1,2,0:2:0:0:
440,154,65309,1,2,1:2:0:0:
308,250,65463,1,10,0:2:0:0:
308,250,65616,1,2,0:2:0:0:
180,149,65770,6,0,L|286:122,1,93.5000028533936,2|0,1:2|0:2,0:0:0:0:
347,165,66001,1,2,1:2:0:0:
347,165,66078,2,0,P|357:130|325:58,1,93.5000028533936,8|2,0:2|1:2,0:0:0:0:
246,7,66386,1,2,0:2:0:0:
246,7,66540,1,2,1:2:0:0:
115,81,66693,1,14,0:2:0:0:
115,81,66847,1,2,1:2:0:0:
188,257,67001,6,0,L|209:105,1,140.25000428009,6|0,1:2|0:2,0:0:0:0:
218,104,67309,2,0,P|247:149|236:192,1,93.5000028533936,10|0,0:2|0:0,0:0:0:0:
89,248,67616,2,0,P|36:245|1:165,1,140.25000428009,2|0,1:2|0:2,0:0:0:0:
14,140,67924,2,0,P|26:197|34:239,1,93.5000028533936,10|0,0:2|0:0,0:0:0:0:
146,371,68232,6,0,B|221:353|176:303|266:285,1,140.25000428009,2|0,1:2|0:0,0:0:0:0:
253,288,68540,1,8,0:2:0:0:
480,80,68847,5,6,1:2:0:0:
337,39,69001,1,8,0:2:0:0:
337,39,69078,1,8,0:2:0:0:
337,39,69155,1,6,1:2:0:0:
373,184,69309,1,8,0:2:0:0:
373,184,69386,1,8,0:2:0:0:
373,184,69463,6,0,P|315:162|241:134,1,140.25000428009,6|0,1:2|0:0,0:0:0:0:
241,134,69770,1,8,0:2:0:0:
141,206,69924,1,10,0:2:0:0:
141,206,70001,1,8,0:2:0:0:
141,206,70078,2,0,P|136:175|124:113,1,93.5000028533936,0|0,1:2|1:2,0:0:0:0:
67,270,70386,2,0,P|75:323|120:356,1,93.5000028533936,10|2,0:2|3:2,0:0:0:0:
271,267,70693,5,0,1:2:0:0:
179,288,70847,1,0,1:2:0:0:
271,267,71001,2,0,L|369:244,1,93.5000028533936,10|0,0:2|0:0,0:0:0:0:
445,228,71232,1,8,0:2:0:0:
445,228,71309,5,2,1:2:0:0:
432,322,71463,1,0,1:2:0:0:
445,228,71617,2,0,L|457:128,1,93.5000028533936,8|0,0:2|0:2,0:0:0:0:
279,24,71924,2,0,P|261:88|314:147,1,140.25000428009,6|0,1:2|0:2,0:0:0:0:
318,152,72232,2,0,P|280:124|212:128,1,93.5000028533936,14|0,0:2|0:0,0:0:0:0:
131,259,72540,2,0,P|120:213|108:168,1,93.5000028533936,6|0,1:2|0:0,0:0:0:0:
218,213,72847,1,14,0:2:0:0:
138,375,73001,6,0,B|236:357|177:298|294:283,1,187.000005706787,2|0,0:2|0:0,0:0:0:0:
422,365,73463,1,8,0:2:0:0:
422,365,73770,1,2,1:2:0:0:
508,248,73924,1,8,0:2:0:0:
384,282,74078,2,0,P|374:256|348:194,1,93.5000028533936,2|0,1:2|0:2,0:0:0:0:
496,74,74386,6,0,P|492:139|467:172,1,93.5000028533936,6|0,1:2|0:0,0:0:0:0:
324,71,74693,2,0,P|371:88|418:102,1,93.5000028533936,10|0,0:2|0:2,0:0:0:0:
348,195,75001,2,0,P|306:212|250:234,1,93.5000028533936,2|0,1:2|0:2,0:0:0:0:
157,101,75309,2,0,P|204:118|251:132,1,93.5000028533936,10|0,0:2|0:2,0:0:0:0:
206,297,75616,6,0,P|184:269|182:199,1,93.5000028533936,2|0,1:2|0:0,0:0:0:0:
342,292,75924,2,0,P|332:346|325:391,1,93.5000028533936,10|0,0:2|0:2,0:0:0:0:
205,296,76232,2,0,P|196:250|186:205,1,93.5000028533936,2|0,1:2|0:2,0:0:0:0:
412,131,76540,2,0,P|398:176|385:221,1,93.5000028533936,14|0,0:2|1:2,0:0:0:0:
237,0,76847,5,14,0:2:0:0:
258,159,77001,1,0,1:2:0:0:
369,53,77155,5,8,0:2:0:0:
258,159,77309,1,0,1:2:0:0:
245,166,77386,1,0,1:2:0:0:
213,173,77463,1,10,0:2:0:0:
181,164,77540,1,8,0:2:0:0:
157,141,77616,1,8,0:2:0:0:
147,109,77693,1,8,0:2:0:0:
152,76,77770,1,8,0:2:0:0:
4,234,77924,1,10,0:2:0:0:
4,234,78001,1,8,0:2:0:0:
4,234,78078,1,10,0:2:0:0:
4,234,79309,6,0,P|68:244|124:292,1,127.5,6|0,1:2|1:2,0:0:0:0:
220,284,79924,2,0,P|220:335|205:379,1,68,8|0,0:2|0:0,0:0:0:0:
76,383,80232,1,0,1:2:0:0:
32,126,80540,5,8,0:2:0:0:
33,128,80617,1,0,3:2:0:0:
33,130,80694,1,0,3:2:0:0:
33,132,80771,1,0,3:2:0:0:
34,134,80848,1,0,1:2:0:0:
34,136,80925,1,0,1:2:0:0:
35,139,81001,1,0,1:2:0:0:
168,215,81155,1,10,0:2:0:0:
253,159,81309,1,2,1:2:0:0:
253,159,81386,1,0,1:2:0:0:
253,159,81463,2,0,P|272:197|270:229,1,63.75,2|0,0:2|0:2,0:0:0:0:
243,271,81770,6,0,P|253:316|260:348,2,76.4999976654053,6|0|0,1:2|1:2|1:2,0:0:0:0:
168,215,82232,1,0,1:2:0:0:
168,215,82309,1,0,1:2:0:0:
168,215,82386,1,10,0:2:0:0:
88,252,82540,1,0,1:2:0:0:
88,252,82847,1,0,1:2:0:0:
4,201,83001,6,0,P|20:166|26:112,1,76.4999976654053,2|0,0:2|1:2,0:0:0:0:
14,0,83309,2,0,P|50:21|91:29,1,76.4999976654053,2|0,0:2|1:2,0:0:0:0:
166,6,83540,1,0,1:2:0:0:
166,6,83616,1,10,0:2:0:0:
154,86,83770,1,0,1:2:0:0:
142,166,83924,1,2,1:2:0:0:
142,166,84232,5,6,1:2:0:0:
282,83,84386,2,0,P|291:124|300:165,1,76.4999976654053,8|0,0:2|1:2,0:0:0:0:
328,290,84693,1,0,1:2:0:0:
328,290,84770,1,0,1:2:0:0:
328,290,84847,1,10,0:2:0:0:
246,253,85001,1,0,1:2:0:0:
246,253,85309,1,0,1:2:0:0:
380,221,85463,6,0,L|470:200,1,76.4999976654053,2|0,0:2|1:2,0:0:0:0:
246,253,85770,2,0,L|171:270,1,76.4999976654053,2|0,1:2|1:2,0:0:0:0:
95,241,86001,1,0,1:2:0:0:
95,241,86078,1,10,0:2:0:0:
107,324,86232,1,0,0:2:0:0:
186,351,86386,1,2,0:2:0:0:
186,351,86693,6,0,P|192:322|206:266,2,76.4999976654053,6|0|0,1:2|1:2|1:2,0:0:0:0:
299,262,87155,1,0,1:2:0:0:
299,262,87232,1,0,1:2:0:0:
299,262,87309,1,10,0:2:0:0:
370,315,87463,1,0,1:2:0:0:
370,315,87770,1,0,1:2:0:0:
494,255,87924,6,0,P|481:291|473:328,1,76.4999976654053,2|0,0:2|1:2,0:0:0:0:
378,229,88232,2,0,P|367:189|351:139,1,76.4999976654053,2|0,1:2|1:2,0:0:0:0:
331,78,88463,1,0,1:2:0:0:
331,78,88540,1,10,0:2:0:0:
413,91,88693,1,0,1:2:0:0:
478,37,88847,1,2,1:2:0:0:
478,37,89155,5,6,1:2:0:0:
312,3,89309,2,0,P|324:49|334:94,1,76.4999976654053,8|0,0:2|1:2,0:0:0:0:
366,228,89616,1,0,1:2:0:0:
366,228,89693,1,0,1:2:0:0:
366,228,89770,1,10,0:2:0:0:
219,187,89924,1,8,0:2:0:0:
210,220,90001,1,8,0:2:0:0:
222,252,90078,2,0,P|236:244|266:234,2,38.2499988327027,0|0|0,1:2|0:0|1:2,0:0:0:0:
168,370,90386,5,2,1:2:0:0:
75,335,90540,1,0,1:2:0:0:
75,335,90616,1,0,1:2:0:0:
75,335,90693,2,0,L|60:247,1,76.4999976654053,2|0,1:2|1:2,0:0:0:0:
23,65,91001,1,2,1:2:0:0:
176,138,91155,1,8,0:2:0:0:
88,181,91309,1,2,0:2:0:0:
23,65,91616,6,0,P|75:57|126:1,1,118.999996368408,6|8,1:2|0:2,0:0:0:0:
260,21,92078,1,2,0:2:0:0:
260,21,92232,2,0,L|251:96,1,59.4999981842042,2|0,1:2|0:0,0:0:0:0:
233,221,92539,1,8,0:2:0:0:
369,169,92693,6,0,L|301:157,1,59.4999981842042,2|0,3:2|1:2,0:0:0:0:
170,143,93001,1,2,0:2:0:0:
230,305,93155,2,0,P|256:305|299:275,1,59.4999981842042,10|0,0:2|0:2,0:0:0:0:
369,169,93463,2,0,P|353:199|356:245,1,59.4999981842042,2|0,1:2|0:2,0:0:0:0:
463,349,93770,1,10,0:2:0:0:
448,355,94078,6,0,L|464:226,1,118.999996368408,2|8,1:2|0:2,0:0:0:0:
497,124,94539,1,2,0:2:0:0:
497,124,94693,2,0,P|468:117|432:92,1,59.4999981842042,2|0,1:2|0:0,0:0:0:0:
365,10,95001,1,8,0:2:0:0:
237,108,95155,6,0,P|251:173|264:235,1,118.999996368408,2|2,3:2|0:2,0:0:0:0:
180,330,95616,2,0,L|118:309,1,59.4999981842042,10|0,0:2|3:2,0:0:0:0:
22,273,95924,1,2,1:2:0:0:
109,220,96078,1,8,0:2:0:0:
22,273,96231,1,2,1:2:0:0:
228,376,96540,6,0,P|217:337|206:289,2,89.2499972763062,6|2|2,1:2|0:2|0:2,0:0:0:0:
89,363,97155,2,0,P|100:329|108:291,1,59.4999981842042,2|0,1:2|0:2,0:0:0:0:
112,130,97463,2,0,P|81:131|52:150,1,59.4999981842042,8|0,0:2|0:2,0:0:0:0:
22,273,97770,5,0,1:2:0:0:
193,94,98078,2,0,P|201:130|208:166,1,59.4999981842042,10|0,0:2|0:2,0:0:0:0:
295,261,98386,2,0,P|303:231|328:149,2,89.2499972763062,2|2|2,1:2|0:2|0:2,0:0:0:0:
382,347,99001,6,0,P|405:328|424:291,1,59.4999981842042,2|0,1:2|0:2,0:0:0:0:
213,270,99309,2,0,P|219:301|239:326,1,59.4999981842042,10|0,0:2|0:2,0:0:0:0:
430,217,99616,2,0,P|377:198|298:165,1,118.999996368408,2|8,1:2|0:2,0:0:0:0:
318,174,100231,5,2,1:2:0:0:
318,174,100385,1,0,1:2:0:0:
178,120,100539,1,14,0:2:0:0:
312,31,100693,1,0,1:2:0:0:
312,31,100770,1,0,1:2:0:0:
312,31,100847,2,0,L|335:68,1,29.7499990921021,14|0,0:2|1:0,0:0:0:0:
430,64,101001,2,0,L|423:106,1,29.7499990921021,0|0,1:2|1:0,0:0:0:0:
484,188,101155,2,0,L|461:221,3,29.7499990921021,0|0|0|0,1:2|1:2|1:2|1:2,0:0:0:0:
414,227,101462,5,6,1:2:0:0:
414,227,101616,1,4,1:2:0:0:
414,227,101770,1,6,1:2:0:0:
187,141,102078,1,10,0:2:0:0:
303,106,102232,1,8,0:2:0:0:
187,141,102385,1,10,0:2:0:0:
303,106,102540,6,0,P|251:82|182:45,1,118.999996368408,6|2,1:2|1:2,0:0:0:0:
62,120,103001,2,0,P|52:153|61:192,1,59.4999981842042,10|0,0:2|1:2,0:0:0:0:
150,303,103309,2,0,L|179:297,3,29.7499990921021,10|0|0|0,0:2|1:2|1:2|1:2,0:0:0:0:
253,216,103616,2,0,L|286:223,3,29.7499990921021,10|0|0|0,0:2|1:2|1:2|1:2,0:0:0:0:
371,277,103924,5,6,1:2:0:0:
371,277,104078,1,4,1:2:0:0:
371,277,104231,1,6,1:2:0:0:
192,92,104539,1,10,0:2:0:0:
90,173,104693,1,8,0:2:0:0:
192,92,104847,1,10,0:2:0:0:
90,173,105001,6,0,P|71:147|83:55,1,118.999996368408,6|2,1:2|1:2,0:0:0:0:
231,6,105462,1,10,0:2:0:0:
296,90,105616,1,0,1:2:0:0:
296,90,105693,1,0,1:2:0:0:
296,90,105770,1,10,0:2:0:0:
429,16,105924,1,0,1:2:0:0:
429,16,106001,1,0,1:2:0:0:
429,16,106078,1,10,0:2:0:0:
436,50,106154,1,8,0:2:0:0:
444,85,106231,1,8,0:2:0:0:
451,120,106308,1,8,0:2:0:0:
459,155,106386,6,0,P|383:161|355:252,1,178.499994552612,6|2,1:2|1:2,0:0:0:0:
426,376,107001,1,8,0:2:0:0:
426,376,107309,2,0,B|339:385|360:308|250:324,1,178.499994552612,6|2,1:2|1:2,0:0:0:0:
148,384,107924,1,8,0:2:0:0:
84,192,108232,6,0,P|71:296|61:387,1,178.499994552612,6|0,1:2|0:0,0:0:0:0:
43,113,108847,6,0,B|112:103|112:103|145:136|145:136|221:125,1,178.499994552612,6|0,1:2|1:2,0:0:0:0:
337,110,109462,1,10,0:2:0:0:
337,110,109770,6,0,B|371:142|378:187|378:187|399:147|452:124,1,178.499994552612,6|0,1:2|1:2,0:0:0:0:
478,227,110385,1,10,0:2:0:0:
382,318,110539,1,0,1:2:0:0:
382,318,110616,1,0,1:2:0:0:
382,318,110693,2,0,L|420:306,3,29.7499990921021,10|0|0|0,0:2|1:2|1:2|1:2,0:0:0:0:
257,235,111001,2,0,L|295:247,3,29.7499990921021,0|0|0|0,1:2|1:2|1:2|1:2,0:0:0:0:
174,286,111308,5,6,1:2:0:0:
174,286,111462,1,4,1:2:0:0:
174,286,111616,1,6,1:2:0:0:
96,105,111924,1,10,0:2:0:0:
202,59,112078,1,8,0:2:0:0:
96,105,112231,1,10,0:2:0:0:
202,59,112386,6,0,P|189:125|181:184,1,118.999996368408,6|2,1:2|1:2,0:0:0:0:
67,327,112847,1,10,0:2:0:0:
3,227,113001,1,0,1:2:0:0:
3,227,113078,1,0,1:2:0:0:
3,227,113155,2,0,L|38:206,3,29.7499990921021,10|0|0|0,0:2|1:2|1:2|1:2,0:0:0:0:
59,103,113463,2,0,L|86:116,3,29.7499990921021,10|0|0|0,0:2|1:2|1:2|1:2,0:0:0:0:
153,183,113770,5,6,1:2:0:0:
153,183,113924,1,4,1:2:0:0:
153,183,114078,1,6,1:2:0:0:
344,34,114385,1,10,0:2:0:0:
324,143,114539,1,8,0:2:0:0:
344,34,114693,1,10,0:2:0:0:
324,143,114847,6,0,P|375:123|453:98,1,118.999996368408,6|2,1:2|1:2,0:0:0:0:
497,217,115309,1,10,0:2:0:0:
397,308,115462,1,0,1:2:0:0:
397,308,115539,1,0,1:2:0:0:
397,308,115616,1,10,0:2:0:0:
363,292,115693,1,0,1:2:0:0:
330,277,115770,1,0,1:2:0:0:
296,261,115847,1,0,1:2:0:0:
263,247,115924,1,10,0:2:0:0:
180,342,116078,1,0,1:2:0:0:
180,342,116154,1,0,1:2:0:0:
180,342,116232,6,0,L|169:263,1,76.4999976654053,14|0,0:2|1:2,0:0:0:0:
153,152,116539,1,0,1:2:0:0:
321,85,116693,6,0,P|311:131|303:170,1,76.4999976654053,14|0,0:2|1:2,0:0:0:0:
282,266,117001,1,0,1:2:0:0:
153,158,117155,6,0,P|191:143|231:126,1,76.4999976654053,14|0,0:2|1:2,0:0:0:0:
321,85,117462,1,0,1:2:0:0:
471,248,117616,6,0,P|433:233|393:216,1,76.4999976654053,14|0,0:2|1:2,0:0:0:0:
303,175,117923,1,0,1:2:0:0:
486,162,118078,6,0,P|450:148|399:126,1,76.4999976654053,10|0,0:2|1:2,0:0:0:0:
415,133,118308,1,0,1:2:0:0:
415,133,118385,1,2,1:2:0:0:
283,261,118540,1,0,1:2:0:0:
283,261,118616,1,0,1:2:0:0:
283,261,118693,5,14,0:2:0:0:
237,261,118770,1,8,0:2:0:0:
195,241,118847,1,8,0:2:0:0:
172,200,118924,1,8,0:2:0:0:
176,154,119001,2,0,P|183:134|193:109,3,38.2499988327027,2|0|2|0,1:2|1:2|1:2|1:2,0:0:0:0:
64,54,119309,2,0,L|81:99,3,38.2499988327027,0|0|2|0,1:2|1:2|1:2|1:2,0:0:0:0:
46,234,119616,1,10,0:2:0:0:
46,234,119693,1,0,1:2:0:0:
46,234,119770,2,0,L|91:223,1,38.2499988327027,2|0,1:2|1:2,0:0:0:0:
257,180,119924,5,14,0:2:0:0:
317,264,120078,1,2,1:2:0:0:
317,264,120155,1,0,1:2:0:0:
317,264,120232,1,2,1:2:0:0:
233,324,120386,1,2,1:2:0:0:
401,204,120540,5,8,0:2:0:0:
257,180,120693,1,8,0:2:0:0:
377,348,120847,1,8,0:2:0:0:
377,348,120924,1,8,0:2:0:0:
377,348,121001,1,8,0:2:0:0:
377,348,121078,1,8,0:2:0:0:
377,348,121155,6,0,L|401:203,1,140.25000428009,6|0,1:2|1:2,0:0:0:0:
399,209,121463,1,8,0:2:0:0:
249,277,121616,2,0,B|152:263|195:196|70:175,1,187.000005706787,2|0,1:2|1:2,0:0:0:0:
269,99,122078,2,0,P|256:152|248:195,1,93.5000028533936,10|0,0:2|0:0,0:0:0:0:
69,307,122386,6,0,P|75:358|128:389,1,93.5000028533936,2|0,1:2|1:2,0:0:0:0:
182,361,122616,1,0,1:2:0:0:
182,361,122693,2,0,P|172:314|161:265,1,93.5000028533936,10|0,0:2|1:2,0:0:0:0:
26,143,123001,2,0,L|8:243,1,93.5000028533936,2|0,3:2|1:2,0:0:0:0:
231,214,123309,2,0,P|243:185|220:114,1,93.5000028533936,10|0,0:2|0:2,0:0:0:0:
55,13,123616,6,0,P|120:33|192:54,1,140.25000428009,2|0,1:2|1:2,0:0:0:0:
189,53,123925,1,10,0:2:0:0:
338,9,124078,2,0,P|329:57|320:105,1,93.5000028533936,2|0,1:2|0:0,0:0:0:0:
334,190,124386,1,2,1:2:0:0:
235,250,124540,2,0,P|213:206|227:145,1,93.5000028533936,10|0,0:2|0:2,0:0:0:0:
409,106,124847,6,0,P|421:166|431:212,1,93.5000028533936,2|0,1:2|0:2,0:0:0:0:
447,293,125078,1,0,1:2:0:0:
447,293,125155,1,8,0:2:0:0:
359,379,125309,1,0,1:2:0:0:
235,250,125463,2,0,P|276:238|343:215,1,93.5000028533936,2|0,0:2|1:2,0:0:0:0:
163,202,125770,2,0,P|146:244|158:289,1,93.5000028533936,10|0,0:2|1:2,0:0:0:0:
359,379,126078,6,0,L|340:273,1,93.5000028533936,6|0,1:2|0:2,0:0:0:0:
382,209,126309,1,2,1:2:0:0:
382,209,126386,2,0,P|387:172|398:113,1,93.5000028533936,8|2,0:2|1:2,0:0:0:0:
418,4,126694,1,2,0:2:0:0:
418,4,126848,1,2,1:2:0:0:
308,76,127002,1,10,0:2:0:0:
308,76,127155,1,2,0:2:0:0:
161,24,127309,6,0,L|263:2,1,93.5000028533936,2|0,1:2|0:2,0:0:0:0:
308,76,127540,1,2,1:2:0:0:
308,76,127616,2,0,P|306:125|268:167,1,93.5000028533936,8|2,0:2|1:2,0:0:0:0:
170,192,127925,1,2,0:2:0:0:
170,192,128079,1,2,1:2:0:0:
71,119,128232,1,14,0:2:0:0:
71,119,128386,1,2,1:2:0:0:
14,304,128540,6,0,P|59:270|150:283,1,140.25000428009,6|0,1:2|0:2,0:0:0:0:
155,292,128847,2,0,P|142:350|134:393,1,93.5000028533936,10|0,0:2|0:0,0:0:0:0:
290,290,129155,2,0,P|277:241|255:138,1,140.25000428009,2|0,1:2|0:2,0:0:0:0:
249,137,129463,2,0,P|279:163|336:166,1,93.5000028533936,10|0,0:2|0:0,0:0:0:0:
512,79,129770,6,0,B|441:62|472:18|388:-3,1,140.25000428009,2|0,1:2|0:0,0:0:0:0:
400,0,130078,1,8,0:2:0:0:
141,216,130386,5,6,1:2:0:0:
56,109,130540,1,8,0:2:0:0:
56,109,130617,1,8,0:2:0:0:
56,109,130694,1,6,1:2:0:0:
219,27,130848,1,8,0:2:0:0:
219,27,130925,1,8,0:2:0:0:
219,27,131001,6,0,P|207:105|198:173,1,140.25000428009,6|0,1:2|0:0,0:0:0:0:
198,165,131309,1,8,0:2:0:0:
60,279,131463,1,10,0:2:0:0:
60,279,131540,1,8,0:2:0:0:
60,279,131616,2,0,P|48:257|62:190,1,93.5000028533936,0|0,1:2|1:2,0:0:0:0:
200,329,131924,2,0,P|157:342|107:357,1,93.5000028533936,10|0,0:2|0:2,0:0:0:0:
277,257,132232,5,2,1:2:0:0:
296,356,132386,1,0,1:2:0:0:
277,257,132540,2,0,L|261:157,1,93.5000028533936,10|0,0:2|0:0,0:0:0:0:
216,90,132770,1,8,0:2:0:0:
216,90,132847,1,2,1:2:0:0:
327,110,133001,1,0,0:2:0:0:
216,90,133155,2,0,L|92:69,1,93.5000028533936,10|0,0:2|0:2,0:0:0:0:
0,199,133463,6,0,B|79:214|43:266|117:279,1,140.25000428009,6|0,1:2|0:2,0:0:0:0:
120,282,133770,2,0,P|131:248|150:194,1,93.5000028533936,14|0,0:2|0:0,0:0:0:0:
61,21,134078,2,0,P|40:65|49:110,1,93.5000028533936,6|0,1:2|0:0,0:0:0:0:
150,193,134386,1,14,0:2:0:0:
295,135,134540,6,0,B|226:117|226:117|208:79|208:79|114:51,1,187.000005706787,2|0,0:2|0:0,0:0:0:0:
295,14,135002,1,8,0:2:0:0:
295,14,135309,1,2,1:2:0:0:
362,82,135463,1,8,0:2:0:0:
502,0,135616,2,0,P|491:49|483:95,1,93.5000028533936,2|0,1:2|0:2,0:0:0:0:
316,220,135924,6,0,P|294:187|295:132,1,93.5000028533936,6|0,1:2|0:0,0:0:0:0:
445,165,136232,2,0,P|434:219|423:271,1,93.5000028533936,10|0,0:2|0:2,0:0:0:0:
290,56,136540,2,0,P|335:63|368:104,1,93.5000028533936,2|0,1:2|0:2,0:0:0:0:
311,228,136847,2,0,P|261:211|207:191,1,93.5000028533936,10|0,0:2|0:2,0:0:0:0:
63,279,137155,6,0,P|57:334|89:378,1,93.5000028533936,2|0,1:2|0:0,0:0:0:0:
206,288,137463,2,0,P|211:258|224:186,1,93.5000028533936,10|0,0:2|0:2,0:0:0:0:
318,56,137770,2,0,P|341:98|329:154,1,93.5000028533936,2|0,1:2|0:2,0:0:0:0:
147,146,138078,2,0,P|142:116|129:44,1,93.5000028533936,14|0,0:2|1:2,0:0:0:0:
78,197,138386,5,14,1:2:0:0:
230,107,138540,1,8,1:2:0:0:
47,51,138693,5,8,1:2:0:0:
230,107,138847,1,10,1:2:0:0:
257,100,138924,1,8,0:0:0:0:
290,91,139001,1,10,0:2:0:0:
323,82,139078,1,8,0:2:0:0:
356,73,139155,1,8,0:2:0:0:
389,64,139232,1,8,0:2:0:0:
422,55,139309,1,0,1:2:0:0:
337,207,139463,1,0,1:2:0:0:
337,207,139540,1,0,1:2:0:0:
337,207,139616,1,10,0:2:0:0:
337,207,140232,6,0,L|292:225,2,39.6666654561361,10|8|8,0:2|0:2|0:3,0:0:0:0:
398,265,140540,5,10,0:3:0:0:
412,269,140642,5,4,0:3:0:0:
426,273,140745,5,4,0:3:0:0:
440,277,140847,5,6,1:1:0:0:
97,214,145770,5,14,0:2:0:0:
99,225,145924,1,0,1:2:0:0:
101,236,146078,1,0,1:2:0:0:
103,247,146232,1,0,1:2:0:0:
187,258,146386,5,14,0:2:0:0:
189,241,146540,1,0,1:2:0:0:
192,224,146694,1,0,1:2:0:0:
196,208,146848,1,0,1:2:0:0:
279,193,147001,5,14,0:2:0:0:
282,218,147155,1,0,1:2:0:0:
286,244,147309,1,0,1:2:0:0:
292,268,147463,1,0,1:2:0:0:
313,377,147616,5,14,0:2:0:0:
313,377,147924,1,14,0:2:0:0:
419,348,148078,1,0,1:2:0:0:
419,348,148155,1,0,1:2:0:0:
419,348,148232,5,14,0:2:0:0:
451,277,148386,1,0,1:2:0:0:
427,203,148540,1,0,1:2:0:0:
357,170,148693,1,0,1:2:0:0:
224,287,148847,6,0,P|246:279|291:265,1,59.4999981842042,14|0,0:2|1:2,0:0:0:0:
360,250,149078,1,0,1:2:0:0:
360,250,149155,1,0,1:2:0:0:
333,331,149309,1,0,1:2:0:0:
157,237,149463,6,0,P|175:306|196:389,1,127.5,14|0,0:2|1:2,0:0:0:0:
59,376,149770,2,0,P|78:366|99:353,3,42.5,8|8|8|8,0:2|0:2|0:2|0:2,0:0:0:0:
13,239,150078,2,0,P|36:245|65:257,3,42.5,0|0|0|0,1:2|1:2|1:2|1:2,0:0:0:0:
121,93,150386,2,0,P|130:122|136:148,3,42.5,0|0|0|0,1:2|1:2|1:2|1:2,0:0:0:0:
157,237,150693,5,6,1:2:0:0:
161,248,151001,1,2,1:2:0:0:
165,259,151309,1,2,1:2:0:0:
169,270,151616,1,0,1:2:0:0:
173,281,151924,5,10,0:2:0:0:
177,292,152232,1,2,1:2:0:0:
241,339,152386,1,0,0:2:0:0:
321,309,152540,2,0,L|336:238,1,59.4999981842042,2|0,1:2|0:2,0:0:0:0:
349,168,152847,1,2,1:2:0:0:
266,197,153001,1,8,0:2:0:0:
415,226,153155,5,2,1:2:0:0:
351,160,153309,1,8,0:2:0:0:
434,128,153463,1,2,1:2:0:0:
442,124,153770,1,10,0:2:0:0:
450,120,154078,1,2,1:2:0:0:
410,35,154232,1,0,0:0:0:0:
322,66,154386,5,6,1:2:0:0:
314,70,154693,1,0,1:2:0:0:
128,139,155001,2,0,P|125:114|146:74,1,59.4999981842042,10|0,0:2|0:2,0:0:0:0:
268,148,155309,2,0,P|260:187|255:221,1,59.4999981842042,2|0,1:2|1:2,0:0:0:0:
234,332,155616,5,14,0:2:0:0:
230,349,155770,1,0,1:2:0:0:
227,367,155924,1,0,1:2:0:0:
224,384,156078,1,0,1:2:0:0:
94,310,156232,5,14,0:2:0:0:
107,290,156386,1,0,1:2:0:0:
127,277,156540,1,0,1:2:0:0:
150,274,156694,1,0,1:2:0:0:
116,127,156847,5,14,0:2:0:0:
151,119,157001,1,0,1:2:0:0:
185,128,157155,1,0,1:2:0:0:
211,151,157309,1,0,1:2:0:0:
314,117,157463,5,14,0:2:0:0:
301,198,157616,1,0,1:2:0:0:
382,210,157770,1,14,0:2:0:0:
395,129,157924,1,0,1:2:0:0:
395,129,158001,1,0,1:2:0:0:
395,129,158078,5,14,0:2:0:0:
398,106,158232,1,0,1:2:0:0:
401,84,158386,1,0,1:2:0:0:
405,61,158540,1,0,1:2:0:0:
465,186,158693,5,14,0:2:0:0:
384,217,158847,1,0,1:2:0:0:
384,217,158924,1,0,1:2:0:0:
384,217,159001,1,0,1:2:0:0:
318,164,159155,1,0,1:2:0:0:
198,258,159309,5,14,0:2:0:0:
91,165,159463,1,0,1:2:0:0:
91,165,159540,1,0,1:2:0:0:
91,165,159616,1,8,0:2:0:0:
78,134,159693,1,8,0:2:0:0:
83,101,159770,1,0,1:2:0:0:
107,79,159847,1,0,1:2:0:0:
139,75,159924,1,0,1:2:0:0:
232,177,160078,5,0,1:2:0:0:
232,177,160155,1,0,1:2:0:0:
232,177,160232,1,10,0:2:0:0:
301,110,160386,2,0,L|336:122,1,29.7499990921021,8|8,0:2|0:2,0:0:0:0:
467,86,160540,6,0,P|456:134|451:169,1,76.4999976654053,14|0,0:2|1:2,0:0:0:0:
434,257,160847,1,2,1:2:0:0:
314,200,161001,6,0,P|325:248|336:281,1,76.4999976654053,14|0,0:2|1:2,0:0:0:0:
359,368,161308,1,2,1:2:0:0:
486,198,161463,6,0,P|453:177|400:181,1,76.4999976654053,14|0,0:2|1:2,0:0:0:0:
314,200,161770,1,2,1:2:0:0:
229,66,161924,6,0,P|205:104|205:149,1,76.4999976654053,14|0,0:2|1:2,0:0:0:0:
247,257,162232,1,2,1:2:0:0:
137,355,162386,2,0,P|117:363|94:372,3,38.2499988327027,10|0|0|0,0:2|1:2|1:2|1:2,0:0:0:0:
24,260,162693,2,0,P|44:269|59:276,3,38.2499988327027,10|0|0|0,0:2|1:2|1:2|1:2,0:0:0:0:
9,183,163001,5,14,0:2:0:0:
12,141,163078,1,8,0:2:0:0:
37,107,163155,1,8,0:2:0:0:
76,93,163232,1,8,0:2:0:0:
117,100,163309,1,2,1:2:0:0:
146,130,163386,1,0,1:2:0:0:
181,153,163463,2,0,L|228:138,3,38.2499988327027,2|0|0|0,1:2|1:2|1:2|1:2,0:0:0:0:
278,80,163770,2,0,L|320:94,1,38.2499988327027,2|0,1:2|1:2,0:0:0:0:
463,142,163924,1,2,1:2:0:0:
409,35,164078,1,2,1:2:0:0:
409,35,164155,1,0,1:2:0:0:
409,35,164232,5,10,0:2:0:0:
351,219,164386,1,8,0:2:0:0:
409,35,164540,5,8,0:2:0:0:
351,219,164694,1,8,0:2:0:0:
351,219,167924,6,0,P|294:199|216:175,1,140.25000428009,6|0,1:2|1:2,0:0:0:0:
217,175,168232,1,10,0:2:0:0:
86,256,168386,2,0,P|75:301|112:354,1,93.5000028533936,2|0,1:2|0:0,0:0:0:0:
202,367,168693,1,0,1:2:0:0:
351,219,168847,2,0,P|341:276|334:318,1,93.5000028533936,10|0,0:2|0:2,0:0:0:0:
217,175,169155,6,0,P|210:137|196:60,1,93.5000028533936,2|0,1:2|0:2,0:0:0:0:
186,4,169386,1,0,1:2:0:0:
186,4,169463,1,8,0:2:0:0:
88,83,169616,1,0,1:2:0:0:
159,239,169770,2,0,P|200:260|264:249,1,93.5000028533936,2|0,0:2|1:2,0:0:0:0:
370,127,170078,2,0,P|358:176|349:225,1,93.5000028533936,10|0,0:2|1:2,0:0:0:0:
307,74,170386,6,0,P|340:49|402:53,1,93.5000028533936,6|0,1:2|0:2,0:0:0:0:
452,105,170616,1,2,1:2:0:0:
452,105,170693,2,0,P|464:152|475:199,1,93.5000028533936,8|2,0:2|1:2,0:0:0:0:
501,305,171002,1,2,0:2:0:0:
501,305,171156,1,2,1:2:0:0:
382,383,171310,1,10,0:2:0:0:
382,383,171463,1,2,0:2:0:0:
245,225,171616,6,0,P|288:239|347:257,1,93.5000028533936,2|0,1:2|0:2,0:0:0:0:
403,305,171847,1,2,1:2:0:0:
403,305,171924,2,0,P|419:270|394:195,1,93.5000028533936,8|2,0:2|1:2,0:0:0:0:
293,151,172233,1,2,0:2:0:0:
293,151,172387,1,2,1:2:0:0:
190,293,172540,1,14,0:2:0:0:
190,293,172694,1,2,1:2:0:0:
61,191,172847,6,0,P|79:268|91:337,1,140.25000428009,6|0,1:2|0:2,0:0:0:0:
82,342,173155,2,0,P|30:336|14:294,1,93.5000028533936,10|0,0:2|0:0,0:0:0:0:
151,192,173463,2,0,P|159:141|177:49,1,140.25000428009,2|0,1:2|0:2,0:0:0:0:
184,44,173770,2,0,P|134:54|116:104,1,93.5000028533936,10|0,0:2|0:0,0:0:0:0:
284,270,174078,6,0,B|358:251|323:202|405:184,1,140.25000428009,2|0,1:2|0:0,0:0:0:0:
392,187,174386,1,8,0:2:0:0:
184,44,174694,5,6,1:2:0:0:
275,123,174848,1,8,0:2:0:0:
275,123,174925,1,8,0:2:0:0:
275,123,175002,1,6,1:2:0:0:
153,223,175156,1,8,0:2:0:0:
153,223,175233,1,8,0:2:0:0:
153,223,175309,6,0,P|88:198|15:172,1,140.25000428009,6|0,1:2|0:0,0:0:0:0:
21,174,175616,1,8,0:2:0:0:
131,332,175771,1,10,0:2:0:0:
131,332,175848,1,8,0:2:0:0:
131,332,175924,2,0,P|170:319|228:302,1,93.5000028533936,0|0,1:2|1:2,0:0:0:0:
67,277,176232,2,0,P|43:327|56:376,1,93.5000028533936,10|0,0:2|0:2,0:0:0:0:
153,223,176540,5,2,1:2:0:0:
31,188,176694,1,0,1:2:0:0:
153,223,176847,2,0,P|195:211|251:196,1,93.5000028533936,10|0,0:2|0:0,0:0:0:0:
334,175,177078,1,8,0:2:0:0:
334,175,177155,1,2,1:2:0:0:
296,65,177309,1,0,0:2:0:0:
334,175,177463,2,0,P|321:229|311:277,1,93.5000028533936,10|0,0:2|0:2,0:0:0:0:
165,350,177770,6,0,P|138:305|165:208,1,140.25000428009,6|0,1:2|0:2,0:0:0:0:
170,208,178078,2,0,P|123:228|80:244,1,93.5000028533936,14|0,0:2|0:0,0:0:0:0:
218,143,178386,2,0,P|247:190|242:237,1,93.5000028533936,6|0,1:2|0:0,0:0:0:0:
165,350,178694,1,14,0:2:0:0:
17,200,178847,6,0,P|35:305|48:390,1,187.000005706787,2|0,0:2|0:0,0:0:0:0:
118,272,179309,1,8,0:2:0:0:
118,272,179617,1,2,1:2:0:0:
218,229,179771,1,8,0:2:0:0:
296,360,179924,2,0,P|301:328|317:252,1,93.5000028533936,2|0,1:2|0:2,0:0:0:0:
202,141,180232,6,0,P|200:198|222:234,1,93.5000028533936,6|0,1:2|0:0,0:0:0:0:
370,213,180540,2,0,P|412:196|469:176,1,93.5000028533936,10|0,0:2|0:2,0:0:0:0:
337,87,180847,2,0,P|296:74|234:54,1,93.5000028533936,2|0,1:2|0:2,0:0:0:0:
418,15,181155,2,0,P|449:60|443:121,1,93.5000028533936,10|0,0:2|0:2,0:0:0:0:
288,247,181463,6,0,P|278:209|298:159,1,93.5000028533936,2|0,1:2|0:0,0:0:0:0:
449,275,181770,2,0,P|404:291|354:310,1,93.5000028533936,10|0,0:2|0:2,0:0:0:0:
208,129,182078,2,0,P|252:144|302:161,1,93.5000028533936,2|0,1:2|0:2,0:0:0:0:
140,71,182386,2,0,P|114:109|135:179,1,93.5000028533936,14|0,0:2|1:2,0:0:0:0:
197,276,182693,5,14,0:2:0:0:
296,159,182847,1,0,1:2:0:0:
118,155,183001,5,8,0:2:0:0:
296,159,183155,1,0,1:2:0:0:
326,171,183232,1,0,1:2:0:0:
350,205,183309,1,10,0:2:0:0:
352,247,183386,1,8,0:2:0:0:
328,282,183463,1,8,0:2:0:0:
290,300,183540,2,0,P|248:286|182:265,1,93.5000028533936,8|0,0:2|1:2,0:0:0:0:
113,356,183770,2,0,P|102:335|90:306,1,46.7500014266968,2|0,1:2|1:2,0:0:0:0:
11,255,183924,5,10,0:2:0:0:
2,213,184001,1,8,0:2:0:0:
13,172,184078,1,8,0:2:0:0:
47,148,184155,1,8,0:2:0:0:
88,143,184232,2,0,P|107:149|136:158,1,46.7500014266968,2|0,1:2|1:2,0:0:0:0:
206,232,184386,2,0,P|235:221|263:212,1,46.7500014266968,2|0,1:2|1:2,0:0:0:0:
311,136,184540,2,0,P|330:142|359:151,1,46.7500014266968,2|0,1:2|1:2,0:0:0:0:
464,185,184693,1,0,1:2:0:0:
464,185,184770,1,0,1:2:0:0:
464,185,184847,1,14,0:2:0:0:
464,185,185155,6,0,P|451:278|442:355,1,152.999995330811,6|2,1:2|1:2,0:0:0:0:
443,336,185616,1,0,1:2:0:0:
319,236,185770,1,10,0:2:0:0:
319,236,186078,1,2,0:2:0:0:
190,311,186386,5,2,1:2:0:0:
265,363,186540,1,8,0:2:0:0:
115,259,186693,1,2,1:2:0:0:
115,259,186770,1,0,1:2:0:0:
115,259,186847,1,0,1:2:0:0:
115,259,186924,1,0,1:2:0:0:
115,259,187001,2,0,P|95:302|103:342,1,76.4999976654053,10|0,0:2|0:0,0:0:0:0:
269,281,187309,1,2,0:2:0:0:
190,311,187463,1,8,0:2:0:0:
199,222,187616,5,2,1:2:0:0:
199,222,187693,1,0,1:2:0:0:
199,222,187770,1,0,1:2:0:0:
209,138,187924,1,0,1:2:0:0:
209,138,188078,1,0,1:2:0:0:
345,243,188232,5,10,0:2:0:0:
422,211,188386,1,0,1:2:0:0:
422,211,188463,1,0,1:2:0:0:
422,211,188540,1,8,0:2:0:0:
500,349,188693,1,10,0:2:0:0:
420,332,188847,1,2,1:2:0:0:
256,192,190078,5,6,1:2:0:0:
256,192,190232,1,6,1:2:0:0:
256,192,190386,1,6,1:2:0:0:
73,345,190693,1,10,0:2:0:0:
32,232,190847,1,10,0:2:0:0:
73,345,191001,1,10,0:2:0:0:
32,232,191155,6,0,B|120:217|98:288|187:276,1,152.999995330811,6|2,1:2|1:2,0:0:0:0:
336,229,191616,2,0,P|325:273|315:323,1,76.4999976654053,10|0,0:2|1:2,0:0:0:0:
168,189,191924,2,0,P|164:172|150:137,3,38.2499988327027,10|0|0|0,0:2|1:2|1:2|1:2,0:0:0:0:
271,64,192232,2,0,P|266:82|262:101,3,38.2499988327027,0|0|0|0,1:2|1:2|1:2|1:2,0:0:0:0:
336,229,192540,5,6,1:2:0:0:
336,229,192693,1,6,1:2:0:0:
336,229,192847,1,6,1:2:0:0:
481,63,193155,1,10,0:2:0:0:
361,23,193309,1,10,0:2:0:0:
481,63,193463,1,10,0:2:0:0:
361,23,193616,6,0,P|382:98|403:180,1,152.999995330811,6|2,1:2|1:2,0:0:0:0:
441,334,194078,1,10,0:2:0:0:
505,247,194232,1,0,1:2:0:0:
505,247,194309,1,0,1:2:0:0:
505,247,194386,1,2,1:2:0:0:
312,318,194540,1,0,1:2:0:0:
312,318,194616,1,0,1:2:0:0:
312,318,194693,1,8,0:2:0:0:
283,296,194770,1,8,0:2:0:0:
270,264,194847,1,8,0:2:0:0:
274,229,194924,1,8,0:2:0:0:
274,229,195155,5,6,1:2:0:0:
420,233,195309,2,0,P|427:214|409:143,1,76.4999976654053,2|0,1:2|0:2,0:0:0:0:
262,89,195616,2,0,P|303:103|356:120,1,76.4999976654053,10|0,0:2|0:2,0:0:0:0:
403,1,195924,2,0,P|362:15|309:32,1,76.4999976654053,2|0,1:2|0:2,0:0:0:0:
156,0,196232,6,0,P|165:48|174:102,1,76.4999976654053,2|0,1:2|0:2,0:0:0:0:
86,226,196540,2,0,P|62:236|38:245,2,50.9999984436036,2|2|2,1:2|0:0|0:0,0:0:0:0:
88,216,196847,2,0,P|142:214|177:286,1,114.749996498108,10|0,0:2|0:0,0:0:0:0:
157,298,197155,2,0,P|169:341|177:371,1,76.4999976654053,2|0,1:2|0:2,0:0:0:0:
264,230,197463,6,0,P|270:182|289:67,1,152.999995330811,2|0,1:2|1:2,0:0:0:0:
369,144,197924,1,2,0:2:0:0:
369,144,198001,1,2,0:2:0:0:
369,144,198078,1,10,0:2:0:0:
454,111,198232,1,0,1:2:0:0:
301,1,198386,1,8,0:2:0:0:
369,144,198540,1,0,1:2:0:0:
369,144,198616,1,0,1:2:0:0:
369,144,198693,5,10,0:2:0:0:
336,176,198770,1,8,0:2:0:0:
290,174,198847,2,0,P|283:153|273:127,1,38.2499988327027,8|8,0:2|0:2,0:0:0:0:
214,31,199001,1,2,1:2:0:0:
142,88,199155,1,0,1:2:0:0:
142,88,199232,1,0,1:2:0:0:
142,88,199309,1,2,1:2:0:0:
30,17,199463,1,0,1:2:0:0:
30,17,199540,1,0,1:2:0:0:
30,17,199616,1,10,0:2:0:0:
38,65,199692,1,8,0:2:0:0:
46,113,199769,1,8,0:2:0:0:
54,161,199847,1,8,0:2:0:0:
62,209,199924,5,6,1:2:0:0:
62,209,200078,1,6,1:2:0:0:
62,209,200232,1,6,1:2:0:0:
264,136,200540,1,10,0:2:0:0:
142,88,200693,1,10,0:2:0:0:
264,136,200847,1,10,0:2:0:0:
142,88,201001,6,0,P|159:172|174:247,1,152.999995330811,6|2,1:2|1:2,0:0:0:0:
52,370,201463,2,0,P|42:334|56:290,1,76.4999976654053,10|0,0:2|1:2,0:0:0:0:
190,356,201770,2,0,L|140:339,3,38.2499988327027,10|0|0|0,0:2|1:2|1:2|1:2,0:0:0:0:
288,276,202078,2,0,L|239:291,3,38.2499988327027,0|0|0|0,1:2|1:2|1:2|1:2,0:0:0:0:
369,350,202386,5,6,1:2:0:0:
369,350,202540,1,6,1:2:0:0:
369,350,202693,1,6,1:2:0:0:
473,171,203001,1,10,0:2:0:0:
512,278,203155,1,10,0:2:0:0:
473,171,203309,1,10,0:2:0:0:
512,278,203463,6,0,P|455:260|354:231,1,152.999995330811,6|2,1:2|1:2,0:0:0:0:
216,192,203924,1,10,0:2:0:0:
274,270,204078,1,0,1:2:0:0:
274,270,204155,1,0,1:2:0:0:
274,270,204232,1,2,1:2:0:0:
145,350,204386,1,0,1:2:0:0:
145,350,204463,1,0,1:2:0:0:
145,350,204540,1,8,0:2:0:0:
141,304,204616,1,8,0:2:0:0:
106,274,204693,1,8,0:2:0:0:
60,269,204770,1,8,0:2:0:0:
19,290,204847,5,0,0:0:0:0:
19,290,205001,1,6,1:2:0:0:
0,143,205155,2,0,P|40:158|83:174,1,76.4999976654053,2|0,1:2|0:2,0:0:0:0:
229,120,205463,2,0,P|239:161|224:200,1,76.4999976654053,10|0,0:2|0:2,0:0:0:0:
70,178,205770,2,0,P|109:168|164:155,1,76.4999976654053,2|0,1:2|0:2,0:0:0:0:
157,8,206078,6,0,P|141:50|153:83,1,76.4999976654053,2|0,1:2|0:2,0:0:0:0:
321,99,206386,2,0,P|344:89|374:76,2,50.9999984436036,2|2|2,1:2|0:0|0:0,0:0:0:0:
309,94,206693,2,0,P|320:138|335:211,1,114.749996498108,10|0,0:2|0:0,0:0:0:0:
348,219,207001,2,0,P|375:203|380:138,1,76.4999976654053,2|0,1:2|0:2,0:0:0:0:
212,137,207309,6,0,P|200:229|193:293,1,152.999995330811,2|0,1:2|1:2,0:0:0:0:
284,382,207770,1,2,0:2:0:0:
284,382,207847,1,2,0:2:0:0:
284,382,207924,1,10,0:2:0:0:
447,345,208078,1,0,1:2:0:0:
447,345,208155,1,0,1:2:0:0:
447,345,208232,1,8,0:2:0:0:
436,304,208309,1,8,0:2:0:0:
425,263,208386,1,2,1:2:0:0:
414,222,208463,1,2,1:2:0:0:
403,181,208540,5,6,1:2:0:0:
296,239,208847,1,2,0:2:0:0:
226,193,209155,1,2,0:2:0:0:
182,223,209463,1,2,0:2:0:0:
159,211,209770,1,6,1:1:0:0:
256,192,209847,12,0,219616,0:0:0:0:
