osu file format v14

[General]
AudioFilename: audio.mp3
AudioLeadIn: 0
PreviewTime: 58924
Countdown: 0
SampleSet: Soft
StackLeniency: 0.7
Mode: 0
LetterboxInBreaks: 0
WidescreenStoryboard: 0

[Editor]
DistanceSpacing: 1
BeatDivisor: 4
GridSize: 32
TimelineZoom: 1.600001

[Metadata]
Title:witch spat out a curse
TitleUnicode:witch spat out a curse
Artist:Kitamura Eri
ArtistUnicode:喜多村英梨
Creator:Mordred
Version:Normal
Source:
Tags:illusion dream dystopia record necchi rock lasse dkblaze agatsu japanese
BeatmapID:2474330
BeatmapSetID:1133446

[Difficulty]
HPDrainRate:4
CircleSize:3
OverallDifficulty:4
ApproachRate:6
SliderMultiplier:1.1
SliderTickRate:1

[Events]
//Background and Video events
0,0,"63227924_p0_master1200.jpg",0,0
//Break Periods
2,141047,144720
2,165463,166874
//Storyboard Layer 0 (Background)
//Storyboard Layer 1 (Fail)
//Storyboard Layer 2 (Pass)
//Storyboard Layer 3 (Foreground)
//Storyboard Layer 4 (Overlay)
//Storyboard Sound Samples

[TimingPoints]
540,307.692307692308,4,2,1,70,1,0
540,-100,4,2,1,70,0,0
1847,-100,4,2,1,5,0,0
1924,-100,4,2,1,70,0,0
4309,-100,4,2,1,5,0,0
4386,-100,4,2,1,70,0,0
11693,-100,4,2,1,5,0,0
11770,-100,4,2,1,70,0,0
14155,-100,4,2,1,5,0,0
14232,-100,4,2,1,70,0,0
19309,-100,4,2,1,60,0,0
19616,-100,4,2,1,50,0,0
19924,-100,4,2,1,40,0,0
20232,-100,4,2,2,50,0,0
20386,-100,4,2,2,5,0,0
20463,-100,4,2,2,50,0,0
22847,-100,4,2,2,5,0,0
22924,-100,4,2,2,50,0,0
25309,-100,4,2,2,5,0,0
25386,-100,4,2,2,50,0,0
27770,-100,4,2,2,5,0,0
27847,-100,4,2,2,50,0,0
29078,-100,4,2,2,5,0,0
29155,-100,4,2,1,50,0,0
29386,-100,4,2,1,5,0,0
29463,-100,4,2,1,60,0,0
29693,-100,4,2,1,5,0,0
29770,-100,4,2,1,70,0,0
30001,-100,4,2,1,5,0,0
30078,-100,4,2,1,80,0,0
30386,-100,4,2,1,60,0,0
30693,-100,4,2,1,60,0,0
34693,-100,4,2,1,60,0,0
35001,-100,4,2,1,60,0,0
35616,-100,4,2,1,60,0,0
39924,-100,4,2,1,70,0,0
40463,-100,4,2,1,5,0,0
40540,-100,4,2,1,70,0,0
41001,-100,4,2,1,70,0,0
41232,-100,4,2,1,5,0,0
41309,-100,4,2,1,70,0,0
41463,-100,4,2,1,70,0,0
42924,-100,4,2,1,5,0,0
43001,-100,4,2,1,70,0,0
43463,-100,4,2,1,70,0,0
43693,-100,4,2,1,5,0,0
43770,-100,4,2,1,70,0,0
44847,-100,4,2,1,60,0,0
48155,-100,4,2,1,5,0,0
48232,-100,4,2,1,60,0,0
49770,-100,4,2,1,70,0,0
50309,-100,4,2,1,5,0,0
50386,-100,4,2,1,70,0,0
50847,-100,4,2,1,70,0,0
51078,-100,4,2,1,5,0,0
51155,-100,4,2,1,70,0,0
52770,-100,4,2,1,5,0,0
52847,-100,4,2,1,70,0,0
53540,-100,4,2,1,5,0,0
53616,-100,4,2,1,70,0,0
54693,-100,4,2,1,70,0,0
57155,-100,4,2,1,80,0,0
59616,-100,4,2,1,80,0,1
60770,-100,4,2,1,5,0,1
60847,-100,4,2,1,80,0,1
67232,-100,4,2,1,5,0,1
67309,-100,4,2,1,80,0,1
67540,-100,4,2,1,5,0,1
67616,-100,4,2,1,80,0,1
67847,-100,4,2,1,5,0,1
67924,-100,4,2,1,80,0,1
68155,-100,4,2,1,5,0,1
68232,-100,4,2,1,80,0,1
71924,-100,4,2,1,80,0,1
72155,-100,4,2,1,5,0,1
72232,-100,4,2,1,80,0,1
72463,-100,4,2,1,5,0,1
72540,-100,4,2,1,80,0,1
72770,-100,4,2,1,5,0,1
72847,-100,4,2,1,80,0,1
73386,-100,4,2,1,5,0,1
73463,-100,4,2,1,80,0,1
74386,-100,4,2,1,80,0,1
74616,-100,4,2,1,5,0,1
74693,-100,4,2,1,80,0,1
75847,-100,4,2,1,5,0,1
75924,-100,4,2,1,80,0,1
77463,-100,4,2,1,60,0,1
77616,-100,4,2,1,65,0,1
77770,-100,4,2,1,70,0,1
77924,-100,4,2,1,75,0,1
78078,-100,4,2,1,80,0,0
79309,-100,4,2,1,60,0,0
79616,-100,4,2,1,50,0,0
81155,-100,4,2,1,60,0,0
81463,-100,4,2,1,60,0,0
81770,-100,4,2,1,70,0,0
91616,-100,4,2,1,60,0,0
92232,-100,4,2,1,60,0,0
96232,-100,4,2,1,60,0,0
96540,-100,4,2,1,60,0,0
96693,-100,4,2,1,5,0,0
96770,-100,4,2,1,60,0,0
96924,-100,4,2,1,5,0,0
97001,-100,4,2,1,60,0,0
101155,-100,4,2,1,60,0,0
101463,-100,4,2,1,70,0,0
102001,-100,4,2,1,5,0,0
102078,-100,4,2,1,70,0,0
102540,-100,4,2,1,70,0,0
102770,-100,4,2,1,5,0,0
102847,-100,4,2,1,70,0,0
104463,-100,4,2,1,5,0,0
104540,-100,4,2,1,70,0,0
105001,-100,4,2,1,70,0,0
105232,-100,4,2,1,5,0,0
105309,-100,4,2,1,70,0,0
106386,-100,4,2,1,60,0,0
111309,-100,4,2,1,70,0,0
111847,-100,4,2,1,5,0,0
111924,-100,4,2,1,70,0,0
112386,-100,4,2,1,70,0,0
112616,-100,4,2,1,5,0,0
112693,-100,4,2,1,70,0,0
114309,-100,4,2,1,5,0,0
114386,-100,4,2,1,70,0,0
115078,-100,4,2,1,5,0,0
115155,-100,4,2,1,70,0,0
116232,-100,4,2,1,70,0,0
118386,-100,4,2,1,70,0,0
118693,-100,4,2,1,80,0,0
121155,-100,4,2,1,80,0,1
122309,-100,4,2,1,5,0,1
122386,-100,4,2,1,80,0,1
128770,-100,4,2,1,5,0,1
128847,-100,4,2,1,80,0,1
129078,-100,4,2,1,5,0,1
129155,-100,4,2,1,80,0,1
129386,-100,4,2,1,5,0,1
129463,-100,4,2,1,80,0,1
129693,-100,4,2,1,5,0,1
129770,-100,4,2,1,80,0,1
133463,-100,4,2,1,80,0,1
133693,-100,4,2,1,5,0,1
133770,-100,4,2,1,80,0,1
134001,-100,4,2,1,5,0,1
134078,-100,4,2,1,80,0,1
134309,-100,4,2,1,5,0,1
134386,-100,4,2,1,80,0,1
134924,-100,4,2,1,5,0,1
135001,-100,4,2,1,80,0,1
135924,-100,4,2,1,80,0,1
136155,-100,4,2,1,5,0,1
136232,-100,4,2,1,80,0,1
137386,-100,4,2,1,5,0,1
137463,-100,4,2,1,80,0,1
139616,-100,4,2,1,70,0,0
140232,-100,4,2,1,60,0,0
140540,-100,4,2,1,50,0,0
140847,-100,4,2,1,40,0,0
145770,-100,4,2,1,80,0,0
150693,-100,4,2,1,70,0,0
150963,-100,4,2,1,5,0,0
151001,-100,4,2,1,70,0,0
151270,-100,4,2,1,5,0,0
151309,-100,4,2,1,70,0,0
153693,-100,4,2,1,5,0,0
153770,-100,4,2,1,70,0,0
154001,-100,4,2,1,5,0,0
154078,-100,4,2,1,70,0,0
154309,-100,4,2,1,5,0,0
154386,-100,4,2,1,70,0,0
155616,-100,4,2,1,80,0,0
163001,-100,4,2,1,90,0,0
163463,-100,4,2,1,80,0,0
167924,-100,4,2,1,80,0,1
173078,-100,4,2,1,5,0,1
173155,-100,4,2,1,80,0,1
173386,-100,4,2,1,5,0,1
173463,-100,4,2,1,80,0,1
173693,-100,4,2,1,5,0,1
173770,-100,4,2,1,80,0,1
174001,-100,4,2,1,5,0,1
174078,-100,4,2,1,80,0,1
177770,-100,4,2,1,80,0,1
178001,-100,4,2,1,5,0,1
178078,-100,4,2,1,80,0,1
178309,-100,4,2,1,5,0,1
178386,-100,4,2,1,80,0,1
178616,-100,4,2,1,5,0,1
178693,-100,4,2,1,80,0,1
180232,-100,4,2,1,80,0,1
180463,-100,4,2,1,5,0,1
180540,-100,4,2,1,80,0,1
181693,-100,4,2,1,5,0,1
181770,-100,4,2,1,80,0,1
185155,-100,4,2,1,80,0,1
188847,-100,4,2,1,80,0,0
190078,-100,4,2,1,70,0,0
191386,-100,4,2,1,5,0,0
191463,-100,4,2,1,70,0,0
193078,-100,4,2,1,5,0,0
193155,-100,4,2,1,70,0,0
193847,-100,4,2,1,5,0,0
193924,-100,4,2,1,70,0,0
200463,-100,4,2,1,5,0,0
200540,-100,4,2,1,70,0,0
201232,-100,4,2,1,5,0,0
201309,-100,4,2,1,70,0,0
203693,-100,4,2,1,5,0,0
203770,-100,4,2,1,70,0,0
208847,-100,4,2,1,60,0,0
209155,-100,4,2,1,50,0,0
209463,-100,4,2,1,40,0,0
209770,-100,4,2,3,60,0,0
211001,-100,4,2,4,55,0,0
212232,-100,4,2,3,50,0,0
213463,-100,4,2,4,45,0,0
214693,-100,4,2,3,40,0,0
215924,-100,4,2,4,30,0,0
217155,-100,4,2,3,20,0,0
218386,-100,4,2,4,10,0,0
219616,-100,4,2,3,5,0,0

[Colours]
Combo1 : 230,215,236
Combo2 : 250,182,199
Combo3 : 253,209,190
Combo4 : 230,170,170

[HitObjects]
32,288,540,5,6,1:2:0:0:
32,288,693,1,6,1:2:0:0:
32,288,847,1,6,1:2:0:0:
111,212,1155,2,0,L|102:157,2,55,10|10|10,0:2|0:2|0:2,0:0:0:0:
147,253,1616,2,0,B|278:274,1,110,6|2,1:2|1:2,0:0:0:0:
287,315,2078,1,10,0:2:0:0:
389,356,2386,2,0,P|439:341|437:233,1,165,10|0,0:2|1:2,0:0:0:0:
408,219,3001,5,6,1:2:0:0:
408,219,3155,1,6,1:2:0:0:
408,219,3309,1,6,1:2:0:0:
457,121,3616,2,0,L|512:113,2,55,10|10|10,0:2|0:2|0:2,0:0:0:0:
412,88,4078,2,0,L|288:72,1,110,6|2,1:2|1:2,0:0:0:0:
256,104,4540,1,8,0:2:0:0:
169,34,4847,2,0,P|79:28|43:111,1,192.5,0|8,1:2|0:2,0:0:0:0:
71,189,5616,6,0,L|133:197,2,55,6|2|2,1:2|1:2|0:2,0:0:0:0:
23,217,6078,1,10,0:2:0:0:
12,326,6386,1,2,1:2:0:0:
112,371,6693,1,2,1:2:0:0:
212,326,7001,2,0,L|217:275,2,36.6666666666667,2|2|2,1:2|0:0|0:0,0:0:0:0:
237,352,7309,2,0,L|356:370,1,110,8|2,0:2|1:2,0:0:0:0:
435,305,7924,6,0,P|446:259|347:216,1,165,6|2,1:2|0:2,0:0:0:0:
309,237,8540,2,0,L|247:229,1,55,8|0,0:2|1:2,0:0:0:0:
207,201,8847,1,8,0:2:0:0:
119,267,9155,1,10,0:2:0:0:
30,204,9463,1,2,1:2:0:0:
63,100,9770,1,2,1:2:0:0:
172,100,10078,1,10,0:2:0:0:
215,209,10386,5,6,1:2:0:0:
215,209,10540,1,4,1:2:0:0:
215,209,10693,1,6,1:2:0:0:
285,124,11001,2,0,L|293:70,2,55,10|10|10,0:2|0:2|0:2,0:0:0:0:
325,161,11463,2,0,L|433:142,1,110,6|0,1:2|1:2,0:0:0:0:
483,165,11924,1,8,0:2:0:0:
475,273,12232,2,0,P|397:276|364:347,1,165,10|0,0:2|1:2,0:0:0:0:
324,381,12847,5,6,1:2:0:0:
324,381,13001,1,6,1:2:0:0:
324,381,13155,1,6,1:2:0:0:
254,295,13463,2,0,L|264:237,2,55,10|10|10,0:2|0:2|0:2,0:0:0:0:
220,338,13924,2,0,L|110:328,1,110,6|0,1:2|1:2,0:0:0:0:
62,355,14386,1,8,0:2:0:0:
0,264,14693,2,0,P|8:174|96:155,1,192.5,2|8,1:2|0:2,0:0:0:0:
161,104,15463,6,0,L|167:49,2,55,6|2|2,1:2|1:2|0:2,0:0:0:0:
205,135,15924,1,10,0:2:0:0:
290,65,16232,1,2,1:2:0:0:
383,125,16540,1,2,1:2:0:0:
355,232,16847,2,0,L|374:271,2,36.6666666666667,2|2|2,1:2|0:0|0:0,0:0:0:0:
319,239,17155,2,0,L|207:227,1,110,10|2,0:2|1:2,0:0:0:0:
113,174,17770,6,0,P|37:192|27:269,1,165,2|2,1:2|0:2,0:0:0:0:
23,324,18386,1,10,0:2:0:0:
130,304,18693,1,10,0:2:0:0:
222,363,19001,1,6,1:2:0:0:
476,300,20232,6,0,L|465:381,2,82.5,2|0|8,1:2|1:2|0:2,0:0:0:0:
512,258,20847,2,0,L|495:149,1,110,2|0,1:2|1:2,0:0:0:0:
442,52,21463,1,2,1:2:0:0:
346,106,21770,1,2,0:2:0:0:
256,41,22078,1,2,1:2:0:0:
174,115,22386,1,2,1:2:0:0:
67,87,22693,6,0,L|53:1,2,82.5,2|0|8,1:2|1:2|0:2,0:0:0:0:
31,129,23309,2,0,L|50:251,1,110,2|0,1:2|1:2,0:0:0:0:
12,342,23924,1,2,1:2:0:0:
115,378,24232,1,2,0:2:0:0:
204,314,24540,1,2,1:2:0:0:
305,354,24847,1,2,1:2:0:0:
388,282,25155,6,0,L|469:297,2,82.5,2|0|8,1:2|1:2|0:2,0:0:0:0:
343,249,25770,2,0,L|213:224,1,110,2|0,1:2|1:2,0:0:0:0:
160,310,26386,1,2,1:2:0:0:
60,264,26693,1,2,0:2:0:0:
73,155,27001,1,2,1:2:0:0:
181,134,27309,1,2,1:2:0:0:
194,25,27616,6,0,L|108:17,2,82.5,2|0|8,1:2|1:2|0:2,0:0:0:0:
238,58,28232,2,0,L|346:42,1,110,2|0,1:2|1:2,0:0:0:0:
450,79,28847,1,2,1:2:0:0:
445,189,29155,2,0,P|487:222|509:272,2,110,2|2|2,0:2|1:2|1:2,0:0:0:0:
338,217,30078,6,0,L|326:326,1,110,6|8,1:2|0:2,0:0:0:0:
294,372,30540,1,2,0:2:0:0:
294,372,30693,2,0,P|241:385|187:376,1,110,2|8,1:2|0:2,0:0:0:0:
156,337,31155,1,2,0:2:0:0:
156,337,31309,2,0,L|144:266,1,55,2|2,1:2|0:2,0:0:0:0:
180,239,31616,1,10,0:2:0:0:
290,242,31924,1,2,1:2:0:0:
327,139,32232,1,10,0:2:0:0:
241,72,32540,6,0,L|131:61,1,110,2|8,1:2|0:2,0:0:0:0:
87,29,33001,1,2,0:2:0:0:
87,29,33155,2,0,L|76:138,1,110,2|8,1:2|0:2,0:0:0:0:
36,177,33616,2,0,L|25:286,1,110,2|2,0:2|0:2,0:0:0:0:
46,337,34078,1,10,0:2:0:0:
138,276,34386,2,0,L|191:286,1,55,2|8,1:2|0:2,0:0:0:0:
222,332,34693,1,2,1:2:0:0:
306,260,35001,6,0,P|358:246|405:272,1,110,6|8,1:2|0:2,0:0:0:0:
435,325,35463,1,2,0:2:0:0:
435,325,35616,1,2,1:2:0:0:
512,246,35924,2,0,L|498:136,1,110,8|0,0:2|1:2,0:0:0:0:
478,28,36540,1,10,0:2:0:0:
369,46,36847,2,0,L|287:32,2,82.5,2|2|2,1:2|0:2|0:2,0:0:0:0:
390,97,37463,5,2,1:2:0:0:
402,206,37770,1,10,0:2:0:0:
415,314,38078,2,0,P|372:347|318:343,1,110,2|8,1:2|0:2,0:0:0:0:
222,289,38693,2,0,L|210:235,1,55,2|0,1:2|1:2,0:0:0:0:
236,185,39001,2,0,L|224:131,1,55,14|0,0:2|1:2,0:0:0:0:
254,84,39309,2,0,B|200:72|200:72|160:86|160:86|84:69,1,165,14|0,0:2|1:2,0:0:0:0:
51,100,39924,5,6,1:2:0:0:
51,100,40078,1,6,1:2:0:0:
51,100,40232,1,6,1:2:0:0:
36,209,40540,2,0,L|-29:219,2,55,10|8|10,0:2|0:2|0:2,0:0:0:0:
79,242,41001,2,0,B|54:291|54:291|76:341,1,110,6|2,1:2|1:2,0:0:0:0:
121,373,41463,1,10,0:2:0:0:
216,318,41770,1,10,0:2:0:0:
317,359,42078,1,10,0:2:0:0:
391,277,42386,5,6,1:2:0:0:
391,277,42540,1,4,1:2:0:0:
391,277,42693,1,6,1:2:0:0:
329,185,43001,2,0,L|342:128,2,55,10|8|10,0:2|0:2|0:2,0:0:0:0:
286,220,43463,2,0,B|257:236|257:236|182:218,1,110,6|2,1:2|1:2,0:0:0:0:
135,247,43924,1,10,0:2:0:0:
55,170,44232,1,10,0:2:0:0:
104,71,44540,1,10,0:2:0:0:
214,88,44847,6,0,B|280:80|280:80|311:98|311:98|379:91,1,165,6|2,1:2|1:2,0:0:0:0:
418,58,45463,1,8,0:2:0:0:
507,121,45770,2,0,B|499:186|499:186|517:218|517:218|510:280,1,165,6|2,1:2|1:2,0:0:0:0:
477,325,46386,1,8,0:2:0:0:
368,306,46693,2,0,L|310:313,1,55,6|0,1:2|1:2,0:0:0:0:
276,354,47001,1,8,0:2:0:0:
166,348,47309,6,0,L|191:184,1,165,6|0,1:2|1:2,0:0:0:0:
237,154,47924,1,10,0:2:0:0:
193,52,48232,2,0,B|136:27|136:27|39:62,1,165,6|0,1:2|1:2,0:0:0:0:
8,108,48847,1,10,0:2:0:0:
90,180,49155,2,0,L|254:192,1,165,10|0,0:2|1:2,0:0:0:0:
304,164,49770,5,6,1:2:0:0:
304,164,49924,1,6,1:2:0:0:
304,164,50078,1,6,1:2:0:0:
392,97,50386,2,0,L|385:33,2,55,10|8|10,0:2|0:2|0:2,0:0:0:0:
432,133,50847,2,0,L|443:242,1,110,6|2,1:2|1:2,0:0:0:0:
491,271,51309,1,10,0:2:0:0:
450,373,51616,1,10,0:2:0:0:
348,332,51924,1,10,0:2:0:0:
253,380,52232,5,6,1:2:0:0:
253,380,52386,1,4,1:2:0:0:
253,380,52540,1,6,1:2:0:0:
195,286,52847,2,0,L|135:275,2,55,10|8|10,0:2|0:2|0:2,0:0:0:0:
244,261,53309,2,0,P|269:222|262:144,1,110,6|2,1:2|1:2,0:0:0:0:
297,112,53770,1,10,0:2:0:0:
222,30,54078,1,10,0:2:0:0:
127,86,54386,1,10,1:2:0:0:
30,34,54693,6,0,B|6:83|6:83|21:136,1,110,14|0,0:2|1:2,0:0:0:0:
67,165,55155,2,0,B|91:214|91:214|75:267,1,110,14|0,0:2|1:2,0:0:0:0:
89,320,55616,2,0,B|138:344|138:344|191:328,1,110,14|0,0:2|1:2,0:0:0:0:
217,280,56078,2,0,B|266:256|266:256|319:271,1,110,14|0,0:2|1:2,0:0:0:0:
369,248,56540,1,10,0:2:0:0:
458,311,56847,1,2,1:2:0:0:
511,214,57155,6,0,L|489:106,1,110,6|14,1:2|0:2,0:0:0:0:
491,51,57616,2,0,P|447:82|393:77,1,110,2|2,1:2|1:2,0:0:0:0:
351,41,58078,1,10,0:2:0:0:
260,103,58386,1,10,0:2:0:0:
267,135,58540,1,8,0:2:0:0:
274,166,58693,1,8,0:2:0:0:
281,198,58847,1,8,0:2:0:0:
512,252,59616,6,0,P|525:303|497:349,1,110,6|8,1:2|0:2,0:0:0:0:
448,375,60078,2,0,L|338:363,1,110,2|0,1:2|1:2,0:0:0:0:
297,326,60540,1,10,0:2:0:0:
365,240,60847,1,2,1:2:0:0:
307,145,61155,1,10,0:2:0:0:
347,42,61463,1,2,3:2:0:0:
244,2,61770,1,10,0:2:0:0:
204,104,62078,6,0,P|153:125|100:117,1,110,2|10,1:2|0:2,0:0:0:0:
65,74,62540,1,2,1:2:0:0:
6,168,62847,1,2,1:2:0:0:
6,168,63001,1,10,0:2:0:0:
45,270,63309,2,0,L|154:281,1,110,2|8,1:2|0:2,0:0:0:0:
239,351,63924,1,2,0:2:0:0:
333,293,64232,1,10,0:2:0:0:
292,190,64540,6,0,L|209:198,2,82.5,6|2|2,1:2|1:2|1:2,0:0:0:0:
329,149,65155,1,2,0:2:0:0:
305,41,65463,1,10,0:2:0:0:
411,12,65770,2,0,L|493:3,2,82.5,2|2|2,1:2|1:2|1:2,0:0:0:0:
406,67,66386,2,0,L|412:132,1,55,2|2,0:2|1:2,0:0:0:0:
454,156,66693,2,0,L|460:221,1,55,14|2,0:2|1:2,0:0:0:0:
494,254,67001,5,6,1:2:0:0:
462,359,67309,1,10,0:2:0:0:
362,312,67616,1,2,1:2:0:0:
268,370,67924,1,10,0:2:0:0:
200,283,68232,2,0,P|146:274|96:296,1,110,2|8,1:2|0:2,0:0:0:0:
2,239,68847,1,6,1:2:0:0:
64,148,69155,1,6,1:2:0:0:
38,40,69463,6,0,B|72:19|72:19|138:41,1,110,6|8,1:2|0:2,0:0:0:0:
164,89,69924,2,0,B|198:110|198:110|264:87,1,110,10|0,0:2|1:2,0:0:0:0:
296,42,70386,1,10,0:2:0:0:
296,42,70540,2,0,L|418:50,1,110,2|0,3:2|1:2,0:0:0:0:
452,19,71001,1,10,0:2:0:0:
511,111,71309,2,0,P|493:163|483:217,1,110,2|8,1:2|0:2,0:0:0:0:
507,324,71924,5,6,1:2:0:0:
412,380,72232,1,14,0:2:0:0:
330,307,72540,1,6,1:2:0:0:
374,206,72847,2,0,L|382:142,1,55,14|2,0:2|0:2,0:0:0:0:
358,100,73155,2,0,L|248:85,1,110,6|8,1:2|0:2,0:0:0:0:
170,8,73770,2,0,L|115:15,1,55,2|8,1:2|0:2,0:0:0:0:
61,2,74078,1,2,1:2:0:0:
9,98,74386,6,0,P|-1:153|-6:207,1,110,6|10,1:2|0:2,0:0:0:0:
30,311,75001,1,2,1:2:0:0:
131,267,75309,1,10,0:2:0:0:
203,349,75616,2,0,P|257:359|311:364,1,110,2|10,1:2|0:2,0:0:0:0:
388,285,76232,1,2,1:2:0:0:
306,211,76540,1,14,0:2:0:0:
394,145,76847,6,0,P|411:67|359:7,1,165,14|0,0:2|1:2,0:0:0:0:
314,39,77463,2,0,P|243:76|172:41,1,165,10|10,0:2|0:2,0:0:0:0:
117,39,78078,1,10,0:2:0:0:
0,288,79309,6,0,B|37:318|37:318|151:291,1,165,6|0,1:2|1:2,0:0:0:0:
185,248,79924,1,8,0:2:0:0:
117,161,80232,1,0,1:2:0:0:
154,57,80540,2,0,P|250:15|326:85,1,220,8|10,0:2|0:2,0:0:0:0:
204,268,81770,6,0,L|215:321,1,55,6|0,1:2|1:2,0:0:0:0:
255,360,82078,2,0,L|308:371,1,55,0|0,1:2|1:2,0:0:0:0:
359,348,82386,1,10,0:2:0:0:
359,348,82540,1,0,1:2:0:0:
466,371,82847,1,0,1:2:0:0:
466,371,83001,1,2,0:2:0:0:
508,269,83309,1,2,0:2:0:0:
436,185,83616,1,10,0:2:0:0:
474,81,83924,1,2,1:2:0:0:
392,7,84232,6,0,L|337:16,1,55,6|8,1:2|0:2,0:0:0:0:
305,61,84540,2,0,L|250:70,1,55,0|0,1:2|1:2,0:0:0:0:
218,115,84847,1,10,0:2:0:0:
218,115,85001,1,0,1:2:0:0:
299,188,85309,1,0,1:2:0:0:
299,188,85463,1,2,0:2:0:0:
395,135,85770,1,2,1:2:0:0:
476,210,86078,1,10,0:2:0:0:
430,311,86386,1,2,0:2:0:0:
320,299,86693,6,0,L|265:305,1,55,6|0,1:2|1:2,0:0:0:0:
222,341,87001,2,0,L|167:334,1,55,0|0,1:2|1:2,0:0:0:0:
116,356,87309,1,10,0:2:0:0:
116,356,87463,1,0,1:2:0:0:
31,285,87770,1,0,1:2:0:0:
31,285,87924,1,2,0:2:0:0:
86,190,88232,1,2,1:2:0:0:
19,101,88540,1,10,0:2:0:0:
75,7,88847,1,2,1:2:0:0:
179,40,89155,6,0,L|233:34,1,55,6|8,1:2|0:2,0:0:0:0:
279,65,89463,2,0,L|284:119,1,55,0|0,1:2|1:2,0:0:0:0:
313,172,89770,1,10,0:2:0:0:
313,172,89924,1,8,0:2:0:0:
235,249,90232,1,0,1:2:0:0:
235,249,90386,1,2,1:2:0:0:
284,346,90693,1,2,1:2:0:0:
392,330,91001,2,0,L|403:271,1,55,2|8,1:2|0:2,0:0:0:0:
411,223,91309,1,2,0:2:0:0:
492,148,91616,6,0,P|506:97|483:48,1,110,6|8,1:2|0:2,0:0:0:0:
435,34,92078,1,2,0:2:0:0:
435,34,92232,2,0,L|309:45,1,110,2|8,1:2|0:2,0:0:0:0:
291,86,92693,2,0,L|165:75,1,110,2|2,3:2|0:2,0:0:0:0:
140,39,93155,1,10,0:2:0:0:
56,110,93463,1,2,1:2:0:0:
102,209,93770,1,10,0:2:0:0:
60,310,94078,6,0,P|99:347|153:346,1,110,2|8,1:2|0:2,0:0:0:0:
203,319,94540,1,2,0:2:0:0:
203,319,94693,2,0,L|218:191,1,110,2|8,1:2|0:2,0:0:0:0:
184,164,95155,2,0,L|199:36,1,110,2|2,3:2|0:2,0:0:0:0:
233,14,95616,1,10,0:2:0:0:
338,44,95924,1,2,1:2:0:0:
323,153,96232,1,2,1:2:0:0:
410,220,96540,6,0,L|493:211,2,82.5,6|2|2,1:2|0:2|0:2,0:0:0:0:
380,266,97155,1,2,1:2:0:0:
280,219,97463,2,0,L|268:109,1,110,8|0,0:2|1:2,0:0:0:0:
201,21,98078,1,10,0:2:0:0:
118,93,98386,2,0,L|129:202,1,110,2|8,1:2|0:2,0:0:0:0:
100,248,98847,1,2,0:2:0:0:
100,248,99001,5,2,1:2:0:0:
16,319,99309,1,10,0:2:0:0:
106,381,99616,2,0,L|215:371,1,110,2|8,1:2|0:2,0:0:0:0:
288,288,100232,2,0,L|295:233,1,55,2|0,1:2|1:2,0:0:0:0:
265,187,100540,2,0,L|272:132,1,55,14|0,0:2|1:2,0:0:0:0:
244,85,100847,2,0,B|302:68|302:68|338:90|338:90|398:73,1,165,14|0,0:2|1:2,0:0:0:0:
449,95,101463,5,6,1:2:0:0:
449,95,101616,1,4,1:2:0:0:
449,95,101770,1,6,1:2:0:0:
476,200,102078,2,0,L|537:211,2,55,10|8|10,0:2|0:2|0:2,0:0:0:0:
423,217,102540,2,0,B|401:241|401:241|416:316,1,110,6|2,1:2|1:2,0:0:0:0:
385,363,103001,1,10,0:2:0:0:
290,306,103309,1,10,0:2:0:0:
201,370,103616,1,10,0:2:0:0:
141,291,103924,5,6,1:2:0:0:
141,291,104078,1,4,1:2:0:0:
141,291,104232,1,6,1:2:0:0:
215,209,104540,2,0,L|277:212,2,55,10|8|10,0:2|0:2|0:2,0:0:0:0:
182,164,105001,2,0,L|166:50,1,110,6|2,1:2|1:2,0:0:0:0:
124,18,105463,1,10,0:2:0:0:
21,58,105770,1,10,0:2:0:0:
60,160,106078,1,10,0:2:0:0:
12,259,106386,6,0,B|37:299|37:299|154:281,1,165,6|2,1:2|1:2,0:0:0:0:
185,236,107001,1,8,0:2:0:0:
265,311,107309,2,0,B|290:351|290:351|407:333,1,165,6|2,1:2|1:2,0:0:0:0:
457,353,107924,1,8,0:2:0:0:
510,256,108232,2,0,L|502:201,1,55,6|0,1:2|1:2,0:0:0:0:
460,165,108540,1,8,0:2:0:0:
473,56,108847,6,0,P|396:38|343:96,1,165,6|0,1:2|1:2,0:0:0:0:
347,151,109463,1,10,0:2:0:0:
310,254,109770,2,0,P|268:320|189:317,1,165,6|0,1:2|1:2,0:0:0:0:
161,269,110386,1,10,0:2:0:0:
226,180,110693,2,0,B|213:120|213:120|229:91|229:91|210:11,1,165,10|0,0:2|1:2,0:0:0:0:
167,15,111309,5,6,1:2:0:0:
167,15,111463,1,4,1:2:0:0:
167,15,111616,1,6,1:2:0:0:
73,73,111924,2,0,L|18:65,2,55,10|8|10,0:2|0:2|0:2,0:0:0:0:
111,112,112386,2,0,P|117:165|86:208,1,110,6|2,1:2|1:2,0:0:0:0:
31,217,112847,1,10,0:2:0:0:
13,325,113155,1,10,0:2:0:0:
113,369,113463,1,10,0:2:0:0:
198,299,113770,5,6,1:2:0:0:
198,299,113924,1,4,1:2:0:0:
198,299,114078,1,6,1:2:0:0:
302,332,114386,2,0,L|317:387,2,55,10|8|10,0:2|0:2|0:2,0:0:0:0:
316,278,114847,2,0,P|362:250|413:265,1,110,6|2,1:2|1:2,0:0:0:0:
446,310,115309,1,10,0:2:0:0:
504,217,115616,1,10,0:2:0:0:
449,121,115924,1,10,0:2:0:0:
472,13,116232,6,0,B|418:-1|418:-1|370:25,1,110,14|0,0:2|1:2,0:0:0:0:
347,75,116693,2,0,B|299:101|299:101|245:87,1,110,14|0,0:2|1:2,0:0:0:0:
197,115,117155,2,0,B|183:169|183:169|209:216,1,110,14|0,0:2|1:2,0:0:0:0:
253,249,117616,2,0,B|267:303|267:303|240:350,1,110,14|0,0:2|1:2,0:0:0:0:
192,376,118078,1,10,0:2:0:0:
81,371,118386,1,2,1:2:0:0:
19,281,118693,6,0,L|29:171,1,110,14|2,0:2|1:2,0:0:0:0:
65,129,119155,2,0,P|114:141|173:106,1,110,2|2,1:2|1:2,0:0:0:0:
206,77,119616,2,0,L|259:87,1,55,10|2,0:2|1:2,0:0:0:0:
306,58,119924,1,14,0:2:0:0:
487,182,120540,2,0,B|472:235|472:235|483:273|483:273|464:340,1,165,10|8,0:2|0:2,0:0:0:0:
416,367,121155,6,0,P|365:380|319:352,1,110,6|8,1:2|0:2,0:0:0:0:
296,301,121616,2,0,L|309:180,1,110,2|0,1:2|1:2,0:0:0:0:
355,164,122078,1,10,0:2:0:0:
346,54,122386,1,2,1:2:0:0:
247,7,122693,1,10,0:2:0:0:
157,70,123001,1,2,3:2:0:0:
166,180,123309,1,10,0:2:0:0:
264,226,123616,6,0,P|284:277|264:327,1,110,2|10,1:2|0:2,0:0:0:0:
219,359,124078,1,2,1:2:0:0:
121,308,124386,1,2,1:2:0:0:
121,308,124540,1,10,0:2:0:0:
20,353,124847,2,0,L|4:244,1,110,2|8,1:2|0:2,0:0:0:0:
71,156,125463,1,2,0:2:0:0:
166,210,125770,1,10,0:2:0:0:
233,123,126078,6,0,L|229:40,2,82.5,6|2|2,1:2|1:2|1:2,0:0:0:0:
279,152,126693,1,2,0:2:0:0:
234,252,127001,1,10,0:2:0:0:
331,302,127309,2,0,L|327:384,2,82.5,2|2|2,1:2|1:2|1:2,0:0:0:0:
370,263,127924,2,0,L|424:254,1,55,2|2,0:2|1:2,0:0:0:0:
469,222,128232,2,0,L|477:167,1,55,14|2,0:2|1:2,0:0:0:0:
442,124,128540,5,6,1:2:0:0:
345,176,128847,1,10,0:2:0:0:
241,138,129155,1,2,1:2:0:0:
138,177,129463,1,10,0:2:0:0:
31,149,129770,2,0,P|13:97|32:46,1,110,2|8,1:2|0:2,0:0:0:0:
134,5,130386,1,6,1:2:0:0:
202,90,130693,1,6,1:2:0:0:
289,25,131001,6,0,P|351:18|409:46,1,110,6|8,1:2|0:2,0:0:0:0:
417,86,131463,2,0,L|403:195,1,110,10|0,0:2|1:2,0:0:0:0:
361,230,131924,1,10,0:2:0:0:
264,177,132232,2,0,L|209:183,1,55,2|0,1:2|1:2,0:0:0:0:
167,220,132540,1,10,0:2:0:0:
59,199,132847,2,0,P|15:230|2:283,1,110,2|10,1:2|0:2,0:0:0:0:
68,371,133463,5,6,1:2:0:0:
163,317,133770,1,14,0:2:0:0:
252,381,134078,1,6,1:2:0:0:
353,339,134386,2,0,L|418:352,1,55,14|2,0:2|0:2,0:0:0:0:
450,384,134693,2,0,P|462:330|482:279,1,110,6|8,1:2|0:2,0:0:0:0:
500,170,135309,2,0,L|491:112,1,55,2|8,1:2|0:2,0:0:0:0:
506,62,135616,1,2,1:2:0:0:
413,2,135924,6,0,L|303:13,1,110,6|10,1:2|0:2,0:0:0:0:
225,92,136540,1,2,1:2:0:0:
286,183,136847,1,10,0:2:0:0:
392,158,137155,2,0,P|438:188|458:238,1,110,2|10,1:2|0:2,0:0:0:0:
428,344,137770,1,2,1:2:0:0:
324,305,138078,1,14,0:2:0:0:
229,361,138386,6,0,B|167:380|167:380|72:345,1,165,14|10,1:2|1:2,0:0:0:0:
55,293,139001,2,0,L|50:119,1,165,10|0,0:2|1:2,0:0:0:0:
72,77,139616,1,10,0:2:0:0:
291,56,140232,6,0,L|296:18,2,36.6666666666667,10|8|8,0:2|0:2|0:3,0:0:0:0:
317,101,140540,6,0,L|312:139,2,36.6666666666667,10|4|4,0:3|0:3|0:3,0:0:0:0:
365,83,140847,5,6,1:1:0:0:
11,104,145770,6,0,B|63:97|86:79|86:79|113:96|141:97|141:97|164:81|217:68,1,220,14|14,0:2|0:2,0:0:0:0:
436,79,147001,2,0,B|442:131|460:154|460:154|443:181|442:209|442:209|458:232|471:285,1,220,14|14,0:2|0:2,0:0:0:0:
410,376,147924,1,14,0:2:0:0:
320,311,148232,2,0,B|267:323|244:339|244:339|216:338|189:321|189:321|166:340|113:346,1,220,14|14,0:2|0:2,0:0:0:0:
0,157,149463,1,14,0:2:0:0:
90,219,149770,2,0,P|212:186|204:59,1,275,8|0,0:2|1:2,0:0:0:0:
226,9,150693,5,6,1:2:0:0:
334,29,151001,1,2,1:2:0:0:
442,49,151309,2,0,L|462:157,1,110,2|0,1:2|1:2,0:0:0:0:
506,190,151770,1,2,0:2:0:0:
506,190,151924,1,10,0:2:0:0:
487,298,152232,1,2,1:2:0:0:
379,314,152540,1,2,1:2:0:0:
331,217,152847,2,0,L|341:162,1,55,2|8,1:2|0:2,0:0:0:0:
382,126,153155,6,0,L|371:71,1,55,2|8,1:2|0:2,0:0:0:0:
334,31,153463,1,2,1:2:0:0:
236,80,153770,1,10,0:2:0:0:
142,22,154078,1,2,1:2:0:0:
45,74,154386,2,0,P|31:127|22:184,1,110,6|0,1:2|1:2,0:0:0:0:
120,230,155001,1,10,0:2:0:0:
82,333,155309,1,2,1:2:0:0:
183,371,155616,6,0,P|260:365|278:289,1,165,14|0,0:2|1:2,0:0:0:0:
253,238,156232,2,0,P|271:163|348:156,1,165,14|0,0:2|1:2,0:0:0:0:
400,175,156847,2,0,P|476:168|494:92,1,165,14|0,0:2|1:2,0:0:0:0:
474,41,157463,1,14,0:2:0:0:
368,71,157770,1,14,0:2:0:0:
275,10,158078,6,0,L|111:29,1,165,14|0,0:2|1:2,0:0:0:0:
59,10,158693,2,0,L|39:173,1,165,14|0,0:2|1:2,0:0:0:0:
12,222,159309,1,14,0:2:0:0:
110,271,159616,1,8,0:2:0:0:
192,198,159924,1,0,1:2:0:0:
281,262,160232,1,10,0:2:0:0:
364,190,160540,6,0,P|414:171|463:193,1,110,14|2,0:2|1:2,0:0:0:0:
497,236,161001,1,14,0:2:0:0:
450,336,161309,1,2,1:2:0:0:
450,336,161463,1,14,0:2:0:0:
352,299,161770,1,2,1:2:0:0:
352,299,161924,1,14,0:2:0:0:
263,362,162232,1,2,1:2:0:0:
263,362,162386,1,10,0:2:0:0:
169,304,162693,1,10,0:2:0:0:
64,338,163001,6,0,P|30:296|39:243,1,110,14|2,0:2|1:2,0:0:0:0:
84,212,163463,1,2,1:2:0:0:
41,111,163770,1,2,1:2:0:0:
41,111,163924,2,0,L|54:47,1,55,2|2,1:2|1:2,0:0:0:0:
100,30,164232,5,10,0:2:0:0:
132,27,164386,1,8,0:2:0:0:
164,24,164540,1,8,0:2:0:0:
196,21,164693,1,8,0:2:0:0:
27,356,167924,6,0,L|14:246,1,110,6|10,1:2|0:2,0:0:0:0:
52,207,168386,1,2,1:2:0:0:
145,274,168693,1,0,1:2:0:0:
145,274,168847,1,10,0:2:0:0:
243,225,169155,2,0,P|296:236|348:253,1,110,2|8,1:2|0:2,0:0:0:0:
427,331,169770,1,2,0:2:0:0:
507,256,170078,1,10,0:2:0:0:
462,154,170386,6,0,P|467:114|479:74,2,82.5,6|2|2,1:2|1:2|1:2,0:0:0:0:
417,187,171001,1,2,0:2:0:0:
338,110,171309,1,10,0:2:0:0:
259,186,171616,2,0,P|219:177|178:173,2,82.5,2|2|2,1:2|1:2|1:2,0:0:0:0:
294,230,172232,2,0,L|304:284,1,55,2|2,0:2|1:2,0:0:0:0:
289,337,172540,2,0,L|234:347,1,55,14|2,0:2|1:2,0:0:0:0:
189,315,172847,5,6,1:2:0:0:
92,367,173155,1,10,0:2:0:0:
13,291,173463,1,2,1:2:0:0:
61,193,173770,1,10,0:2:0:0:
170,208,174078,2,0,L|279:195,1,110,2|8,1:2|0:2,0:0:0:0:
358,272,174693,1,6,1:2:0:0:
467,257,175001,1,6,1:2:0:0:
507,154,175309,6,0,B|517:99|517:99|488:53,1,110,6|8,1:2|0:2,0:0:0:0:
436,35,175770,2,0,B|390:63|390:63|335:53,1,110,10|0,0:2|1:2,0:0:0:0:
294,15,176232,1,10,0:2:0:0:
202,75,176540,1,2,1:2:0:0:
104,25,176847,1,10,0:2:0:0:
19,95,177155,2,0,P|5:148|1:203,1,110,2|10,1:2|0:2,0:0:0:0:
56,298,177770,5,6,1:2:0:0:
145,234,178078,1,14,0:2:0:0:
204,326,178386,1,6,1:2:0:0:
301,274,178693,2,0,L|311:218,1,55,14|2,0:2|0:2,0:0:0:0:
271,180,179001,2,0,L|291:68,1,110,6|8,1:2|0:2,0:0:0:0:
375,1,179616,2,0,L|429:10,1,55,2|8,1:2|0:2,0:0:0:0:
468,49,179924,1,2,1:2:0:0:
446,156,180232,6,0,P|460:209|468:263,1,110,6|10,1:2|0:2,0:0:0:0:
411,357,180847,1,2,1:2:0:0:
305,325,181155,1,10,0:2:0:0:
303,214,181463,2,0,P|252:192|198:184,1,110,2|10,1:2|0:2,0:0:0:0:
108,246,182078,1,2,1:2:0:0:
10,195,182386,1,14,0:2:0:0:
5,85,182693,6,0,B|40:88|69:66|69:66|97:78|97:78|124:64|172:60,1,165,14|0,0:2|1:2,0:0:0:0:
207,91,183309,2,0,B|204:125|226:154|226:154|214:182|214:182|228:209|231:257,1,165,10|2,0:2|1:2,0:0:0:0:
193,286,183924,1,10,0:2:0:0:
256,376,184232,2,0,L|316:383,1,55,2|2,1:2|1:2,0:0:0:0:
357,352,184540,1,2,1:2:0:0:
462,384,184847,1,14,0:2:0:0:
502,281,185155,6,0,L|489:171,1,110,6|2,1:2|1:2,0:0:0:0:
512,124,185616,1,0,1:2:0:0:
512,124,185770,1,10,0:2:0:0:
464,24,186078,1,2,0:2:0:0:
370,83,186386,2,0,P|319:100|266:88,1,110,2|2,1:2|1:2,0:0:0:0:
183,16,187001,1,10,0:2:0:0:
75,38,187309,1,2,0:2:0:0:
43,143,187616,6,0,L|51:197,1,55,2|0,1:2|1:2,0:0:0:0:
30,248,187924,2,0,L|38:302,1,55,0|0,1:2|1:2,0:0:0:0:
75,343,188232,2,0,L|189:359,1,110,10|8,0:2|0:2,0:0:0:0:
234,336,188693,1,10,0:2:0:0:
234,336,188847,1,2,1:2:0:0:
480,288,190078,5,6,1:2:0:0:
480,288,190231,1,6,1:2:0:0:
480,288,190385,1,6,1:2:0:0:
401,212,190693,2,0,L|410:157,2,55,10|10|10,0:2|0:2|0:2,0:0:0:0:
365,253,191155,2,0,B|234:274,1,110,6|2,1:2|1:2,0:0:0:0:
225,315,191616,1,10,0:2:0:0:
123,356,191924,2,0,P|73:341|75:233,1,165,10|0,0:2|1:2,0:0:0:0:
122,224,192539,5,6,1:2:0:0:
122,224,192693,1,6,1:2:0:0:
122,224,192847,1,6,1:2:0:0:
54,137,193155,2,0,L|-1:129,2,55,10|10|10,0:2|0:2|0:2,0:0:0:0:
95,100,193616,2,0,L|219:84,1,110,6|2,1:2|1:2,0:0:0:0:
256,104,194078,1,10,0:2:0:0:
343,34,194385,2,0,P|433:28|469:111,1,192.5,2|8,1:2|0:2,0:0:0:0:
441,189,195155,6,0,L|379:197,2,55,6|2|0,1:2|1:2|0:2,0:0:0:0:
489,217,195616,1,10,0:2:0:0:
500,326,195924,1,2,1:2:0:0:
400,371,196231,1,2,1:2:0:0:
300,326,196539,2,0,L|295:275,2,36.6666666666667,2|2|2,1:2|0:0|0:0,0:0:0:0:
275,352,196847,2,0,L|156:370,1,110,10|2,0:2|1:2,0:0:0:0:
77,305,197462,6,0,P|66:259|165:216,1,165,2|2,1:2|0:2,0:0:0:0:
203,237,198078,2,0,L|265:229,1,55,10|0,0:2|1:2,0:0:0:0:
305,201,198385,1,8,0:2:0:0:
393,267,198693,1,10,0:2:0:0:
482,204,199001,1,2,1:2:0:0:
449,100,199308,1,2,1:2:0:0:
340,100,199616,1,10,0:2:0:0:
297,209,199924,5,6,1:2:0:0:
297,209,200078,1,6,1:2:0:0:
297,209,200231,1,6,1:2:0:0:
227,124,200539,2,0,L|219:70,2,55,10|10|10,0:2|0:2|0:2,0:0:0:0:
187,161,201001,2,0,L|79:142,1,110,6|2,1:2|1:2,0:0:0:0:
29,165,201462,1,10,0:2:0:0:
37,273,201770,2,0,P|115:276|148:347,1,165,10|0,0:2|1:2,0:0:0:0:
188,381,202385,5,6,1:2:0:0:
188,381,202539,1,6,1:2:0:0:
188,381,202693,1,6,1:2:0:0:
258,295,203001,2,0,L|248:237,2,55,10|10|10,0:2|0:2|0:2,0:0:0:0:
292,338,203462,2,0,L|402:328,1,110,6|2,1:2|1:2,0:0:0:0:
450,355,203924,1,10,0:2:0:0:
512,264,204231,2,0,P|504:174|416:155,1,192.5,2|8,1:2|0:2,0:0:0:0:
351,104,205001,6,0,L|345:49,2,55,6|2|0,1:2|1:2|0:2,0:0:0:0:
307,135,205462,1,10,0:2:0:0:
222,65,205770,1,2,1:2:0:0:
129,125,206078,1,2,1:2:0:0:
157,232,206385,2,0,L|138:271,2,36.6666666666667,2|2|2,1:2|0:0|0:0,0:0:0:0:
193,239,206693,2,0,L|305:227,1,110,10|2,0:2|1:2,0:0:0:0:
399,174,207308,6,0,P|475:192|485:269,1,165,2|2,1:2|0:2,0:0:0:0:
489,324,207924,1,10,0:2:0:0:
382,304,208231,1,8,0:2:0:0:
290,363,208539,1,6,1:2:0:0:
64,160,209770,5,6,1:1:0:0:
256,192,209924,12,0,219616,0:0:0:0:
