osu file format v14

[General]
AudioFilename: audio.mp3
AudioLeadIn: 0
PreviewTime: 58924
Countdown: 0
SampleSet: Soft
StackLeniency: 0.7
Mode: 0
LetterboxInBreaks: 0
WidescreenStoryboard: 1

[Editor]
DistanceSpacing: 1.3
BeatDivisor: 4
GridSize: 32
TimelineZoom: 2.8

[Metadata]
Title:witch spat out a curse
TitleUnicode:witch spat out a curse
Artist:Kitamura Eri
ArtistUnicode:喜多村英梨
Creator:Mordred
Version:Agatsu's Hard
Source:
Tags:illusion dream dystopia record necchi rock lasse dkblaze agatsu japanese
BeatmapID:2474329
BeatmapSetID:1133446

[Difficulty]
HPDrainRate:4
CircleSize:3.7
OverallDifficulty:6
ApproachRate:8
SliderMultiplier:1.4
SliderTickRate:1

[Events]
//Background and Video events
0,0,"63227924_p0_master1200.jpg",0,0
//Break Periods
2,141047,145020
//Storyboard Layer 0 (Background)
//Storyboard Layer 1 (Fail)
//Storyboard Layer 2 (Pass)
//Storyboard Layer 3 (Foreground)
//Storyboard Layer 4 (Overlay)
//Storyboard Sound Samples

[TimingPoints]
540,307.692307692308,4,2,1,70,1,0
1847,-100,4,2,1,5,0,0
1924,-100,4,2,1,70,0,0
4309,-100,4,2,1,5,0,0
4386,-100,4,2,1,70,0,0
11693,-100,4,2,1,5,0,0
11770,-100,4,2,1,70,0,0
14155,-100,4,2,1,5,0,0
14232,-100,4,2,1,70,0,0
19309,-100,4,2,1,60,0,0
19616,-100,4,2,1,50,0,0
19924,-100,4,2,1,40,0,0
20232,-125,4,2,2,50,0,0
20386,-125,4,2,2,5,0,0
20463,-125,4,2,2,50,0,0
22847,-125,4,2,2,5,0,0
22924,-125,4,2,2,50,0,0
25309,-125,4,2,2,5,0,0
25386,-125,4,2,2,50,0,0
27770,-125,4,2,2,5,0,0
27847,-125,4,2,2,50,0,0
29078,-125,4,2,2,5,0,0
29155,-125,4,2,1,50,0,0
29386,-125,4,2,1,5,0,0
29463,-125,4,2,1,60,0,0
29693,-125,4,2,1,5,0,0
29770,-125,4,2,1,70,0,0
30001,-125,4,2,1,5,0,0
30078,-111.111111111111,4,2,1,80,0,0
30386,-111.111111111111,4,2,1,60,0,0
39924,-100,4,2,1,70,0,0
40463,-100,4,2,1,5,0,0
40540,-100,4,2,1,70,0,0
41232,-100,4,2,1,5,0,0
41309,-100,4,2,1,70,0,0
42924,-100,4,2,1,5,0,0
43001,-100,4,2,1,70,0,0
43693,-100,4,2,1,5,0,0
43770,-100,4,2,1,70,0,0
44847,-100,4,2,1,60,0,0
48155,-100,4,2,1,5,0,0
48232,-100,4,2,1,60,0,0
49770,-100,4,2,1,70,0,0
50309,-100,4,2,1,5,0,0
50386,-100,4,2,1,70,0,0
51078,-100,4,2,1,5,0,0
51155,-100,4,2,1,70,0,0
52770,-100,4,2,1,5,0,0
52847,-100,4,2,1,70,0,0
53540,-100,4,2,1,5,0,0
53616,-100,4,2,1,70,0,0
57155,-100,4,2,1,80,0,0
59616,-100,4,2,1,80,0,1
60770,-100,4,2,1,5,0,1
60847,-100,4,2,1,80,0,1
67232,-100,4,2,1,5,0,1
67309,-100,4,2,1,80,0,1
67540,-100,4,2,1,5,0,1
67616,-100,4,2,1,80,0,1
67847,-100,4,2,1,5,0,1
67924,-100,4,2,1,80,0,1
68155,-100,4,2,1,5,0,1
68232,-100,4,2,1,80,0,1
72155,-100,4,2,1,5,0,1
72232,-100,4,2,1,80,0,1
72463,-100,4,2,1,5,0,1
72540,-100,4,2,1,80,0,1
72770,-100,4,2,1,5,0,1
72847,-100,4,2,1,80,0,1
73386,-100,4,2,1,5,0,1
73463,-100,4,2,1,80,0,1
74616,-100,4,2,1,5,0,1
74693,-100,4,2,1,80,0,1
75847,-100,4,2,1,5,0,1
75924,-100,4,2,1,80,0,1
77463,-100,4,2,1,60,0,1
77616,-100,4,2,1,65,0,1
77770,-100,4,2,1,70,0,1
77924,-100,4,2,1,75,0,1
78078,-100,4,2,1,80,0,0
79309,-125,4,2,1,60,0,0
79616,-125,4,2,1,50,0,0
81155,-125,4,2,1,60,0,0
81770,-111.111111111111,4,2,1,70,0,0
91616,-111.111111111111,4,2,1,60,0,0
96693,-111.111111111111,4,2,1,5,0,0
96770,-111.111111111111,4,2,1,60,0,0
96924,-111.111111111111,4,2,1,5,0,0
97001,-111.111111111111,4,2,1,60,0,0
101463,-100,4,2,1,70,0,0
102001,-100,4,2,1,5,0,0
102078,-100,4,2,1,70,0,0
102770,-100,4,2,1,5,0,0
102847,-100,4,2,1,70,0,0
104463,-100,4,2,1,5,0,0
104540,-100,4,2,1,70,0,0
105232,-100,4,2,1,5,0,0
105309,-100,4,2,1,70,0,0
106386,-100,4,2,1,60,0,0
111309,-100,4,2,1,70,0,0
111847,-100,4,2,1,5,0,0
111924,-100,4,2,1,70,0,0
112616,-100,4,2,1,5,0,0
112693,-100,4,2,1,70,0,0
114309,-100,4,2,1,5,0,0
114386,-100,4,2,1,70,0,0
115078,-100,4,2,1,5,0,0
115155,-100,4,2,1,70,0,0
118693,-100,4,2,1,80,0,0
121155,-100,4,2,1,80,0,1
122309,-100,4,2,1,5,0,1
122386,-100,4,2,1,80,0,1
128770,-100,4,2,1,5,0,1
128847,-100,4,2,1,80,0,1
129078,-100,4,2,1,5,0,1
129155,-100,4,2,1,80,0,1
129386,-100,4,2,1,5,0,1
129463,-100,4,2,1,80,0,1
129693,-100,4,2,1,5,0,1
129770,-100,4,2,1,80,0,1
133693,-100,4,2,1,5,0,1
133770,-100,4,2,1,80,0,1
134001,-100,4,2,1,5,0,1
134078,-100,4,2,1,80,0,1
134309,-100,4,2,1,5,0,1
134386,-100,4,2,1,80,0,1
134924,-100,4,2,1,5,0,1
135001,-100,4,2,1,80,0,1
136155,-100,4,2,1,5,0,1
136232,-100,4,2,1,80,0,1
137386,-100,4,2,1,5,0,1
137463,-100,4,2,1,80,0,1
139616,-100,4,2,1,70,0,0
140232,-100,4,2,1,60,0,0
140540,-100,4,2,1,50,0,0
140847,-100,4,2,1,40,0,0
145770,-100,4,2,1,80,0,0
150693,-100,4,2,1,70,0,0
150963,-100,4,2,1,5,0,0
151001,-100,4,2,1,70,0,0
151270,-100,4,2,1,5,0,0
151309,-100,4,2,1,70,0,0
153693,-100,4,2,1,5,0,0
153770,-100,4,2,1,70,0,0
154001,-100,4,2,1,5,0,0
154078,-100,4,2,1,70,0,0
154309,-100,4,2,1,5,0,0
154386,-100,4,2,1,70,0,0
155616,-100,4,2,1,80,0,0
163001,-100,4,2,1,90,0,0
163463,-100,4,2,1,80,0,0
165463,-125,4,2,1,60,0,0
167924,-100,4,2,1,80,0,1
173078,-100,4,2,1,5,0,1
173155,-100,4,2,1,80,0,1
173386,-100,4,2,1,5,0,1
173463,-100,4,2,1,80,0,1
173693,-100,4,2,1,5,0,1
173770,-100,4,2,1,80,0,1
174001,-100,4,2,1,5,0,1
174078,-100,4,2,1,80,0,1
178001,-100,4,2,1,5,0,1
178078,-100,4,2,1,80,0,1
178309,-100,4,2,1,5,0,1
178386,-100,4,2,1,80,0,1
178616,-100,4,2,1,5,0,1
178693,-100,4,2,1,80,0,1
180463,-100,4,2,1,5,0,1
180540,-100,4,2,1,80,0,1
181693,-100,4,2,1,5,0,1
181770,-100,4,2,1,80,0,1
188847,-100,4,2,1,80,0,0
190078,-100,4,2,1,70,0,0
191386,-100,4,2,1,5,0,0
191463,-100,4,2,1,70,0,0
193078,-100,4,2,1,5,0,0
193155,-100,4,2,1,70,0,0
193847,-100,4,2,1,5,0,0
193924,-100,4,2,1,70,0,0
200463,-100,4,2,1,5,0,0
200540,-100,4,2,1,70,0,0
201232,-100,4,2,1,5,0,0
201309,-100,4,2,1,70,0,0
203693,-100,4,2,1,5,0,0
203770,-100,4,2,1,70,0,0
208847,-100,4,2,1,60,0,0
209155,-100,4,2,1,50,0,0
209463,-100,4,2,1,40,0,0
209770,-100,4,2,3,60,0,0
211001,-100,4,2,4,55,0,0
212232,-100,4,2,3,50,0,0
213463,-100,4,2,4,45,0,0
214693,-100,4,2,3,40,0,0
215924,-100,4,2,4,30,0,0
217155,-100,4,2,3,20,0,0
218386,-100,4,2,4,10,0,0
219616,-100,4,2,3,5,0,0

[Colours]
Combo1 : 230,215,236
Combo2 : 250,182,199
Combo3 : 253,209,190
Combo4 : 230,170,170

[HitObjects]
36,63,540,6,0,L|42:141,1,70,6|6,1:2|1:2,0:0:0:0:
3,215,847,1,6,1:2:0:0:
169,289,1155,2,0,P|178:247|176:197,2,70,10|10|10,0:2|0:2|0:2,0:0:0:0:
121,371,1616,6,0,P|164:341|261:338,1,140,6|2,1:2|1:2,0:0:0:0:
336,362,2078,1,10,0:2:0:0:
418,318,2232,1,0,1:2:0:0:
418,318,2309,1,0,1:2:0:0:
418,318,2386,2,0,L|424:268,3,35,10|0|0|0,0:2|1:2|1:2|1:2,0:0:0:0:
460,257,2693,2,0,L|454:207,3,35,0|0|0|0,1:2|1:2|1:2|1:2,0:0:0:0:
434,181,3001,6,0,L|438:97,1,70,6|6,1:2|1:2,0:0:0:0:
475,27,3309,1,6,1:2:0:0:
307,77,3616,2,0,P|298:121|299:172,2,70,10|10|10,0:2|0:2|0:2,0:0:0:0:
224,35,4078,6,0,L|73:52,1,140,6|2,1:2|1:2,0:0:0:0:
15,110,4540,1,8,0:2:0:0:
71,193,4693,1,0,1:2:0:0:
71,193,4770,1,0,1:2:0:0:
71,193,4847,2,0,L|79:247,3,35,0|0|0|0,1:2|1:2|1:2|1:2,0:0:0:0:
102,265,5155,1,8,0:2:0:0:
57,351,5309,1,8,0:2:0:0:
231,301,5616,5,6,1:2:0:0:
309,346,5770,2,0,L|400:352,1,70,2|2,1:2|0:2,0:0:0:0:
468,371,6078,2,0,P|475:325|468:279,1,70,10|0,0:2|0:2,0:2:0:0:
406,239,6386,2,0,P|399:193|406:147,1,70,2|0,1:2|0:2,0:2:0:0:
473,114,6693,5,2,1:2:0:0:
317,61,7001,2,0,L|322:10,2,46.6666666666667,2|2|2,1:2|0:0|0:0,0:0:0:0:
309,111,7309,2,0,P|268:108|228:99,1,70,8|0,0:2|0:2,0:0:0:0:
168,45,7616,2,0,P|127:48|87:57,1,70,2|0,1:2|0:2,0:0:0:0:
25,108,7924,6,0,L|45:259,1,140,6|0,1:2|1:2,0:0:0:0:
130,299,8386,1,2,0:2:0:0:
130,299,8463,1,2,0:2:0:0:
130,299,8540,2,0,P|136:264|135:224,1,70,8|0,0:2|1:2,0:0:0:0:
202,168,8847,1,8,0:2:0:0:
295,193,9001,1,2,1:2:0:0:
295,193,9078,1,2,1:2:0:0:
295,193,9155,6,0,L|346:184,3,35,10|8|0|0,0:2|0:2|1:2|1:2,0:0:0:0:
361,159,9463,2,0,L|395:165,3,35,2|0|0|0,1:2|1:2|1:2|1:2,0:0:0:0:
439,153,9770,2,0,L|463:184,3,35,2|0|0|0,1:2|1:2|1:2|1:2,0:0:0:0:
503,186,10078,2,0,L|506:229,3,35,10|8|8|8,0:2|0:2|0:2|0:2,0:0:0:0:
493,265,10386,6,0,P|485:300|484:354,1,70,6|4,1:2|1:2,0:0:0:0:
399,370,10693,1,6,1:2:0:0:
225,315,11001,2,0,L|147:325,2,70,10|10|10,0:2|0:2|0:2,0:0:0:0:
314,334,11463,6,0,P|311:252|344:189,1,140,6|0,1:2|1:2,0:0:0:0:
258,150,11924,2,0,L|202:159,3,35,8|0|0|0,0:2|1:2|1:2|1:2,0:0:0:0:
185,181,12232,2,0,L|150:175,3,35,10|0|0|0,0:2|1:2|1:2|1:2,0:0:0:0:
105,184,12540,2,0,L|83:134,3,35,0|0|0|0,1:2|1:2|1:2|1:2,0:0:0:0:
49,132,12847,6,0,L|58:56,1,70,6|6,1:2|1:2,0:0:0:0:
130,7,13155,1,6,1:2:0:0:
299,73,13463,2,0,L|379:67,1,70,10|10,0:2|0:2,0:0:0:0:
447,113,13770,1,10,0:2:0:0:
410,195,13924,6,0,B|401:265|428:270|417:345,1,140,6|0,1:2|1:2,0:0:0:0:
333,367,14386,1,8,0:2:0:0:
262,327,14540,1,0,1:2:0:0:
262,327,14616,1,0,1:2:0:0:
262,327,14693,2,0,L|259:265,3,35,2|0|0|0,1:2|1:2|1:2|1:2,0:0:0:0:
287,254,15001,2,0,L|290:192,3,35,8|8|8|8,0:2|0:2|0:2|0:2,0:0:0:0:
285,61,15463,5,6,1:2:0:0:
202,97,15616,2,0,L|122:90,1,70,2|2,1:2|0:2,0:0:0:0:
53,44,15924,2,0,P|43:88|41:133,1,70,10|0,0:2|0:0,0:0:0:0:
101,181,16232,2,0,P|111:225|113:270,1,70,2|0,1:2|0:0,0:0:0:0:
33,295,16540,5,2,1:2:0:0:
213,316,16847,2,0,L|206:243,2,46.6666666666667,2|2|2,1:2|0:0|0:0,0:0:0:0:
208,376,17155,2,0,L|299:367,1,70,10|0,0:2|0:2,0:0:0:0:
334,297,17463,2,0,L|403:303,1,70,2|0,1:2|0:2,0:0:0:0:
446,384,17770,6,0,P|450:322|499:256,1,140,2|0,1:2|1:2,0:0:0:0:
464,183,18232,1,2,0:2:0:0:
464,183,18309,1,2,0:2:0:0:
464,183,18386,2,0,P|425:181|384:172,1,70,10|0,0:2|1:2,0:0:0:0:
324,117,18693,2,0,L|321:76,3,35,10|10|2|2,0:2|0:2|1:2|1:2,0:0:0:0:
330,36,19001,6,0,L|187:28,2,140,6|2|2,1:2|0:2|0:2,0:0:0:0:
448,140,19924,1,2,0:2:0:0:
334,248,20232,6,0,P|315:296|312:340,2,84,2|0|8,1:2|1:2|0:2,0:0:0:0:
280,190,20847,2,0,L|155:180,1,112,2|0,1:2|1:2,0:0:0:0:
17,227,21463,6,0,P|-1:169|10:109,1,112,2|2,1:2|0:2,0:0:0:0:
50,54,21924,1,8,0:2:0:0:
124,30,22078,2,0,L|194:24,1,56,2|8,1:2|0:2,0:0:0:0:
246,66,22386,2,0,L|301:70,1,56,2|0,1:2|0:2,0:0:0:0:
366,114,22693,6,0,L|373:216,2,84,2|0|8,1:2|1:2|0:2,0:0:0:0:
427,64,23309,1,2,1:2:0:0:
500,202,23616,2,0,L|493:273,1,56,0|0,1:2|0:2,0:0:0:0:
436,311,23924,6,0,P|365:306|313:335,1,112,2|2,1:2|0:2,0:0:0:0:
264,367,24386,1,8,0:2:0:0:
195,329,24540,2,0,L|207:203,1,112,2|2,1:2|1:2,0:0:0:0:
307,98,25155,6,0,L|406:90,2,84,2|0|8,1:2|1:2|0:2,0:0:0:0:
246,48,25770,2,0,B|193:42|191:70|125:67,1,112,2|0,1:2|1:2,0:0:0:0:
20,172,26386,6,0,P|10:211|10:251,1,56,2|0,1:2|0:0,0:0:0:0:
45,295,26693,2,0,L|117:304,1,56,2|8,0:2|0:2,0:0:0:0:
155,358,27001,2,0,L|284:348,1,112,2|2,1:2|1:2,0:0:0:0:
411,289,27616,6,0,P|432:335|428:393,2,84,2|0|8,1:2|1:2|0:2,0:0:0:0:
343,247,28232,2,0,P|290:243|241:196,1,112,2|0,1:2|1:2,0:0:0:0:
160,74,28847,6,0,L|215:69,1,56,2|0,1:2|0:0,0:0:0:0:
289,40,29155,2,0,L|296:95,1,56,2|0,0:2|0:0,0:0:0:0:
369,126,29463,2,0,L|360:192,1,56,2|0,1:2|0:0,0:0:0:0:
419,233,29770,1,2,1:2:0:0:
292,356,30078,6,0,P|221:371|155:349,1,125.999996154785,6|8,1:2|0:2,0:0:0:0:
147,271,30540,1,2,0:2:0:0:
200,201,30693,2,0,L|212:70,1,125.999996154785,2|8,1:2|0:2,0:0:0:0:
162,1,31155,1,2,0:2:0:0:
95,59,31309,6,0,L|23:53,1,62.9999980773926,2|2,1:2|0:2,0:0:0:0:
0,136,31616,2,0,P|-6:192|30:268,1,125.999996154785,10|2,0:2|1:2,0:0:0:0:
151,373,32232,2,0,L|225:366,1,62.9999980773926,10|0,0:2|0:2,0:0:0:0:
302,375,32540,6,0,L|317:241,1,125.999996154785,2|8,1:2|0:2,0:0:0:0:
381,190,33001,1,2,0:2:0:0:
467,208,33155,2,0,P|499:146|493:82,1,125.999996154785,2|8,1:2|0:2,0:0:0:0:
430,31,33616,1,2,0:2:0:0:
354,76,33770,6,0,L|270:68,2,62.9999980773926,0|2|10,1:2|0:2|0:2,0:0:0:0:
467,208,34386,2,0,L|472:277,1,62.9999980773926,2|8,1:2|0:2,0:0:0:0:
409,333,34693,1,2,1:2:0:0:
242,273,35001,6,0,B|180:267|178:298|95:290,1,125.999996154785,6|8,1:2|0:2,0:0:0:0:
41,336,35463,1,2,0:2:0:0:
2,257,35616,2,0,P|-2:185|25:107,1,125.999996154785,2|8,1:2|0:2,0:0:0:0:
153,26,36232,6,0,L|241:25,1,62.9999980773926,0|0,1:2|0:0,0:0:0:0:
300,51,36540,2,0,L|306:124,1,62.9999980773926,10|0,0:2|0:2,0:0:0:0:
374,168,36847,2,0,P|451:183|481:206,2,94.499997116089,2|2|2,1:2|0:2|0:2,0:0:0:0:
305,224,37463,6,0,L|168:209,1,125.999996154785,2|10,1:2|0:2,0:0:0:0:
24,257,38078,2,0,P|21:294|24:331,1,62.9999980773926,2|0,1:2|0:0,0:0:0:0:
89,378,38386,2,0,L|167:373,1,62.9999980773926,8|0,0:2|0:2,0:0:0:0:
227,326,38693,5,2,1:2:0:0:
227,326,38847,1,0,1:2:0:0:
193,244,39001,2,0,L|202:166,1,62.9999980773926,14|0,0:2|1:2,0:0:0:0:
273,130,39309,2,0,L|264:52,1,62.9999980773926,14|0,0:2|1:2,0:0:0:0:
340,20,39616,2,0,L|382:22,3,31.4999990386963,0|0|0|0,1:2|1:2|1:2|1:2,0:0:0:0:
418,36,39924,6,0,P|431:76|427:117,1,70,6|6,1:2|1:2,0:0:0:0:
380,180,40232,1,6,1:2:0:0:
424,356,40540,2,0,L|501:349,2,70,10|8|10,0:2|0:2|0:2,0:0:0:0:
358,292,41001,6,0,B|290:284|287:311|216:304,1,140,6|2,1:2|1:2,0:0:0:0:
143,356,41463,2,0,P|108:358|59:351,1,70,10|0,0:2|1:2,0:0:0:0:
14,285,41770,2,0,L|2:233,3,35,10|0|0|0,0:2|1:2|1:2|1:2,0:0:0:0:
42,222,42078,2,0,L|53:167,3,35,10|0|0|0,0:2|1:2|1:2|1:2,0:0:0:0:
27,146,42386,6,0,L|21:59,1,70,6|4,1:2|1:2,0:0:0:0:
84,9,42693,1,6,1:2:0:0:
241,100,43001,2,0,L|321:92,1,70,10|8,0:2|0:2,0:0:0:0:
390,47,43309,1,10,0:2:0:0:
473,95,43463,6,0,L|450:254,1,140,6|2,1:2|1:2,0:0:0:0:
386,296,43924,2,0,P|340:293|298:283,1,70,10|0,0:2|1:2,0:0:0:0:
236,243,44232,2,0,L|227:181,3,35,10|0|0|0,0:2|1:2|1:2|1:2,0:0:0:0:
192,183,44540,2,0,L|197:148,3,35,10|8|8|8,0:2|0:2|0:2|0:2,0:0:0:0:
221,109,44847,6,0,P|156:106|97:53,1,140,6|0,1:2|0:0,0:0:0:0:
21,105,45309,1,2,1:2:0:0:
59,187,45463,2,0,L|72:263,1,70,8|0,0:2|0:2,0:0:0:0:
27,335,45770,6,0,P|77:295|152:288,1,140,6|0,1:2|0:0,0:0:0:0:
214,353,46232,1,2,1:2:0:0:
301,327,46386,1,8,0:2:0:0:
219,164,46693,2,0,P|214:115|222:76,1,70,6|0,1:2|1:2,0:0:0:0:
270,20,47001,1,8,0:2:0:0:
445,71,47309,6,0,L|460:228,1,140,6|0,1:2|0:0,0:0:0:0:
399,279,47770,1,0,1:2:0:0:
325,228,47924,2,0,L|239:220,1,70,10|0,0:2|0:0,0:0:0:0:
211,308,48232,6,0,P|209:246|158:177,1,140,6|0,1:2|0:0,0:0:0:0:
80,153,48693,1,0,1:2:0:0:
9,211,48847,2,0,P|2:253|6:295,1,70,10|0,0:2|1:2,0:0:0:0:
47,360,49155,2,0,L|99:362,7,35,10|0|0|0|0|0|0|0,0:2|1:2|1:2|1:2|1:2|1:2|1:2|1:2,0:0:0:0:
120,336,49770,6,0,L|197:328,1,70,6|6,1:2|1:2,0:0:0:0:
274,362,50078,1,6,1:2:0:0:
439,285,50386,2,0,P|454:329|454:377,2,70,10|8|10,0:2|0:2|0:2,0:0:0:0:
354,250,50847,6,0,P|417:238|468:176,1,140,6|2,1:2|1:2,0:0:0:0:
450,92,51309,2,0,P|419:89|377:80,1,70,10|0,0:2|1:2,0:0:0:0:
295,113,51616,2,0,P|282:161|284:210,1,70,10|0,0:2|1:2,0:0:0:0:
314,266,51924,2,0,L|326:319,3,35,10|0|0|0,0:2|1:2|1:2|1:2,0:0:0:0:
310,344,52232,6,0,L|401:353,2,70,6|4|6,1:2|1:2|1:2,0:0:0:0:
143,270,52847,2,0,P|132:311|133:365,1,70,10|8,0:2|0:2,0:0:0:0:
213,378,53155,1,10,0:2:0:0:
239,290,53309,6,0,L|230:130,1,140,6|2,1:2|1:2,0:0:0:0:
256,62,53770,2,0,P|213:59|163:49,1,70,10|0,0:2|1:2,0:0:0:0:
102,17,54078,2,0,L|105:73,3,35,10|0|0|0,0:2|1:2|1:2|1:2,0:0:0:0:
61,71,54386,2,0,L|58:127,3,35,10|0|0|0,1:2|1:2|1:2|1:2,0:0:0:0:
83,144,54693,6,0,P|91:189|92:237,1,70,14|0,0:2|1:2,0:0:0:0:
155,279,55001,1,0,1:2:0:0:
236,238,55155,2,0,L|332:244,2,70,14|0|0,0:2|1:2|1:2,0:0:0:0:
201,153,55616,6,0,P|193:91|240:11,1,140,14|0,0:2|1:2,0:0:0:0:
315,4,56078,2,0,L|399:13,1,70,14|0,0:2|1:2,0:0:0:0:
456,67,56386,1,0,1:2:0:0:
417,149,56540,2,0,L|428:202,3,35,10|0|0|0,0:2|1:2|1:2|1:2,0:0:0:0:
460,216,56847,2,0,L|449:269,3,35,2|0|0|0,1:2|1:2|1:2|1:2,0:0:0:0:
478,292,57155,6,0,L|404:303,1,70,6|0,1:2|0:2,0:0:0:0:
348,371,57463,1,14,0:2:0:0:
292,299,57616,2,0,L|301:247,2,35,2|0|8,1:2|1:2|0:2,0:0:0:0:
209,338,57924,1,2,1:2:0:0:
136,282,58078,2,0,L|52:268,1,70,10|0,0:2|1:2,0:0:0:0:
66,270,58309,1,0,1:2:0:0:
66,270,58386,5,10,0:2:0:0:
36,183,58540,1,8,0:2:0:0:
84,106,58693,1,8,0:2:0:0:
173,88,58847,1,8,0:2:0:0:
275,360,59616,6,0,P|278:302|259:238,1,105,6|0,1:2|1:2,0:0:0:0:
239,221,59924,1,8,0:2:0:0:
299,129,60078,2,0,P|259:157|171:166,1,140,2|0,1:2|1:2,0:0:0:0:
87,127,60540,2,0,P|32:135|-2:158,1,70,10|0,0:2|0:0,0:0:0:0:
12,232,60847,6,0,L|23:308,1,70,2|0,1:2|3:2,0:0:0:0:
101,372,61155,2,0,P|127:328|127:232,1,140,10|2,0:2|3:2,0:0:0:0:
199,181,61616,1,0,1:2:0:0:
282,214,61770,2,0,L|383:202,1,70,10|0,0:2|0:2,0:0:0:0:
448,244,62078,6,0,P|483:189|475:104,1,140,2|10,1:2|0:2,0:0:0:0:
412,54,62540,2,0,L|336:65,1,70,2|0,1:2|0:0,0:0:0:0:
276,126,62847,1,2,1:2:0:0:
324,205,63001,2,0,P|337:251|336:295,1,70,10|0,0:2|0:2,0:0:0:0:
276,340,63309,6,0,B|210:332|209:360|124:354,1,140,2|8,1:2|0:2,0:0:0:0:
20,215,63924,2,0,P|14:170|20:128,1,70,2|0,0:2|1:2,0:0:0:0:
78,78,64232,2,0,L|156:81,1,70,10|0,0:2|1:2,0:0:0:0:
227,125,64540,6,0,L|339:116,2,105,6|2|2,1:2|1:2|1:2,0:0:0:0:
164,191,65155,1,2,0:2:0:0:
164,191,65309,1,2,1:2:0:0:
222,261,65463,2,0,P|233:305|234:348,1,70,10|2,0:2|0:2,0:0:0:0:
154,372,65770,6,0,P|114:355|49:352,2,105,2|2|2,1:2|1:2|1:2,0:0:0:0:
234,329,66386,2,0,P|272:328|318:315,1,70,2|2,0:2|1:2,0:0:0:0:
390,346,66693,2,0,P|400:303|398:261,1,70,14|2,0:2|1:2,0:0:0:0:
354,194,67001,6,0,P|423:238|504:231,2,140,6|10|2,1:2|0:2|1:2,0:0:0:0:
188,117,67924,2,0,P|173:159|170:205,1,70,10|0,0:2|0:0,0:0:0:0:
212,265,68232,6,0,P|166:232|67:229,1,140,2|8,1:2|0:2,0:0:0:0:
10,180,68693,1,0,0:0:0:0:
52,98,68847,2,0,L|62:21,1,70,6|8,1:2|0:2,0:0:0:0:
151,11,69155,1,6,1:2:0:0:
151,11,69309,1,8,0:2:0:0:
231,64,69463,6,0,P|311:72|360:120,1,140,6|8,1:2|0:2,0:0:0:0:
421,170,69924,2,0,L|485:165,2,35,10|8|0,0:2|0:2|1:2,0:0:0:0:
367,244,70232,2,0,P|353:283|353:330,1,70,0|10,1:2|0:2,0:0:0:0:
264,383,70540,6,0,P|256:305|198:234,1,140,2|0,3:2|1:2,0:0:0:0:
142,212,71001,2,0,L|57:226,1,70,10|0,0:2|0:0,0:0:0:0:
72,223,71232,1,8,0:2:0:0:
72,223,71309,2,0,P|67:275|74:312,1,70,2|0,1:2|1:2,0:0:0:0:
125,364,71616,2,0,L|213:355,1,70,8|0,0:2|0:2,0:0:0:0:
287,303,71924,6,0,L|438:316,2,140,6|14|6,1:2|0:2|1:2,0:0:0:0:
180,171,72847,2,0,P|173:130|178:85,1,70,14|2,0:2|0:2,0:0:0:0:
250,28,73155,6,0,B|319:19|320:49|389:39,1,140,6|8,1:2|0:2,0:0:0:0:
501,181,73770,1,2,1:2:0:0:
501,181,73924,1,8,0:2:0:0:
438,247,74078,2,0,P|419:293|415:342,1,70,2|0,1:2|0:2,0:0:0:0:
336,358,74386,6,0,L|244:346,1,70,6|0,1:2|0:0,0:0:0:0:
211,276,74693,2,0,L|124:284,1,70,10|0,0:2|0:2,0:0:0:0:
60,325,75001,2,0,P|31:263|40:178,1,140,2|10,1:2|0:2,0:0:0:0:
168,69,75616,6,0,P|211:74|253:98,1,70,2|0,1:2|0:0,0:0:0:0:
296,153,75924,2,0,P|305:200|321:233,1,70,10|0,0:2|0:2,0:0:0:0:
395,307,76232,2,0,L|417:147,1,140,2|14,1:2|0:2,0:0:0:0:
503,9,76847,6,0,L|423:15,1,70,14|0,0:2|1:2,0:0:0:0:
357,66,77155,1,8,0:2:0:0:
269,40,77309,2,0,L|277:5,2,35,0|0|10,1:2|1:2|0:2,0:0:0:0:
181,64,77616,2,0,B|141:60|107:33|107:33|59:38|39:67,1,140,8|10,0:2|0:2,0:0:0:0:
52,52,78001,1,8,0:2:0:0:
52,52,78078,5,10,0:2:0:0:
230,360,79309,6,0,L|367:347,1,112,6|0,1:2|0:0,0:0:0:0:
419,358,79770,1,0,1:2:0:0:
428,265,79924,2,0,L|291:252,1,112,8|0,0:2|1:2,0:0:0:0:
171,191,80540,6,0,L|132:195,7,28,8|0|0|0|0|0|0|0,0:2|3:2|3:2|3:2|1:2|1:2|1:2|1:2,0:0:0:0:
108,176,81155,2,0,L|102:123,3,28,10|0|2|0,0:2|0:2|1:2|1:2,0:0:0:0:
76,120,81463,2,0,L|83:51,1,56,2|0,0:2|0:0,0:0:0:0:
181,7,81770,6,0,L|190:88,1,62.9999980773926,6|0,1:2|1:2,0:0:0:0:
263,177,82078,2,0,L|269:114,1,62.9999980773926,0|0,1:2|1:2,0:0:0:0:
269,114,82309,1,0,1:2:0:0:
269,114,82386,1,10,0:2:0:0:
330,49,82540,2,0,P|401:58|457:32,1,125.999996154785,0|0,1:2|1:2,0:0:0:0:
491,108,83001,6,0,L|477:181,1,62.9999980773926,2|0,0:2|1:2,0:0:0:0:
406,246,83309,2,0,L|394:184,1,62.9999980773926,2|0,0:2|1:2,0:0:0:0:
311,152,83616,2,0,B|250:145|254:179|170:173,1,125.999996154785,10|2,0:2|1:2,0:0:0:0:
72,290,84232,5,6,1:2:0:0:
122,354,84386,2,0,L|261:338,1,125.999996154785,8|0,0:2|1:2,0:0:0:0:
325,364,84847,1,10,0:2:0:0:
401,333,85001,2,0,P|419:289|408:200,1,125.999996154785,0|0,1:2|1:2,0:0:0:0:
345,165,85463,6,0,L|259:171,1,62.9999980773926,2|0,0:2|1:2,0:0:0:0:
234,102,85770,1,2,1:2:0:0:
291,42,85924,1,0,1:2:0:0:
291,42,86001,1,0,1:2:0:0:
291,42,86078,2,0,L|436:54,1,125.999996154785,10|2,0:2|0:2,0:0:0:0:
477,229,86693,6,0,P|472:266|471:310,2,62.9999980773926,6|0|0,1:2|1:2|1:2,0:0:0:0:
407,183,87155,2,0,L|402:135,2,31.4999990386963,0|0|10,1:2|1:2|0:2,0:0:0:0:
336,225,87463,2,0,P|291:191|199:197,1,125.999996154785,0|0,1:2|1:2,0:0:0:0:
161,240,87924,6,0,P|171:283|168:322,1,62.9999980773926,2|0,0:2|1:2,0:0:0:0:
67,360,88232,2,0,P|77:317|74:278,1,62.9999980773926,2|0,1:2|1:2,0:0:0:0:
76,298,88463,1,0,1:2:0:0:
76,298,88540,2,0,P|64:251|71:168,1,125.999996154785,10|2,0:2|1:2,0:0:0:0:
187,60,89155,6,0,L|264:68,1,62.9999980773926,6|8,1:2|0:2,0:0:0:0:
311,121,89463,1,0,1:2:0:0:
382,82,89616,2,0,L|384:50,2,31.4999990386963,0|0|10,1:2|1:2|0:2,0:0:0:0:
458,134,89924,1,8,0:2:0:0:
458,134,90001,1,8,0:2:0:0:
458,134,90078,2,0,P|467:179|465:216,1,62.9999980773926,0|0,1:2|1:2,0:0:0:0:
432,270,90386,6,0,L|391:264,3,31.4999990386963,2|0|0|0,1:2|1:2|1:2|1:2,0:0:0:0:
366,288,90693,2,0,L|334:292,3,31.4999990386963,2|0|0|0,1:2|1:2|1:2|1:2,0:0:0:0:
309,325,91001,1,2,1:2:0:0:
224,283,91155,1,8,0:2:0:0:
151,351,91309,1,2,0:2:0:0:
9,269,91616,6,0,L|22:124,1,125.999996154785,6|8,1:2|0:2,0:0:0:0:
72,71,92078,1,2,0:2:0:0:
159,57,92232,2,0,L|170:182,1,125.999996154785,2|8,1:2|0:2,0:0:0:0:
184,269,92693,1,2,3:2:0:0:
270,250,92847,6,0,P|306:255|352:272,1,62.9999980773926,0|2,1:2|0:2,0:0:0:0:
403,314,93155,2,0,P|480:302|511:240,1,125.999996154785,10|2,0:2|1:2,0:0:0:0:
508,178,93616,1,0,0:2:0:0:
454,107,93770,2,0,P|418:110|369:128,1,62.9999980773926,10|0,0:2|0:2,0:0:0:0:
322,172,94078,6,0,B|261:167|256:196|186:194,1,125.999996154785,2|8,1:2|0:2,0:0:0:0:
122,239,94540,1,2,0:2:0:0:
42,201,94693,2,0,P|25:142|30:68,1,125.999996154785,2|8,1:2|0:2,0:0:0:0:
99,25,95155,6,0,L|168:32,1,62.9999980773926,2|0,3:2|1:2,0:0:0:0:
231,86,95463,1,2,0:2:0:0:
190,163,95616,2,0,P|177:204|177:252,1,62.9999980773926,10|0,0:2|3:2,0:0:0:0:
230,293,95924,2,0,L|304:301,1,62.9999980773926,2|8,1:2|0:2,0:0:0:0:
367,347,96232,1,2,1:2:0:0:
489,219,96540,6,0,L|499:327,2,94.499997116089,6|2|2,1:2|0:2|0:2,0:0:0:0:
413,173,97155,2,0,P|385:126|390:51,1,125.999996154785,2|8,1:2|0:2,0:0:0:0:
216,11,97770,6,0,P|178:10|132:26,1,62.9999980773926,0|0,1:2|0:2,0:0:0:0:
92,79,98078,2,0,L|84:153,1,62.9999980773926,10|0,0:2|0:2,0:0:0:0:
152,199,98386,2,0,P|207:212|245:247,2,94.499997116089,2|2|2,1:2|0:2|0:2,0:0:0:0:
75,242,99001,6,0,L|81:323,1,62.9999980773926,2|0,1:2|0:2,0:0:0:0:
34,381,99309,1,10,0:2:0:0:
201,327,99616,2,0,P|261:328|331:370,1,125.999996154785,2|8,1:2|0:2,0:0:0:0:
406,367,100078,1,0,0:2:0:0:
464,300,100232,6,0,P|474:269|470:213,1,62.9999980773926,2|0,1:2|1:2,0:0:0:0:
410,177,100540,2,0,L|333:184,1,62.9999980773926,14|0,0:2|1:2,0:0:0:0:
290,250,100847,1,14,0:2:0:0:
201,243,101001,1,0,1:2:0:0:
148,171,101155,2,0,L|152:132,3,31.4999990386963,0|0|0|0,1:2|1:2|1:2|1:2,0:0:0:0:
183,106,101463,6,0,P|188:72|179:19,1,70,6|4,1:2|1:2,0:0:0:0:
96,12,101770,1,6,1:2:0:0:
21,178,102078,2,0,L|14:258,2,70,10|8|10,0:2|0:2|0:2,0:0:0:0:
99,130,102540,6,0,P|167:142|219:201,1,140,6|2,1:2|1:2,0:0:0:0:
248,276,103001,2,0,P|236:315|234:360,1,70,10|0,0:2|1:2,0:0:0:0:
320,373,103309,2,0,L|386:365,3,35,10|0|0|0,0:2|1:2|1:2|1:2,0:0:0:0:
392,343,103616,2,0,L|426:347,3,35,10|0|0|0,0:2|1:2|1:2|1:2,0:0:0:0:
472,355,103924,6,0,P|483:315|476:259,1,70,6|4,1:2|1:2,0:0:0:0:
439,205,104232,1,6,1:2:0:0:
277,121,104540,2,0,L|281:37,2,70,10|8|10,0:2|0:2|0:2,0:0:0:0:
352,171,105001,6,0,L|358:316,1,140,6|2,1:2|1:2,0:0:0:0:
281,362,105463,2,0,P|248:355|201:352,1,70,10|0,0:2|1:2,0:0:0:0:
121,362,105770,2,0,L|111:309,3,35,10|0|0|0,0:2|1:2|1:2|1:2,0:0:0:0:
78,298,106078,2,0,L|88:245,3,35,10|8|8|8,0:2|0:2|0:2|0:2,0:0:0:0:
65,221,106386,6,0,P|136:214|195:161,1,140,6|0,1:2|0:0,0:0:0:0:
227,89,106847,1,2,1:2:0:0:
160,26,107001,2,0,P|119:27|67:49,1,70,8|0,0:2|0:0,0:0:0:0:
25,99,107309,6,0,B|14:162|39:166|26:248,1,140,6|0,1:2|0:0,0:0:0:0:
79,312,107770,1,2,1:2:0:0:
161,273,107924,1,8,0:2:0:0:
323,355,108232,2,0,P|365:356|403:347,1,70,6|0,1:2|1:2,0:0:0:0:
462,291,108540,1,8,0:2:0:0:
324,172,108847,6,0,B|259:161|256:194|179:183,1,140,6|0,1:2|0:0,0:0:0:0:
104,226,109309,1,0,1:2:0:0:
23,183,109463,2,0,P|16:146|19:111,1,70,10|0,0:2|0:2,0:0:0:0:
62,34,109770,6,0,L|235:50,1,140,6|0,1:2|0:0,0:0:0:0:
284,8,110232,1,0,1:2:0:0:
364,50,110386,2,0,P|381:95|380:140,1,70,10|0,0:2|1:2,0:0:0:0:
320,183,110693,2,0,L|272:188,7,35,10|0|0|0|0|0|0|0,0:2|1:2|1:2|1:2|1:2|1:2|1:2|1:2,0:0:0:0:
249,215,111309,6,0,L|174:210,1,70,6|4,1:2|1:2,0:0:0:0:
104,157,111616,1,6,1:2:0:0:
8,312,111924,2,0,P|1:275|6:232,2,70,10|8|10,0:2|0:2|0:2,0:0:0:0:
86,359,112386,6,0,B|154:348|160:375|232:362,1,140,6|2,1:2|1:2,0:0:0:0:
303,316,112847,2,0,L|313:237,1,70,10|0,0:2|1:2,0:0:0:0:
253,175,113155,2,0,L|248:126,3,35,10|0|0|0,0:2|1:2|1:2|1:2,0:0:0:0:
218,105,113463,2,0,L|223:56,3,35,10|0|0|0,0:2|1:2|1:2|1:2,0:0:0:0:
247,32,113770,6,0,P|292:20|342:22,1,70,6|4,1:2|1:2,0:0:0:0:
400,52,114078,1,6,1:2:0:0:
438,229,114386,2,0,L|514:236,2,70,10|8|10,0:2|0:2|0:2,0:0:0:0:
353,195,114847,6,0,L|338:350,1,140,6|2,1:2|1:2,0:0:0:0:
246,377,115309,2,0,P|241:346|246:293,1,70,10|0,0:2|1:2,0:0:0:0:
174,247,115616,2,0,L|116:253,3,35,10|0|0|0,0:2|1:2|1:2|1:2,0:0:0:0:
97,269,115924,2,0,L|62:265,3,35,10|0|0|0,0:2|1:2|1:2|1:2,0:0:0:0:
16,265,116232,6,0,P|10:223|16:174,1,70,14|0,0:2|1:2,0:0:0:0:
54,114,116540,1,0,1:2:0:0:
143,125,116693,2,0,L|150:204,2,70,14|0|0,0:2|1:2|1:2,0:0:0:0:
210,62,117155,6,0,P|279:57|347:115,1,140,14|0,0:2|1:2,0:0:0:0:
373,178,117616,2,0,P|362:220|360:267,1,70,14|0,0:2|1:2,0:0:0:0:
408,323,117924,1,0,1:2:0:0:
487,277,118078,2,0,P|498:235|500:188,1,70,10|0,0:2|1:2,0:0:0:0:
501,116,118386,2,0,L|425:106,1,70,2|0,1:2|1:2,0:0:0:0:
361,48,118693,6,0,L|299:58,5,35,14|8|8|8|2|0,0:2|0:2|0:2|0:2|1:2|1:2,0:0:0:0:
285,75,119155,2,0,L|250:69,5,35,2|0|0|0|2|0,1:2|1:2|1:2|1:2|1:2|1:2,0:0:0:0:
208,87,119616,2,0,P|197:118|194:175,1,70,10|2,0:2|1:2,0:0:0:0:
259,217,119924,6,0,L|267:366,1,140,14|2,0:2|1:2,0:0:0:0:
176,373,120386,1,2,1:2:0:0:
103,317,120540,2,0,L|53:309,3,35,8|8|8|8,0:2|0:2|0:2|0:2,0:0:0:0:
31,284,120847,2,0,L|22:233,3,35,8|8|8|8,0:2|0:2|0:2|0:2,0:0:0:0:
6,207,121155,6,0,P|83:194|132:133,1,140,6|8,1:2|0:2,0:0:0:0:
186,84,121616,2,0,P|226:74|270:75,1,70,2|0,1:2|0:0,0:0:0:0:
335,116,121924,1,0,1:2:0:0:
276,185,122078,2,0,P|265:224|255:284,1,70,10|0,0:2|0:0,0:0:0:0:
360,339,122386,6,0,L|352:260,1,70,2|0,1:2|1:2,0:0:0:0:
414,201,122693,2,0,P|474:195|515:148,1,105,10|0,0:2|0:0,0:0:0:0:
511,135,123001,2,0,L|502:55,1,70,2|0,3:2|1:2,0:0:0:0:
426,15,123309,1,10,0:2:0:0:
345,58,123463,1,0,0:2:0:0:
262,19,123616,6,0,P|243:77|245:129,1,105,2|0,1:2|1:0,0:0:0:0:
258,166,123924,1,10,0:2:0:0:
340,203,124078,2,0,P|279:204|218:264,1,140,2|2,1:2|1:2,0:0:0:0:
155,317,124540,2,0,P|112:329|79:332,1,70,10|0,0:2|0:2,0:0:0:0:
0,288,124847,6,0,L|18:141,1,140,2|8,1:2|0:2,0:0:0:0:
138,12,125463,2,0,P|177:2|231:6,1,70,2|0,0:2|1:2,0:0:0:0:
276,59,125770,2,0,P|264:94|262:137,1,70,10|0,0:2|1:2,0:0:0:0:
310,204,126078,6,0,L|298:321,2,105,6|2|2,1:2|1:2|1:2,0:0:0:0:
400,178,126693,1,2,0:2:0:0:
400,178,126847,1,2,1:2:0:0:
482,217,127001,2,0,P|492:257|489:295,1,70,10|2,0:2|0:2,0:0:0:0:
395,363,127309,6,0,P|453:364|509:399,2,105,2|2|2,1:2|1:2|1:2,0:0:0:0:
315,330,127924,1,2,0:2:0:0:
315,330,128078,1,2,1:2:0:0:
222,353,128232,2,0,P|215:314|220:272,1,70,14|2,0:2|1:2,0:0:0:0:
269,208,128540,6,0,B|337:195|340:231|415:221,2,140,6|10|2,1:2|0:2|1:2,0:0:0:0:
162,60,129463,2,0,L|85:61,1,70,10|0,0:2|0:0,0:0:0:0:
2,15,129770,6,0,P|40:57|40:155,1,140,2|8,1:2|0:2,0:0:0:0:
77,224,130232,1,0,0:0:0:0:
162,272,130386,2,0,L|170:195,1,70,6|8,1:2|0:2,0:0:0:0:
223,128,130693,1,6,1:2:0:0:
223,128,130847,1,8,0:2:0:0:
179,32,131001,6,0,P|230:77|298:79,1,140,6|8,1:2|0:2,0:0:0:0:
383,43,131463,2,0,L|387:4,2,35,10|8|0,0:2|0:2|1:2,0:0:0:0:
463,86,131770,1,0,1:2:0:0:
424,168,131924,2,0,P|410:214|412:257,1,70,10|0,0:2|0:2,0:0:0:0:
496,317,132232,6,0,B|430:308|426:339|345:331,1,140,2|10,1:2|0:2,0:0:0:0:
272,301,132693,1,0,0:0:0:0:
272,301,132770,1,8,0:2:0:0:
272,301,132847,2,0,L|201:310,1,70,2|0,1:2|0:2,0:0:0:0:
114,335,133155,2,0,P|105:302|106:253,1,70,10|0,0:2|0:2,0:0:0:0:
55,188,133463,6,0,P|113:224|197:216,2,140,6|14|6,1:2|0:2|1:2,0:0:0:0:
141,27,134386,2,0,P|154:65|156:107,1,70,14|2,0:2|0:2,0:0:0:0:
248,177,134693,6,0,P|251:108|296:41,1,140,6|8,1:2|0:2,0:0:0:0:
384,203,135309,1,2,1:2:0:0:
384,203,135463,1,8,0:2:0:0:
317,264,135616,2,0,P|306:303|306:346,1,70,2|0,1:2|0:2,0:0:0:0:
386,374,135924,6,0,L|462:366,1,70,6|0,1:2|0:0,0:0:0:0:
505,289,136232,2,0,L|502:204,1,70,10|0,0:2|0:2,0:0:0:0:
495,127,136540,2,0,P|435:118|385:53,1,140,2|10,1:2|0:2,0:0:0:0:
256,187,137155,6,0,P|239:229|236:281,1,70,2|0,1:2|0:0,0:0:0:0:
159,333,137463,2,0,P|142:291|139:239,1,70,10|0,0:2|0:2,0:0:0:0:
54,212,137770,2,0,P|18:273|18:354,1,140,2|14,1:2|0:2,0:0:0:0:
150,174,138386,6,0,L|157:99,1,70,14|8,1:2|1:2,0:0:0:0:
228,48,138693,1,8,1:2:0:0:
306,94,138847,2,0,L|311:146,2,35,2|0|10,1:2|1:0|0:2,0:0:0:0:
379,39,139155,2,0,B|416:18|466:36|466:36|449:80|475:106,1,140,8|0,0:2|1:2,0:0:0:0:
461,84,139540,1,0,1:2:0:0:
461,84,139616,5,10,0:2:0:0:
182,318,140232,2,0,L|115:327,2,46.6666666666667,10|8|8,0:2|0:2|0:3,0:0:0:0:
226,284,140540,2,0,L|293:293,2,46.6666666666667,10|4|4,0:3|0:3|0:3,0:0:0:0:
191,237,140847,5,6,1:1:0:0:
20,168,145770,6,0,P|19:125|35:77,2,70,14|0|0,0:2|1:2|1:2,0:0:0:0:
90,227,146232,1,0,1:2:0:0:
169,183,146386,2,0,L|263:190,1,70,14|0,0:2|1:2,0:0:0:0:
313,240,146693,1,0,1:2:0:0:
313,240,146847,1,0,1:2:0:0:
386,132,147001,6,0,P|398:170|399:214,2,70,14|0|0,0:2|1:2|1:2,0:0:0:0:
321,67,147463,1,0,1:2:0:0:
389,7,147616,2,0,P|435:10|484:31,1,70,14|0,0:2|1:2,0:0:0:0:
498,99,147924,1,14,0:2:0:0:
481,194,148078,1,0,1:2:0:0:
481,194,148155,1,0,1:2:0:0:
481,194,148232,6,0,L|471:283,1,70,14|0,0:2|1:2,0:0:0:0:
376,322,148540,2,0,L|368:252,1,70,0|0,1:2|1:2,0:0:0:0:
290,204,148847,1,14,0:2:0:0:
214,254,149001,2,0,L|203:308,2,35,0|0|0,1:2|1:2|1:2,0:0:0:0:
139,200,149309,1,0,1:2:0:0:
63,250,149463,6,0,L|26:254,3,35,14|0|0|0,0:2|0:0|1:2|1:2,0:0:0:0:
5,292,149770,2,0,L|-4:353,7,35,8|8|8|8|0|0|0|0,0:2|0:2|0:2|0:2|1:2|1:2|1:2|1:2,0:0:0:0:
28,362,150386,2,0,L|65:366,3,35,0|0|0|0,1:2|1:2|1:2|1:2,0:0:0:0:
106,352,150693,6,0,P|167:315|250:333,2,140,6|2|2,1:2|1:2|1:2,0:0:0:0:
210,202,151616,2,0,P|221:166|217:114,1,70,0|2,1:2|0:2,0:0:0:0:
154,77,151924,6,0,B|232:62|219:102|302:88,1,140,10|2,0:2|1:2,0:0:0:0:
373,48,152386,1,0,0:2:0:0:
457,81,152540,2,0,P|474:122|474:173,1,70,2|0,1:2|0:2,0:0:0:0:
411,210,152847,1,2,1:2:0:0:
411,210,153001,1,8,0:2:0:0:
325,179,153155,6,0,L|237:190,1,70,2|8,1:2|0:2,0:0:0:0:
225,274,153463,2,0,P|216:209|154:159,1,140,2|10,1:2|0:2,0:0:0:0:
22,278,154078,2,0,P|10:318|8:361,1,70,2|0,1:2|0:0,0:0:0:0:
109,341,154386,6,0,B|185:329|172:369|255:357,1,140,6|0,1:2|1:2,0:0:0:0:
331,326,154847,1,0,0:0:0:0:
418,352,155001,2,0,P|430:311|425:262,1,70,10|0,0:2|0:2,0:0:0:0:
361,223,155309,2,0,L|287:217,1,70,2|0,1:2|1:2,0:0:0:0:
198,157,155616,6,0,P|185:213|189:256,2,70,14|0|0,0:2|1:2|1:2,0:0:0:0:
268,98,156078,1,0,1:2:0:0:
349,138,156232,2,0,L|432:131,1,70,14|0,0:2|1:2,0:0:0:0:
504,165,156540,2,0,P|516:124|512:73,1,70,0|0,1:2|1:2,0:0:0:0:
466,21,156847,6,0,L|372:16,1,70,14|0,0:2|1:2,0:0:0:0:
305,6,157155,1,0,1:2:0:0:
305,6,157309,1,0,1:2:0:0:
219,38,157463,2,0,P|205:82|208:137,1,70,14|0,0:2|1:2,0:0:0:0:
261,176,157770,1,14,0:2:0:0:
193,291,157924,1,0,1:2:0:0:
193,291,158001,1,0,1:2:0:0:
193,291,158078,6,0,P|179:247|182:192,2,70,14|0|0,0:2|1:2|1:2,0:0:0:0:
260,352,158540,1,0,1:2:0:0:
336,304,158693,1,14,0:2:0:0:
423,328,158847,2,0,L|434:380,2,35,0|0|0,1:2|1:2|1:2,0:0:0:0:
483,259,159155,1,0,1:2:0:0:
432,183,159309,6,0,L|378:181,3,35,14|0|0|0,0:2|0:0|1:2|1:2,0:0:0:0:
361,152,159616,2,0,L|366:98,3,35,8|8|0|0,0:2|0:2|1:2|1:2,0:0:0:0:
325,91,159924,2,0,L|290:92,3,35,0|0|0|0,1:2|1:2|1:2|1:2,0:0:0:0:
249,70,160232,2,0,L|244:16,3,35,10|8|8|8,0:2|0:2|0:2|0:2,0:0:0:0:
208,7,160540,6,0,B|137:-1|149:42|52:33,1,140,14|2,0:2|1:2,0:0:0:0:
154,123,161001,2,0,P|163:163|165:209,1,70,14|0,0:2|1:2,0:0:0:0:
103,259,161309,1,2,1:2:0:0:
67,343,161463,2,0,P|128:299|214:307,1,140,14|2,0:2|1:2,0:0:0:0:
283,377,161924,6,0,P|289:335|281:287,1,70,14|0,0:2|1:2,0:0:0:0:
251,222,162232,1,2,1:2:0:0:
182,161,162386,2,0,L|322:171,1,140,10|10,0:2|0:2,0:0:0:0:
466,59,163001,6,0,L|476:106,5,35,14|8|8|8|2|0,0:2|0:2|0:2|0:2|1:2|1:2,0:0:0:0:
496,132,163463,2,0,L|486:179,5,35,2|0|0|0|2|0,1:2|1:2|1:2|1:2|1:2|1:2,0:0:0:0:
460,202,163924,2,0,L|407:212,3,35,2|0|2|0,1:2|1:2|1:2|1:2,0:0:0:0:
392,241,164232,5,10,0:2:0:0:
322,299,164386,1,8,0:2:0:0:
233,278,164540,1,8,0:2:0:0:
202,192,164693,1,8,0:2:0:0:
43,375,165463,6,0,B|48:280|2:304|9:209,2,168,6|0|0,1:1|0:0|0:0,0:0:0:0:
178,321,166693,2,0,L|303:311,2,112,2|0|0,0:0|0:0|0:0,0:0:0:0:
402,34,167924,6,0,P|343:24|275:80,1,140,6|10,1:2|0:2,0:0:0:0:
236,148,168386,2,0,P|250:200|249:242,1,70,2|0,1:2|0:0,0:0:0:0:
190,284,168693,1,0,1:2:0:0:
108,243,168847,2,0,L|30:251,1,70,10|0,0:2|0:2,0:0:0:0:
122,341,169155,6,0,B|197:320|187:361|276:339,1,140,2|8,1:2|0:2,0:0:0:0:
440,366,169770,2,0,P|450:329|443:274,1,70,2|0,0:2|1:2,0:0:0:0:
374,244,170078,2,0,P|340:241|292:223,1,70,10|0,0:2|1:2,0:0:0:0:
240,166,170386,6,0,L|116:180,2,105,6|2|2,1:2|1:2|1:2,0:0:0:0:
306,104,171001,1,2,0:2:0:0:
306,104,171155,1,2,1:2:0:0:
379,22,171309,2,0,P|395:64|394:102,1,70,10|2,0:2|0:2,0:0:0:0:
413,178,171616,6,0,P|473:189|516:233,2,105,2|2|2,1:2|1:2|1:2,0:0:0:0:
342,236,172232,2,0,P|331:269|331:321,1,70,2|2,0:2|1:2,0:0:0:0:
254,357,172540,2,0,P|219:355|180:344,1,70,14|2,0:2|1:2,0:0:0:0:
115,287,172847,6,0,P|27:300|-5:359,2,140,6|10|2,1:2|0:2|1:2,0:0:0:0:
290,236,173770,2,0,P|297:200|292:148,1,70,10|0,0:2|0:0,0:0:0:0:
356,104,174078,6,0,B|285:95|300:132|198:124,1,140,2|8,1:2|0:2,0:0:0:0:
135,86,174540,1,0,0:0:0:0:
83,165,174693,2,0,P|68:212|72:256,1,70,6|8,1:2|0:2,0:0:0:0:
142,297,175001,1,6,1:2:0:0:
142,297,175155,1,8,0:2:0:0:
103,379,175309,6,0,P|170:335|245:344,1,140,6|8,1:2|0:2,0:0:0:0:
292,273,175770,2,0,L|349:264,2,35,10|8|0,0:2|0:2|1:2,0:0:0:0:
233,202,176078,1,0,1:2:0:0:
281,125,176232,2,0,P|316:116|356:119,1,70,10|0,0:2|0:2,0:0:0:0:
431,159,176540,5,2,1:2:0:0:
431,159,176693,1,0,1:2:0:0:
425,256,176847,2,0,P|415:302|417:344,1,70,10|0,0:2|0:0,0:0:0:0:
415,324,177078,1,8,0:2:0:0:
415,324,177155,2,0,B|338:309|354:354|255:341,1,140,2|10,1:2|0:2,0:0:0:0:
252,163,177770,6,0,L|266:13,2,140,6|14|6,1:2|0:2|1:2,0:0:0:0:
103,267,178693,2,0,P|93:304|96:355,1,70,14|2,0:2|0:2,0:0:0:0:
191,372,179001,6,0,B|182:293|216:318|200:225,1,140,6|8,1:2|0:2,0:0:0:0:
90,96,179616,1,2,1:2:0:0:
90,96,179770,1,8,0:2:0:0:
151,29,179924,2,0,P|191:18|248:19,1,70,2|0,1:2|0:2,0:0:0:0:
304,50,180232,6,0,L|470:66,2,140,6|10|2,1:2|0:2|1:2,0:0:0:0:
150,148,181155,2,0,P|140:188|141:245,1,70,10|0,0:2|0:2,0:0:0:0:
177,299,181463,6,0,P|126:258|46:260,2,140,2|10|2,1:2|0:2|1:2,0:0:0:0:
348,359,182386,2,0,P|388:355|432:335,1,70,14|0,0:2|1:2,0:0:0:0:
475,276,182693,6,0,L|484:203,1,70,14|0,0:2|1:2,0:0:0:0:
423,136,183001,1,8,0:2:0:0:
338,171,183155,2,0,L|332:219,2,35,0|0|10,1:2|1:2|0:2,0:0:0:0:
253,135,183463,2,0,B|210:126|176:145|176:145|157:181|122:192,1,140,8|2,0:2|1:2,0:0:0:0:
48,154,183924,6,0,L|45:110,7,35,10|8|8|8|2|0|2|0,0:2|0:2|0:2|0:2|1:2|1:2|1:2|1:2,0:0:0:0:
66,77,184540,2,0,L|123:71,3,35,2|0|0|0,1:2|1:2|1:2|1:2,0:0:0:0:
135,43,184847,2,0,L|217:49,1,70,14|0,0:2|0:0,0:0:0:0:
337,11,185155,6,0,P|292:60|288:147,1,140,6|2,1:2|1:2,0:0:0:0:
333,206,185616,1,0,1:2:0:0:
280,280,185770,2,0,B|209:266|223:303|142:291,1,140,10|2,0:2|0:2,0:0:0:0:
307,370,186386,6,0,L|388:364,1,70,2|8,1:2|0:2,0:0:0:0:
467,366,186693,2,0,L|473:316,3,35,2|0|0|0,1:2|1:2|1:2|1:2,0:0:0:0:
490,289,187001,2,0,B|496:206|464:235|479:138,1,140,10|2,0:2|0:2,0:0:0:0:
405,94,187463,1,8,0:2:0:0:
334,150,187616,6,0,L|341:209,2,35,2|0|0,1:2|1:2|1:2,0:0:0:0:
259,95,187924,2,0,P|227:88|168:97,1,70,0|0,1:2|1:2,0:0:0:0:
122,151,188232,2,0,L|130:228,1,70,10|0,0:2|1:2,0:0:0:0:
129,220,188463,1,0,1:2:0:0:
129,220,188540,1,8,0:2:0:0:
188,288,188693,1,10,0:2:0:0:
141,366,188847,5,2,1:2:0:0:
318,30,190078,6,0,L|402:40,1,70,6|6,1:2|1:2,0:0:0:0:
476,58,190385,1,6,1:2:0:0:
335,173,190693,2,0,P|326:215|328:265,2,70,10|10|10,0:2|0:2|0:2,0:0:0:0:
261,118,191155,6,0,P|211:158|126:152,1,140,6|2,1:2|1:2,0:0:0:0:
58,203,191616,1,10,0:2:0:0:
126,277,191770,1,0,1:2:0:0:
126,277,191847,1,0,1:2:0:0:
126,277,191924,2,0,L|132:327,3,35,10|0|0|0,0:2|1:2|1:2|1:2,0:0:0:0:
174,323,192232,2,0,L|168:373,3,35,0|0|0|0,1:2|1:2|1:2|1:2,0:0:0:0:
211,377,192539,6,0,L|298:368,1,70,6|6,1:2|1:2,0:0:0:0:
372,367,192847,1,6,1:2:0:0:
463,210,193155,2,0,P|454:166|455:115,2,70,10|10|10,0:2|0:2|0:2,0:0:0:0:
387,261,193616,6,0,B|314:244|326:279|239:265,1,140,6|2,1:2|1:2,0:0:0:0:
167,224,194078,1,10,0:2:0:0:
179,141,194231,1,0,1:2:0:0:
179,141,194308,1,0,1:2:0:0:
179,141,194386,2,0,L|187:87,3,35,2|0|0|0,1:2|1:2|1:2|1:2,0:0:0:0:
172,61,194693,1,8,0:2:0:0:
253,3,194847,1,8,0:2:0:0:
427,53,195154,5,6,1:2:0:0:
403,140,195309,2,0,L|407:215,1,70,2|0,1:2|0:2,0:0:0:0:
481,261,195616,2,0,P|493:297|493:340,1,70,10|0,0:2|0:0,0:0:0:0:
418,380,195924,2,0,P|383:376|336:355,1,70,2|0,1:2|0:0,0:0:0:0:
275,312,196231,5,2,1:2:0:0:
84,329,196539,2,0,L|77:384,2,46.6666666666667,2|2|2,1:2|0:0|0:0,0:0:0:0:
95,276,196847,2,0,P|136:279|176:288,1,70,10|0,0:2|0:2,0:0:0:0:
236,229,197155,2,0,P|233:188|224:148,1,70,2|0,1:2|0:2,0:0:0:0:
240,69,197462,6,0,L|93:76,1,140,2|0,1:2|1:2,0:0:0:0:
28,129,197924,1,2,0:2:0:0:
28,129,198001,1,2,0:2:0:0:
28,129,198078,2,0,P|22:164|23:204,1,70,10|0,0:2|1:2,0:0:0:0:
76,271,198385,1,8,0:2:0:0:
166,240,198539,1,0,1:2:0:0:
166,240,198616,1,0,1:2:0:0:
166,240,198693,6,0,L|217:231,3,35,10|8|8|8,0:2|0:2|0:2|0:2,0:0:0:0:
232,206,199001,2,0,L|266:212,3,35,2|0|0|0,1:2|1:2|1:2|1:2,0:0:0:0:
310,200,199309,2,0,L|334:231,3,35,2|0|0|0,1:2|1:2|1:2|1:2,0:0:0:0:
374,233,199616,2,0,L|377:276,3,35,10|8|8|8,0:2|0:2|0:2|0:2,0:0:0:0:
379,313,199924,6,0,P|344:321|290:322,1,70,6|6,1:2|1:2,0:0:0:0:
226,286,200231,1,6,1:2:0:0:
42,315,200539,2,0,L|36:389,2,70,10|10|10,0:2|0:2|0:2,0:0:0:0:
131,295,201001,6,0,P|128:213|165:156,1,140,6|2,1:2|1:2,0:0:0:0:
235,119,201463,2,0,L|290:127,3,35,10|0|0|0,0:2|1:2|1:2|1:2,0:0:0:0:
308,146,201770,2,0,L|348:140,3,35,10|0|0|0,0:2|1:2|1:2|1:2,0:0:0:0:
384,120,202078,2,0,L|433:128,3,35,0|0|0|0,1:2|1:2|1:2|1:2,0:0:0:0:
462,137,202386,6,0,L|471:61,1,70,6|6,1:2|1:2,0:0:0:0:
407,0,202693,1,6,1:2:0:0:
232,51,203001,2,0,L|152:45,1,70,10|10,0:2|0:2,0:0:0:0:
78,10,203308,1,10,0:2:0:0:
11,71,203462,6,0,B|18:221,1,140,6|2,1:2|1:2,0:0:0:0:
73,283,203924,1,10,0:2:0:0:
167,263,204078,1,0,1:2:0:0:
167,263,204154,1,0,1:2:0:0:
167,263,204232,2,0,L|164:201,3,35,2|0|0|0,1:2|1:2|1:2|1:2,0:0:0:0:
192,190,204540,2,0,L|195:128,3,35,8|8|8|8,0:2|0:2|0:2|0:2,0:0:0:0:
258,33,205001,5,6,1:2:0:0:
337,75,205155,2,0,L|417:68,1,70,2|0,1:2|0:2,0:0:0:0:
492,36,205463,2,0,P|503:73|503:116,1,70,10|0,0:2|0:0,0:0:0:0:
431,158,205770,2,0,P|420:195|420:238,1,70,2|0,1:2|0:0,0:0:0:0:
500,267,206078,5,2,1:2:0:0:
324,326,206385,2,0,L|332:398,2,46.6666666666667,2|2|2,1:2|0:0|0:0,0:0:0:0:
286,290,206693,2,0,L|195:281,1,70,10|0,0:2|0:2,0:0:0:0:
154,215,207001,2,0,L|165:128,1,70,2|0,1:2|0:2,0:0:0:0:
248,112,207309,6,0,P|188:107|130:44,1,140,2|0,1:2|1:2,0:0:0:0:
51,77,207770,1,2,0:2:0:0:
51,77,207847,1,2,0:2:0:0:
51,77,207924,2,0,P|42:114|40:157,1,70,10|0,0:2|1:2,0:0:0:0:
80,227,208232,2,0,L|82:261,3,35,8|8|2|2,0:2|0:2|1:2|1:2,0:0:0:0:
70,306,208540,6,0,B|149:288|135:328|207:310,2,140,6|2|2,1:2|0:2|0:2,0:0:0:0:
6,135,209462,1,2,0:2:0:0:
145,17,209770,5,6,1:1:0:0:
256,192,209847,12,0,219616,0:0:0:0:
