osu file format v14

[General]
AudioFilename: audio.mp3
AudioLeadIn: 0
PreviewTime: 70463
Countdown: 0
SampleSet: Soft
StackLeniency: 0.7
Mode: 0
LetterboxInBreaks: 0
WidescreenStoryboard: 0

[Editor]
DistanceSpacing: 1
BeatDivisor: 4
GridSize: 32
TimelineZoom: 2.899999

[Metadata]
Title:paradigm shift
TitleUnicode:paradigm ∞ shift
Artist:Kitamura Eri
ArtistUnicode:喜多村英梨
Creator:Mordred
Version:Anima
Source:
Tags:illusion dream dystopia record yuto minami japanese rock
BeatmapID:2237584
BeatmapSetID:1068831

[Difficulty]
HPDrainRate:7
CircleSize:4
OverallDifficulty:9
ApproachRate:9.3
SliderMultiplier:1.8
SliderTickRate:1

[Events]
//Background and Video events
0,0,"converttojpgtosavefilesize.jpg",0,0
//Break Periods
2,228482,236487
//Storyboard Layer 0 (Background)
//Storyboard Layer 1 (Fail)
//Storyboard Layer 2 (Pass)
//Storyboard Layer 3 (Foreground)
//Storyboard Layer 4 (Overlay)
//Storyboard Sound Samples

[TimingPoints]
545,437.956204379562,4,2,1,40,1,0
545,-125,4,2,4,40,0,0
3391,-33.3333333333333,4,2,2,50,0,0
3555,-33.3333333333333,4,2,1,5,0,0
3610,-33.3333333333333,4,2,1,40,0,0
4048,-125,4,2,4,40,0,0
7497,-125,4,2,1,5,0,0
7552,-125,4,2,4,40,0,0
10399,-125,4,2,6,40,0,0
10617,-66.6666666666667,4,2,4,40,0,0
11055,-125,4,2,4,40,0,0
12807,-100,4,2,1,60,0,0
14559,-50,4,2,1,70,0,0
24194,-33.3333333333333,4,2,1,70,0,0
25508,-50,4,2,1,70,0,0
28574,-83.3333333333333,4,2,1,50,0,0
42588,-55.5555555555556,4,2,1,70,0,0
44121,-50,4,2,1,70,0,0
44559,-55.5555555555556,4,2,1,70,0,0
47625,-50,4,2,1,70,0,0
48063,-55.5555555555556,4,2,1,70,0,0
56603,-100,4,2,1,60,0,0
58136,-100,4,2,1,40,0,0
63610,-66.6666666666667,4,2,1,50,0,0
67552,-66.6666666666667,4,2,1,55,0,0
67990,-66.6666666666667,4,2,1,60,0,0
68428,-66.6666666666667,4,2,1,65,0,0
68866,-66.6666666666667,4,2,1,70,0,0
70617,-66.6666666666667,4,2,1,80,0,1
98647,-50,4,2,1,70,0,0
108282,-33.3333333333333,4,2,1,70,0,0
109596,-50,4,2,1,70,0,0
112661,-58.8235294117647,4,2,1,60,0,0
113318,-66.6666666666667,4,2,1,60,0,0
119669,-58.8235294117647,4,2,1,60,0,0
120326,-66.6666666666667,4,2,1,60,0,0
126238,-66.6666666666667,4,2,1,5,0,0
126347,-66.6666666666667,4,2,1,70,0,0
126676,-55.5555555555556,4,2,1,70,0,0
128209,-50,4,2,1,70,0,0
128647,-55.5555555555556,4,2,1,70,0,0
131712,-50,4,2,1,70,0,0
132150,-55.5555555555556,4,2,1,70,0,0
140690,-76.9230769230769,4,2,1,60,0,0
141128,-50,4,2,2,60,0,0
142442,-76.9230769230769,4,2,1,60,0,0
142880,-50,4,2,2,60,0,0
143428,-76.9230769230769,4,2,1,60,0,0
144194,-50,4,2,3,60,0,0
144742,-50,4,2,2,60,0,0
145070,-62.5,4,2,1,60,0,0
145508,-50,4,2,3,60,0,0
145946,-50,4,2,1,60,0,0
146822,-100,4,2,1,50,0,0
147698,-66.6666666666667,4,2,1,60,0,0
150545,-58.8235294117647,4,2,1,60,0,0
151201,-76.9230769230769,4,2,1,60,0,0
152077,-50,4,2,1,70,0,0
153610,-100,4,2,1,70,0,0
154705,-66.6666666666667,4,2,1,80,0,1
182734,-76.9230769230769,4,2,1,70,0,0
185362,-62.5,4,2,1,70,0,0
186238,-76.9230769230769,4,2,1,70,0,0
189906,-76.9230769230769,4,2,1,5,0,0
189961,-76.9230769230769,4,2,1,70,0,0
192369,-62.5,4,2,1,70,0,0
193245,-76.9230769230769,4,2,1,70,0,0
196749,-66.6666666666667,4,2,1,70,0,0
199158,-100,4,2,1,70,0,0
199377,-66.6666666666667,4,2,1,70,0,0
204632,-142.857142857143,4,2,1,70,0,0
205508,-66.6666666666667,4,2,1,70,0,0
207260,-58.8235294117647,4,2,1,70,0,0
210763,-50,4,2,1,80,0,1
224778,-100,4,2,1,70,0,0
237041,-100,4,2,1,40,0,0
237260,-100,4,2,1,45,0,0
237479,-100,4,2,1,50,0,0
237698,-100,4,2,1,55,0,0
237917,-100,4,2,1,60,0,0
238136,-100,4,2,1,65,0,0
238300,-100,4,2,1,5,0,0
238355,-100,4,2,4,40,0,0
241639,-33.3333333333333,4,2,2,40,0,0
242296,-100,4,2,4,40,0,0
245745,-100,4,2,1,5,0,0
245800,-100,4,2,4,40,0,0
248647,-100,4,2,6,40,0,0
248866,-100,4,2,4,40,0,0
250180,-100,4,2,6,40,0,0
250617,-100,4,2,4,40,0,0
252315,-100,4,2,4,5,0,0
252369,-50,4,2,5,40,0,0
252753,-50,4,2,5,5,0,0
252807,-83.3333333333333,4,2,5,50,0,0
265946,-83.3333333333333,4,2,5,5,0,0
266822,-66.6666666666667,4,2,1,80,0,1
293318,-55.5555555555556,4,2,1,80,0,1
294851,-50,4,2,1,70,0,0
304486,-33.3333333333333,4,2,1,70,0,0
305581,-50,4,2,1,70,0,0
308866,-100,4,2,4,40,0,0
311712,-33.3333333333333,4,2,2,40,0,0
311877,-33.3333333333333,4,2,1,5,0,0
311931,-33.3333333333333,4,2,1,40,0,0
312369,-100,4,2,4,40,0,0
315873,-100,4,2,4,40,0,0

[Colours]
Combo1 : 250,180,240
Combo2 : 110,190,225
Combo3 : 255,230,130
Combo4 : 150,230,140

[HitObjects]
64,320,544,5,6,1:1:0:0:
128,256,763,1,2,0:2:0:0:
128,256,873,2,0,L|110:137,1,108,2|2,0:2|0:2,0:2:0:0:
111,149,1311,1,2,0:2:0:0:
111,149,1420,1,10,0:2:0:0:
224,352,1858,1,2,0:2:0:0:
303,319,2077,1,2,1:2:0:0:
303,319,2187,1,2,0:2:0:0:
303,319,2296,6,0,P|338:321|374:328,1,72,2|2,0:2|0:2,0:2:0:0:
428,272,2625,2,0,P|463:269|499:262,1,72,2|2,0:2|0:2,0:2:0:0:
512,190,2953,1,2,0:2:0:0:
512,190,3063,1,2,0:2:0:0:
512,190,3172,1,2,0:2:0:0:
448,96,3391,6,0,B|409:104|379:100|379:100|368:120|345:135|345:135|312:121|254:140,1,202.500007724762,2|0,0:1|0:2,0:2:0:0:
192,192,3610,1,2,0:2:0:0:
189,205,3720,1,2,0:2:0:0:
186,218,3829,1,2,0:2:0:0:
183,231,3939,1,2,0:2:0:0:
180,244,4048,5,2,1:2:0:0:
96,320,4267,1,2,0:2:0:0:
96,320,4377,1,2,0:2:0:0:
20,236,4596,1,2,0:2:0:0:
20,236,4705,1,2,0:2:0:0:
211,361,4924,1,10,0:2:0:0:
20,236,5362,1,2,0:2:0:0:
88,165,5581,1,2,0:2:0:0:
84,146,5690,1,2,0:2:0:0:
80,128,5800,5,2,1:2:0:0:
76,109,6238,1,0,1:2:0:0:
160,32,6457,1,0,1:2:0:0:
213,42,6566,1,0,1:2:0:0:
266,52,6676,1,2,1:2:0:0:
256,192,6731,12,0,7497,0:2:0:0:
256,192,7552,5,6,1:1:0:0:
288,288,7771,1,2,0:2:0:0:
287,288,7880,2,0,P|341:295|393:308,1,108,2|2,0:2|0:2,0:2:0:0:
393,308,8318,1,2,0:2:0:0:
393,308,8428,1,10,0:2:0:0:
512,128,8866,1,2,0:2:0:0:
512,128,9085,2,0,L|472:137,1,36,2|2,1:2|0:2,0:2:0:0:
397,77,9304,6,0,P|362:71|326:67,1,72,2|2,1:2|0:2,0:2:0:0:
271,120,9632,2,0,P|235:126|199:130,1,72,2|2,0:2|0:2,0:2:0:0:
138,96,9961,1,2,0:2:0:0:
138,96,10070,1,2,0:2:0:0:
138,96,10180,1,2,0:2:0:0:
288,224,10399,1,10,0:2:0:0:
0,351,10617,2,0,P|94:319|191:344,1,202.500007724762,10|0,0:2|0:2,0:2:0:0:
352,320,11055,5,2,1:2:0:0:
480,384,11274,1,2,0:2:0:0:
480,384,11384,2,0,L|496:277,1,108,2|2,0:2|0:2,0:2:0:0:
496,277,11822,1,2,0:2:0:0:
496,277,11931,1,10,0:2:0:0:
416,32,12369,2,0,L|399:138,1,108,2|0,0:2|0:2,0:2:0:0:
352,224,12807,5,8,0:2:0:0:
160,160,12917,1,8,0:2:0:0:
264,168,13026,1,8,0:3:0:0:
256,192,13136,1,8,0:3:0:0:
248,216,13245,1,8,0:3:0:0:
227,240,13355,1,4,0:3:0:0:
196,258,13464,1,4,0:3:0:0:
157,269,13574,1,4,0:3:0:0:
112,263,13683,2,0,L|93:258,14,11.25,8|0|0|0|0|0|0|0|0|0|0|0|0|0|0,0:2|0:2|0:2|0:2|0:2|0:2|0:2|0:2|0:2|0:2|0:2|0:2|0:2|0:2|0:2,0:2:0:0:
39,345,14121,5,2,0:2:0:0:
32,320,14231,1,2,0:2:0:0:
26,238,14340,5,2,0:2:0:0:
19,213,14450,1,2,0:2:0:0:
13,131,14559,6,0,L|119:117,1,90,6|0,1:2|0:2,0:2:0:0:
256,0,14778,2,0,L|215:98,1,90,2|0,0:2|0:2,0:2:0:0:
247,275,14997,1,10,0:2:0:0:
247,275,15107,1,0,1:2:0:0:
247,275,15216,2,0,L|181:190,1,90,2|0,0:2|0:2,0:2:0:0:
512,96,15435,1,2,1:2:0:0:
512,96,15490,1,0,1:2:0:0:
512,96,15544,2,0,P|425:74|337:58,1,180,0|0,1:2|0:2,0:2:0:0:
412,287,15873,2,0,L|446:203,1,90,10|0,0:2|0:2,0:2:0:0:
239,0,16092,6,0,L|285:265,1,270,6|0,1:2|0:2,0:2:0:0:
96,384,16530,1,2,1:2:0:0:
0,320,16639,2,0,L|14:218,1,90,2|8,0:2|0:2,0:2:0:0:
160,128,16858,2,0,L|147:217,1,90,2|0,1:2|0:2,0:2:0:0:
0,96,17077,1,2,0:2:0:0:
67,17,17187,2,0,P|153:2|226:52,1,180,2|0,1:2|0:2,0:2:0:0:
209,283,17515,2,0,P|153:215|160:128,1,180,2|0,1:2|0:2,0:2:0:0:
320,32,17844,2,0,L|409:27,1,90,2|0,1:2|0:2,0:2:0:0:
512,320,18063,5,6,1:2:0:0:
512,320,18172,1,2,1:2:0:0:
512,320,18282,1,2,1:2:0:0:
415,309,18391,1,2,0:2:0:0:
318,298,18501,2,0,P|306:254|299:210,1,90,10|0,0:2|1:2,0:2:0:0:
480,128,18720,2,0,P|472:172|461:215,1,90,2|0,0:2|0:2,0:2:0:0:
193,353,18939,1,2,1:2:0:0:
148,348,19048,1,0,1:2:0:0:
103,343,19158,1,0,1:2:0:0:
58,338,19267,2,0,L|237:320,1,180,2|0,1:2|0:2,0:2:0:0:
462,216,19596,6,0,B|443:180|416:158|416:158|300:157|221:221,1,270,6|0,1:2|0:2,0:2:0:0:
58,338,20034,1,2,1:2:0:0:
160,384,20143,2,0,L|145:295,1,90,2|8,0:2|0:2,0:2:0:0:
0,95,20362,2,0,P|23:178|106:198,1,180,2|0,1:2|0:2,0:2:0:0:
278,60,20690,1,2,1:2:0:0:
201,35,20800,1,2,0:2:0:0:
375,244,21019,1,2,1:2:0:0:
452,219,21128,1,10,0:2:0:0:
512,32,21347,1,2,1:2:0:0:
256,224,21566,5,6,1:2:0:0:
253,235,21676,1,2,1:2:0:0:
250,245,21785,1,2,1:2:0:0:
162,261,21895,1,2,0:2:0:0:
74,278,22004,2,0,L|-16:257,1,90,10|0,0:2|0:2,0:2:0:0:
192,384,22223,2,0,L|282:363,1,90,2|0,0:2|0:2,0:2:0:0:
512,192,22442,1,10,0:2:0:0:
512,192,22497,1,0,1:2:0:0:
512,192,22552,2,0,L|328:234,1,180,0|0,1:2|0:2,0:2:0:0:
192,384,22880,2,0,L|171:294,1,90,10|0,0:2|0:2,0:2:0:0:
0,32,23099,6,0,B|97:48|97:48|127:110|127:110|231:131,1,270,6|0,1:2|0:2,0:2:0:0:
448,64,23537,1,2,1:2:0:0:
352,0,23647,2,0,P|337:37|323:90,1,90,2|8,0:2|0:2,0:2:0:0:
446,254,23866,2,0,P|434:210|417:168,1,90,2|0,0:2|0:2,0:2:0:0:
288,352,24085,1,2,1:2:0:0:
51,279,24194,6,0,B|111:278|140:254|140:254|181:272|215:275|215:275|251:247|313:248,1,270.000010299683,14|0,1:2|0:2,0:2:0:0:
512,110,24523,2,0,B|452:109|423:85|423:85|382:103|348:106|348:106|312:78|250:79,1,270.000010299683,14|0,1:2|0:2,0:2:0:0:
0,165,24851,2,0,B|50:150|50:150|82:160|82:160|129:146,1,135.000005149842,14|0,1:2|0:2,0:2:0:0:
512,320,25070,6,0,B|465:306|465:306|433:316|433:316|379:300,1,135.000005149842,6|0,1:2|1:2,0:2:0:0:
189,367,25289,1,2,1:2:0:0:
97,384,25399,1,2,0:2:0:0:
19,330,25508,2,0,L|2:237,1,90,10|0,0:2|0:2,0:2:0:0:
224,160,25727,2,0,L|208:249,1,90,2|0,0:2|0:2,0:2:0:0:
0,90,25946,1,10,1:2:0:0:
0,90,26001,1,2,1:2:0:0:
0,90,26055,2,0,L|89:74,1,90,2|0,1:2|0:2,0:2:0:0:
373,168,26274,2,0,P|301:121|224:160,1,180,2|0,0:2|0:2,0:2:0:0:
480,384,26603,6,0,B|502:294|502:294|469:230|469:230|494:123,1,270,6|0,1:2|0:2,0:2:0:0:
263,0,27041,1,2,1:2:0:0:
240,84,27150,1,2,0:2:0:0:
324,107,27260,1,2,1:2:0:0:
347,23,27369,1,2,0:2:0:0:
64,96,27588,1,2,0:2:0:0:
128,192,27698,2,0,L|148:138,2,45,8|0|2,0:2|1:2|1:2,0:2:0:0:
32,288,27917,1,0,1:2:0:0:
2,364,28026,1,2,1:2:0:0:
82,352,28136,1,10,0:2:0:0:
256,224,28355,1,2,0:2:0:0:
416,384,28574,6,0,P|426:321|440:273,1,107.999996704102,6|2,1:2|0:2,0:2:0:0:
472,210,28902,1,2,0:2:0:0:
510,144,29012,1,2,1:2:0:0:
416,0,29231,1,2,0:2:0:0:
256,45,29450,2,0,P|202:53|148:57,1,107.999996704102,2|0,1:2|0:2,0:2:0:0:
32,128,29778,2,0,P|85:132|139:140,1,107.999996704102,2|0,0:2|0:2,0:2:0:0:
199,212,30107,1,2,0:2:0:0:
199,212,30216,1,0,0:2:0:0:
199,212,30326,1,0,1:2:0:0:
64,320,30544,5,2,0:2:0:0:
56,293,30654,1,2,0:2:0:0:
48,266,30763,1,2,1:2:0:0:
160,384,30982,1,2,0:2:0:0:
305,312,31201,2,0,P|359:319|411:334,1,107.999996704102,2|0,1:2|0:2,0:2:0:0:
512,384,31530,2,0,P|490:334|477:282,1,107.999996704102,2|0,0:2|0:2,0:2:0:0:
471,169,31858,1,2,0:2:0:0:
471,169,31968,1,0,0:2:0:0:
471,169,32077,6,0,P|437:212|398:249,1,107.999996704102,2|2,1:2|0:2,0:2:0:0:
372,254,32406,1,2,0:2:0:0:
345,259,32515,1,2,1:2:0:0:
256,128,32734,1,2,0:2:0:0:
192,320,32953,2,0,P|139:308|85:300,1,107.999996704102,2|0,1:2|0:2,0:2:0:0:
0,343,33282,2,0,P|11:290|19:236,1,107.999996704102,2|0,0:2|0:2,0:2:0:0:
0,168,33610,1,2,0:2:0:0:
0,168,33720,1,0,0:2:0:0:
0,168,33829,1,0,1:2:0:0:
64,32,34048,5,2,0:2:0:0:
64,32,34158,2,0,L|117:38,1,53.9999983520508,2|0,0:2|1:2,0:2:0:0:
165,101,34377,1,2,0:2:0:0:
320,64,34596,1,2,0:2:0:0:
320,64,34705,2,0,L|373:70,1,53.9999983520508,0|0,1:2|0:2,0:2:0:0:
498,29,34924,2,0,L|444:22,1,53.9999983520508,2|0,0:2|0:2,0:2:0:0:
320,160,35143,1,10,0:2:0:0:
224,0,35362,1,2,0:2:0:0:
64,191,35581,6,0,P|52:244|43:298,1,107.999996704102,6|2,1:1|0:2,0:2:0:0:
48,324,35909,1,2,0:2:0:0:
52,350,36019,1,2,1:2:0:0:
224,320,36238,1,2,0:2:0:0:
389,380,36457,2,0,P|441:368|501:264,1,161.999995056153,2|2,1:2|0:2,0:2:0:0:
486,210,36895,1,8,0:2:0:0:
309,363,37114,1,2,0:2:0:0:
309,363,37223,1,0,0:2:0:0:
309,363,37333,1,0,1:2:0:0:
96,256,37552,5,2,0:2:0:0:
89,229,37661,1,2,0:2:0:0:
83,202,37771,1,2,1:2:0:0:
32,384,37990,1,2,0:2:0:0:
77,175,38209,2,0,L|106:10,1,161.999995056153,2|2,1:2|0:2,0:2:0:0:
105,15,38647,1,8,0:2:0:0:
448,128,38975,1,8,0:2:0:0:
433,42,39085,6,0,L|326:25,1,107.999996704102,2|2,1:2|0:2,0:2:0:0:
300,34,39413,1,2,0:2:0:0:
274,42,39523,1,10,0:2:0:0:
64,0,39742,1,2,0:2:0:0:
22,209,39961,2,0,L|47:368,1,161.999995056153,2|2,1:2|0:2,0:2:0:0:
47,368,40399,1,8,0:2:0:0:
224,320,40617,2,0,L|277:328,1,53.9999983520508,2|0,0:2|0:2,0:2:0:0:
352,384,40836,5,8,0:2:0:0:
416,224,40946,1,8,0:2:0:0:
512,328,41055,1,8,0:3:0:0:
485,323,41165,1,8,0:3:0:0:
458,319,41274,1,8,0:3:0:0:
432,315,41384,1,8,0:3:0:0:
405,310,41493,1,8,0:3:0:0:
379,306,41603,1,8,0:3:0:0:
288,224,41712,2,0,L|261:219,1,26.9999991760254,8|4,0:2|0:3,0:2:0:0:
279,198,41822,2,0,L|252:193,1,26.9999991760254,4|4,0:3|0:3,0:2:0:0:
270,172,41931,2,0,L|280:119,1,53.9999983520508,4|4,0:3|0:3,0:2:0:0:
473,0,42150,5,2,0:2:0:0:
473,0,42260,1,2,0:2:0:0:
489,86,42369,5,2,0:2:0:0:
489,86,42479,1,2,0:2:0:0:
500,168,42588,6,0,L|483:256,1,80.9999975280763,6|0,1:2|0:2,0:2:0:0:
320,384,42807,1,2,0:2:0:0:
320,384,42917,1,2,0:2:0:0:
320,384,43026,2,0,L|336:295,1,80.9999975280763,10|0,0:2|0:2,0:2:0:0:
488,86,43245,2,0,P|445:98|401:106,1,80.9999975280763,2|0,0:2|0:2,0:2:0:0:
148,17,43464,2,0,P|192:24|235:37,1,80.9999975280763,2|0,1:2|0:2,0:2:0:0:
422,195,43683,2,0,L|243:220,1,161.999995056153,2|8,0:2|0:2,0:2:0:0:
64,384,44121,6,0,B|44:329|68:282|68:282|21:244|21:244|52:195|14:131,1,270,6|0,1:2|0:2,0:2:0:0:
60,37,44559,2,0,P|103:24|148:17,1,80.9999975280763,2|0,1:2|0:2,0:2:0:0:
237,206,44778,1,10,0:2:0:0:
237,205,44888,2,0,P|160:195|128:125,1,161.999995056153,2|0,1:2|0:2,0:2:0:0:
321,3,45216,2,0,P|311:79|241:111,1,161.999995056153,2|0,1:2|0:2,0:2:0:0:
60,37,45544,1,2,1:2:0:0:
60,37,45654,2,0,P|103:24|148:17,1,80.9999975280763,10|0,0:2|0:2,0:2:0:0:
410,202,45873,2,0,P|367:189|322:182,1,80.9999975280763,2|0,1:2|0:2,0:2:0:0:
10,259,46092,5,6,1:2:0:0:
10,340,46201,1,2,1:2:0:0:
88,366,46311,1,2,1:2:0:0:
135,300,46420,1,2,0:2:0:0:
87,234,46530,2,0,L|10:259,1,80.9999975280763,10|0,0:2|0:2,0:2:0:0:
172,375,46749,2,0,L|249:350,1,80.9999975280763,2|0,0:2|0:2,0:2:0:0:
320,128,46968,1,2,1:2:0:0:
320,128,47023,1,0,1:2:0:0:
320,128,47077,2,0,B|290:190|290:190|330:278,1,161.999995056153,0|0,1:2|0:2,0:2:0:0:
415,384,47406,2,0,P|425:344|441:307,1,80.9999975280763,10|0,0:2|0:2,0:2:0:0:
490,73,47625,6,0,B|435:53|388:77|388:77|350:30|350:30|301:61|237:23,1,270,6|0,1:2|0:2,0:2:0:0:
32,32,48063,2,0,L|109:7,1,80.9999975280763,2|0,1:2|0:2,0:2:0:0:
320,128,48282,1,10,0:2:0:0:
320,128,48391,2,0,P|298:203|228:239,1,161.999995056153,2|0,1:2|0:2,0:2:0:0:
81,117,48720,2,0,P|157:97|223:140,1,161.999995056153,2|0,1:2|0:2,0:2:0:0:
74,306,49048,1,2,1:2:0:0:
74,306,49158,2,0,P|60:268|57:227,1,80.9999975280763,10|0,0:2|0:2,0:2:0:0:
20,1,49377,2,0,P|6:39|3:80,1,80.9999975280763,2|0,1:2|0:2,0:2:0:0:
162,268,49596,5,6,1:2:0:0:
162,268,49650,1,0,1:2:0:0:
162,268,49705,2,0,L|202:273,1,40.4999987640381,0|0,1:2|0:2,0:2:0:0:
256,352,49815,2,0,L|428:330,1,161.999995056153,2|10,0:2|0:2,0:2:0:0:
512,224,50143,1,0,1:2:0:0:
512,224,50253,2,0,P|472:217|432:209,1,80.9999975280763,2|0,0:2|0:2,0:2:0:0:
326,143,50472,2,0,L|321:90,2,40.4999987640381,2|0|0,1:2|1:2|1:2,0:2:0:0:
281,258,50690,2,0,P|241:266|202:273,1,80.9999975280763,2|0,1:2|0:2,0:2:0:0:
96,384,50909,2,0,P|89:344|81:304,1,80.9999975280763,10|0,0:2|0:2,0:2:0:0:
0,96,51128,6,0,B|97:113|97:113|112:158|112:158|207:175,1,242.999992584229,6|0,1:2|0:2,0:2:0:0:
417,57,51566,1,2,1:2:0:0:
336,63,51676,1,2,0:2:0:0:
255,70,51785,2,0,P|215:76|177:87,1,80.9999975280763,10|0,0:2|0:2,0:2:0:0:
378,208,52004,2,0,P|416:219|456:225,1,80.9999975280763,2|0,0:2|0:2,0:2:0:0:
259,384,52223,2,0,L|288:224,1,161.999995056153,2|0,1:2|0:2,0:2:0:0:
417,57,52552,1,0,1:2:0:0:
417,57,52661,2,0,L|431:137,1,80.9999975280763,8|0,0:2|0:2,0:2:0:0:
457,225,52880,2,0,L|471:305,1,80.9999975280763,0|0,1:2|0:2,0:2:0:0:
259,384,53099,6,0,P|219:387|178:386,1,80.9999975280763,6|0,1:2|0:2,0:2:0:0:
175,208,53318,2,0,P|197:241|217:277,1,80.9999975280763,2|0,1:2|0:2,0:2:0:0:
65,368,53537,2,0,P|82:331|103:296,1,80.9999975280763,10|0,0:2|0:2,0:2:0:0:
288,192,53756,1,2,0:2:0:0:
160,128,53866,2,0,P|146:90|137:50,1,80.9999975280763,2|0,0:2|1:2,0:2:0:0:
137,50,54030,1,0,1:2:0:0:
137,50,54085,1,0,1:2:0:0:
256,96,54194,2,0,P|336:107|416:113,1,161.999995056153,2|8,0:2|0:2,0:2:0:0:
417,113,54632,2,0,P|378:122|341:137,1,80.9999975280763,6|0,1:2|0:2,0:2:0:0:
448,352,54851,6,0,L|466:268,1,80.9999975280763,2|0,0:2|0:2,0:2:0:0:
256,352,55070,2,0,L|340:370,1,80.9999975280763,2|0,1:2|0:2,0:2:0:0:
256,160,55289,2,0,L|238:244,1,80.9999975280763,10|0,0:2|1:2,0:2:0:0:
32,352,55508,1,2,0:2:0:0:
144,384,55617,2,0,L|160:304,1,80.9999975280763,2|8,1:2|0:2,0:2:0:0:
160,304,55782,1,0,1:2:0:0:
160,304,55836,1,0,1:2:0:0:
76,264,55946,1,2,1:2:0:0:
56,161,56055,1,0,1:2:0:0:
125,82,56165,1,8,0:2:0:0:
165,311,56384,1,2,0:2:0:0:
448,352,56603,5,6,1:1:0:0:
448,352,58136,1,0,1:2:0:0:
480,256,58355,1,0,1:2:0:0:
480,256,59231,2,0,L|475:233,2,22.5,0|0|0,0:2|0:2|0:2,0:2:0:0:
353,257,59450,2,0,L|358:234,2,22.5,0|0|0,0:2|0:2|0:2,0:2:0:0:
256,192,59669,1,0,0:2:0:0:
256,192,59997,1,0,0:2:0:0:
256,192,60107,6,0,B|225:21|225:21|303:76,1,270,6|0,1:1|1:2,0:2:0:0:
320,263,60982,2,0,B|187:375|187:375|196:279,1,270,6|0,1:1|1:2,0:2:0:0:
350,173,61858,2,0,B|513:231|513:231|426:271,1,270,6|0,1:1|1:2,0:2:0:0:
195,279,62734,2,0,L|188:234,2,45,10|0|0,0:2|1:2|1:2,0:2:0:0:
261,173,63063,2,0,L|267:128,2,45,2|0|0,1:2|1:2|1:2,0:2:0:0:
174,88,63391,2,0,L|167:43,1,45,2|0,1:2|1:2,0:2:0:0:
0,32,63610,6,0,L|20:165,1,135.000005149842,4|0,1:2|1:2,0:2:0:0:
40,193,63939,1,2,1:2:0:0:
59,220,64048,1,8,1:2:0:0:
102,381,64267,1,2,1:2:0:0:
68,383,64377,1,0,1:2:0:0:
48,355,64486,1,0,1:2:0:0:
62,325,64596,1,0,1:2:0:0:
96,322,64705,1,0,1:2:0:0:
115,349,64815,1,0,1:2:0:0:
102,381,64924,1,8,0:2:0:0:
224,256,65143,2,0,L|298:269,1,67.5000025749208,2|0,1:2|1:2,0:2:0:0:
352,352,65362,5,2,1:2:0:0:
480,224,65581,1,2,1:2:0:0:
487,191,65690,1,0,1:2:0:0:
495,158,65800,1,8,0:2:0:0:
337,94,66019,1,2,1:2:0:0:
345,127,66128,1,0,1:2:0:0:
352,160,66238,1,0,1:2:0:0:
480,32,66457,1,2,1:2:0:0:
480,32,66566,2,0,L|413:20,1,67.5000025749208,0|8,1:2|0:2,0:2:0:0:
272,48,66785,1,2,1:2:0:0:
272,48,66895,2,0,L|205:36,1,67.5000025749208,0|0,1:2|1:2,0:2:0:0:
64,0,67114,5,10,0:2:0:0:
39,112,67333,1,8,0:2:0:0:
74,223,67552,1,8,0:2:0:0:
194,311,67771,1,8,0:2:0:0:
412,330,67990,1,8,0:2:0:0:
512,128,68209,1,10,0:2:0:0:
288,384,68428,1,10,0:2:0:0:
178,62,68647,1,10,0:2:0:0:
0,352,68866,5,8,0:2:0:0:
194,311,68975,1,8,0:2:0:0:
227,240,69085,1,0,1:2:0:0:
260,169,69194,1,0,1:2:0:0:
178,62,69304,2,0,L|138:57,3,33.7500012874604,8|0|0|0,0:2|1:2|1:2|1:2,0:2:0:0:
256,32,69523,5,2,0:2:0:0:
339,48,69742,1,10,0:2:0:0:
426,68,69961,1,2,0:2:0:0:
426,68,70070,1,2,0:2:0:0:
508,84,70344,1,2,0:2:0:0:
92,318,70617,6,0,P|46:271|52:205,1,135.000005149842,6|0,1:2|0:2,0:2:0:0:
231,160,70946,2,0,P|203:219|140:239,1,135.000005149842,0|0,1:2|0:2,0:2:0:0:
18,113,71274,2,0,L|85:121,1,67.5000025749208,0|0,1:2|0:2,0:2:0:0:
353,133,71493,2,0,B|319:205|319:205|352:323,1,202.500007724762,14|0,0:2|0:2,0:2:0:0:
419,281,71931,2,0,L|400:215,1,67.5000025749208,2|0,0:2|0:2,0:2:0:0:
256,32,72150,1,0,1:2:0:0:
222,25,72260,1,0,1:2:0:0:
188,18,72369,6,0,P|124:40|57:46,1,135.000005149842,2|0,1:2|0:2,0:2:0:0:
122,254,72698,2,0,P|127:187|149:124,1,135.000005149842,0|0,1:2|0:2,0:2:0:0:
273,28,73026,2,0,P|306:20|339:18,1,67.5000025749208,0|0,1:2|0:2,0:2:0:0:
490,95,73245,5,14,0:2:0:0:
512,175,73355,1,0,1:2:0:0:
432,197,73464,1,0,1:2:0:0:
410,117,73574,1,0,1:2:0:0:
273,28,73683,5,14,0:2:0:0:
176,1,73793,1,0,1:2:0:0:
150,97,73902,1,0,1:2:0:0:
246,124,74012,1,0,1:2:0:0:
432,197,74121,6,0,B|457:245|457:245|428:324,1,135.000005149842,6|0,1:2|0:2,0:2:0:0:
221,255,74450,2,0,B|269:230|269:230|348:258,1,135.000005149842,0|0,1:2|0:2,0:2:0:0:
224,384,74778,2,0,L|141:374,1,67.5000025749208,0|0,1:2|0:2,0:2:0:0:
0,384,74997,2,0,P|50:317|8:204,1,202.500007724762,14|0,0:2|0:2,0:2:0:0:
0,96,75435,2,0,L|17:22,1,67.5000025749208,2|0,0:2|0:2,0:2:0:0:
224,128,75654,1,0,1:2:0:0:
192,138,75763,1,0,1:2:0:0:
159,148,75873,6,0,L|128:279,1,135.000005149842,2|0,1:2|0:2,0:2:0:0:
224,384,76201,2,0,L|254:252,1,135.000005149842,0|0,1:2|0:2,0:2:0:0:
379,224,76530,2,0,L|364:290,1,67.5000025749208,0|0,1:2|0:2,0:2:0:0:
460,363,76749,6,0,L|465:384,2,22.5000008583069,10|0|0,0:2|1:2|1:2,0:2:0:0:
512,256,76913,5,2,1:2:0:0:
445,157,77050,5,2,1:2:0:0:
497,49,77187,5,10,0:2:0:0:
409,41,77296,1,2,0:2:0:0:
321,33,77406,1,2,0:2:0:0:
233,25,77515,1,2,0:2:0:0:
145,18,77625,6,0,P|79:35|16:58,1,135.000005149842,6|0,1:2|0:2,0:2:0:0:
150,238,77953,2,0,P|172:174|190:109,1,135.000005149842,0|0,1:2|0:2,0:2:0:0:
0,160,78282,2,0,P|8:192|20:224,1,67.5000025749208,0|0,1:2|0:2,0:2:0:0:
224,345,78501,2,0,B|303:353|303:353|341:383|341:383|413:388,1,202.500007724762,14|0,0:2|0:2,0:2:0:0:
512,352,78939,1,2,0:2:0:0:
416,96,79158,1,0,1:2:0:0:
410,129,79267,1,0,1:2:0:0:
404,162,79377,6,0,B|271:189,1,135.000005149842,2|0,1:2|0:2,0:2:0:0:
155,68,79705,2,0,B|288:96,1,135.000005149842,0|0,1:2|0:2,0:2:0:0:
353,269,80034,2,0,B|339:335,1,67.5000025749208,0|0,1:2|0:2,0:2:0:0:
128,384,80253,2,0,B|114:318,1,67.5000025749208,14|0,0:2|0:2,0:2:0:0:
0,128,80472,1,0,1:2:0:0:
32,113,80581,1,0,1:2:0:0:
63,98,80690,1,14,0:2:0:0:
98,176,80800,1,2,0:2:0:0:
183,167,80909,1,2,0:2:0:0:
201,84,81019,1,2,0:2:0:0:
126,41,81128,6,0,P|192:56|259:65,1,135.000005149842,6|0,1:2|0:2,0:2:0:0:
462,24,81457,2,0,P|396:8|329:0,1,135.000005149842,0|0,1:2|0:2,0:2:0:0:
294,155,81785,2,0,P|326:162|360:167,1,67.5000025749208,0|0,1:2|0:2,0:2:0:0:
512,256,82004,1,10,0:2:0:0:
512,256,82114,1,0,0:2:0:0:
512,256,82223,1,0,0:0:0:0:
320,384,82442,1,2,0:0:0:0:
294,155,82661,1,0,1:2:0:0:
260,148,82771,1,0,1:2:0:0:
227,141,82880,6,0,B|190:169|190:169|204:262,1,135.000005149842,2|0,1:2|0:2,0:2:0:0:
83,384,83209,2,0,B|120:356|120:356|106:263,1,135.000005149842,0|0,1:2|0:2,0:2:0:0:
0,177,83537,2,0,L|66:185,1,67.5000025749208,0|0,1:2|0:2,0:2:0:0:
216,351,83756,1,10,0:2:0:0:
216,351,83811,1,0,1:2:0:0:
216,351,83866,2,0,L|349:367,1,135.000005149842,0|0,1:2|0:2,0:2:0:0:
512,352,84194,1,10,0:2:0:0:
256,224,84413,1,2,0:2:0:0:
480,32,84632,6,0,L|278:56,1,202.500007724762,6|0,1:2|0:2,0:2:0:0:
512,183,85070,2,0,L|310:158,1,202.500007724762,10|0,0:2|0:2,0:2:0:0:
480,320,85508,1,2,1:2:0:0:
480,320,85727,1,0,1:2:0:0:
320,384,85946,1,10,0:2:0:0:
128,352,86165,5,2,1:2:0:0:
114,321,86274,1,0,1:2:0:0:
100,289,86384,1,0,1:2:0:0:
291,245,86603,1,2,1:2:0:0:
277,277,86712,1,0,1:2:0:0:
263,308,86822,1,8,0:2:0:0:
160,192,87041,1,2,1:2:0:0:
160,192,87150,1,0,1:2:0:0:
160,192,87260,2,0,L|141:56,1,135.000005149842,4|0,1:2|0:2,0:2:0:0:
448,192,87698,2,0,L|466:325,1,135.000005149842,12|0,0:2|1:2,0:2:0:0:
32,384,88136,5,4,1:2:0:0:
224,352,88355,1,2,0:2:0:0:
192,160,88574,1,10,0:2:0:0:
0,192,88793,1,2,1:2:0:0:
112,272,88902,2,0,L|245:250,1,135.000005149842,2|0,0:2|0:2,0:2:0:0:
416,320,89231,1,2,0:2:0:0:
224,352,89450,1,10,0:2:0:0:
438,218,89669,6,0,B|472:153|472:153|430:22,1,202.500007724762,6|0,1:2|0:2,0:2:0:0:
288,0,90107,1,2,1:2:0:0:
288,0,90216,1,0,1:2:0:0:
288,0,90326,1,8,0:2:0:0:
343,234,90544,1,6,1:2:0:0:
337,267,90654,1,0,1:2:0:0:
330,299,90763,1,0,1:2:0:0:
160,384,90982,1,2,1:2:0:0:
161,109,91201,1,10,0:2:0:0:
323,331,91420,1,2,1:2:0:0:
60,246,91639,6,0,L|30:45,2,202.500007724762,2|0|0,1:2|1:2|1:2,0:2:0:0:
448,352,92515,1,12,0:2:0:0:
448,352,93172,1,0,1:2:0:0:
462,321,93282,1,0,1:2:0:0:
477,290,93391,2,0,L|507:89,2,202.500007724762,2|0|0,1:2|1:2|1:2,0:2:0:0:
96,384,94267,2,0,L|229:364,1,135.000005149842,12|0,0:2|1:2,0:2:0:0:
322,234,94596,1,0,1:2:0:0:
384,288,94705,2,0,L|250:268,1,135.000005149842,12|0,0:2|1:2,0:2:0:0:
32,160,95143,5,12,0:2:0:0:
19,113,95253,1,0,1:2:0:0:
160,32,95472,1,0,1:2:0:0:
147,79,95581,1,8,0:2:0:0:
159,219,95800,1,0,1:2:0:0:
274,138,96019,1,8,0:2:0:0:
321,125,96128,1,0,1:2:0:0:
402,266,96347,1,0,1:2:0:0:
355,253,96457,1,8,0:2:0:0:
308,240,96566,1,0,1:2:0:0:
416,384,96785,1,0,1:2:0:0:
463,371,96895,5,8,0:2:0:0:
512,256,97004,1,8,0:2:0:0:
512,218,97114,2,0,L|498:151,1,67.5000025749208,2|0,1:2|1:2,0:2:0:0:
354,109,97333,2,0,L|368:176,1,67.5000025749208,2|0,1:2|1:2,0:2:0:0:
224,134,97552,2,0,L|210:67,1,67.5000025749208,2|0,1:2|1:2,0:2:0:0:
66,25,97771,2,0,L|75:69,2,45.0000017166138,10|8|8,0:2|0:2|0:2,0:2:0:0:
0,96,97990,2,0,L|13:162,1,67.5000025749208,0|2,1:2|1:2,0:2:0:0:
0,320,98209,5,2,0:2:0:0:
38,332,98318,1,2,0:2:0:0:
128,320,98428,5,2,0:2:0:0:
166,332,98537,1,2,0:2:0:0:
256,320,98647,6,0,L|345:311,1,90,6|0,1:2|0:2,0:2:0:0:
440,131,98866,2,0,L|402:213,1,90,2|0,0:2|0:2,0:2:0:0:
512,384,99085,1,10,0:2:0:0:
512,384,99194,1,0,1:2:0:0:
512,384,99304,2,0,L|459:310,1,90,2|0,0:2|0:2,0:2:0:0:
126,196,99523,1,2,1:2:0:0:
126,196,99632,2,0,P|214:213|304:223,1,180,0|0,1:2|0:2,0:2:0:0:
192,32,99961,2,0,L|207:120,1,90,10|0,0:2|0:2,0:2:0:0:
58,384,100180,6,0,L|12:118,1,270,6|0,1:2|0:2,0:2:0:0:
192,32,100617,1,2,1:2:0:0:
126,196,100727,2,0,P|114:149|111:108,1,90,2|8,0:2|0:2,0:2:0:0:
296,0,100946,2,0,P|292:44|281:88,1,90,2|0,1:2|0:2,0:2:0:0:
320,288,101165,1,2,0:2:0:0:
415,351,101274,2,0,P|494:313|511:228,1,180,2|0,1:2|0:2,0:2:0:0:
281,89,101603,2,0,P|319:167|404:184,1,180,2|0,1:2|0:2,0:2:0:0:
512,64,101931,2,0,L|423:78,1,90,2|0,1:2|0:2,0:2:0:0:
154,19,102150,5,6,1:2:0:0:
154,19,102260,1,2,1:2:0:0:
154,19,102369,1,2,1:2:0:0:
140,108,102479,1,2,0:2:0:0:
126,196,102588,2,0,P|131:240|141:284,1,90,10|0,0:2|1:2,0:2:0:0:
288,352,102807,2,0,P|298:308|303:263,1,90,2|0,0:2|0:2,0:2:0:0:
230,98,103026,1,2,1:2:0:0:
185,103,103136,1,0,1:2:0:0:
140,108,103245,1,0,1:2:0:0:
95,113,103355,2,0,L|274:131,1,180,2|0,1:2|0:2,0:2:0:0:
512,256,103683,6,0,B|408:271|408:271|368:318|368:318|263:333,1,270,6|0,1:2|0:2,0:2:0:0:
35,312,104121,1,2,1:2:0:0:
128,384,104231,2,0,P|142:342|151:297,1,90,2|8,0:2|0:2,0:2:0:0:
0,128,104450,2,0,P|38:205|123:210,1,180,2|0,1:2|0:2,0:2:0:0:
214,35,104778,1,2,1:2:0:0:
137,60,104888,1,2,0:2:0:0:
380,184,105107,1,2,1:2:0:0:
355,106,105216,1,10,0:2:0:0:
231,175,105435,1,2,1:2:0:0:
458,379,105654,5,6,1:2:0:0:
469,376,105763,1,2,1:2:0:0:
479,373,105873,1,2,1:2:0:0:
495,285,105982,1,2,0:2:0:0:
512,197,106092,2,0,L|491:107,1,90,10|0,0:2|0:2,0:2:0:0:
346,343,106311,2,0,L|258:363,1,90,2|0,0:2|0:2,0:2:0:0:
0,200,106530,1,10,0:2:0:0:
0,200,106585,1,0,1:2:0:0:
0,200,106639,2,0,L|175:240,1,180,0|0,1:2|0:2,0:2:0:0:
346,343,106968,2,0,L|367:253,1,90,10|0,0:2|0:2,0:2:0:0:
512,32,107187,6,0,B|493:68|466:90|466:90|350:91|271:27,1,270,6|0,1:2|0:2,0:2:0:0:
64,64,107625,1,2,1:2:0:0:
161,138,107734,2,0,L|182:50,1,90,2|8,0:2|0:2,0:2:0:0:
0,191,107953,2,0,L|20:278,1,90,2|0,0:2|0:2,0:2:0:0:
384,384,108172,1,2,1:2:0:0:
480,288,108282,6,0,B|420:287|391:263|391:263|350:281|316:284|316:284|280:256|218:257,1,270.000010299683,14|0,1:2|0:2,0:2:0:0:
0,110,108610,2,0,B|60:109|89:85|89:85|130:103|164:106|164:106|200:78|262:79,1,270.000010299683,14|0,1:2|0:2,0:2:0:0:
512,165,108939,2,0,B|462:150|462:150|430:160|430:160|383:146,1,135.000005149842,14|0,1:2|0:2,0:2:0:0:
0,320,109158,6,0,B|47:306|47:306|79:316|79:316|133:300,1,135.000005149842,6|0,1:2|1:2,0:2:0:0:
323,367,109377,1,2,1:2:0:0:
415,384,109486,1,2,0:2:0:0:
493,330,109596,2,0,L|510:237,1,90,10|0,0:2|0:2,0:2:0:0:
288,160,109815,2,0,L|304:249,1,90,2|0,0:2|0:2,0:2:0:0:
512,90,110034,1,10,1:2:0:0:
512,90,110088,1,2,1:2:0:0:
512,90,110143,2,0,L|423:74,1,90,2|0,1:2|0:2,0:2:0:0:
139,168,110362,2,0,P|211:121|288:160,1,180,2|0,0:2|0:2,0:2:0:0:
32,384,110690,6,0,B|10:294|10:294|43:230|43:230|18:123,1,270,6|0,1:2|0:2,0:2:0:0:
249,0,111128,1,2,1:2:0:0:
272,84,111238,1,2,0:2:0:0:
188,107,111347,1,2,1:2:0:0:
165,23,111457,1,2,0:2:0:0:
379,145,111676,1,2,0:2:0:0:
127,214,111785,1,8,0:2:0:0:
127,214,111895,2,0,L|140:304,1,90,0|0,1:2|0:2,0:2:0:0:
315,371,112114,1,2,1:2:0:0:
315,371,112169,1,2,1:2:0:0:
315,371,112223,2,0,L|405:384,1,90,2|0,1:2|0:2,0:2:0:0:
505,300,112442,2,0,L|512:256,3,45,0|0|0|0,1:2|1:2|1:2|1:2,0:2:0:0:
400,296,112661,6,0,L|379:145,1,153.000002918243,6|0,1:2|1:2,0:2:0:0:
397,110,112990,1,2,1:2:0:0:
414,76,113099,1,8,0:2:0:0:
287,0,113318,2,0,P|254:5|222:13,1,67.5000025749208,2|0,1:2|1:2,0:2:0:0:
138,139,113537,1,0,1:2:0:0:
138,139,113647,1,0,1:2:0:0:
137,139,113756,2,0,P|149:107|157:75,1,67.5000025749208,2|0,1:2|1:2,0:2:0:0:
32,32,113975,2,0,P|39:64|52:95,1,67.5000025749208,10|0,0:2|1:2,0:2:0:0:
229,144,114194,5,2,1:2:0:0:
276,133,114304,1,0,1:2:0:0:
321,123,114413,1,0,1:2:0:0:
480,160,114632,1,2,1:2:0:0:
491,207,114742,1,0,1:2:0:0:
501,252,114851,1,8,0:2:0:0:
416,384,115070,2,0,L|334:376,1,67.5000025749208,2|0,1:2|1:2,0:2:0:0:
197,306,115289,1,0,1:2:0:0:
149,314,115399,1,0,1:2:0:0:
101,321,115508,1,0,1:2:0:0:
54,329,115617,1,0,1:2:0:0:
6,336,115727,1,8,0:2:0:0:
275,364,115946,2,0,P|284:331|291:298,1,67.5000025749208,2|0,1:2|1:2,0:2:0:0:
128,224,116165,6,0,P|109:158|95:93,1,135.000005149842,2|0,1:2|1:2,0:2:0:0:
108,61,116493,1,0,1:2:0:0:
122,30,116603,1,10,0:2:0:0:
379,96,116822,1,2,1:2:0:0:
353,135,116931,1,0,1:2:0:0:
314,161,117041,1,0,1:2:0:0:
268,168,117150,1,0,1:2:0:0:
221,155,117260,2,0,P|197:130|183:98,2,67.5000025749208,2|0|8,1:2|1:2|0:2,0:2:0:0:
448,256,117698,5,2,1:2:0:0:
459,210,117807,1,0,1:2:0:0:
470,163,117917,1,0,1:2:0:0:
331,42,118136,1,2,1:2:0:0:
331,42,118245,2,0,L|343:109,1,67.5000025749208,2|8,1:2|0:2,0:2:0:0:
233,222,118464,1,2,1:2:0:0:
233,222,118574,2,0,L|221:155,1,67.5000025749208,2|0,1:2|1:2,0:2:0:0:
128,64,118793,1,0,1:2:0:0:
0,256,119012,1,2,1:2:0:0:
136,324,119121,1,2,1:2:0:0:
33,359,119231,1,8,0:2:0:0:
67,290,119340,1,8,0:2:0:0:
101,223,119450,1,10,0:2:0:0:
135,154,119559,1,8,0:2:0:0:
169,87,119669,6,0,L|328:65,1,153.000002918243,6|0,1:2|1:2,0:2:0:0:
356,79,119997,1,0,1:2:0:0:
392,92,120107,1,10,0:2:0:0:
512,224,120326,2,0,P|474:231|446:241,1,67.5000025749208,2|0,1:2|1:2,0:2:0:0:
356,375,120544,1,0,1:2:0:0:
356,375,120654,1,0,1:2:0:0:
356,375,120763,2,0,P|372:345|383:313,2,67.5000025749208,2|0|8,1:2|1:2|0:2,0:2:0:0:
160,384,121201,5,2,1:2:0:0:
113,372,121311,1,0,1:2:0:0:
67,360,121420,1,0,1:2:0:0:
290,338,121639,1,0,1:2:0:0:
337,326,121749,1,0,1:2:0:0:
383,314,121858,1,8,0:2:0:0:
147,287,122077,2,0,P|131:257|120:225,1,67.5000025749208,2|0,1:2|1:2,0:2:0:0:
128,64,122296,1,2,1:2:0:0:
128,64,122406,1,0,1:2:0:0:
128,64,122515,2,0,P|116:95|101:125,1,67.5000025749208,2|0,1:2|1:2,0:2:0:0:
0,224,122734,1,10,0:2:0:0:
192,159,122953,2,0,L|258:151,1,67.5000025749208,2|0,1:2|1:2,0:2:0:0:
416,256,123172,6,0,L|444:113,1,135.000005149842,2|0,1:2|1:2,0:2:0:0:
418,81,123501,1,2,1:2:0:0:
395,39,123610,1,8,0:2:0:0:
161,135,123829,1,2,1:2:0:0:
187,174,123939,1,0,1:2:0:0:
226,200,124048,1,0,1:2:0:0:
272,207,124158,1,0,1:2:0:0:
319,194,124267,2,0,P|343:169|357:137,2,67.5000025749208,2|0|8,1:2|1:2|0:2,0:2:0:0:
64,224,124705,1,2,1:2:0:0:
52,269,124815,1,0,1:2:0:0:
40,314,124924,1,8,0:2:0:0:
256,192,124979,12,0,126238,0:2:0:0:
40,314,126347,5,0,1:2:0:0:
64,160,126457,1,8,0:2:0:0:
64,160,126676,6,0,L|143:143,1,80.9999975280763,6|0,1:2|0:2,0:2:0:0:
384,288,126895,1,2,0:2:0:0:
384,288,127004,1,2,0:2:0:0:
384,288,127114,2,0,L|304:271,1,80.9999975280763,10|0,0:2|0:2,0:2:0:0:
192,64,127333,2,0,L|271:80,1,80.9999975280763,2|0,0:2|0:2,0:2:0:0:
416,160,127552,2,0,L|425:118,2,40.4999987640381,2|0|0,1:2|1:2|1:2,0:2:0:0:
195,226,127771,2,0,L|228:384,1,161.999995056153,2|8,0:2|0:2,0:2:0:0:
509,303,128209,6,0,P|395:358|304:271,1,270,6|0,1:2|0:2,0:2:0:0:
416,160,128647,2,0,P|418:200|414:240,1,80.9999975280763,2|0,1:2|0:2,0:2:0:0:
228,384,128866,1,10,0:2:0:0:
228,384,128975,2,0,L|66:370,1,161.999995056153,2|0,1:2|0:2,0:2:0:0:
105,159,129304,2,0,P|168:205|160:289,1,161.999995056153,2|0,1:2|0:2,0:2:0:0:
8,202,129632,1,2,1:2:0:0:
8,202,129742,2,0,P|1:160|0:101,1,80.9999975280763,10|0,0:2|0:2,0:2:0:0:
256,0,129961,2,0,P|249:39|247:80,1,80.9999975280763,2|0,1:2|0:2,0:2:0:0:
499,261,130180,5,6,1:2:0:0:
499,180,130289,1,2,1:2:0:0:
421,154,130399,1,2,1:2:0:0:
374,220,130508,1,2,0:2:0:0:
422,286,130617,2,0,L|499:261,1,80.9999975280763,10|0,0:2|0:2,0:2:0:0:
337,145,130836,2,0,L|260:170,1,80.9999975280763,2|0,0:2|0:2,0:2:0:0:
128,352,131055,1,2,1:2:0:0:
128,352,131110,1,0,1:2:0:0:
128,352,131165,2,0,B|163:308|163:308|142:205,1,161.999995056153,0|0,1:2|0:2,0:2:0:0:
16,80,131493,2,0,P|25:119|41:156,1,80.9999975280763,10|0,0:2|0:2,0:2:0:0:
272,336,131712,6,0,B|311:372|311:372|429:383|490:275,1,270,6|0,1:2|0:2,0:2:0:0:
512,96,132150,2,0,L|433:81,1,80.9999975280763,2|0,1:2|0:2,0:2:0:0:
268,223,132369,1,10,0:2:0:0:
268,223,132479,2,0,L|429:208,1,161.999995056153,2|0,1:2|0:2,0:2:0:0:
512,344,132807,2,0,L|350:329,1,161.999995056153,2|0,1:2|0:2,0:2:0:0:
192,384,133136,1,2,1:2:0:0:
192,384,133245,2,0,L|175:293,1,80.9999975280763,10|0,0:2|0:2,0:2:0:0:
32,256,133464,2,0,L|15:165,1,80.9999975280763,2|0,1:2|0:2,0:2:0:0:
128,32,133683,5,6,1:2:0:0:
128,32,133738,1,0,1:2:0:0:
128,32,133793,2,0,L|168:35,1,40.4999987640381,0|0,1:2|0:2,0:2:0:0:
224,128,133902,2,0,L|385:112,1,161.999995056153,2|10,0:2|0:2,0:2:0:0:
512,28,134231,1,0,1:2:0:0:
512,28,134340,2,0,P|497:65|488:105,1,80.9999975280763,2|0,0:2|0:2,0:2:0:0:
496,240,134559,2,0,L|504:281,2,40.4999987640381,2|0|0,1:2|1:2|1:2,0:2:0:0:
375,179,134778,2,0,P|337:164|297:155,1,80.9999975280763,2|0,1:2|0:2,0:2:0:0:
192,288,134997,2,0,P|231:279|269:264,1,80.9999975280763,10|0,0:2|0:2,0:2:0:0:
304,48,135216,6,0,L|62:72,1,242.999992584229,6|0,1:2|0:2,0:2:0:0:
13,276,135654,1,2,1:2:0:0:
102,301,135763,1,2,0:2:0:0:
192,288,135873,2,0,P|231:279|269:264,1,80.9999975280763,10|0,0:2|0:2,0:2:0:0:
23,190,136092,2,0,P|8:152|0:112,1,80.9999975280763,2|0,0:2|0:2,0:2:0:0:
238,36,136311,2,0,L|204:194,1,161.999995056153,2|0,1:2|0:2,0:2:0:0:
177,384,136639,1,0,1:2:0:0:
177,384,136749,2,0,L|256:367,1,80.9999975280763,8|0,0:2|0:2,0:2:0:0:
368,384,136968,2,0,L|447:367,1,80.9999975280763,0|0,1:2|0:2,0:2:0:0:
512,128,137187,6,0,P|473:118|432:111,1,80.9999975280763,6|0,1:2|0:2,0:2:0:0:
320,288,137406,2,0,P|347:259|373:227,1,80.9999975280763,2|0,1:2|0:2,0:2:0:0:
277,41,137625,2,0,P|288:79|302:117,1,80.9999975280763,10|0,0:2|0:2,0:2:0:0:
432,304,137844,1,2,0:2:0:0:
261,214,137953,2,0,P|222:204|181:197,1,80.9999975280763,2|0,0:2|1:2,0:2:0:0:
181,197,138117,1,0,1:2:0:0:
181,197,138172,1,0,1:2:0:0:
64,288,138282,2,0,P|50:208|31:129,1,161.999995056153,2|8,0:2|0:2,0:2:0:0:
31,130,138720,2,0,P|24:169|14:209,1,80.9999975280763,6|0,1:2|0:2,0:2:0:0:
160,352,138939,6,0,L|240:342,1,80.9999975280763,2|0,0:2|0:2,0:2:0:0:
384,224,139158,2,0,L|303:214,1,80.9999975280763,2|0,1:2|0:2,0:2:0:0:
160,96,139377,2,0,L|240:86,1,80.9999975280763,10|0,0:2|1:2,0:2:0:0:
416,128,139596,1,2,0:2:0:0:
202,259,139705,2,0,L|212:178,1,80.9999975280763,2|8,1:2|0:2,0:2:0:0:
211,178,139869,1,0,1:2:0:0:
211,178,139924,1,0,1:2:0:0:
119,201,140034,1,2,1:2:0:0:
37,133,140143,1,0,1:2:0:0:
39,29,140253,1,8,0:2:0:0:
0,288,140472,1,2,0:2:0:0:
259,328,140690,6,0,B|306:338|306:338|349:336|349:336|376:357|376:357|425:366,1,175.499991966248,6|0,1:1|0:2,0:2:0:0:
512,384,141128,6,0,B|497:341|497:341|519:295,2,90,2|0|0,1:1|1:2|1:2,0:2:0:0:
416,96,141566,6,0,L|383:65,1,45,10|0,0:1|0:2,0:2:0:0:
437,93,141676,2,0,L|480:80,1,45,2|0,0:1|0:2,0:2:0:0:
426,112,141785,2,0,L|415:155,1,45,2|0,0:1|0:2,0:2:0:0:
249,318,142004,6,0,L|216:287,1,45,2|0,1:1|0:2,0:2:0:0:
270,315,142114,2,0,L|313:302,1,45,2|0,1:1|0:2,0:2:0:0:
259,334,142223,2,0,L|248:377,1,45,2|0,1:1|0:2,0:2:0:0:
32,382,142442,6,0,B|35:347|16:328|16:328|30:307|30:283|30:283|1:259|5:222,1,175.499991966248,2|0,0:2|0:2,0:2:0:0:
16,136,142880,6,0,B|88:175|88:175|192:135,1,180,2|0,1:1|1:2,0:2:0:0:
269,77,143209,1,0,1:2:0:0:
96,64,143318,1,8,0:1:0:0:
96,64,143428,6,0,B|105:110|105:110|122:141|122:141|108:166|108:166|121:236,1,175.499991966248,2|0,0:2|0:2,0:2:0:0:
119,229,143866,1,0,1:2:0:0:
384,377,144085,1,0,1:2:0:0:
384,377,144194,6,0,L|391:327,1,45,2|0,0:2|0:2,0:2:0:0:
400,256,144304,2,0,L|406:207,1,45,2|0,0:2|0:2,0:2:0:0:
415,135,144413,2,0,L|421:85,1,45,2|0,0:2|0:2,0:2:0:0:
435,14,144523,2,0,L|320:-5,1,90,2|0,0:2|0:2,0:2:0:0:
164,115,144742,2,0,L|341:85,1,180,2|0,0:1|0:2,0:2:0:0:
511,319,145070,2,0,P|435:245|327:271,1,216,8|0,0:2|0:2,0:2:0:0:
263,365,145508,6,0,L|213:358,1,45,2|0,1:2|0:2,0:2:0:0:
142,349,145617,2,0,L|93:343,1,45,2|0,1:2|0:2,0:2:0:0:
21,333,145727,2,0,L|0:241,1,90,2|0,1:2|0:2,0:2:0:0:
139,80,145946,1,0,1:2:0:0:
118,167,146055,1,0,1:2:0:0:
97,254,146165,1,0,1:2:0:0:
52,59,146384,1,0,1:2:0:0:
184,275,146603,1,0,1:2:0:0:
271,295,146712,1,0,1:2:0:0:
358,317,146822,6,0,L|402:312,2,45,10|0|0,0:2|1:2|1:2,0:2:0:0:
496,320,147150,2,0,L|491:275,2,45,2|0|0,1:2|1:2|1:2,0:2:0:0:
418,224,147479,2,0,L|422:179,1,45,2|0,1:2|1:2,0:2:0:0:
512,32,147698,6,0,L|377:46,1,135.000005149842,6|0,1:2|1:2,0:2:0:0:
344,39,148026,1,2,1:2:0:0:
310,32,148136,1,8,0:2:0:0:
95,96,148355,2,0,P|217:114|207:237,1,270.000010299683,2|0,1:2|1:2,0:2:0:0:
32,384,149012,1,8,0:2:0:0:
85,179,149231,2,0,L|152:169,1,67.5000025749208,2|0,1:2|1:2,0:2:0:0:
320,256,149450,5,2,1:2:0:0:
480,160,149669,1,2,1:2:0:0:
487,127,149778,1,0,1:2:0:0:
494,93,149888,1,8,0:2:0:0:
384,0,150107,1,2,1:2:0:0:
359,142,150326,1,0,1:2:0:0:
512,320,150545,2,0,B|468:296|468:296|367:325,1,153.000002918243,6|8,1:2|0:2,0:2:0:0:
256,384,150873,1,2,1:2:0:0:
181,367,150982,1,0,1:2:0:0:
106,350,151092,1,0,1:2:0:0:
35,337,151201,5,14,0:2:0:0:
35,337,151311,2,0,L|20:220,1,116.999994644165,0|0,1:2|0:2,0:2:0:0:
128,32,151639,1,14,0:2:0:0:
128,32,151749,2,0,L|141:148,1,116.999994644165,0|0,1:2|0:2,0:2:0:0:
208,261,152077,6,0,L|297:271,1,90,14|0,0:2|0:2,0:2:0:0:
485,144,152296,2,0,L|395:133,1,90,10|0,0:2|0:2,0:2:0:0:
220,82,152515,2,0,L|230:171,1,90,10|0,0:2|0:2,0:2:0:0:
473,323,152734,2,0,L|462:233,1,90,10|0,0:2|0:2,0:2:0:0:
352,32,152953,1,10,0:2:0:0:
297,271,153063,1,8,0:2:0:0:
271,308,153172,1,0,1:2:0:0:
245,345,153282,1,0,1:2:0:0:
219,382,153391,2,0,L|163:374,3,45,0|0|0|0,1:3|1:3|1:3|1:3,0:2:0:0:
96,384,153610,5,2,0:2:0:0:
76,299,153829,1,10,0:2:0:0:
60,218,154048,1,2,0:2:0:0:
60,218,154158,2,0,L|114:209,1,45,2|8,0:2|0:3,0:2:0:0:
40,133,154431,1,2,0:2:0:0:
447,63,154705,6,0,P|482:120|470:185,1,135.000005149842,6|0,1:2|0:2,0:2:0:0:
288,224,155034,2,0,P|319:165|381:144,1,135.000005149842,0|0,1:2|0:2,0:2:0:0:
512,276,155362,2,0,L|443:285,1,67.5000025749208,0|0,1:2|0:2,0:2:0:0:
216,338,155581,2,0,B|259:280|259:280|227:151,1,202.500007724762,14|0,0:2|0:2,0:2:0:0:
172,96,156019,2,0,L|103:87,1,67.5000025749208,2|0,0:2|0:2,0:2:0:0:
19,330,156238,1,0,1:2:0:0:
51,323,156347,1,0,1:2:0:0:
83,316,156457,6,0,P|150:323|216:338,1,135.000005149842,2|0,1:2|0:2,0:2:0:0:
352,384,156785,2,0,P|337:318|330:251,1,135.000005149842,0|0,1:2|0:2,0:2:0:0:
448,160,157114,2,0,P|444:193|437:226,1,67.5000025749208,0|0,1:2|0:2,0:2:0:0:
174,246,157333,5,14,0:2:0:0:
152,166,157442,1,0,1:2:0:0:
232,144,157552,1,0,1:2:0:0:
254,224,157661,1,0,1:2:0:0:
362,326,157771,5,14,0:2:0:0:
459,353,157880,1,0,1:2:0:0:
485,257,157990,1,0,1:2:0:0:
389,230,158099,1,0,1:2:0:0:
232,144,158209,6,0,B|209:95|209:95|239:5,1,135.000005149842,6|0,1:2|0:2,0:2:0:0:
431,33,158537,2,0,B|400:77|400:77|307:96,1,135.000005149842,0|0,1:2|0:2,0:2:0:0:
166,235,158866,2,0,L|232:243,1,67.5000025749208,0|0,1:2|0:2,0:2:0:0:
448,320,159085,2,0,B|370:331|370:331|340:369|340:369|265:380,1,202.500007724762,14|0,0:2|0:2,0:2:0:0:
186,384,159523,2,0,L|118:375,1,67.5000025749208,2|0,0:2|0:2,0:2:0:0:
7,226,159742,1,0,1:2:0:0:
3,192,159851,1,0,1:2:0:0:
0,158,159961,6,0,L|26:25,1,135.000005149842,2|0,1:2|0:2,0:2:0:0:
192,0,160289,2,0,L|166:133,1,135.000005149842,0|0,1:2|0:2,0:2:0:0:
11,260,160617,2,0,L|77:247,1,67.5000025749208,0|0,1:2|0:2,0:2:0:0:
374,364,160836,6,0,L|402:369,2,22.5000008583069,10|0|0,0:2|1:2|1:2,0:2:0:0:
287,255,161001,5,2,1:2:0:0:
237,384,161138,5,2,1:2:0:0:
299,334,161274,5,10,0:2:0:0:
287,255,161384,1,2,0:2:0:0:
275,175,161493,1,2,0:2:0:0:
263,96,161603,1,2,0:2:0:0:
250,17,161712,6,0,P|183:6|116:4,1,135.000005149842,6|0,1:2|0:2,0:2:0:0:
67,159,162041,2,0,P|134:156|201:146,1,135.000005149842,0|0,1:2|0:2,0:2:0:0:
326,45,162369,2,0,P|359:46|392:51,1,67.5000025749208,0|0,1:2|0:2,0:2:0:0:
500,299,162588,2,0,B|461:247|461:247|502:101,1,202.500007724762,14|0,0:2|0:2,0:2:0:0:
460,45,163026,2,0,P|426:50|393:51,1,67.5000025749208,2|0,0:2|0:2,0:2:0:0:
160,32,163245,1,0,1:2:0:0:
126,28,163355,1,0,1:2:0:0:
92,23,163464,6,0,P|71:88|54:153,1,135.000005149842,2|0,1:2|0:2,0:2:0:0:
229,257,163793,2,0,P|212:192|192:128,1,135.000005149842,0|0,1:2|0:2,0:2:0:0:
64,256,164121,2,0,P|72:288|82:320,1,67.5000025749208,0|0,1:2|0:2,0:2:0:0:
416,384,164340,2,0,P|426:351|434:319,1,67.5000025749208,14|0,0:2|0:2,0:2:0:0:
512,127,164559,1,0,1:2:0:0:
480,112,164669,1,0,1:2:0:0:
449,97,164778,1,14,0:2:0:0:
414,175,164888,1,2,0:2:0:0:
329,166,164997,1,2,0:2:0:0:
311,83,165107,1,2,0:2:0:0:
386,40,165216,6,0,P|320:55|253:64,1,135.000005149842,6|0,1:2|0:2,0:2:0:0:
50,23,165544,2,0,P|116:7|183:-1,1,135.000005149842,0|0,1:2|0:2,0:2:0:0:
218,155,165873,2,0,P|186:162|152:167,1,67.5000025749208,0|0,1:2|0:2,0:2:0:0:
0,160,166092,1,10,0:2:0:0:
0,160,166201,1,0,0:2:0:0:
0,160,166311,1,0,0:0:0:0:
64,384,166530,1,2,0:0:0:0:
218,155,166749,1,0,1:2:0:0:
252,148,166858,1,0,1:2:0:0:
285,141,166968,6,0,B|322:169|322:169|308:262,1,135.000005149842,2|0,1:2|0:2,0:2:0:0:
429,384,167296,2,0,B|392:356|392:356|406:263,1,135.000005149842,0|0,1:2|0:2,0:2:0:0:
512,177,167625,2,0,L|446:185,1,67.5000025749208,0|0,1:2|0:2,0:2:0:0:
296,351,167844,1,10,0:2:0:0:
296,351,167899,1,0,1:2:0:0:
296,351,167953,2,0,L|163:367,1,135.000005149842,0|0,1:2|0:2,0:2:0:0:
0,352,168282,1,10,0:2:0:0:
256,224,168501,1,2,0:2:0:0:
32,32,168720,6,0,L|234:56,1,202.500007724762,6|0,1:2|0:2,0:2:0:0:
0,183,169158,2,0,L|200:158,1,202.500007724762,10|0,0:2|0:2,0:2:0:0:
32,320,169596,1,2,1:2:0:0:
32,320,169815,1,0,1:2:0:0:
257,384,170034,1,10,0:2:0:0:
201,158,170253,5,2,1:2:0:0:
192,190,170362,1,0,1:2:0:0:
183,222,170472,1,0,1:2:0:0:
350,325,170690,1,2,1:2:0:0:
341,293,170800,1,0,1:2:0:0:
332,261,170909,1,8,0:2:0:0:
122,372,171128,1,2,1:2:0:0:
122,372,171238,1,0,1:2:0:0:
122,372,171347,2,0,L|257:384,1,135.000005149842,4|0,1:2|0:2,0:2:0:0:
512,192,171785,2,0,L|377:180,1,135.000005149842,12|0,0:2|1:2,0:2:0:0:
0,67,172223,5,4,1:2:0:0:
32,259,172442,1,2,0:2:0:0:
224,227,172661,1,10,0:2:0:0:
192,35,172880,1,2,1:2:0:0:
112,147,172990,2,0,L|134:280,1,135.000005149842,2|0,0:2|0:2,0:2:0:0:
192,352,173318,1,2,0:2:0:0:
0,192,173537,1,10,0:2:0:0:
192,35,173756,6,0,B|252:15|252:15|385:53,1,202.500007724762,6|0,1:2|0:2,0:2:0:0:
480,128,174194,1,2,1:2:0:0:
134,280,174413,1,8,0:2:0:0:
448,384,174632,1,6,1:2:0:0:
452,350,174742,1,0,1:2:0:0:
456,316,174851,1,0,1:2:0:0:
308,204,175070,1,2,1:2:0:0:
312,238,175180,1,0,1:2:0:0:
316,272,175289,1,8,0:2:0:0:
480,128,175508,1,2,1:2:0:0:
224,32,175727,6,0,P|156:25|89:23,1,135.000005149842,2|0,1:2|0:2,0:2:0:0:
316,69,176055,2,0,P|310:136|308:203,1,135.000005149842,0|0,1:2|0:2,0:2:0:0:
400,16,176384,1,0,1:2:0:0:
43,136,176603,1,12,0:2:0:0:
288,352,177260,1,0,1:2:0:0:
288,352,177369,1,0,1:2:0:0:
288,352,177479,6,0,P|356:359|423:361,1,135.000005149842,2|0,1:2|0:2,0:2:0:0:
196,315,177807,2,0,P|202:248|204:181,1,135.000005149842,0|0,1:2|0:2,0:2:0:0:
112,368,178136,1,0,1:2:0:0:
469,136,178355,2,0,L|332:117,1,135.000005149842,12|0,0:2|1:2,0:2:0:0:
122,4,178683,1,0,1:2:0:0:
64,64,178793,2,0,L|201:45,1,135.000005149842,12|0,0:2|1:2,0:2:0:0:
416,0,179231,5,12,0:2:0:0:
423,39,179340,1,0,1:2:0:0:
335,118,179559,1,0,1:2:0:0:
328,157,179669,1,8,0:2:0:0:
416,236,179888,1,0,1:2:0:0:
373,349,180107,1,8,0:2:0:0:
334,356,180216,1,0,1:2:0:0:
295,363,180326,1,0,1:2:0:0:
256,370,180435,1,0,1:2:0:0:
217,377,180544,1,8,0:2:0:0:
178,384,180654,1,0,1:2:0:0:
32,352,180873,1,0,1:2:0:0:
14,315,180982,5,8,0:2:0:0:
32,160,181092,1,8,0:2:0:0:
40,120,181201,2,0,L|106:108,1,67.5000025749208,2|0,1:2|1:2,0:2:0:0:
472,120,181420,2,0,L|405:108,1,67.5000025749208,2|0,1:2|1:2,0:2:0:0:
128,192,181639,2,0,L|118:262,1,67.5000025749208,2|0,1:2|1:2,0:2:0:0:
373,310,181858,1,10,0:2:0:0:
377,292,181931,1,8,0:2:0:0:
381,274,182004,1,8,0:2:0:0:
383,255,182077,2,0,L|374:189,1,67.5000025749208,0|2,1:2|1:2,0:2:0:0:
256,0,182296,5,8,0:2:0:0:
256,96,182406,5,8,0:2:0:0:
256,192,182515,5,8,0:2:0:0:
256,288,182625,5,8,0:2:0:0:
256,384,182734,6,0,L|140:365,1,116.999994644165,6|0,1:2|0:2,0:2:0:0:
340,240,183063,2,0,L|455:221,1,116.999994644165,0|0,1:2|0:2,0:2:0:0:
172,144,183391,1,0,1:2:0:0:
416,352,183610,1,14,0:2:0:0:
64,64,184267,5,0,1:2:0:0:
58,92,184377,1,0,1:2:0:0:
52,120,184486,2,0,L|64:236,1,116.999994644165,2|0,1:2|0:2,0:2:0:0:
192,384,184815,2,0,L|179:267,1,116.999994644165,0|0,1:2|0:2,0:2:0:0:
25,339,185143,2,0,L|83:345,1,58.4999973220826,0|0,1:2|0:2,0:2:0:0:
448,288,185362,2,0,L|304:272,1,144,14|0,0:2|1:2,0:2:0:0:
117,72,185690,1,0,1:2:0:0:
52,120,185800,2,0,L|195:104,1,144,14|0,0:2|1:2,0:2:0:0:
447,0,186238,6,0,P|440:29|435:56,1,58.4999973220826,6|0,1:2|0:2,0:2:0:0:
448,288,186457,1,2,1:2:0:0:
448,288,186566,1,0,1:2:0:0:
448,288,186676,1,0,1:2:0:0:
256,192,186895,1,0,1:2:0:0:
64,352,187114,2,0,P|42:236|16:123,1,233.999989288331,10|0,0:2|0:2,0:2:0:0:
256,32,187771,1,0,1:2:0:0:
250,60,187880,1,0,1:2:0:0:
244,88,187990,6,0,P|186:100|128:108,1,116.999994644165,2|0,1:2|0:2,0:2:0:0:
326,178,188318,2,0,P|343:122|365:68,1,116.999994644165,0|0,1:2|0:2,0:2:0:0:
207,204,188647,1,0,1:2:0:0:
448,352,188866,2,0,L|495:344,3,29.2499986610413,10|0|0|0,0:2|1:2|1:2|1:2,0:2:0:0:
350,333,189085,1,0,1:2:0:0:
318,318,189194,1,0,1:2:0:0:
287,303,189304,1,10,0:2:0:0:
252,381,189413,1,2,0:2:0:0:
167,372,189523,1,2,0:2:0:0:
149,289,189632,1,2,0:2:0:0:
223,246,189742,6,0,P|233:203|241:160,1,87.749995983124,6|0,1:2|0:2,0:2:0:0:
201,98,189961,2,0,L|140:83,1,58.4999973220826,2|0,0:2|1:2,0:2:0:0:
32,160,190180,2,0,L|93:145,1,58.4999973220826,2|0,0:2|0:2,0:2:0:0:
201,98,190399,2,0,L|262:83,1,58.4999973220826,2|0,1:2|0:2,0:2:0:0:
511,127,190617,2,0,P|392:117|335:226,1,233.999989288331,14|0,0:2|0:2,0:2:0:0:
480,384,191274,1,0,1:2:0:0:
472,355,191384,1,0,1:2:0:0:
465,326,191493,6,0,P|407:313|349:305,1,116.999994644165,2|0,1:2|0:2,0:2:0:0:
160,384,191822,2,0,P|217:375|275:363,1,116.999994644165,0|0,1:2|0:2,0:2:0:0:
292,233,192150,2,0,P|263:226|234:222,1,58.4999973220826,0|0,1:2|0:2,0:2:0:0:
32,320,192369,2,0,L|19:249,1,72,14|0,0:2|0:2,0:2:0:0:
190,70,192588,1,0,1:2:0:0:
190,70,192698,1,0,1:2:0:0:
190,70,192807,1,14,0:2:0:0:
155,148,192917,1,2,0:2:0:0:
70,139,193026,1,2,0:2:0:0:
52,56,193136,1,2,0:2:0:0:
126,13,193245,6,0,L|241:32,1,116.999994644165,6|0,1:2|0:2,0:2:0:0:
270,167,193574,2,0,L|155:148,1,116.999994644165,0|0,1:2|0:2,0:2:0:0:
352,64,193902,2,0,L|409:73,1,58.4999973220826,0|0,1:2|0:2,0:2:0:0:
476,316,194121,2,0,P|372:278|380:170,1,233.999989288331,10|0,0:2|0:2,0:2:0:0:
241,32,194778,1,0,1:2:0:0:
212,39,194888,1,0,1:2:0:0:
184,46,194997,6,0,B|161:84|161:84|178:154,1,116.999994644165,2|0,1:2|0:2,0:2:0:0:
80,318,195326,2,0,B|103:280|103:280|85:209,1,116.999994644165,0|0,1:2|0:2,0:2:0:0:
23,80,195654,2,0,L|14:137,1,58.4999973220826,0|0,1:2|0:2,0:2:0:0:
192,352,195873,1,10,0:2:0:0:
192,352,195982,2,0,L|312:366,1,116.999994644165,0|0,1:2|0:2,0:2:0:0:
480,160,196311,1,10,0:2:0:0:
512,352,196530,1,2,0:2:0:0:
320,128,196749,6,0,L|339:-5,1,135.000005149842,6|0,1:2|1:2,0:2:0:0:
320,256,197187,2,0,L|453:275,1,135.000005149842,8|0,0:2|1:2,0:2:0:0:
192,256,197515,1,0,1:2:0:0:
192,256,197625,2,0,L|171:389,1,135.000005149842,4|0,1:2|0:2,0:2:0:0:
192,128,198063,2,0,L|57:107,1,135.000005149842,8|0,0:2|1:2,0:2:0:0:
320,128,198501,5,6,1:2:0:0:
320,256,198720,1,0,1:2:0:0:
192,256,198939,1,8,0:2:0:0:
192,128,199158,2,0,L|239:124,1,45,0|0,1:0|1:0,0:0:0:0:
437,192,199377,5,6,1:2:0:0:
256,373,199596,1,0,1:2:0:0:
74,192,199815,1,8,0:2:0:0:
256,10,200034,1,0,1:2:0:0:
256,192,200253,5,6,1:2:0:0:
32,64,200472,1,0,1:2:0:0:
256,10,200690,1,8,0:2:0:0:
74,192,200909,1,0,1:2:0:0:
64,224,201019,1,0,1:2:0:0:
55,256,201128,1,6,1:2:0:0:
128,384,201347,1,0,1:2:0:0:
256,96,201566,1,8,0:2:0:0:
512,320,201785,6,0,L|310:335,1,202.500007724762,6|0,1:2|0:2,0:2:0:0:
256,384,202223,1,0,1:2:0:0:
32,160,202442,1,8,0:2:0:0:
256,96,202661,1,0,1:2:0:0:
256,96,202771,1,0,1:2:0:0:
256,96,202880,1,2,1:2:0:0:
175,259,203099,1,0,1:2:0:0:
167,225,203209,1,0,1:2:0:0:
160,192,203318,1,8,0:2:0:0:
32,384,203537,1,0,1:2:0:0:
271,208,203756,6,0,P|338:218|403:237,1,135.000005149842,2|0,1:2|0:2,0:2:0:0:
160,192,204085,2,0,P|135:129|120:63,1,135.000005149842,0|0,1:2|0:2,0:2:0:0:
202,297,204413,1,0,1:2:0:0:
448,128,204632,2,0,L|472:2,1,125.999996154785,14|0,0:2|0:2,0:2:0:0:
506,261,205289,1,2,1:2:0:0:
493,290,205399,1,2,1:2:0:0:
480,319,205508,6,0,P|426:359|360:356,1,135.000005149842,2|0,1:2|0:2,0:2:0:0:
307,183,205836,2,0,P|367:209|398:268,1,135.000005149842,2|0,1:2|0:2,0:2:0:0:
268,384,206165,2,0,L|200:376,1,67.5000025749208,2|0,1:2|0:2,0:2:0:0:
32,288,206384,1,14,0:2:0:0:
31,287,206493,2,0,P|23:255|20:221,1,67.5000025749208,0|0,1:2|0:2,0:2:0:0:
192,160,206712,1,2,1:2:0:0:
192,160,206822,2,0,P|189:193|180:226,1,67.5000025749208,8|0,0:2|0:2,0:2:0:0:
15,95,207041,2,0,P|44:77|75:66,1,67.5000025749208,2|0,1:2|0:2,0:2:0:0:
384,32,207260,5,14,0:2:0:0:
384,32,207369,2,0,L|307:21,1,76.5000014591217,0|0,1:2|0:2,0:2:0:0:
116,170,207588,1,2,1:2:0:0:
116,170,207698,2,0,L|193:159,1,76.5000014591217,8|0,0:2|0:2,0:2:0:0:
383,319,207917,2,0,L|307:308,1,76.5000014591217,2|0,1:2|0:2,0:2:0:0:
128,352,208136,5,14,0:2:0:0:
128,352,208245,2,0,L|205:363,1,76.5000014591217,0|0,1:2|0:2,0:2:0:0:
396,214,208464,1,2,1:2:0:0:
396,214,208574,2,0,L|319:225,1,76.5000014591217,8|0,0:2|0:2,0:2:0:0:
128,64,208793,2,0,L|205:75,1,76.5000014591217,2|0,1:2|0:2,0:2:0:0:
480,32,209012,5,10,0:2:0:0:
512,191,209121,2,0,L|495:265,1,76.5000014591217,8|0,0:2|1:2,0:2:0:0:
352,384,209340,1,2,1:2:0:0:
352,384,209450,2,0,L|335:309,1,76.5000014591217,8|0,0:2|0:2,0:2:0:0:
411,181,209669,2,0,L|394:106,1,76.5000014591217,2|0,1:2|0:2,0:2:0:0:
256,32,209888,1,2,1:2:0:0:
256,32,209942,1,0,1:2:0:0:
256,32,209997,2,0,L|96:17,1,153.000002918243,0|0,1:2|0:2,0:2:0:0:
32,192,210326,5,2,0:2:0:0:
37,224,210435,1,2,0:2:0:0:
147,270,210544,5,2,0:2:0:0:
142,302,210654,1,2,0:2:0:0:
47,350,210763,6,0,P|135:334|224:321,1,180,6|8,1:2|0:2,0:2:0:0:
480,352,211092,2,0,P|396:332|370:250,1,180,2|0,1:2|0:2,0:2:0:0:
496,48,211420,2,0,P|488:137|478:227,1,180,10|0,0:2|1:2,0:2:0:0:
142,302,211749,1,0,1:2:0:0:
142,302,211858,2,0,L|121:214,1,90,10|0,0:2|0:2,0:2:0:0:
256,64,212077,2,0,L|277:152,1,90,2|0,1:2|1:2,0:2:0:0:
134,327,212296,2,0,L|113:239,1,90,10|0,0:2|0:2,0:2:0:0:
264,39,212515,6,0,L|307:221,1,180,2|8,1:2|0:2,0:2:0:0:
0,128,212844,2,0,P|74:81|159:103,1,180,2|0,1:2|0:2,0:2:0:0:
464,189,213172,2,0,P|379:167|305:214,1,180,10|0,0:2|1:2,0:2:0:0:
372,367,213501,1,0,1:2:0:0:
372,367,213610,2,0,P|384:323|393:279,1,90,10|0,0:2|0:2,0:2:0:0:
216,280,213829,2,0,P|203:236|194:192,1,90,2|0,1:2|1:2,0:2:0:0:
391,83,214048,2,0,P|347:73|303:61,1,90,10|0,0:2|0:2,0:2:0:0:
64,0,214267,6,0,B|103:44|103:44|73:165,1,180,2|8,1:2|0:2,0:2:0:0:
0,304,214596,1,0,1:2:0:0:
0,304,214705,2,0,L|89:314,1,90,2|0,1:2|1:2,0:2:0:0:
224,384,214924,1,10,0:2:0:0:
268,376,215034,1,0,1:2:0:0:
312,369,215143,2,0,L|400:352,1,90,0|0,1:2|1:2,0:2:0:0:
512,192,215362,2,0,B|455:161|455:161|344:190,1,180,10|0,0:2|1:2,0:2:0:0:
181,309,215690,1,0,1:2:0:0:
89,314,215800,6,0,P|74:225|55:137,2,180,10|0|10,0:2|1:2|0:2,0:2:0:0:
399,274,216347,2,0,P|310:259|222:240,1,180,2|0,1:2|0:2,0:2:0:0:
363,0,216676,2,0,L|371:89,1,90,8|0,0:2|1:2,0:2:0:0:
208,115,216895,2,0,L|281:62,1,90,0|0,1:2|1:2,0:2:0:0:
386,191,217114,2,0,L|304:153,1,90,8|0,0:2|1:2,0:2:0:0:
89,55,217333,2,0,L|176:32,1,90,2|0,1:2|1:2,0:2:0:0:
458,111,217552,2,0,L|371:89,1,90,10|0,0:2|0:2,0:2:0:0:
95,256,217771,6,0,P|130:335|215:353,1,180,2|8,1:2|0:2,0:2:0:0:
388,225,218099,2,0,L|209:250,1,180,2|0,1:2|0:2,0:2:0:0:
468,362,218428,2,0,P|487:274|509:187,1,180,10|0,0:2|1:2,0:2:0:0:
346,49,218756,1,0,1:2:0:0:
346,49,218866,2,0,P|369:137|388:225,1,180,10|0,0:2|1:2,0:2:0:0:
288,352,219194,1,0,1:2:0:0:
192,384,219304,6,0,L|3:362,2,180,10|0|8,0:2|1:2|0:2,0:2:0:0:
384,320,219851,2,0,L|406:131,1,180,0|0,1:2|0:2,0:2:0:0:
192,128,220180,2,0,P|219:209|302:231,1,180,8|0,0:2|1:2,0:2:0:0:
470,65,220508,1,0,1:2:0:0:
470,65,220617,2,0,P|426:53|382:45,1,90,10|0,0:2|0:2,0:2:0:0:
104,147,220836,2,0,P|147:135|192:128,1,90,2|0,1:2|1:2,0:2:0:0:
469,229,221055,2,0,P|425:217|381:209,1,90,10|0,0:2|0:2,0:2:0:0:
89,287,221274,5,10,0:2:0:0:
89,287,221384,2,0,L|167:243,1,90,0|0,1:2|0:2,0:2:0:0:
422,96,221603,5,10,0:2:0:0:
422,96,221712,2,0,L|344:141,1,90,0|0,1:2|0:2,0:2:0:0:
255,384,221931,5,10,0:2:0:0:
255,384,222041,2,0,L|256:294,1,90,0|0,1:2|0:2,0:2:0:0:
256,0,222260,5,10,0:2:0:0:
256,0,222369,2,0,L|256:90,1,90,0|0,1:2|0:2,0:2:0:0:
422,288,222588,6,0,L|344:242,1,90,12|0,0:2|1:2,0:2:0:0:
89,95,222807,6,0,L|172:144,1,90,14|0,0:2|1:2,0:2:0:0:
422,288,223026,6,0,L|244:318,1,180,14|0,1:2|1:2,0:2:0:0:
0,268,223355,2,0,L|178:238,1,180,12|0,0:2|1:2,0:2:0:0:
422,288,223683,2,0,L|441:200,1,90,14|0,0:2|0:2,0:2:0:0:
416,0,223902,1,2,1:2:0:0:
416,0,223957,1,0,1:2:0:0:
416,0,224012,2,0,L|228:33,1,180,0|2,1:2|1:2,0:2:0:0:
12,200,224340,5,8,0:2:0:0:
127,234,224450,1,8,0:2:0:0:
161,119,224559,1,10,0:2:0:0:
46,85,224669,1,8,0:2:0:0:
86,159,224778,5,6,1:1:0:0:
256,192,224833,12,0,228282,1:2:0:0:
256,192,237041,12,0,238300,0:2:0:0:
65,13,238355,6,0,L|70:57,1,45,0|0,0:2|0:2,0:2:0:0:
225,77,238574,6,0,L|230:121,1,45,0|0,0:2|0:2,0:2:0:0:
129,205,238793,6,0,P|111:278|94:384,2,180,6|0|8,1:1|0:2|0:2,0:2:0:0:
352,32,240326,5,2,3:2:0:0:
352,32,240435,1,0,3:2:0:0:
352,32,240544,1,0,3:2:0:0:
448,128,240763,2,0,L|510:137,2,45,2|0|0,3:2|3:2|3:2,0:2:0:0:
322,162,241201,2,0,L|260:171,2,45,2|0|0,3:2|3:2|3:2,0:2:0:0:
445,315,241639,6,0,B|399:332|360:312|360:312|312:322|287:358|287:358|252:335|189:363,1,270.000010299683,2|0,0:1|0:2,0:2:0:0:
32,192,242296,6,0,L|18:102,1,90,2|0,1:2|0:2,0:2:0:0:
160,32,242734,2,0,L|173:121,1,90,2|0,0:2|0:2,0:2:0:0:
384,224,243172,2,0,P|302:192|227:235,1,180,10|0,0:2|3:2,0:2:0:0:
225,262,243720,1,0,3:2:0:0:
208,308,243829,1,0,3:2:0:0:
163,347,243939,1,0,3:2:0:0:
67,363,244048,5,0,1:2:0:0:
59,329,244486,1,0,1:2:0:0:
51,295,244705,1,0,1:2:0:0:
43,261,244815,1,0,1:2:0:0:
35,227,244924,1,2,1:2:0:0:
256,192,244979,12,0,245745,0:2:0:0:
185,153,245800,6,0,P|156:118|133:79,1,90,6|0,1:1|0:2,0:2:0:0:
257,272,246238,2,0,P|242:315|220:354,1,90,2|0,0:2|0:2,0:2:0:0:
325,150,246676,2,0,P|369:142|414:141,1,90,10|0,0:2|0:2,0:2:0:0:
185,153,247333,5,2,3:2:0:0:
185,153,247442,1,0,3:2:0:0:
185,153,247552,1,0,3:2:0:0:
325,150,247771,2,0,P|346:144|368:141,2,45,2|0|0,3:2|3:2|3:2,0:2:0:0:
257,272,248209,2,0,P|252:294|243:314,2,45,2|0|0,3:2|3:2|3:2,0:2:0:0:
185,153,248647,1,8,0:2:0:0:
432,304,248866,2,0,L|465:173,1,135,10|0,0:2|0:2,0:2:0:0:
512,114,249304,5,2,1:2:0:0:
512,114,249523,1,0,0:2:0:0:
347,261,249742,2,0,L|258:273,1,90,2|0,0:2|0:2,0:2:0:0:
96,384,250180,2,0,L|79:250,1,135,10|0,0:2|0:2,0:2:0:0:
4,229,250617,2,0,L|0:262,4,22.5,0|0|0|0|0,3:2|3:2|3:2|3:2|3:2,0:2:0:0:
32,32,251055,6,0,P|59:66|108:71,1,90,2|0,1:2|0:2,0:2:0:0:
288,32,251493,1,2,0:2:0:0:
288,32,251712,1,0,0:2:0:0:
383,164,251931,2,0,P|361:240|343:321,1,157.5,10|0,0:2|0:2,0:2:0:0:
363,337,252369,2,0,P|329:183|288:32,1,315,8|0,0:2|0:2,0:2:0:0:
211,17,252807,6,0,L|104:10,1,107.999996704102,6|0,1:1|0:2,0:2:0:0:
5,159,253245,2,0,L|112:166,1,107.999996704102,2|0,0:2|0:2,0:2:0:0:
261,287,253683,1,10,0:2:0:0:
82,354,253902,1,0,1:2:0:0:
113,166,254121,1,0,0:2:0:0:
151,269,254340,6,0,L|35:252,1,107.999996704102,2|0,0:2|0:2,0:2:0:0:
183,80,254778,2,0,L|226:188,1,107.999996704102,2|0,1:2|0:2,0:2:0:0:
4,147,255216,2,0,L|76:55,1,107.999996704102,2|8,0:2|0:2,0:2:0:0:
113,166,255654,1,0,1:2:0:0:
320,64,255873,1,0,0:2:0:0:
320,64,256092,1,0,0:2:0:0:
512,256,256311,5,0,1:2:0:0:
384,224,256530,1,2,1:2:0:0:
256,352,256749,1,2,0:2:0:0:
128,224,256968,1,2,0:2:0:0:
128,224,257077,2,0,L|117:157,1,53.9999983520508,2|8,0:2|0:2,0:2:0:0:
160,32,257406,1,2,1:2:0:0:
0,192,257625,1,2,0:2:0:0:
160,352,257844,6,0,L|267:364,1,107.999996704102,2|0,0:2|0:2,0:2:0:0:
192,96,258282,2,0,L|180:203,1,107.999996704102,2|0,1:2|0:2,0:2:0:0:
448,128,258720,2,0,L|341:116,1,107.999996704102,2|8,0:2|0:2,0:2:0:0:
416,384,259158,2,0,L|428:277,1,107.999996704102,2|0,1:2|0:2,0:2:0:0:
421,250,259486,1,0,0:2:0:0:
414,223,259596,2,0,L|360:217,1,53.9999983520508,2|0,1:2|0:2,0:2:0:0:
160,288,259815,5,2,1:2:0:0:
160,288,260034,1,0,0:2:0:0:
32,192,260253,2,0,L|20:85,1,107.999996704102,0|0,0:2|0:2,0:2:0:0:
160,288,260690,1,8,0:2:0:0:
288,256,260909,1,2,1:2:0:0:
416,320,261128,1,2,0:2:0:0:
512,192,261347,1,2,0:2:0:0:
512,192,261457,1,0,0:2:0:0:
512,192,261566,1,0,0:2:0:0:
416,320,261785,5,2,1:2:0:0:
352,128,262004,1,2,0:2:0:0:
160,192,262223,1,2,0:2:0:0:
223,384,262442,2,0,P|241:332|253:280,1,107.999996704102,10|0,0:2|1:2,0:2:0:0:
132,199,262771,2,0,P|143:251|161:302,1,107.999996704102,2|0,0:2|0:2,0:2:0:0:
322,384,263099,5,2,0:2:0:0:
322,384,263209,1,0,0:2:0:0:
322,384,263318,1,0,1:2:0:0:
64,352,263537,1,0,1:2:0:0:
209,239,263756,1,0,0:2:0:0:
193,368,263975,1,0,0:2:0:0:
39,170,264194,1,8,0:2:0:0:
55,42,264413,1,0,1:2:0:0:
157,120,264632,2,0,L|274:108,1,107.999996704102,0|0,0:2|0:2,0:2:0:0:
479,32,265070,6,0,P|460:82|446:134,1,107.999996704102,2|0,0:2|1:2,0:2:0:0:
256,192,265344,12,0,265946,0:0:0:0:
97,335,266822,6,0,P|50:288|52:222,1,135.000005149842,6|0,1:2|0:2,0:2:0:0:
222,153,267150,2,0,P|205:216|147:247,1,135.000005149842,0|0,1:2|0:2,0:2:0:0:
0,142,267479,2,0,L|66:129,1,67.5000025749208,0|0,1:2|0:2,0:2:0:0:
352,64,267698,2,0,L|153:25,1,202.500007724762,14|0,0:2|0:2,0:2:0:0:
74,30,268136,1,2,0:2:0:0:
97,335,268355,1,0,1:2:0:0:
129,343,268464,1,0,1:2:0:0:
160,351,268574,6,0,P|228:347|295:337,1,135.000005149842,2|0,1:2|0:2,0:2:0:0:
275,134,268902,2,0,P|243:193|219:256,1,135.000005149842,0|0,1:2|0:2,0:2:0:0:
387,384,269231,2,0,P|402:354|414:322,1,67.5000025749208,0|0,1:2|0:2,0:2:0:0:
410,74,269450,5,14,0:2:0:0:
490,52,269559,1,0,1:2:0:0:
512,132,269669,1,0,1:2:0:0:
432,154,269778,1,0,1:2:0:0:
239,40,269888,5,14,0:2:0:0:
142,13,269997,1,0,1:2:0:0:
116,109,270107,1,0,1:2:0:0:
212,136,270216,1,0,1:2:0:0:
432,154,270326,6,0,B|457:202|457:202|428:281,1,135.000005149842,6|0,1:2|0:2,0:2:0:0:
210,252,270654,2,0,B|258:227|258:227|337:255,1,135.000005149842,0|0,1:2|0:2,0:2:0:0:
474,384,270982,2,0,L|391:374,1,67.5000025749208,0|0,1:2|0:2,0:2:0:0:
94,366,271201,2,0,P|188:385|264:320,1,202.500007724762,14|0,0:2|0:2,0:2:0:0:
210,252,271639,2,0,L|127:242,1,67.5000025749208,2|0,0:2|0:2,0:2:0:0:
0,32,271858,1,0,1:2:0:0:
31,45,271968,1,0,1:2:0:0:
61,58,272077,6,0,L|212:44,1,135.000005149842,2|0,1:2|0:2,0:2:0:0:
426,0,272406,2,0,L|291:12,1,135.000005149842,0|0,1:2|0:2,0:2:0:0:
147,134,272734,2,0,L|140:209,1,67.5000025749208,0|0,1:2|0:2,0:2:0:0:
52,363,272953,6,0,L|47:384,2,22.5000008583069,10|0|0,0:2|1:2|1:2,0:2:0:0:
0,256,273117,5,2,1:2:0:0:
67,157,273254,5,2,1:2:0:0:
15,49,273391,5,10,0:2:0:0:
103,41,273501,1,2,0:2:0:0:
191,33,273610,1,2,0:2:0:0:
279,25,273720,1,2,0:2:0:0:
367,18,273829,6,0,P|433:35|496:58,1,135.000005149842,6|0,1:2|0:2,0:2:0:0:
362,238,274158,2,0,P|340:174|322:109,1,135.000005149842,0|0,1:2|0:2,0:2:0:0:
512,160,274486,2,0,P|504:192|492:224,1,67.5000025749208,0|0,1:2|0:2,0:2:0:0:
225,315,274705,2,0,B|294:322|294:322|332:364|332:364|412:371,1,202.500007724762,14|0,0:2|0:2,0:2:0:0:
480,352,275143,1,2,0:2:0:0:
160,384,275362,1,0,1:2:0:0:
127,375,275472,1,0,1:2:0:0:
94,367,275581,6,0,L|72:233,1,135.000005149842,2|0,1:2|0:2,0:2:0:0:
246,181,275909,2,0,L|225:315,1,135.000005149842,0|0,1:2|0:2,0:2:0:0:
51,215,276238,2,0,L|61:148,1,67.5000025749208,0|0,1:2|0:2,0:2:0:0:
317,353,276457,2,0,L|384:343,1,67.5000025749208,14|0,0:2|0:2,0:2:0:0:
512,128,276676,1,0,1:2:0:0:
480,113,276785,1,0,1:2:0:0:
449,98,276895,1,14,0:2:0:0:
407,191,277004,1,2,0:2:0:0:
305,180,277114,1,2,0:2:0:0:
283,81,277223,1,2,0:2:0:0:
373,29,277333,6,0,P|388:95|397:162,1,135.000005149842,6|0,1:2|0:2,0:2:0:0:
281,312,277661,2,0,P|290:245|305:180,1,135.000005149842,0|0,1:2|0:2,0:2:0:0:
512,226,277990,2,0,P|480:237|447:246,1,67.5000025749208,0|0,1:2|0:2,0:2:0:0:
283,81,278209,1,10,0:2:0:0:
283,81,278318,1,0,0:2:0:0:
283,81,278428,1,0,0:0:0:0:
32,224,278647,1,2,0:0:0:0:
397,162,278866,1,0,1:2:0:0:
404,194,278975,1,0,1:2:0:0:
410,226,279085,6,0,P|401:292|353:337,1,135.000005149842,2|0,1:2|0:2,0:2:0:0:
165,248,279413,2,0,P|226:223|289:242,1,135.000005149842,0|0,1:2|0:2,0:2:0:0:
96,384,279742,2,0,P|85:351|81:319,1,67.5000025749208,0|0,1:2|0:2,0:2:0:0:
180,113,279961,1,10,0:2:0:0:
180,113,280015,1,0,1:2:0:0:
180,113,280070,2,0,L|165:248,1,135.000005149842,0|0,1:2|0:2,0:2:0:0:
96,384,280399,1,10,0:2:0:0:
384,224,280617,1,2,0:2:0:0:
32,32,280836,6,0,L|234:56,1,202.500007724762,6|0,1:2|0:2,0:2:0:0:
0,183,281274,2,0,L|200:158,1,202.500007724762,10|0,0:2|0:2,0:2:0:0:
32,320,281712,1,2,1:2:0:0:
32,320,281931,1,0,1:2:0:0:
201,158,282150,1,10,0:2:0:0:
363,327,282369,5,2,1:2:0:0:
330,338,282479,1,0,1:2:0:0:
298,349,282588,1,0,1:2:0:0:
201,158,282807,1,2,1:2:0:0:
234,169,282917,1,0,1:2:0:0:
266,180,283026,1,8,0:2:0:0:
128,384,283245,1,2,1:2:0:0:
128,384,283355,1,0,1:2:0:0:
128,384,283464,2,0,L|100:251,1,135.000005149842,4|0,1:2|0:2,0:2:0:0:
206,36,283902,2,0,L|234:169,1,135.000005149842,12|0,0:2|1:2,0:2:0:0:
480,384,284340,5,4,1:2:0:0:
288,352,284559,1,2,0:2:0:0:
320,160,284778,1,10,0:2:0:0:
512,192,284997,1,2,1:2:0:0:
400,272,285107,2,0,L|267:250,1,135.000005149842,2|0,0:2|0:2,0:2:0:0:
96,320,285435,1,2,0:2:0:0:
288,352,285654,1,10,0:2:0:0:
74,218,285873,6,0,B|40:153|40:153|82:22,1,202.500007724762,6|0,1:2|0:2,0:2:0:0:
256,0,286311,1,2,1:2:0:0:
256,0,286420,1,0,1:2:0:0:
256,0,286530,1,8,0:2:0:0:
416,192,286749,1,6,1:2:0:0:
382,198,286858,1,0,1:2:0:0:
348,204,286968,1,0,1:2:0:0:
480,32,287187,1,2,1:2:0:0:
408,321,287406,1,10,0:2:0:0:
480,32,287625,1,2,1:2:0:0:
408,321,287844,6,0,P|342:339|276:351,1,135.000005149842,2|0,1:2|0:2,0:2:0:0:
467,236,288172,2,0,P|485:170|497:104,1,135.000005149842,0|0,1:2|0:2,0:2:0:0:
512,330,288501,1,0,1:2:0:0:
288,160,288720,1,12,0:2:0:0:
49,361,289377,1,0,1:2:0:0:
76,341,289486,1,0,1:2:0:0:
103,321,289596,6,0,P|169:339|235:351,1,135.000005149842,2|0,1:2|0:2,0:2:0:0:
45,236,289924,2,0,P|26:170|14:104,1,135.000005149842,0|0,1:2|0:2,0:2:0:0:
0,330,290253,1,0,1:2:0:0:
224,160,290472,2,0,L|358:174,1,135.000005149842,12|0,0:2|1:2,0:2:0:0:
443,358,290800,1,0,1:2:0:0:
512,320,290909,2,0,L|377:305,1,135.000005149842,12|0,0:2|1:2,0:2:0:0:
128,352,291347,5,12,0:2:0:0:
117,312,291457,1,0,1:2:0:0:
213,200,291676,1,0,1:2:0:0:
224,160,291785,1,8,0:2:0:0:
128,48,292004,1,0,1:2:0:0:
40,199,292223,1,8,0:2:0:0:
80,188,292333,1,0,1:2:0:0:
209,295,292552,1,0,1:2:0:0:
249,306,292661,1,8,0:2:0:0:
289,317,292771,1,0,1:2:0:0:
448,288,292990,1,0,1:2:0:0:
488,277,293099,5,8,0:2:0:0:
512,101,293209,1,8,0:2:0:0:
512,64,293318,2,0,L|432:49,1,80.9999975280763,2|0,1:2|1:2,0:2:0:0:
159,96,293537,2,0,L|239:110,1,80.9999975280763,2|0,1:2|1:2,0:2:0:0:
488,277,293756,2,0,L|408:262,1,80.9999975280763,2|0,1:2|1:2,0:2:0:0:
135,309,293975,1,10,0:2:0:0:
135,309,294048,1,8,0:2:0:0:
135,309,294121,1,8,0:2:0:0:
135,309,294194,2,0,L|214:323,1,80.9999975280763,0|2,1:2|1:2,0:2:0:0:
470,179,294413,5,2,0:2:0:0:
466,144,294523,1,2,0:2:0:0:
352,128,294632,5,2,0:2:0:0:
348,93,294742,1,2,0:2:0:0:
512,32,294851,6,0,L|423:15,1,90,6|0,1:2|0:2,0:2:0:0:
159,96,295070,2,0,L|247:79,1,90,2|0,0:2|0:2,0:2:0:0:
470,179,295289,1,10,0:2:0:0:
474,214,295399,1,2,1:2:0:0:
478,249,295508,2,0,L|461:337,1,90,2|0,0:2|0:2,0:2:0:0:
160,288,295727,1,2,1:2:0:0:
160,288,295782,1,0,1:2:0:0:
160,288,295836,2,0,B|209:258|209:258|328:286,1,180,0|0,1:2|0:2,0:2:0:0:
32,384,296165,2,0,P|17:341|9:297,1,90,10|0,0:2|0:2,0:2:0:0:
248,79,296384,6,0,P|174:181|55:140,1,270,6|0,1:2|0:2,0:2:0:0:
288,0,296822,1,2,1:2:0:0:
384,64,296931,2,0,L|401:152,1,90,2|8,0:2|0:2,0:2:0:0:
229,255,297150,2,0,L|246:167,1,90,2|0,1:2|0:2,0:2:0:0:
416,320,297369,1,2,0:2:0:0:
416,320,297479,2,0,B|347:333|347:333|324:365|324:365|236:385,1,180,2|0,1:2|0:2,0:2:0:0:
68,194,297807,2,0,B|137:207|137:207|160:239|160:239|229:255,1,180,2|0,1:2|0:2,0:2:0:0:
480,224,298136,2,0,L|497:136,1,90,2|0,1:2|0:2,0:2:0:0:
256,0,298355,5,6,1:2:0:0:
256,0,298464,1,2,1:2:0:0:
256,0,298574,1,2,1:2:0:0:
276,87,298683,1,2,0:2:0:0:
296,175,298793,2,0,P|339:186|390:194,1,90,10|0,0:2|1:2,0:2:0:0:
512,32,299012,2,0,P|467:38|424:50,1,90,2|0,0:2|0:2,0:2:0:0:
288,288,299231,1,2,1:2:0:0:
288,288,299285,1,0,1:2:0:0:
288,288,299340,2,0,P|294:332|306:375,1,90,0|0,1:2|0:2,0:2:0:0:
464,384,299559,1,2,1:2:0:0:
464,384,299669,2,0,P|457:339|445:296,1,90,8|0,0:2|0:2,0:2:0:0:
150,88,299888,6,0,B|174:56|210:33|210:33|309:37|407:96,1,270,6|0,1:2|0:2,0:2:0:0:
307,376,300326,2,0,P|227:343|200:260,1,180,2|8,1:2|0:2,0:2:0:0:
429,161,300654,2,0,P|397:241|314:268,1,180,2|0,1:2|0:2,0:2:0:0:
214,39,300982,2,0,P|295:71|322:154,1,180,2|0,1:2|0:2,0:2:0:0:
92,254,301311,2,0,P|125:173|208:146,1,180,2|0,1:2|0:2,0:2:0:0:
402,285,301639,2,0,L|313:268,1,90,2|0,1:2|0:2,0:2:0:0:
51,375,301858,5,6,1:2:0:0:
39,370,301968,1,2,1:2:0:0:
27,365,302077,1,2,1:2:0:0:
13,275,302187,1,2,0:2:0:0:
0,185,302296,2,0,P|4:141|14:97,1,90,10|0,0:2|0:2,0:2:0:0:
214,39,302515,2,0,P|218:83|228:127,1,90,2|0,0:2|0:2,0:2:0:0:
505,131,302734,1,10,0:2:0:0:
505,131,302789,1,0,1:2:0:0:
505,131,302844,2,0,P|438:74|352:86,1,180,0|0,1:2|0:2,0:2:0:0:
384,288,303172,2,0,L|406:200,1,90,10|0,0:2|0:2,0:2:0:0:
136,285,303391,6,0,B|208:335|208:335|384:288,1,270,6|0,1:2|0:2,0:2:0:0:
214,39,303829,1,2,1:2:0:0:
136,125,303939,2,0,L|224:143,1,90,2|8,0:2|0:2,0:2:0:0:
416,0,304158,2,0,L|327:18,1,90,2|0,0:2|0:2,0:2:0:0:
150,355,304377,1,2,1:2:0:0:
51,279,304486,6,0,B|111:278|140:254|140:254|181:272|215:275|215:275|251:247|313:248,1,270.000010299683,14|0,1:2|0:2,0:2:0:0:
512,110,304815,2,0,B|452:109|423:85|423:85|382:103|348:106|348:106|312:78|250:79,1,270.000010299683,14|0,1:2|0:2,0:2:0:0:
0,165,305143,2,0,B|50:150|50:150|82:160|82:160|129:146,1,135.000005149842,14|0,1:2|0:2,0:2:0:0:
512,320,305362,6,0,B|465:306|465:306|433:316|433:316|379:300,1,135.000005149842,6|0,1:2|1:2,0:2:0:0:
189,367,305581,1,2,1:2:0:0:
97,384,305690,1,2,0:2:0:0:
19,330,305800,2,0,P|8:286|2:237,1,90,10|0,0:2|0:2,0:2:0:0:
256,192,306019,2,0,P|223:225|183:253,1,90,2|0,0:2|0:2,0:2:0:0:
32,32,306238,1,10,1:2:0:0:
32,32,306293,1,2,1:2:0:0:
32,32,306347,2,0,P|82:44|123:48,1,90,2|0,1:2|0:2,0:2:0:0:
401,67,306566,2,0,P|311:76|224:96,1,180,2|0,0:2|0:2,0:2:0:0:
352,384,306895,6,0,B|396:326|396:326|370:219,1,180,6|0,1:2|0:2,0:2:0:0:
32,32,307333,1,2,1:2:0:0:
16,120,307442,1,2,0:2:0:0:
105,136,307552,1,2,1:2:0:0:
121,48,307661,1,2,0:2:0:0:
0,288,307880,1,2,0:2:0:0:
81,360,307990,2,0,L|135:351,2,45,8|0|2,0:2|1:2|1:2,0:2:0:0:
186,300,308209,1,0,1:2:0:0:
264,277,308318,1,2,1:2:0:0:
244,356,308428,1,10,0:2:0:0:
128,244,308647,1,2,0:0:0:0:
342,254,308866,5,6,1:1:0:0:
420,231,309085,1,2,0:2:0:0:
425,218,309194,1,2,0:2:0:0:
492,174,309413,1,2,0:2:0:0:
497,161,309523,1,2,0:2:0:0:
502,148,309632,1,2,0:2:0:0:
507,135,309742,1,10,0:2:0:0:
416,32,310070,5,2,0:2:0:0:
403,36,310180,1,2,0:2:0:0:
335,81,310399,1,2,1:2:0:0:
322,77,310508,1,2,0:2:0:0:
309,73,310617,1,2,0:2:0:0:
238,33,310836,1,2,0:2:0:0:
225,37,310946,1,2,0:2:0:0:
157,82,311165,1,2,0:2:0:0:
144,78,311274,1,2,0:2:0:0:
131,74,311384,1,2,0:2:0:0:
118,70,311493,1,2,0:2:0:0:
0,146,311712,6,0,B|39:154|69:150|69:150|80:170|103:185|103:185|136:171|194:190,1,202.500007724762,2|0,0:1|0:2,0:2:0:0:
256,242,311931,1,2,0:2:0:0:
259,255,312041,1,2,0:2:0:0:
262,268,312150,1,2,0:2:0:0:
265,281,312260,1,2,0:2:0:0:
268,294,312369,5,2,1:2:0:0:
211,350,312588,1,2,0:2:0:0:
198,344,312698,1,2,0:2:0:0:
118,360,312917,1,2,0:2:0:0:
106,354,313026,1,2,0:2:0:0:
93,349,313136,1,2,0:2:0:0:
80,343,313245,1,10,0:2:0:0:
0,224,313574,1,2,0:2:0:0:
6,211,313683,1,2,0:2:0:0:
79,172,313902,5,2,0:2:0:0:
91,146,314012,1,2,0:2:0:0:
103,120,314121,1,2,1:2:0:0:
115,94,314559,1,0,1:2:0:0:
224,192,314778,1,0,1:2:0:0:
268,183,314888,1,0,1:2:0:0:
311,174,314997,1,2,1:2:0:0:
462,313,315435,5,2,0:2:0:0:
439,273,315544,1,2,0:2:0:0:
401,296,315654,1,2,0:2:0:0:
423,334,315763,1,2,0:2:0:0:
431,304,315873,5,8,0:2:0:0:
