osu file format v14

[General]
AudioFilename: audio.mp3
AudioLeadIn: 0
PreviewTime: 89230
Countdown: 0
SampleSet: Soft
StackLeniency: 0.4
Mode: 0
LetterboxInBreaks: 0
WidescreenStoryboard: 0

[Editor]
DistanceSpacing: 0.5
BeatDivisor: 4
GridSize: 32
TimelineZoom: 1.7

[Metadata]
Title:mirage an illusory hope
TitleUnicode:mirage ∝ an illusory hope
Artist:Kitamura Eri
ArtistUnicode:喜多村英梨
Creator:Mordred
Version:Insane
Source:
Tags:illusion dream dystopia record rock han japanese
BeatmapID:2519361
BeatmapSetID:1207069

[Difficulty]
HPDrainRate:6
CircleSize:4
OverallDifficulty:7
ApproachRate:8
SliderMultiplier:1.8
SliderTickRate:1

[Events]
//Background and Video events
0,0,"81971749_p0_master1200.jpg",0,0
//Break Periods
2,185321,208593
//Storyboard Layer 0 (Background)
//Storyboard Layer 1 (Fail)
//Storyboard Layer 2 (Pass)
//Storyboard Layer 3 (Foreground)
//Storyboard Layer 4 (Overlay)
//Storyboard Sound Samples

[TimingPoints]
602,727.272727272727,4,2,2,30,1,0
602,-142.857142857143,4,2,2,30,0,0
20965,-100,4,2,1,70,0,0
41692,-100,4,2,1,45,0,0
42056,-100,4,2,1,50,0,0
42420,-100,4,2,1,55,0,0
42783,-100,4,2,1,60,0,0
43147,-100,4,2,1,65,0,0
43511,-100,4,2,1,70,0,0
43874,-100,4,2,1,80,0,0
44238,-100,4,2,2,40,0,0
67511,-100,4,2,2,60,0,0
84965,-83.3333333333333,4,2,1,70,0,0
87874,-66.6666666666667,4,2,1,70,0,0
88238,-66.6666666666667,4,2,1,50,0,0
88420,-66.6666666666667,4,2,1,55,0,0
88601,-66.6666666666667,4,2,1,60,0,0
88783,-66.6666666666667,4,2,1,65,0,0
88965,-66.6666666666667,4,2,1,70,0,0
89147,-66.6666666666667,4,2,1,75,0,0
89329,-66.6666666666667,4,2,1,60,0,0
90783,-76.9230769230769,4,2,1,70,0,1
111874,-76.9230769230769,4,2,1,60,0,1
112238,-76.9230769230769,4,2,1,65,0,1
112601,-76.9230769230769,4,2,1,70,0,1
112965,-76.9230769230769,4,2,1,75,0,1
113329,-76.9230769230769,4,2,1,80,0,1
114056,-100,4,2,1,70,0,0
114692,-100,4,2,1,5,0,0
114783,-100,4,2,1,70,0,0
116147,-100,4,2,1,5,0,0
116238,-100,4,2,1,70,0,0
117601,-100,4,2,1,5,0,0
117692,-100,4,2,1,70,0,0
119056,-100,4,2,1,5,0,0
119147,-100,4,2,1,70,0,0
119874,-83.3333333333333,4,2,1,70,0,0
129238,-83.3333333333333,4,2,1,5,0,0
129329,-83.3333333333333,4,2,1,70,0,0
132147,-83.3333333333333,4,2,1,5,0,0
132238,-83.3333333333333,4,2,1,70,0,0
134420,-83.3333333333333,4,2,1,60,0,0
135147,-83.3333333333333,4,2,1,65,0,0
135874,-83.3333333333333,4,2,1,70,0,0
137329,-66.6666666666667,4,2,1,50,0,0
148238,-66.6666666666667,4,2,1,52,0,0
148329,-66.6666666666667,4,2,1,54,0,0
148420,-66.6666666666667,4,2,1,56,0,0
148511,-66.6666666666667,4,2,1,58,0,0
148601,-66.6666666666667,4,2,1,60,0,0
148692,-66.6666666666667,4,2,1,65,0,0
148783,-66.6666666666667,4,2,1,70,0,0
148965,-66.6666666666667,4,2,1,75,0,0
149056,-66.6666666666667,4,2,1,50,0,0
154783,-66.6666666666667,4,2,1,70,0,0
158056,-66.6666666666667,4,2,1,40,0,0
158238,-66.6666666666667,4,2,1,45,0,0
158419,-66.6666666666667,4,2,1,40,0,0
158601,-66.6666666666667,4,2,1,55,0,0
158783,-66.6666666666667,4,2,1,60,0,0
158965,-66.6666666666667,4,2,1,55,0,0
159147,-66.6666666666667,4,2,1,70,0,0
160601,-76.9230769230769,4,2,1,70,0,1
181692,-76.9230769230769,4,2,1,60,0,1
182056,-76.9230769230769,4,2,1,65,0,1
182419,-76.9230769230769,4,2,1,70,0,1
182783,-76.9230769230769,4,2,1,75,0,1
183147,-76.9230769230769,4,2,1,80,0,1
183874,-100,4,2,2,40,0,0
210056,-76.9230769230769,4,2,1,70,0,1
230420,-66.6666666666667,4,2,1,70,0,1
232601,-66.6666666666667,4,2,1,70,0,1
232965,-66.6666666666667,4,2,1,70,0,0
233329,-50,4,3,1,80,0,1
256601,-100,4,2,1,50,0,0

[Colours]
Combo1 : 128,128,128
Combo2 : 128,128,192
Combo3 : 173,192,214
Combo4 : 205,155,255
Combo5 : 141,131,241
Combo6 : 192,192,192

[HitObjects]
32,160,602,70,0,L|27:120,2,31.4999990386963,2|0|0,0:0|0:0|0:0,0:0:0:0:
32,256,1329,1,2,0:0:0:0:
32,256,1511,1,0,0:0:0:0:
120,206,1874,1,0,0:0:0:0:
120,206,1965,1,0,0:0:0:0:
120,206,2056,2,0,L|158:213,2,31.4999990386963,2|0|0,0:0|0:0|0:0,0:0:0:0:
192,288,2783,1,2,0:0:0:0:
192,288,2965,1,0,0:0:0:0:
269,253,3329,1,0,0:0:0:0:
269,253,3420,1,0,0:0:0:0:
269,253,3511,5,2,0:0:0:0:
356,266,3692,1,0,0:0:0:0:
443,279,3874,1,0,0:0:0:0:
450,286,4238,1,2,0:0:0:0:
450,286,4420,1,0,0:0:0:0:
450,286,4601,2,0,L|452:306,2,20.9999993591309,0|0|0,0:0|0:0|0:0,0:0:0:0:
488,215,4965,1,2,0:0:0:0:
488,215,5147,1,0,0:0:0:0:
488,215,5329,1,0,0:0:0:0:
438,135,5692,1,2,0:0:0:0:
438,135,5874,1,0,0:0:0:0:
481,62,6056,1,0,0:0:0:0:
481,62,6147,1,0,0:0:0:0:
481,62,6238,1,0,0:0:0:0:
481,62,6329,1,0,0:0:0:0:
481,62,6420,70,0,L|512:56,2,31.4999990386963,2|0|0,0:0|0:0|0:0,0:0:0:0:
407,7,7147,1,0,0:0:0:0:
407,7,7329,1,0,0:0:0:0:
317,43,7692,1,0,0:0:0:0:
317,43,7783,1,0,0:0:0:0:
317,43,7874,2,0,L|266:36,2,31.4999990386963,2|0|0,0:0|0:0|0:0,0:0:0:0:
352,128,8601,1,2,0:0:0:0:
352,128,8783,1,0,0:0:0:0:
395,216,9147,1,0,0:0:0:0:
395,216,9238,1,0,0:0:0:0:
395,216,9329,6,0,L|441:224,2,31.4999990386963,2|0|0,0:0|0:0|0:0,0:0:0:0:
314,266,10056,1,2,0:0:0:0:
314,266,10238,1,0,0:0:0:0:
314,266,10420,2,0,L|317:303,2,20.9999993591309,0|0|0,0:0|0:0|0:0,0:0:0:0:
260,352,10783,1,2,0:0:0:0:
260,352,10965,1,0,0:0:0:0:
260,352,11147,1,0,0:0:0:0:
178,313,11511,1,2,0:0:0:0:
178,313,11692,1,0,0:0:0:0:
99,354,11874,2,0,L|91:350,6,7.87499975967408,0|0|0|0|0|0|0,0:0|0:0|0:0|0:0|0:0|0:0|0:0,0:0:0:0:
27,316,12238,70,0,L|23:284,1,31.4999990386963,2|0,0:0|0:0,0:0:0:0:
57,206,12601,1,0,0:0:0:0:
25,124,12965,1,2,0:0:0:0:
25,124,13147,1,0,0:0:0:0:
70,42,13511,1,2,0:0:0:0:
70,42,13601,1,2,0:0:0:0:
70,42,13692,2,0,L|101:47,1,31.4999990386963,2|0,0:0|0:0,0:0:0:0:
182,24,14056,1,2,0:0:0:0:
231,91,14420,2,0,L|234:121,2,20.9999993591309,2|0|0,0:0|0:0|0:0,0:0:0:0:
299,42,14783,2,0,L|302:12,2,20.9999993591309,2|0|0,0:0|0:0|0:0,0:0:0:0:
326,131,15147,5,2,0:0:0:0:
326,131,15329,1,0,0:0:0:0:
326,131,15511,1,0,0:0:0:0:
416,96,15874,1,2,0:0:0:0:
416,96,16056,1,0,0:0:0:0:
416,96,16238,2,0,L|413:64,2,20.9999993591309,0|0|0,0:0|0:0|0:0,0:0:0:0:
457,181,16601,1,2,0:0:0:0:
457,181,16783,1,0,0:0:0:0:
457,181,16965,1,0,0:0:0:0:
496,264,17329,1,2,0:0:0:0:
496,264,17511,1,0,0:0:0:0:
480,359,17692,1,0,0:0:0:0:
480,359,17783,1,0,0:0:0:0:
480,359,17874,1,0,0:0:0:0:
480,359,17965,1,0,0:0:0:0:
480,359,18056,70,0,L|448:354,1,31.4999990386963,2|0,0:0|0:0,0:0:0:0:
361,384,18420,1,0,0:0:0:0:
286,343,18783,1,0,0:0:0:0:
286,343,18965,1,0,0:0:0:0:
204,384,19329,1,0,0:0:0:0:
204,384,19420,1,0,0:0:0:0:
204,384,19511,2,0,L|167:376,1,31.4999990386963,2|0,0:0|0:0,0:0:0:0:
107,325,19874,1,0,0:0:0:0:
159,250,20238,1,2,0:0:0:0:
159,250,20420,1,0,0:0:0:0:
110,170,20783,1,0,0:0:0:0:
110,170,20874,1,0,0:0:0:0:
110,170,20965,22,0,B|165:143|165:143|210:169|210:169|294:155,1,180,6|10,3:1|0:0,0:0:0:0:
480,32,22056,1,0,3:0:0:0:
512,160,22238,1,0,3:0:0:0:
395,159,22601,1,0,3:0:0:0:
363,31,22783,1,0,3:0:0:0:
244,30,23147,1,10,0:0:0:0:
276,158,23329,2,0,L|257:254,1,90,0|0,3:0|3:0,0:0:0:0:
247,257,23783,1,0,3:0:0:0:
235,267,23874,6,0,B|183:244|183:244|120:262|120:262|66:241,1,180,2|10,3:2|0:0,0:0:0:0:
0,32,24965,1,0,3:0:0:0:
160,64,25147,1,0,3:0:0:0:
192,160,25511,1,0,3:0:0:0:
32,192,25693,1,0,3:0:0:0:
0,288,26056,1,10,0:0:0:0:
160,320,26238,1,0,3:0:0:0:
181,313,26420,1,0,3:0:0:0:
202,306,26601,1,0,3:0:0:0:
384,352,26783,6,0,B|418:376|418:376|476:337|452:247,1,180,6|10,3:1|0:0,0:0:0:0:
512,64,27874,1,0,3:0:0:0:
352,128,28056,1,0,3:0:0:0:
432,96,28420,1,0,3:0:0:0:
272,32,28602,1,0,3:0:0:0:
352,65,28965,1,14,0:0:0:0:
191,129,29147,2,0,P|155:114|148:55,1,90,0|0,3:0|3:0,0:0:0:0:
153,57,29601,1,0,3:0:0:0:
164,45,29692,6,0,L|145:231,1,180,6|10,3:1|0:0,0:0:0:0:
0,384,30783,1,0,3:0:0:0:
192,352,30965,1,0,3:0:0:0:
91,336,31147,1,2,3:0:0:0:
91,336,31329,1,0,3:0:0:0:
283,304,31511,1,0,3:0:0:0:
192,352,31874,1,10,0:0:0:0:
160,159,32056,2,0,L|172:69,1,90,4|0,3:1|3:0,0:0:0:0:
512,0,32601,38,0,B|504:45|489:64|489:64|500:80|505:99|505:99|479:115|476:165,1,180,6|10,3:1|0:0,0:0:0:0:
512,352,33692,1,0,3:0:0:0:
283,304,33874,1,0,3:0:0:0:
398,329,34238,1,0,3:0:0:0:
169,377,34420,1,0,3:0:0:0:
294,384,34783,1,10,0:0:0:0:
342,155,34965,2,0,L|328:66,1,90,0|0,3:0|3:0,0:0:0:0:
317,54,35420,1,0,3:2:0:0:
306,41,35511,6,0,P|229:83|152:45,1,180,2|10,3:0|0:0,0:0:0:0:
0,160,36601,1,0,3:0:0:0:
192,128,36783,1,0,3:0:0:0:
136,196,37147,1,0,3:0:0:0:
328,228,37329,1,0,3:0:0:0:
272,160,37692,1,10,0:0:0:0:
464,128,37874,1,0,3:0:0:0:
468,105,38056,1,0,3:0:0:0:
473,83,38238,1,0,3:0:0:0:
512,288,38420,6,0,B|458:289|444:309|444:309|408:300|408:300|390:323|330:336,1,180,6|10,3:1|0:0,0:0:0:0:
160,384,39511,1,0,3:0:0:0:
192,192,39692,1,0,3:0:0:0:
176,288,40056,1,0,3:0:0:0:
208,96,40238,1,0,3:0:0:0:
192,192,40601,1,10,0:0:0:0:
224,0,40783,2,0,P|267:11|312:11,1,90,0|0,3:0|3:0,0:0:0:0:
312,11,41238,1,0,3:0:0:0:
312,11,41329,5,6,3:1:0:0:
352,128,41692,1,8,0:0:0:0:
392,244,42056,1,8,0:0:0:0:
432,360,42420,1,8,0:0:0:0:
468,88,42783,1,8,0:0:0:0:
312,337,43147,1,8,0:0:0:0:
160,0,43511,1,8,0:0:0:0:
0,384,43874,1,8,0:0:0:0:
160,320,44238,5,2,0:0:0:0:
160,320,44420,1,0,0:0:0:0:
160,320,44601,1,0,0:0:0:0:
128,224,44965,1,2,0:0:0:0:
128,224,45147,1,0,0:0:0:0:
96,128,45511,1,0,0:0:0:0:
96,128,45601,1,0,0:0:0:0:
96,128,45692,1,2,0:0:0:0:
128,224,45874,1,0,0:0:0:0:
224,192,46056,1,0,0:0:0:0:
320,160,46420,1,2,0:0:0:0:
320,160,46601,1,0,0:0:0:0:
416,128,46965,1,0,0:0:0:0:
416,128,47056,1,0,0:0:0:0:
416,128,47147,6,0,L|423:83,2,45,2|0|0,0:0|0:0|0:0,0:0:0:0:
483,197,47874,1,2,0:0:0:0:
483,197,48056,1,0,0:0:0:0:
483,197,48238,2,0,L|512:189,2,30,0|0|0,0:0|0:0|0:0,0:0:0:0:
449,288,48601,1,2,0:0:0:0:
449,288,48783,1,0,0:0:0:0:
449,288,48965,1,0,0:0:0:0:
352,256,49329,1,2,0:0:0:0:
352,256,49511,1,0,0:0:0:0:
290,332,49692,1,0,0:0:0:0:
290,332,49783,1,0,0:0:0:0:
290,332,49874,1,0,0:0:0:0:
290,332,49965,1,0,0:0:0:0:
290,332,50056,69,2,0:0:0:0:
196,304,50238,1,0,0:0:0:0:
102,276,50420,1,0,0:0:0:0:
8,248,50783,1,0,0:0:0:0:
8,248,50965,1,0,0:0:0:0:
36,154,51329,1,0,0:0:0:0:
36,154,51420,1,0,0:0:0:0:
36,154,51511,2,0,L|29:106,2,45,2|0|0,0:0|0:0|0:0,0:0:0:0:
8,248,52238,1,2,0:0:0:0:
8,248,52420,1,0,0:0:0:0:
102,276,52783,1,0,0:0:0:0:
102,276,52874,1,0,0:0:0:0:
102,276,52965,6,0,L|146:271,1,45,2|0,0:0|0:0,0:0:0:0:
228,321,53329,1,0,0:0:0:0:
320,288,53692,1,2,0:0:0:0:
320,288,53874,1,0,0:0:0:0:
320,288,54056,2,0,L|349:294,2,30,0|0|0,0:0|0:0|0:0,0:0:0:0:
278,204,54420,1,2,0:0:0:0:
278,204,54601,1,0,0:0:0:0:
278,204,54783,1,0,0:0:0:0:
340,130,55147,1,2,0:0:0:0:
340,130,55329,1,0,0:0:0:0:
300,38,55511,2,0,L|282:35,6,11.25,0|0|0|0|0|0|0,0:0|0:0|0:0|0:0|0:0|0:0|0:0,0:0:0:0:
394,0,55874,69,2,0:0:0:0:
394,0,56056,1,0,0:0:0:0:
394,0,56238,1,0,0:0:0:0:
435,86,56601,1,2,0:0:0:0:
435,86,56783,1,0,0:0:0:0:
340,130,57147,1,0,0:0:0:0:
340,130,57238,1,0,0:0:0:0:
340,130,57329,1,2,0:0:0:0:
245,117,57511,1,0,0:0:0:0:
150,104,57692,1,0,0:0:0:0:
55,91,58056,1,2,0:0:0:0:
55,91,58238,1,0,0:0:0:0:
42,188,58601,1,0,0:0:0:0:
42,188,58692,1,0,0:0:0:0:
42,188,58783,6,0,L|47:232,1,45,2|0,0:0|0:0,0:0:0:0:
32,320,59147,1,0,0:0:0:0:
122,355,59511,1,2,0:0:0:0:
122,355,59692,1,0,0:0:0:0:
122,355,59874,2,0,L|127:389,2,30,0|0|0,0:0|0:0|0:0,0:0:0:0:
194,305,60238,1,2,0:0:0:0:
194,305,60420,1,0,0:0:0:0:
194,305,60601,1,0,0:0:0:0:
278,343,60965,1,2,0:0:0:0:
278,343,61147,1,0,0:0:0:0:
352,288,61329,1,0,0:0:0:0:
352,288,61420,1,0,0:0:0:0:
352,288,61511,1,0,0:0:0:0:
352,288,61601,1,0,0:0:0:0:
352,288,61692,69,2,0:0:0:0:
320,192,61874,1,0,0:0:0:0:
288,96,62056,1,0,0:0:0:0:
331,8,62420,1,2,0:0:0:0:
331,8,62601,1,0,0:0:0:0:
419,51,62965,1,0,0:0:0:0:
419,51,63056,1,0,0:0:0:0:
419,51,63147,1,2,0:0:0:0:
376,139,63329,1,0,0:0:0:0:
288,96,63511,1,0,0:0:0:0:
200,137,63874,1,2,0:0:0:0:
200,137,64056,1,0,0:0:0:0:
201,236,64420,1,0,0:0:0:0:
201,236,64511,1,0,0:0:0:0:
201,236,64601,6,0,L|192:280,1,45,2|0,0:0|0:0,0:0:0:0:
134,347,64965,1,0,0:0:0:0:
52,308,65329,1,2,0:0:0:0:
52,308,65511,1,0,0:0:0:0:
52,308,65692,2,0,L|20:313,2,30,0|0|0,0:0|0:0|0:0,0:0:0:0:
110,240,66056,1,2,0:0:0:0:
110,240,66238,1,0,0:0:0:0:
110,240,66420,1,0,0:0:0:0:
56,162,66783,1,2,0:2:0:0:
56,162,66965,1,0,0:0:0:0:
95,77,67147,2,0,L|89:58,6,11.25,0|0|0|0|0|0|0,0:0|0:0|0:0|0:0|0:0|0:0|0:0,0:0:0:0:
187,80,67511,5,2,3:2:0:0:
266,64,67692,1,0,0:0:0:0:
345,48,67874,2,0,L|434:56,1,90,0|8,0:0|0:0,0:0:0:0:
512,192,68420,2,0,L|422:183,1,90,0|0,0:0|0:0,0:0:0:0:
422,183,68874,1,0,0:0:0:0:
422,183,68965,1,0,0:0:0:0:
392,259,69147,1,0,3:0:0:0:
359,330,69329,2,0,L|269:338,2,90,0|8|0,0:0|0:0|0:0,0:0:0:0:
197,299,70238,1,0,0:0:0:0:
197,299,70329,1,0,0:0:0:0:
197,299,70420,5,2,3:2:0:0:
122,322,70601,1,0,0:0:0:0:
52,285,70783,2,0,L|38:196,1,90,0|8,0:0|0:0,0:0:0:0:
82,112,71329,1,0,0:0:0:0:
37,30,71511,2,0,L|4:25,2,30,0|0|0,0:0|0:0|0:0,0:0:0:0:
82,112,71874,1,2,0:0:0:0:
167,74,72056,1,0,3:0:0:0:
242,128,72238,1,0,0:0:0:0:
242,128,72601,1,10,0:0:0:0:
327,166,72783,1,0,3:0:0:0:
402,112,72965,1,0,0:0:0:0:
404,96,73056,1,0,0:0:0:0:
407,80,73147,1,0,0:0:0:0:
410,64,73238,1,0,0:0:0:0:
413,48,73329,6,0,L|436:236,1,180,6|8,3:1|0:0,0:0:0:0:
485,307,74238,1,0,0:0:0:0:
425,380,74420,1,0,0:0:0:0:
338,346,74601,1,0,0:0:0:0:
338,346,74692,1,0,0:0:0:0:
338,346,74783,1,2,0:0:0:0:
425,380,74965,1,0,3:0:0:0:
485,307,75147,2,0,L|496:217,2,90,0|10|0,0:0|0:0|0:0,0:0:0:0:
425,380,76056,1,0,0:0:0:0:
425,380,76147,1,0,0:0:0:0:
425,380,76238,5,2,3:2:0:0:
338,346,76420,1,0,0:0:0:0:
251,380,76601,1,0,0:0:0:0:
251,380,76965,1,8,0:0:0:0:
217,293,77147,1,0,0:0:0:0:
251,206,77329,2,0,L|289:202,2,30,0|0|0,0:0|0:0|0:0,0:0:0:0:
194,144,77692,1,2,0:0:0:0:
108,89,77874,1,0,3:0:0:0:
18,137,78056,1,0,0:0:0:0:
18,137,78420,1,10,0:0:0:0:
104,192,78601,1,0,3:0:0:0:
194,144,78783,2,0,L|196:129,6,11.25,0|0|0|0|0|0|0,0:0|0:0|0:0|0:0|0:0|0:0|0:0,0:0:0:0:
246,213,79147,37,2,3:0:0:0:
194,282,79329,2,0,P|200:325|230:358,1,90
376,304,79874,1,8,0:0:0:0:
376,304,80056,2,0,L|286:295,1,90,0|0,0:0|0:0,0:0:0:0:
286,295,80511,1,0,0:0:0:0:
286,295,80601,1,0,0:0:0:0:
246,213,80783,1,0,3:0:0:0:
317,142,80965,2,0,L|307:47,2,90,0|8|0,0:0|0:0|0:0,0:0:0:0:
405,203,81874,1,0,0:0:0:0:
405,203,81965,1,0,0:0:0:0:
405,203,82056,5,2,3:2:0:0:
324,255,82238,1,0,0:0:0:0:
246,213,82420,2,0,L|142:206,1,90,0|8,0:0|0:0,0:0:0:0:
77,129,82965,1,0,0:0:0:0:
16,208,83147,2,0,L|12:238,2,30,0|0|0,0:0|0:0|0:0,0:0:0:0:
77,129,83511,1,2,0:0:0:0:
156,206,83692,2,0,L|246:213,1,90,0|0,3:2|0:0,0:0:0:0:
323,288,84238,1,10,0:0:0:0:
331,155,84420,1,0,3:0:0:0:
417,237,84601,1,0,0:0:0:0:
417,237,84692,1,0,0:0:0:0:
417,237,84783,1,0,0:0:0:0:
417,237,84874,1,0,0:0:0:0:
417,237,84965,6,0,B|448:188|448:188|438:139,1,107.999996704102,14|0,3:1|3:0,0:0:0:0:
204,213,85511,2,0,B|252:244|252:244|301:234,1,107.999996704102,10|0,3:2|3:0,0:0:0:0:
228,0,86056,2,0,B|196:48|196:48|206:97,1,107.999996704102,14|0,3:1|3:0,0:0:0:0:
441,24,86602,2,0,B|392:-7|392:-7|343:2,1,107.999996704102,10|0,3:2|3:0,0:0:0:0:
323,119,87147,1,14,0:1:0:0:
228,0,87329,1,0,3:0:0:0:
134,153,87511,2,0,L|125:206,1,53.9999983520508,8|0,0:0|0:0,0:0:0:0:
224,384,87874,6,0,L|208:249,1,135.000005149842,6|8,0:1|0:0,0:0:0:0:
267,141,88420,1,8,0:0:0:0:
352,256,88601,1,8,0:0:0:0:
416,64,88783,1,8,0:0:0:0:
350,284,88965,1,8,0:0:0:0:
224,32,89147,1,8,0:0:0:0:
160,128,89329,5,2,0:0:0:0:
0,191,90783,22,0,P|107:198|122:305,1,233.999989288331,6|10,3:1|0:0,0:0:0:0:
122,306,91874,1,2,3:0:0:0:
288,256,92056,2,0,L|346:251,1,58.4999973220826,0|2,3:0|0:0,0:0:0:0:
230,363,92420,1,0,3:0:0:0:
181,198,92602,2,0,L|176:139,1,58.4999973220826,2|0,3:0|0:0,0:0:0:0:
35,23,92965,1,10,0:0:0:0:
151,39,93147,1,0,3:0:0:0:
267,55,93329,1,2,3:0:0:0:
383,71,93511,1,0,3:0:0:0:
34,22,93692,6,0,P|65:75|36:131,1,116.999994644165,2|0,3:0|0:0,0:0:0:0:
0,256,94238,1,0,3:0:0:0:
0,256,94329,1,0,3:0:0:0:
0,256,94420,2,0,L|76:244,1,58.4999973220826,10|0,0:2|0:0,0:0:0:0:
224,320,94783,1,0,3:0:0:0:
128,128,94965,2,0,L|137:185,1,58.4999973220826,0|0,3:0|0:0,0:0:0:0:
134,357,95329,1,0,3:0:0:0:
230,165,95511,2,0,L|220:222,1,58.4999973220826,2|0,3:0|0:0,0:0:0:0:
288,352,95874,1,10,0:0:0:0:
403,370,96056,1,0,3:0:0:0:
477,280,96238,1,2,3:0:0:0:
437,171,96420,1,0,3:0:0:0:
288,352,96601,6,0,B|238:354|206:333|206:333|180:341|156:354|156:354|118:323|63:327,1,233.999989288331,6|8,3:1|0:0,0:0:0:0:
68,327,97692,1,0,3:0:0:0:
0,160,97874,2,0,L|-7:101,1,58.4999973220826,2|0,3:0|0:0,0:0:0:0:
34,244,98238,1,0,3:0:0:0:
201,312,98420,2,0,L|259:319,1,58.4999973220826,0|0,3:0|0:0,0:0:0:0:
448,160,98783,2,0,B|418:151|418:151|392:159,1,58.4999973220826,14|0,0:0|3:0,0:0:0:0:
321,378,99147,2,0,B|351:387|351:387|376:378,1,58.4999973220826,2|0,3:0|3:0,0:0:0:0:
489,233,99511,6,0,L|509:0,1,233.999989288331,6|10,3:1|0:0,0:0:0:0:
509,0,100601,2,0,L|450:5,1,58.4999973220826,0|0,3:2|3:2,0:0:0:0:
352,96,100965,1,2,3:2:0:0:
256,64,101147,1,0,3:2:0:0:
128,192,101329,1,2,3:2:0:0:
224,160,101511,1,0,3:2:0:0:
352,288,101692,1,10,3:2:0:0:
256,256,101874,1,4,3:1:0:0:
128,384,102056,1,2,3:2:0:0:
224,352,102238,1,0,3:2:0:0:
41,340,102420,38,0,B|32:290|7:266|7:266|14:239|47:217|47:217|19:181|12:138,1,233.999989288331,6|10,3:1|0:0,0:0:0:0:
12,138,103511,1,2,3:0:0:0:
122,284,103692,2,0,L|179:293,1,58.4999973220826,0|2,3:0|0:0,0:0:0:0:
0,328,104056,1,0,3:0:0:0:
110,182,104238,2,0,L|167:172,1,58.4999973220826,2|0,3:0|0:0,0:0:0:0:
274,36,104601,1,10,0:0:0:0:
258,152,104783,1,0,3:0:0:0:
242,268,104965,1,2,3:0:0:0:
226,384,105147,1,0,3:0:0:0:
258,152,105329,6,0,P|311:130|363:156,1,116.999994644165,2|0,3:0|0:0,0:0:0:0:
501,316,105874,1,0,3:0:0:0:
501,316,105965,1,0,3:0:0:0:
501,316,106056,2,0,L|515:246,1,58.4999973220826,10|0,0:0|0:0,0:0:0:0:
512,160,106420,1,0,3:0:0:0:
384,320,106601,2,0,L|314:334,1,58.4999973220826,0|0,3:0|0:0,0:0:0:0:
501,316,106965,1,0,3:0:0:0:
373,156,107147,2,0,L|303:141,1,58.4999973220826,2|0,3:0|0:0,0:0:0:0:
192,256,107511,1,10,0:0:0:0:
77,274,107693,1,0,3:0:0:0:
3,184,107875,1,2,3:0:0:0:
43,75,108057,1,0,3:0:0:0:
192,256,108238,6,0,B|215:284|227:289|227:289|286:256|279:182,1,175.499991966248,6|0,3:1|0:0,0:0:0:0:
144,80,108965,2,0,P|171:90|200:94,1,58.4999973220826,10|0,0:0|0:0,0:0:0:0:
279,182,109329,1,0,3:0:0:0:
416,64,109511,1,0,3:0:0:0:
416,64,109601,1,0,3:2:0:0:
416,64,109692,2,0,P|406:91|402:120,1,58.4999973220826,2|0,3:2|3:2,0:0:0:0:
512,302,110056,1,2,3:0:0:0:
480,206,110238,1,0,3:0:0:0:
307,126,110420,1,14,3:2:0:0:
339,222,110602,1,0,3:0:0:0:
204,351,110783,1,2,3:0:0:0:
236,255,110965,1,0,3:0:0:0:
160,128,111147,5,6,3:1:0:0:
160,128,111511,1,0,3:0:0:0:
160,128,111874,1,8,0:0:0:0:
96,256,112238,1,8,0:0:0:0:
64,32,112601,1,10,0:0:0:0:
224,320,112965,1,8,0:0:0:0:
389,6,113329,1,8,0:0:0:0:
389,6,113420,2,0,L|417:0,2,29.2499986610413,8|0|0,0:0|3:0|3:0,0:0:0:0:
320,128,113692,1,8,0:0:0:0:
337,167,113783,1,8,0:0:0:0:
371,194,113874,1,8,0:0:0:0:
414,200,113965,1,8,0:0:0:0:
455,185,114056,37,6,3:1:0:0:
512,288,114238,1,0,0:0:0:0:
409,345,114420,2,0,L|337:336,1,67.5,0|0,0:0|0:0,0:0:0:0:
318,312,114783,1,8,0:0:0:0:
192,384,114965,2,0,L|93:372,1,90,0|0,3:0|3:0,0:0:0:0:
102,373,115420,1,0,3:0:0:0:
102,373,115511,1,8,0:0:0:0:
160,224,115692,1,4,3:1:0:0:
0,284,115874,2,0,L|67:275,1,67.5,0|0,0:0|0:0,0:0:0:0:
98,291,116238,1,8,0:0:0:0:
16,77,116420,2,0,B|1:124|1:124|21:158,1,90,4|0,3:1|3:0,0:0:0:0:
21,158,116874,1,0,3:0:0:0:
21,158,116965,5,6,3:1:0:0:
128,176,117147,1,0,0:0:0:0:
235,194,117329,2,0,L|314:182,1,67.5,0|0,0:0|0:0,0:0:0:0:
335,197,117692,1,8,0:0:0:0:
416,32,117874,1,0,3:0:0:0:
458,155,118056,1,0,0:0:0:0:
293,74,118238,1,0,3:0:0:0:
293,74,118329,1,0,3:0:0:0:
293,74,118420,1,8,0:0:0:0:
212,239,118601,2,0,B|196:291|196:291|220:343,1,112.5,4|0,3:2|0:0,0:0:0:0:
250,360,119147,1,8,0:0:0:0:
32,320,119329,1,4,3:2:0:0:
129,384,119511,1,8,0:0:0:0:
121,339,119601,1,8,0:0:0:0:
113,295,119692,1,8,0:0:0:0:
105,251,119783,1,8,0:0:0:0:
97,204,119874,6,0,B|126:174|126:174|194:181|217:242,1,161.999995056153,6|0,3:1|0:0,3:0:0:0:
224,320,120601,1,8,0:0:0:0:
448,256,120783,2,0,L|342:233,1,107.999996704102,0|0,3:0|3:0,0:0:0:0:
342,233,121238,1,0,3:0:0:0:
342,233,121329,1,8,0:0:0:0:
480,64,121511,1,8,0:0:0:0:
480,64,122056,1,8,0:0:0:0:
265,30,122238,2,0,L|158:45,1,107.999996704102,8|0,0:0|3:0,0:0:0:0:
135,32,122692,1,0,3:0:0:0:
112,18,122783,6,0,P|144:89|110:159,1,161.999995056153,6|0,3:1|0:0,0:0:0:0:
40,187,123511,1,8,0:0:0:0:
224,96,123692,2,0,L|338:83,1,107.999996704102,0|0,3:0|3:0,0:0:0:0:
406,154,124238,1,0,3:0:0:0:
406,154,124329,1,0,3:0:0:0:
406,154,124420,1,12,0:0:0:0:
480,0,124601,1,8,0:0:0:0:
331,83,124783,1,0,3:0:0:0:
331,83,124874,1,0,3:2:0:0:
331,83,124965,1,8,0:0:0:0:
318,264,125147,1,8,0:0:0:0:
137,251,125329,1,8,0:0:0:0:
111,240,125420,1,8,0:0:0:0:
85,230,125511,1,8,0:0:0:0:
60,220,125601,1,8,0:0:0:0:
34,209,125692,38,0,B|27:173,2,35.9999989013672,6|0|0,0:1|0:0|0:0,0:0:0:0:
80,112,126056,2,0,B|73:76,2,35.9999989013672,0|0|0,0:0|0:0|0:0,0:0:0:0:
126,15,126420,1,8,0:0:0:0:
192,192,126601,2,0,L|307:209,1,107.999996704102,0|0,3:0|3:0,0:0:0:0:
298,207,127056,1,0,3:0:0:0:
298,207,127147,1,8,0:0:0:0:
480,128,127329,1,4,3:2:0:0:
349,76,127511,1,8,0:0:0:0:
349,76,127601,1,8,0:0:0:0:
349,76,127692,1,0,3:0:0:0:
428,258,127874,1,8,0:0:0:0:
246,337,128056,2,0,L|173:326,1,53.9999983520508,4|8,0:0|0:0,0:0:0:0:
164,311,128329,1,8,0:0:0:0:
136,294,128420,1,8,0:0:0:0:
108,277,128511,1,8,0:0:0:0:
80,260,128601,6,0,B|75:221|60:199|60:199|75:175|76:155|76:155|51:132|49:84,1,188.999994232178,6|0,3:1|0:0,0:0:0:0:
30,60,129329,1,8,0:0:0:0:
179,204,129511,2,0,L|164:311,1,107.999996704102,0|0,3:0|3:0,0:0:0:0:
164,311,129965,1,0,3:0:0:0:
164,311,130056,1,8,0:0:0:0:
79,221,130238,1,4,0:0:0:0:
268,293,130420,1,8,0:0:0:0:
278,292,130480,1,8,0:0:0:0:
288,291,130541,1,8,0:0:0:0:
298,290,130601,2,0,L|302:262,3,17.9999994506836,0|0|0|0,3:0|3:0|3:0|3:2,0:0:0:0:
386,356,130965,2,0,L|389:375,2,17.9999994506836,0|0|0,3:0|3:0|3:0,0:0:0:0:
413,339,131147,1,8,0:0:0:0:
442,311,131238,1,8,0:0:0:0:
457,274,131329,1,8,0:0:0:0:
455,234,131420,1,8,0:0:0:0:
435,199,131511,6,0,B|390:194|372:179|372:179|334:199|334:199|317:177|253:169,1,188.999994232178,6|0,3:1|0:0,0:0:0:0:
230,180,132238,1,8,0:0:0:0:
352,32,132420,2,0,L|466:20,1,107.999996704102,0|0,3:0|3:0,0:0:0:0:
459,20,132874,1,0,3:0:0:0:
459,20,132965,1,8,0:0:0:0:
512,224,133147,1,8,0:0:0:0:
512,224,133692,1,8,0:0:0:0:
308,277,133874,2,0,L|194:260,1,107.999996704102,8|0,0:0|3:0,0:0:0:0:
201,261,134329,1,0,3:0:0:0:
201,261,134420,5,6,3:1:0:0:
128,314,134601,1,0,3:0:0:0:
48,267,134783,1,0,3:0:0:0:
48,174,134965,1,0,3:0:0:0:
128,35,135147,37,10,0:0:0:0:
128,128,135329,1,10,0:0:0:0:
128,221,135511,1,10,0:0:0:0:
128,314,135692,1,10,0:0:0:0:
48,174,135874,5,10,0:0:0:0:
208,268,136056,1,10,0:0:0:0:
48,267,136238,1,10,0:0:0:0:
208,175,136420,1,10,0:0:0:0:
307,342,136601,2,0,L|377:363,1,53.9999983520508,6|8,3:2|0:0,0:0:0:0:
374,352,136874,1,8,0:0:0:0:
389,347,136965,1,8,0:0:0:0:
404,342,137056,1,8,0:0:0:0:
419,337,137147,1,8,0:0:0:0:
434,332,137238,1,8,0:0:0:0:
448,327,137329,6,0,P|470:264|456:198,1,135.000005149842,6|10,3:1|0:0,0:0:0:0:
223,277,137874,2,0,L|357:263,1,135.000005149842,2|0,0:0|0:0,0:0:0:0:
481,146,138420,1,10,0:0:0:0:
481,146,138511,1,0,0:0:0:0:
481,146,138601,1,0,0:0:0:0:
481,146,138692,1,0,0:0:0:0:
481,145,138783,2,0,L|400:138,1,67.5000025749208,0|0,0:0|0:0,0:0:0:0:
242,68,139147,2,0,P|261:132|271:199,2,135.000005149842,10|2|10,0:0|0:0|0:0,0:0:0:0:
137,20,140056,1,0,0:0:0:0:
137,20,140147,1,0,0:0:0:0:
137,20,140238,6,0,L|69:13,1,67.5000025749208,2|0,0:0|0:0,0:0:0:0:
0,128,140601,2,0,L|67:121,1,67.5000025749208,10|0,0:0|0:0,0:0:0:0:
160,192,140965,2,0,L|166:259,1,67.5000025749208,2|0,0:0|0:0,0:0:0:0:
224,384,141329,1,10,0:0:0:0:
64,352,141511,2,0,L|51:217,1,135.000005149842,2|0,0:0|0:0,0:0:0:0:
0,64,142056,2,0,P|29:80|62:87,1,67.5000025749208,10|0,0:0|0:0,0:0:0:0:
160,32,142420,2,0,P|192:23|226:25,1,67.5000025749208,2|0,0:0|0:0,0:0:0:0:
320,128,142783,1,10,0:0:0:0:
320,128,142874,1,0,0:0:0:0:
320,128,142965,1,0,0:0:0:0:
320,128,143056,1,0,0:0:0:0:
320,127,143147,38,0,P|331:194|335:261,2,135.000005149842,2|8|0,0:0|0:0|0:0,0:0:0:0:
448,320,144238,1,10,0:0:0:0:
463,219,144420,1,2,0:0:0:0:
477,118,144601,2,0,P|476:84|469:51,1,67.5000025749208,2|0,0:0|0:0,0:0:0:0:
283,30,144965,2,0,P|315:37|349:38,1,67.5000025749208,10|0,0:0|0:0,0:0:0:0:
477,118,145329,2,0,P|444:125|410:126,1,67.5000025749208,2|0,0:0|0:0,0:0:0:0:
288,224,145692,1,10,0:0:0:0:
288,224,145783,1,0,0:0:0:0:
288,224,145874,1,0,0:0:0:0:
288,224,145965,1,0,0:0:0:0:
287,224,146056,6,0,L|220:216,1,67.5000025749208,2|0,0:0|0:0,0:0:0:0:
62,291,146420,2,0,L|129:283,1,67.5000025749208,10|0,0:0|0:0,0:0:0:0:
234,384,146783,2,0,L|226:316,1,67.5000025749208,2|0,0:0|0:0,0:0:0:0:
131,195,147147,1,10,0:0:0:0:
131,195,147329,2,0,P|105:134|127:72,1,135.000005149842,2|0,0:0|0:0,0:0:0:0:
240,16,147874,2,0,L|306:26,1,67.5000025749208,10|0,0:0|0:0,0:0:0:0:
407,111,148238,1,2,3:0:0:0:
410,131,148328,1,0,3:0:0:0:
413,151,148419,1,0,3:0:0:0:
415,171,148510,1,0,3:0:0:0:
443,209,148601,1,8,0:0:0:0:
397,201,148691,1,8,0:0:0:0:
351,195,148782,1,8,0:0:0:0:
303,189,148873,1,8,0:0:0:0:
255,183,148965,6,0,B|214:219|214:219|232:297,1,135.000005149842,6|10,3:1|0:0,0:0:0:0:
425,381,149511,2,0,P|369:345|303:349,1,135.000005149842,2|0,0:0|0:0,0:0:0:0:
160,384,150056,1,8,0:0:0:0:
140,380,150147,1,0,0:0:0:0:
120,376,150238,1,0,0:0:0:0:
100,372,150329,1,0,0:0:0:0:
79,368,150420,2,0,L|70:301,1,67.5000025749208,0|0,0:0|0:0,0:0:0:0:
0,192,150783,2,0,L|66:200,1,67.5000025749208,10|0,0:0|0:0,0:0:0:0:
160,288,151147,2,0,L|226:279,1,67.5000025749208,2|0,0:0|0:0,0:0:0:0:
352,359,151511,1,10,0:0:0:0:
352,359,151601,1,0,0:0:0:0:
352,359,151692,1,0,0:0:0:0:
352,359,151783,1,0,0:0:0:0:
352,359,151874,6,0,L|371:225,2,135.000005149842,2|10|2,0:0|0:0|0:0,0:0:0:0:
480,160,152965,1,10,0:0:0:0:
479,160,153147,2,0,P|441:107|376:107,1,135.000005149842,2|0,0:0|0:0,0:3:0:0:
256,192,153692,1,10,0:0:0:0:
256,192,153783,1,0,0:0:0:0:
256,192,153874,1,0,0:0:0:0:
256,192,153965,1,0,0:0:0:0:
256,192,154056,2,0,L|267:268,1,67.5000025749208,2|0,0:0|0:0,0:0:0:0:
175,358,154420,1,10,0:0:0:0:
128,377,154511,1,8,0:0:0:0:
79,369,154601,1,0,3:0:0:0:
40,337,154692,1,0,3:0:0:0:
24,290,154783,38,0,B|9:245|9:245|46:166,1,135.000005149842,14|0,3:1|3:0,0:0:0:0:
279,271,155329,2,0,L|144:256,1,135.000005149842,10|0,3:2|3:0,0:0:0:0:
0,63,155874,2,0,L|134:77,1,135.000005149842,14|0,3:1|3:2,0:0:0:0:
416,32,156420,2,0,B|369:13|369:13|290:44,1,135.000005149842,10|0,3:2|3:0,0:0:0:0:
224,192,156965,1,14,0:1:0:0:
372,107,157147,1,0,3:0:0:0:
496,240,157329,2,0,L|503:307,1,67.5000025749208,8|0,0:0|0:0,0:0:0:0:
288,384,157692,6,0,L|310:250,1,135.000005149842,6|8,3:1|0:0,0:0:0:0:
434,174,158238,1,8,0:0:0:0:
411,274,158420,1,8,0:0:0:0:
334,151,158601,1,8,0:0:0:0:
211,228,158783,1,8,0:0:0:0:
134,105,158965,1,8,0:0:0:0:
88,305,159147,1,8,0:0:0:0:
234,128,159329,1,8,0:0:0:0:
288,351,159511,1,8,0:0:0:0:
434,174,159692,1,8,0:0:0:0:
211,228,159874,6,0,P|188:225|169:213,2,45.0000017166138,8|8|8,0:3|0:3|0:3,0:0:0:0:
334,151,160238,5,4,0:3:0:0:
324,107,160359,37,4,0:3:0:0:
315,63,160480,5,4,0:3:0:0:
305,19,160601,6,0,B|254:23|224:5|224:5|200:19|187:56|187:56|145:38|86:44,1,233.999989288331,6|10,3:1|0:0,3:0:0:0:
103,43,161692,1,2,3:0:0:0:
288,128,161874,2,0,L|346:120,1,58.4999973220826,0|2,3:0|0:0,0:0:0:0:
237,0,162238,1,0,3:0:0:0:
152,185,162420,2,0,L|144:243,1,58.4999973220826,2|0,3:0|0:0,0:0:0:0:
243,358,162783,1,10,0:0:0:0:
134,347,162965,1,0,3:0:0:0:
25,336,163147,1,2,3:0:0:0:
25,336,163238,1,0,3:0:0:0:
25,336,163329,1,0,3:0:0:0:
242,358,163511,6,0,P|277:312|276:255,1,116.999994644165,2|0,3:0|0:0,0:0:0:0:
152,185,164056,1,0,3:0:0:0:
152,185,164147,1,0,3:0:0:0:
152,185,164238,2,0,L|231:196,1,58.4999973220826,10|0,0:0|0:0,0:0:0:0:
320,160,164601,1,0,3:0:0:0:
192,288,164783,2,0,L|134:296,1,58.4999973220826,0|0,3:0|0:0,0:0:0:0:
210,193,165147,1,0,3:0:0:0:
338,321,165329,2,0,L|395:329,1,58.4999973220826,2|0,3:0|0:0,0:0:0:0:
512,288,165692,1,10,0:0:0:0:
501,179,165874,1,0,3:0:0:0:
490,70,166056,1,2,3:0:0:0:
490,70,166147,1,0,3:0:0:0:
490,70,166238,1,0,3:0:0:0:
512,288,166420,38,0,B|476:306|448:303|448:303|433:336|433:336|392:330|356:349,1,175.499991966248,6|2,3:1|0:0,0:0:0:0:
160,352,167147,2,0,P|187:362|216:364,1,58.4999973220826,8|2,0:0|0:0,0:0:0:0:
282,297,167511,1,0,3:0:0:0:
96,256,167692,2,0,L|87:198,1,58.4999973220826,2|0,3:0|0:0,0:0:0:0:
160,352,168056,1,0,3:0:0:0:
288,192,168238,2,0,L|296:134,1,58.4999973220826,0|0,3:0|0:0,0:0:0:0:
0,64,168601,2,0,B|33:73|33:73|56:66,1,58.4999973220826,14|0,0:0|3:0,0:0:0:0:
320,32,168965,2,0,B|287:23|287:23|263:29,1,58.4999973220826,2|0,3:0|3:0,0:0:0:0:
124,268,169329,6,0,L|157:36,1,233.999989288331,6|10,3:1|0:0,0:0:0:0:
157,36,170420,2,0,L|165:94,1,58.4999973220826,0|0,3:0|3:0,0:0:0:0:
298,126,170783,1,2,3:0:0:0:
394,94,170965,1,0,3:0:0:0:
284,212,171147,1,2,3:0:0:0:
188,180,171329,1,0,3:0:0:0:
298,298,171510,1,10,3:2:0:0:
394,266,171692,1,4,3:1:0:0:
284,384,171874,1,2,3:0:0:0:
188,352,172056,1,0,3:0:0:0:
416,365,172238,6,0,P|489:282|446:180,1,233.999989288331,6|10,3:1|0:0,0:0:0:0:
446,180,173329,1,2,3:0:0:0:
298,298,173511,2,0,L|239:305,1,58.4999973220826,0|2,3:0|0:0,0:0:0:0:
416,288,173874,1,0,3:0:0:0:
268,170,174056,2,0,L|209:162,1,58.4999973220826,2|0,3:0|0:0,0:0:0:0:
64,224,174420,1,10,0:0:0:0:
176,272,174601,1,0,3:0:0:0:
85,351,174783,1,2,3:0:0:0:
85,351,174874,1,0,3:0:0:0:
85,351,174965,1,0,3:0:0:0:
50,104,175147,6,0,P|65:49|117:25,1,116.999994644165,2|0,3:2|0:0,0:0:0:0:
256,96,175692,1,0,3:0:0:0:
256,96,175783,1,0,3:0:0:0:
256,96,175874,2,0,L|263:159,1,58.4999973220826,10|0,0:0|0:0,0:0:0:0:
224,256,176238,1,0,3:0:0:0:
352,128,176420,2,0,L|410:120,1,58.4999973220826,0|0,3:0|0:0,0:0:0:0:
320,224,176783,1,0,3:0:0:0:
176,128,176965,2,0,L|117:120,1,58.4999973220826,2|0,3:0|0:0,0:0:0:0:
18,267,177329,1,10,0:0:0:0:
122,213,177511,1,0,3:0:0:0:
23,149,177692,1,2,3:0:0:0:
23,149,177783,1,0,3:0:0:0:
23,149,177874,1,0,3:0:0:0:
117,331,178056,38,0,B|185:338|185:338|215:366|215:366|280:373,1,175.499991966248,6|0,3:1|0:0,0:0:0:0:
484,364,178783,2,0,L|427:350,1,58.4999973220826,10|0,0:0|0:0,0:0:0:0:
281,373,179147,1,0,3:0:0:0:
407,274,179329,1,0,3:0:0:0:
407,274,179420,1,0,3:2:0:0:
407,274,179511,2,0,L|396:196,1,58.4999973220826,2|0,3:2|3:2,0:0:0:0:
512,74,179875,1,2,3:0:0:0:
480,170,180057,1,0,3:0:0:0:
307,250,180239,1,14,3:2:0:0:
339,154,180421,1,0,3:0:0:0:
204,25,180602,1,2,3:0:0:0:
236,121,180784,1,0,3:0:0:0:
160,248,180966,5,6,3:1:0:0:
160,248,181329,1,0,3:0:0:0:
160,248,181692,1,8,0:0:0:0:
96,128,182056,1,8,0:0:0:0:
64,352,182420,1,10,0:0:0:0:
224,64,182783,1,8,0:0:0:0:
288,160,182965,1,0,3:0:0:0:
288,160,183056,1,0,3:0:0:0:
288,160,183147,1,8,0:0:0:0:
160,224,183329,1,8,0:0:0:0:
224,352,183511,1,8,0:0:0:0:
352,288,183692,1,8,0:0:0:0:
256,256,183874,37,2,0:0:0:0:
32,352,210056,22,0,B|45:307|32:272|32:272|58:263|85:245|85:245|60:207|91:141,1,233.999989288331,6|10,3:1|0:0,0:0:0:0:
85,155,211147,1,2,3:0:0:0:
256,32,211329,2,0,L|313:40,1,58.4999973220826,0|2,3:0|0:0,0:0:0:0:
137,58,211692,1,0,3:0:0:0:
308,181,211874,2,0,L|365:172,1,58.4999973220826,2|0,3:0|0:0,0:0:0:0:
473,31,212238,1,10,0:0:0:0:
487,167,212420,1,0,3:0:0:0:
501,303,212601,1,2,3:0:0:0:
475,338,212691,1,0,3:0:0:0:
436,355,212782,1,0,3:0:0:0:
392,351,212873,1,0,3:0:0:0:
357,326,212965,6,0,B|310:302|310:302|249:324,1,116.999994644165,2|0,3:2|0:0,0:0:0:0:
128,384,213511,1,0,3:0:0:0:
128,384,213601,1,0,3:0:0:0:
127,384,213692,2,0,P|99:379|72:367,1,58.4999973220826,10|0,0:0|0:0,0:0:0:0:
0,256,214056,1,0,3:0:0:0:
192,192,214238,2,0,L|206:128,1,58.4999973220826,0|0,3:0|0:0,0:0:0:0:
165,299,214601,1,0,3:0:0:0:
64,160,214783,2,0,L|50:96,1,58.4999973220826,2|0,3:0|0:0,0:0:0:0:
165,0,215147,1,10,0:0:0:0:
299,21,215329,1,0,3:0:0:0:
434,43,215510,1,2,3:0:0:0:
462,76,215600,1,0,3:0:0:0:
468,118,215691,1,0,3:0:0:0:
453,160,215782,1,0,3:0:0:0:
417,188,215874,6,0,B|374:201|332:167|332:167|301:190|301:190|262:155|204:170,1,233.999989288331,6|8,0:1|0:0,0:0:0:0:
204,170,216965,1,0,3:0:0:0:
352,288,217147,2,0,L|409:279,1,58.4999973220826,2|0,3:0|0:0,0:0:0:0:
278,229,217511,1,0,3:0:0:0:
130,347,217693,2,0,L|72:338,1,58.4999973220826,0|0,3:0|0:0,0:0:0:0:
0,160,218056,2,0,B|-10:192|-10:192|0:215,1,58.4999973220826,14|0,0:0|3:0,0:0:0:0:
203,225,218420,2,0,B|213:193|213:193|204:170,1,58.4999973220826,2|0,3:0|3:0,0:0:0:0:
87,24,218783,6,0,L|104:257,1,233.999989288331,6|10,3:1|0:0,0:0:0:0:
104,257,219874,2,0,L|162:261,1,58.4999973220826,0|0,3:0|3:0,0:0:0:0:
318,197,220238,1,2,3:0:0:0:
350,101,220420,1,0,3:0:0:0:
238,207,220601,1,2,3:0:0:0:
142,175,220783,1,0,3:0:0:0:
248,287,220965,1,10,3:2:0:0:
216,383,221147,1,4,3:1:0:0:
328,276,221329,1,2,3:0:0:0:
424,308,221511,1,0,3:0:0:0:
480,84,221692,38,0,B|436:43|436:43|408:214,1,233.999989288331,6|10,3:1|0:0,0:0:0:0:
408,214,222783,1,2,3:0:0:0:
256,96,222965,2,0,L|197:88,1,58.4999973220826,0|2,3:0|0:0,0:0:0:0:
369,121,223329,1,0,3:0:0:0:
217,239,223511,2,0,L|158:246,1,58.4999973220826,2|0,3:0|0:0,0:0:0:0:
39,60,223874,1,10,0:0:0:0:
25,196,224056,1,0,3:0:0:0:
11,332,224237,1,2,3:0:0:0:
37,367,224329,1,0,3:2:0:0:
76,384,224420,1,0,3:2:0:0:
120,380,224511,1,0,3:2:0:0:
155,355,224601,6,0,B|202:331|202:331|263:353,1,116.999994644165,2|0,3:0|0:0,0:0:0:0:
394,384,225147,1,0,3:0:0:0:
394,384,225237,1,0,3:0:0:0:
395,384,225329,2,0,P|423:379|450:367,1,58.4999973220826,10|0,0:0|0:0,0:0:0:0:
512,256,225692,1,0,3:0:0:0:
304,272,225874,2,0,L|237:257,1,58.4999973220826,0|0,3:0|0:0,0:0:0:0:
416,368,226238,1,0,3:0:0:0:
400,160,226420,2,0,L|415:93,1,58.4999973220826,2|0,3:0|0:0,0:0:0:0:
512,0,226783,1,10,0:0:0:0:
352,16,226965,1,0,3:0:0:0:
192,32,227146,1,2,3:0:0:0:
164,65,227238,1,0,3:2:0:0:
158,107,227329,1,0,3:2:0:0:
173,149,227420,1,0,3:2:0:0:
208,176,227511,6,0,P|109:133|40:218,1,233.999989288331,6|10,3:1|0:0,0:0:0:0:
41,219,228601,2,0,L|50:291,1,58.4999973220826,0|0,3:0|3:0,0:0:0:0:
96,384,228965,1,2,3:0:0:0:
96,384,229147,1,0,3:2:0:0:
278,384,229329,1,2,3:0:0:0:
246,288,229511,1,0,3:0:0:0:
310,178,229693,1,14,3:2:0:0:
278,274,229875,1,0,3:0:0:0:
134,279,230057,1,2,3:0:0:0:
166,183,230239,1,0,3:0:0:0:
32,64,230420,6,0,L|166:77,1,135.000005149842,14|0,0:0|3:0,0:0:0:0:
480,160,230965,2,0,L|345:173,1,135.000005149842,12|0,0:0|3:0,0:0:0:0:
192,288,231511,1,12,0:0:0:0:
192,288,231692,1,0,3:0:0:0:
344,384,231874,1,2,3:0:0:0:
363,356,231964,1,0,3:0:0:0:
371,324,232055,1,8,0:0:0:0:
365,291,232146,1,8,0:0:0:0:
347,262,232237,1,10,0:0:0:0:
320,243,232328,1,8,0:0:0:0:
287,236,232420,2,0,L|241:239,1,33.7500012874604,0|0,3:0|3:0,0:0:0:0:
64,320,232601,1,10,0:0:0:0:
64,320,232692,1,8,0:0:0:0:
64,320,232783,2,0,L|97:317,1,33.7500012874604,8|0,3:2|3:2,0:0:0:0:
252,384,232965,1,10,0:0:0:0:
252,384,233056,1,8,0:0:0:0:
252,384,233147,2,0,L|285:381,1,33.7500012874604,8|0,3:2|3:0,0:0:0:0:
448,352,233329,37,14,0:2:0:0:
461,248,233511,1,0,0:2:0:0:
474,144,233692,1,0,0:2:0:0:
487,40,233874,1,0,0:2:0:0:
357,235,234056,6,0,L|267:243,1,90,14|0,0:2|0:2,0:0:0:0:
0,160,234420,2,0,L|89:151,1,90,14|0,0:2|0:2,0:0:0:0:
284,158,234783,5,14,0:2:0:0:
306,55,234965,1,0,0:2:0:0:
203,33,235147,1,0,0:2:0:0:
181,135,235329,1,0,0:2:0:0:
34,317,235511,5,14,0:2:0:0:
56,215,235693,1,0,0:2:0:0:
159,237,235875,1,0,0:2:0:0:
137,340,236057,1,0,0:2:0:0:
342,384,236238,37,14,0:2:0:0:
364,281,236420,1,0,0:2:0:0:
261,259,236602,1,0,0:2:0:0:
239,361,236784,1,0,0:2:0:0:
461,352,236965,6,0,L|479:263,1,90,14|0,0:2|0:2,0:0:0:0:
308,87,237329,2,0,L|326:175,1,90,14|0,0:2|0:2,0:0:0:0:
178,327,237692,5,14,0:2:0:0:
75,349,237873,1,0,0:2:0:0:
4,270,238056,1,0,0:2:0:0:
36,170,238238,1,0,0:2:0:0:
178,327,238420,5,14,0:2:0:0:
282,330,238601,1,0,0:2:0:0:
339,241,238784,1,0,0:2:0:0:
289,148,238966,1,0,0:2:0:0:
178,327,239148,37,14,0:2:0:0:
167,221,239329,1,0,0:2:0:0:
158,116,239511,1,0,0:2:0:0:
148,13,239692,1,0,0:2:0:0:
273,211,239874,6,0,L|362:224,1,90,14|0,0:2|0:2,0:0:0:0:
512,64,240238,2,0,L|423:77,1,90,14|0,0:2|0:2,0:0:0:0:
131,192,240601,5,14,0:2:0:0:
128,88,240782,1,0,0:2:0:0:
217,31,240965,1,0,0:2:0:0:
310,81,241147,1,0,0:2:0:0:
224,242,241329,5,14,0:2:0:0:
135,296,241510,1,0,0:2:0:0:
41,248,241693,1,0,0:2:0:0:
38,142,241875,1,0,0:2:0:0:
221,137,242056,37,14,0:2:0:0:
312,186,242237,1,0,0:2:0:0:
317,291,242420,1,0,0:2:0:0:
227,347,242602,1,0,0:2:0:0:
131,192,242783,6,0,L|124:102,1,90,14|0,0:2|0:2,0:0:0:0:
352,0,243147,2,0,L|345:90,1,90,14|0,0:2|0:2,0:0:0:0:
512,225,243511,5,14,0:2:0:0:
406,236,243692,1,0,0:2:0:0:
301,245,243874,1,0,0:2:0:0:
198,255,244055,1,0,0:2:0:0:
467,351,244238,5,14,0:2:0:0:
361,340,244419,1,0,0:2:0:0:
348,162,244601,1,8,0:2:0:0:
348,162,244692,1,8,0:2:0:0:
348,162,244783,1,8,0:2:0:0:
253,315,244965,37,14,0:2:0:0:
242,209,245146,1,0,0:2:0:0:
233,104,245328,1,0,0:2:0:0:
223,1,245511,1,0,3:2:0:0:
49,51,245692,6,0,L|139:62,1,90,14|0,0:2|0:2,0:0:0:0:
406,53,246056,2,0,L|317:43,1,90,14|0,0:2|0:2,0:0:0:0:
146,166,246420,5,14,0:2:0:0:
168,269,246602,1,0,0:2:0:0:
65,291,246784,1,0,0:2:0:0:
43,189,246966,1,0,0:2:0:0:
227,41,247147,5,14,0:2:0:0:
124,64,247329,1,0,0:2:0:0:
146,166,247511,1,0,0:2:0:0:
249,144,247693,1,0,0:2:0:0:
374,224,247874,37,14,0:2:0:0:
271,246,248056,1,0,0:2:0:0:
249,144,248238,1,0,0:2:0:0:
352,121,248420,1,0,0:2:0:0:
480,288,248601,6,0,L|493:199,1,90,14|0,0:2|0:2,0:0:0:0:
365,32,248965,2,0,L|352:121,1,90,14|0,0:2|0:2,0:0:0:0:
188,173,249329,5,14,0:2:0:0:
99,227,249510,1,0,0:2:0:0:
5,179,249693,1,0,0:2:0:0:
2,73,249875,1,0,0:2:0:0:
188,173,250056,5,14,0:2:0:0:
279,223,250237,1,0,0:2:0:0:
284,328,250420,1,0,0:2:0:0:
194,384,250602,1,0,0:2:0:0:
188,173,250783,37,14,0:2:0:0:
185,68,250964,1,0,0:2:0:0:
274,12,251147,1,0,0:2:0:0:
367,61,251329,1,0,0:2:0:0:
188,173,251511,6,0,L|99:158,1,90,14|0,0:2|0:2,0:0:0:0:
194,384,251874,2,0,L|282:369,1,90,14|0,0:2|0:2,0:0:0:0:
434,153,252238,5,14,0:2:0:0:
320,183,252420,1,0,0:2:0:0:
352,295,252601,1,0,0:2:0:0:
464,266,252783,1,0,0:2:0:0:
359,103,252965,5,14,0:2:0:0:
512,192,253147,1,0,0:2:0:0:
424,344,253328,1,0,0:2:0:0:
274,256,253510,1,0,0:2:0:0:
393,225,253692,37,6,0:1:0:0:
393,225,254056,1,0,0:2:0:0:
393,225,254420,1,0,0:2:0:0:
279,108,254783,1,8,0:2:0:0:
192,320,255147,1,8,0:2:0:0:
96,32,255511,1,8,0:2:0:0:
32,128,255692,1,0,0:2:0:0:
32,128,255783,1,0,0:2:0:0:
32,128,255874,1,8,0:2:0:0:
147,135,256056,1,8,0:2:0:0:
262,142,256238,1,8,0:2:0:0:
377,149,256420,1,8,0:2:0:0:
255,257,256601,5,2,0:2:0:0:
