osu file format v14

[General]
AudioFilename: audio.mp3
AudioLeadIn: 0
PreviewTime: 89230
Countdown: 0
SampleSet: Soft
StackLeniency: 0.4
Mode: 0
LetterboxInBreaks: 0
WidescreenStoryboard: 0

[Editor]
DistanceSpacing: 0.5
BeatDivisor: 4
GridSize: 32
TimelineZoom: 1.9

[Metadata]
Title:mirage an illusory hope
TitleUnicode:mirage ∝ an illusory hope
Artist:Kitamura Eri
ArtistUnicode:喜多村英梨
Creator:Mordred
Version:Delusion
Source:
Tags:illusion dream dystopia record rock han japanese
BeatmapID:2513715
BeatmapSetID:1207069

[Difficulty]
HPDrainRate:7
CircleSize:4.5
OverallDifficulty:8
ApproachRate:8
SliderMultiplier:1.8
SliderTickRate:1

[Events]
//Background and Video events
0,0,"81971749_p0_master1200.jpg",0,0
//Break Periods
//Storyboard Layer 0 (Background)
//Storyboard Layer 1 (Fail)
//Storyboard Layer 2 (Pass)
//Storyboard Layer 3 (Foreground)
//Storyboard Layer 4 (Overlay)
//Storyboard Sound Samples

[TimingPoints]
602,727.272727272727,4,2,2,30,1,0
20965,-100,4,2,1,70,0,0
41692,-100,4,2,1,45,0,0
42056,-100,4,2,1,50,0,0
42420,-100,4,2,1,55,0,0
42783,-100,4,2,1,60,0,0
43147,-100,4,2,1,65,0,0
43511,-100,4,2,1,70,0,0
43874,-100,4,2,1,80,0,0
44238,-100,4,2,2,40,0,0
67511,-100,4,2,2,60,0,0
84965,-83.3333333333333,4,2,1,70,0,0
87874,-66.6666666666667,4,2,1,70,0,0
88238,-66.6666666666667,4,2,1,50,0,0
88420,-66.6666666666667,4,2,1,55,0,0
88601,-66.6666666666667,4,2,1,60,0,0
88783,-66.6666666666667,4,2,1,65,0,0
88965,-66.6666666666667,4,2,1,70,0,0
89147,-66.6666666666667,4,2,1,75,0,0
89329,-66.6666666666667,4,2,1,60,0,0
90783,-76.9230769230769,4,2,1,70,0,1
111874,-76.9230769230769,4,2,1,60,0,1
112238,-76.9230769230769,4,2,1,65,0,1
112601,-76.9230769230769,4,2,1,70,0,1
112965,-76.9230769230769,4,2,1,75,0,1
113329,-76.9230769230769,4,2,1,80,0,1
114056,-100,4,2,1,70,0,0
114692,-100,4,2,1,5,0,0
114783,-100,4,2,1,70,0,0
116147,-100,4,2,1,5,0,0
116238,-100,4,2,1,70,0,0
119874,-83.3333333333333,4,2,1,70,0,0
129238,-83.3333333333333,4,2,1,5,0,0
129329,-83.3333333333333,4,2,1,70,0,0
132147,-83.3333333333333,4,2,1,5,0,0
132238,-83.3333333333333,4,2,1,70,0,0
134420,-83.3333333333333,4,2,1,60,0,0
135147,-83.3333333333333,4,2,1,65,0,0
135874,-83.3333333333333,4,2,1,70,0,0
137329,-66.6666666666667,4,2,1,50,0,0
148238,-66.6666666666667,4,2,1,52,0,0
148329,-66.6666666666667,4,2,1,54,0,0
148420,-66.6666666666667,4,2,1,56,0,0
148511,-66.6666666666667,4,2,1,58,0,0
148601,-66.6666666666667,4,2,1,60,0,0
148692,-66.6666666666667,4,2,1,65,0,0
148783,-66.6666666666667,4,2,1,70,0,0
148965,-66.6666666666667,4,2,1,75,0,0
149056,-66.6666666666667,4,2,1,50,0,0
154783,-66.6666666666667,4,2,1,70,0,0
158056,-66.6666666666667,4,2,1,40,0,0
158238,-66.6666666666667,4,2,1,45,0,0
158419,-66.6666666666667,4,2,1,40,0,0
158601,-66.6666666666667,4,2,1,55,0,0
158783,-66.6666666666667,4,2,1,60,0,0
158965,-66.6666666666667,4,2,1,55,0,0
159147,-66.6666666666667,4,2,1,70,0,0
160601,-76.9230769230769,4,2,1,70,0,1
181692,-76.9230769230769,4,2,1,60,0,1
182056,-76.9230769230769,4,2,1,65,0,1
182419,-76.9230769230769,4,2,1,70,0,1
182783,-76.9230769230769,4,2,1,75,0,1
183147,-76.9230769230769,4,2,1,80,0,1
183874,-100,4,2,2,40,0,0
210056,-76.9230769230769,4,2,1,70,0,1
230420,-66.6666666666667,4,2,1,70,0,1
232601,-58.8235294117647,4,2,1,70,0,1
232965,-66.6666666666667,4,2,1,70,0,0
233329,-58.8235294117647,4,3,1,80,0,1
256601,-100,4,2,1,50,0,0

[Colours]
Combo1 : 128,128,128
Combo2 : 128,128,192
Combo3 : 173,192,214
Combo4 : 205,155,255
Combo5 : 141,131,241
Combo6 : 192,192,192

[HitObjects]
64,352,602,69,2,0:0:0:0:
62,338,783,1,0,0:0:0:0:
60,324,965,1,0,0:0:0:0:
112,265,1329,1,2,0:0:0:0:
114,251,1510,1,0,0:0:0:0:
62,192,1874,1,0,0:0:0:0:
60,178,1965,1,0,0:0:0:0:
58,164,2056,1,2,0:0:0:0:
56,150,2238,1,0,0:0:0:0:
54,136,2420,1,0,0:0:0:0:
106,77,2784,1,2,0:0:0:0:
108,63,2965,1,0,0:0:0:0:
224,128,3329,5,0,0:0:0:0:
226,142,3420,1,0,0:0:0:0:
228,156,3511,1,2,0:0:0:0:
230,170,3693,1,0,0:0:0:0:
232,184,3875,1,0,0:0:0:0:
180,243,4239,1,2,0:0:0:0:
178,257,4420,1,0,0:0:0:0:
176,271,4601,2,0,L|126:278,2,30
241,313,4965,1,2,0:0:0:0:
243,327,5147,1,0,0:0:0:0:
245,341,5329,1,0,0:0:0:0:
334,384,5692,69,2,0:0:0:0:
336,370,5874,1,0,0:0:0:0:
338,356,6056,1,0,0:0:0:0:
340,342,6147,1,0,0:0:0:0:
342,328,6238,1,0,0:0:0:0:
344,314,6329,1,0,0:0:0:0:
346,300,6420,1,2,0:0:0:0:
348,286,6601,1,0,0:0:0:0:
350,272,6783,1,0,0:0:0:0:
295,215,7147,1,0,0:0:0:0:
293,201,7329,1,0,0:0:0:0:
348,144,7692,1,0,0:0:0:0:
350,130,7783,1,0,0:0:0:0:
352,116,7874,1,2,0:0:0:0:
354,102,8055,1,0,0:0:0:0:
356,88,8237,1,0,0:0:0:0:
301,31,8601,1,2,0:0:0:0:
299,17,8783,1,0,0:0:0:0:
226,71,9147,5,0,0:0:0:0:
212,73,9238,1,0,0:0:0:0:
198,75,9329,1,2,0:0:0:0:
184,77,9510,1,0,0:0:0:0:
170,79,9692,1,0,0:0:0:0:
106,34,10056,1,2,0:0:0:0:
92,32,10237,1,0,0:0:0:0:
78,30,10420,2,0,L|71:-4,2,30
30,86,10783,1,2,0:0:0:0:
28,100,10964,1,0,0:0:0:0:
26,114,11146,1,0,0:0:0:0:
78,171,11511,1,2,0:0:0:0:
80,185,11693,1,0,0:0:0:0:
82,199,11874,2,0,L|80:217,6,11.25
120,270,12238,69,2,0:0:0:0:
133,272,12419,1,0,0:0:0:0:
147,274,12601,1,0,0:0:0:0:
203,328,12965,1,2,0:0:0:0:
217,326,13147,1,0,0:0:0:0:
273,272,13511,1,2,0:0:0:0:
286,274,13601,1,2,0:0:0:0:
300,276,13692,1,2,0:0:0:0:
313,278,13874,1,0,0:0:0:0:
327,280,14056,1,2,0:0:0:0:
389,232,14420,2,0,L|383:196,2,30,2|0|0,0:0|0:0|0:0,0:0:0:0:
437,291,14783,2,0,L|431:327,2,30,2|0|0,0:0|0:0|0:0,0:0:0:0:
493,241,15147,5,2,0:0:0:0:
495,227,15328,1,0,0:0:0:0:
497,213,15510,1,0,0:0:0:0:
443,158,15874,1,2,0:0:0:0:
441,144,16055,1,0,0:0:0:0:
439,130,16238,2,0,L|446:88,2,30
360,144,16601,69,2,0:0:0:0:
347,146,16782,1,0,0:0:0:0:
333,148,16964,1,0,0:0:0:0:
279,90,17329,1,2,0:0:0:0:
266,88,17510,1,0,0:0:0:0:
252,86,17692,1,0,0:0:0:0:
239,84,17783,1,0,0:0:0:0:
225,82,17874,1,0,0:0:0:0:
212,80,17965,1,0,0:0:0:0:
198,78,18056,1,2,0:0:0:0:
185,76,18238,1,0,0:0:0:0:
171,74,18420,1,0,0:0:0:0:
112,126,18783,1,0,0:0:0:0:
114,140,18965,1,0,0:0:0:0:
166,195,19329,5,0,0:0:0:0:
179,197,19420,1,0,0:0:0:0:
193,199,19511,1,2,0:0:0:0:
206,201,19693,1,0,0:0:0:0:
220,203,19874,1,0,0:0:0:0:
281,151,20238,1,2,0:0:0:0:
295,149,20420,1,0,0:0:0:0:
356,201,20783,1,0,0:0:0:0:
369,203,20874,1,0,0:0:0:0:
383,205,20965,6,0,B|410:150|410:150|376:105|376:105|384:43,1,180,6|10,3:1|0:0,0:0:0:0:
384,43,22056,1,0,3:0:0:0:
224,32,22238,1,0,3:0:0:0:
224,32,22601,1,0,3:0:0:0:
401,135,22783,1,0,3:0:0:0:
224,32,23147,1,10,0:0:0:0:
418,227,23329,2,0,L|406:326,1,90,0|0,3:0|3:0,0:0:0:0:
392,333,23783,1,0,3:0:0:0:
377,350,23874,6,0,B|320:327|320:327|262:364|196:336,1,180,2|10,3:2|0:0,0:0:0:0:
206,340,24965,1,0,3:0:0:0:
160,160,25147,1,0,3:0:0:0:
160,160,25511,1,0,3:0:0:0:
93,273,25692,1,0,3:0:0:0:
273,227,26056,1,10,0:0:0:0:
93,273,26238,1,0,3:0:0:0:
70,268,26420,1,0,3:0:0:0:
47,263,26601,1,0,3:0:0:0:
0,96,26783,6,0,B|38:110|71:94|71:94|92:128|92:128|121:129|156:145,1,180,6|10,3:1|0:0,0:0:0:0:
157,145,27874,1,0,3:0:0:0:
256,0,28056,1,0,3:0:0:0:
256,0,28420,1,0,3:0:0:0:
355,146,28602,1,0,3:0:0:0:
157,145,28965,1,14,0:0:0:0:
355,146,29147,2,0,P|393:126|405:84,1,90,0|0,3:0|3:0,0:0:0:0:
392,64,29601,1,0,3:0:0:0:
378,46,29692,6,0,L|399:224,1,180,6|10,3:1|0:0,0:0:0:0:
399,225,30783,1,0,3:0:0:0:
256,192,30965,1,0,3:0:0:0:
281,264,31147,1,2,3:0:0:0:
231,120,31329,1,0,3:0:0:0:
132,236,31511,1,0,3:0:0:0:
380,148,31874,1,10,0:0:0:0:
132,236,32056,2,0,L|42:224,1,90,4|0,3:1|3:0,0:0:0:0:
448,384,32601,38,0,B|486:341|486:341|454:219,1,180,6|10,3:1|0:0,0:0:0:0:
455,222,33692,1,0,3:0:0:0:
288,288,33874,1,0,3:0:0:0:
288,288,34238,1,0,3:0:0:0:
416,128,34420,1,0,3:0:0:0:
288,288,34783,1,10,0:0:0:0:
377,34,34965,1,0,3:0:0:0:
377,34,35329,1,0,3:0:0:0:
288,288,35511,6,0,P|229:348|149:316,1,180,2|10,3:0|0:0,0:0:0:0:
150,316,36601,1,0,3:0:0:0:
260,150,36783,1,0,3:0:0:0:
260,150,37147,1,0,3:0:0:0:
122,178,37329,1,0,3:0:0:0:
288,288,37692,1,10,0:0:0:0:
122,178,37874,1,0,3:0:0:0:
117,155,38056,1,0,3:0:0:0:
112,132,38238,1,0,3:0:0:0:
0,336,38420,6,0,B|54:337|68:357|68:357|104:348|104:348|122:371|182:384,1,180,6|10,3:1|0:0,0:0:0:0:
165,380,39511,1,0,3:0:0:0:
256,288,39692,1,0,3:0:0:0:
256,288,40056,1,0,3:0:0:0:
347,380,40237,1,0,3:0:0:0:
164,197,40601,1,10,0:0:0:0:
347,380,40783,2,0,L|436:386,1,90,0|0,3:0|3:0,0:0:0:0:
436,384,41238,1,0,3:0:0:0:
436,384,41329,5,6,3:1:0:0:
496,305,41692,1,8,0:0:0:0:
475,164,42056,1,8,0:0:0:0:
350,34,42420,1,8,0:0:0:0:
92,23,42783,1,8,0:0:0:0:
219,384,43147,1,8,0:0:0:0:
416,0,43511,1,8,0:0:0:0:
0,192,43874,1,8,0:0:0:0:
256,288,44238,5,2,0:0:0:0:
269,284,44420,1,0,0:0:0:0:
282,280,44601,1,0,0:0:0:0:
295,276,44965,1,2,0:0:0:0:
308,272,45147,1,0,0:0:0:0:
321,268,45511,1,0,0:0:0:0:
334,264,45601,1,0,0:0:0:0:
347,260,45692,1,2,0:0:0:0:
360,256,45874,1,0,0:0:0:0:
373,252,46056,1,0,0:0:0:0:
386,248,46420,1,2,0:0:0:0:
399,244,46601,1,0,0:0:0:0:
412,240,46965,1,0,0:0:0:0:
425,236,47055,1,0,0:0:0:0:
438,232,47146,5,2,0:0:0:0:
453,161,47329,1,0,0:0:0:0:
468,90,47511,1,0,0:0:0:0:
468,90,47874,1,2,0:0:0:0:
455,86,48056,1,0,0:0:0:0:
442,82,48238,1,0,0:0:0:0:
380,120,48359,1,0,0:0:0:0:
311,96,48480,1,0,0:0:0:0:
298,25,48601,1,2,0:0:0:0:
311,21,48783,1,0,0:0:0:0:
324,17,48965,1,0,0:0:0:0:
244,72,49329,1,2,0:0:0:0:
231,68,49511,1,0,0:0:0:0:
218,64,49692,1,0,0:0:0:0:
205,60,49784,1,0,0:0:0:0:
192,56,49874,1,0,0:0:0:0:
179,52,49965,1,0,0:0:0:0:
166,48,50056,69,2,0:0:0:0:
95,61,50238,1,0,0:0:0:0:
24,74,50420,1,0,0:0:0:0:
24,74,50783,1,0,0:0:0:0:
22,87,50965,1,0,0:0:0:0:
20,100,51329,1,0,0:0:0:0:
18,113,51420,1,0,0:0:0:0:
16,126,51511,1,2,0:0:0:0:
14,139,51692,1,0,0:0:0:0:
12,152,51874,1,0,0:0:0:0:
10,165,52238,1,2,0:0:0:0:
8,178,52420,1,0,0:0:0:0:
6,191,52783,1,0,0:0:0:0:
4,204,52874,1,0,0:0:0:0:
2,217,52965,5,2,0:0:0:0:
73,204,53147,1,0,0:0:0:0:
144,191,53329,1,0,0:0:0:0:
144,191,53692,1,2,0:0:0:0:
146,204,53874,1,0,0:0:0:0:
148,217,54056,1,0,0:0:0:0:
210,255,54177,1,0,0:0:0:0:
279,231,54298,1,0,0:0:0:0:
292,160,54419,1,2,0:0:0:0:
279,156,54601,1,0,0:0:0:0:
266,152,54783,1,0,0:0:0:0:
253,148,55147,1,2,0:0:0:0:
240,144,55329,1,0,0:0:0:0:
227,140,55511,2,0,L|224:124,6,11.25
254,64,55874,69,2,0:0:0:0:
325,51,56056,1,0,0:0:0:0:
396,38,56238,1,0,0:0:0:0:
398,51,56601,1,2,0:0:0:0:
400,64,56783,1,0,0:0:0:0:
402,77,57147,1,0,0:0:0:0:
404,90,57238,1,0,0:0:0:0:
406,103,57329,1,2,0:0:0:0:
408,116,57511,1,0,0:0:0:0:
410,129,57692,1,0,0:0:0:0:
412,142,58056,1,2,0:0:0:0:
414,155,58238,1,0,0:0:0:0:
416,168,58601,1,0,0:0:0:0:
418,181,58692,1,0,0:0:0:0:
420,194,58783,5,2,0:0:0:0:
405,265,58965,1,0,0:0:0:0:
390,336,59147,1,0,0:0:0:0:
390,336,59511,1,2,0:0:0:0:
377,340,59692,1,0,0:0:0:0:
364,344,59874,1,0,0:0:0:0:
293,331,59995,1,0,0:0:0:0:
269,262,60116,1,0,0:0:0:0:
307,200,60237,1,2,0:0:0:0:
320,204,60420,1,0,0:0:0:0:
333,208,60601,1,0,0:0:0:0:
346,212,60966,1,2,0:0:0:0:
359,216,61147,1,0,0:0:0:0:
372,220,61329,1,0,0:0:0:0:
385,224,61420,1,0,0:0:0:0:
398,228,61511,1,0,0:0:0:0:
411,232,61601,1,0,0:0:0:0:
424,236,61692,69,2,0:0:0:0:
409,165,61874,1,0,0:0:0:0:
394,94,62056,1,0,0:0:0:0:
381,90,62420,1,2,0:0:0:0:
368,86,62601,1,0,0:0:0:0:
355,82,62966,1,0,0:0:0:0:
342,78,63056,1,0,0:0:0:0:
329,74,63147,1,2,0:0:0:0:
316,70,63329,1,0,0:0:0:0:
303,66,63511,1,0,0:0:0:0:
290,62,63874,1,2,0:0:0:0:
277,58,64056,1,0,0:0:0:0:
264,54,64420,1,0,0:0:0:0:
251,50,64511,1,0,0:0:0:0:
238,46,64601,5,2,0:0:0:0:
167,59,64783,1,0,0:0:0:0:
96,72,64965,1,0,0:0:0:0:
94,85,65329,1,2,0:0:0:0:
92,98,65511,1,0,0:0:0:0:
90,111,65692,1,0,0:0:0:0:
160,123,65813,1,0,0:0:0:0:
184,193,65934,1,0,0:0:0:0:
146,255,66055,1,2,0:0:0:0:
133,251,66238,1,0,0:0:0:0:
120,247,66420,1,0,0:0:0:0:
107,243,66783,1,2,0:2:0:0:
94,239,66965,1,0,0:0:0:0:
81,235,67147,2,0,L|78:216,6,11.25
0,320,67511,5,2,3:2:0:0:
96,336,67692,1,0,0:0:0:0:
192,352,67874,2,0,L|281:331,1,90,0|8,0:0|0:0,0:0:0:0:
483,378,68420,2,0,L|395:357,1,90
385,344,68874,1,0,0:0:0:0:
375,331,68965,1,0,0:0:0:0:
413,241,69147,1,0,3:0:0:0:
451,151,69329,2,0,L|434:62,2,90,0|8|0,0:0|0:0|0:0,0:0:0:0:
509,260,70238,1,0,0:0:0:0:
509,260,70329,1,0,0:0:0:0:
509,260,70420,5,2,3:2:0:0:
412,241,70601,1,0,0:0:0:0:
314,222,70783,2,0,L|269:228,1,45
125,314,71147,1,8,0:0:0:0:
172,229,71329,1,0,0:0:0:0:
123,145,71511,1,0,0:0:0:0:
105,140,71632,1,0,0:0:0:0:
87,135,71753,1,0,0:0:0:0:
69,130,71874,1,2,0:0:0:0:
172,229,72056,1,0,3:0:0:0:
207,91,72238,1,0,0:0:0:0:
207,91,72601,1,10,0:0:0:0:
172,229,72783,1,0,3:0:0:0:
310,191,72965,1,0,0:0:0:0:
323,193,73056,1,0,0:0:0:0:
336,195,73147,1,0,0:0:0:0:
349,197,73238,1,0,0:0:0:0:
362,199,73329,5,6,3:1:0:0:
388,289,73511,1,0,0:0:0:0:
413,378,73692,2,0,L|506:385,1,90,0|8,0:0|0:0,0:0:0:0:
298,314,74238,1,0,0:0:0:0:
362,199,74420,1,0,0:0:0:0:
395,296,74601,1,0,0:0:0:0:
395,296,74692,1,0,0:0:0:0:
395,296,74783,1,2,0:0:0:0:
298,314,74965,1,0,3:0:0:0:
200,332,75147,2,0,L|103:321,2,90,0|10|0,0:0|0:0|0:0,0:0:0:0:
395,296,76056,1,0,0:0:0:0:
395,296,76147,1,0,0:0:0:0:
395,296,76238,5,2,3:2:0:0:
413,198,76420,1,0,0:0:0:0:
432,101,76601,2,0,L|424:56,1,45
240,0,76965,1,8,0:0:0:0:
332,28,77147,1,0,0:0:0:0:
304,120,77329,1,0,0:0:0:0:
286,125,77450,1,0,0:0:0:0:
268,130,77571,1,0,0:0:0:0:
250,135,77692,1,2,0:0:0:0:
129,77,77874,1,0,3:0:0:0:
140,211,78056,1,0,0:0:0:0:
140,211,78420,1,10,0:0:0:0:
250,135,78602,1,0,3:0:0:0:
260,268,78783,2,0,L|256:284,6,11.25
371,340,79147,37,2,3:0:0:0:
275,356,79328,1,0,0:0:0:0:
179,372,79510,2,0,L|90:351,1,90,0|8,0:0|0:0,0:0:0:0:
0,187,80056,2,0,P|41:201|62:240,1,90
56,255,80511,1,0,0:0:0:0:
50,269,80601,1,0,0:0:0:0:
146,253,80784,1,0,3:0:0:0:
242,237,80965,2,0,L|258:148,2,90,0|8|0,0:0|0:0|0:0,0:0:0:0:
320,352,81874,1,0,0:0:0:0:
320,352,81965,1,0,0:0:0:0:
320,352,82056,5,2,3:2:0:0:
416,336,82238,1,0,0:0:0:0:
451,245,82420,2,0,L|441:188,1,45
485,39,82783,1,8,0:0:0:0:
417,107,82965,1,0,0:0:0:0:
323,85,83147,1,0,0:0:0:0:
317,67,83268,1,0,0:0:0:0:
311,49,83389,1,0,0:0:0:0:
305,31,83511,1,2,0:0:0:0:
206,142,83692,1,0,3:2:0:0:
160,0,83874,1,0,0:0:0:0:
160,0,84238,1,10,0:0:0:0:
206,142,84420,1,0,3:0:0:0:
61,111,84601,1,0,0:0:0:0:
47,114,84692,1,0,0:0:0:0:
34,117,84783,1,0,0:0:0:0:
21,121,84874,1,0,0:0:0:0:
8,125,84965,6,0,L|-9:234,1,107.999996704102,14|0,3:1|3:0,0:0:0:0:
504,259,85511,2,0,L|521:150,1,107.999996704102,10|0,3:2|3:0,0:0:0:0:
78,26,86056,2,0,L|96:132,1,107.999996704102,14|0,3:1|3:0,0:0:0:0:
434,358,86601,2,0,L|415:251,1,107.999996704102,10|0,3:2|3:0,0:0:0:0:
160,384,87147,1,14,0:1:0:0:
224,224,87329,1,0,3:0:0:0:
336,336,87511,2,0,L|282:326,1,53.9999983520508,8|0,0:0|0:0,0:0:0:0:
96,288,87874,6,0,B|71:249|71:249|98:151,1,135.000005149842,6|8,0:1|0:0,0:0:0:0:
192,128,88420,1,8,0:0:0:0:
352,192,88601,1,8,0:0:0:0:
256,32,88783,1,8,0:0:0:0:
288,288,88965,1,8,0:0:0:0:
480,0,89147,1,8,0:0:0:0:
512,96,89329,5,2,0:0:0:0:
0,192,90783,22,0,B|33:208|66:192|66:192|93:212|101:231|101:231|134:233|167:223|167:223|189:227|210:245,1,233.999989288331,6|10,3:1|0:0,0:0:0:0:
208,243,91874,1,2,3:0:0:0:
416,160,92056,2,0,L|429:91,1,58.4999973220826,0|2,3:0|0:0,0:0:0:0:
353,305,92420,1,0,3:0:0:0:
270,97,92602,2,0,L|201:84,1,58.4999973220826,2|0,3:0|0:0,0:0:0:0:
43,126,92965,1,10,0:0:0:0:
117,57,93147,1,0,3:0:0:0:
139,155,93329,1,2,3:0:0:0:
65,224,93511,1,0,3:0:0:0:
235,184,93692,6,0,P|287:206|299:267,1,116.999994644165,2|0,3:0|0:0,0:0:0:0:
218,384,94238,1,0,3:0:0:0:
218,384,94329,1,0,3:0:0:0:
218,384,94420,2,0,L|228:311,1,58.4999973220826,10|0,0:2|0:0,0:0:0:0:
162,254,94783,1,0,3:0:0:0:
320,352,94965,2,0,L|377:344,1,58.4999973220826,0|0,3:0|0:0,0:0:0:0:
218,384,95329,1,0,3:0:0:0:
416,256,95511,2,0,L|423:198,1,58.4999973220826,2|0,3:0|0:0,0:0:0:0:
329,21,95874,1,10,0:0:0:0:
275,105,96056,1,0,3:0:0:0:
376,109,96238,1,2,3:0:0:0:
430,24,96420,1,0,3:0:0:0:
512,192,96601,6,0,B|536:259|536:259|499:356,1,175.499991966248,6|2,3:1|0:0,0:0:0:0:
401,384,97329,2,0,L|421:329,1,58.4999973220826,8|2,0:0|0:0,0:0:0:0:
416,224,97692,1,0,3:0:0:0:
256,352,97874,2,0,L|197:358,1,58.4999973220826,2|0,3:0|0:0,0:0:0:0:
401,384,98238,1,0,3:0:0:0:
241,256,98420,2,0,L|182:249,1,58.4999973220826,0|0,3:0|0:0,0:0:0:0:
32,384,98783,2,0,P|44:357|48:329,1,58.4999973220826,14|0,0:0|3:0,0:0:0:0:
0,128,99147,2,0,P|4:156|16:182,1,58.4999973220826,2|0,3:0|3:0,0:0:0:0:
216,324,99511,6,0,B|238:346|261:357|261:357|338:323|308:201,1,233.999989288331,6|10,3:1|0:0,0:0:0:0:
308,202,100601,1,0,3:2:0:0:
448,32,100783,1,0,3:2:0:0:
424,119,100965,1,2,3:2:0:0:
512,96,101147,1,0,3:2:0:0:
272,78,101329,1,2,3:2:0:0:
360,55,101511,1,0,3:2:0:0:
510,271,101692,1,10,3:2:0:0:
487,183,101874,1,4,3:1:0:0:
285,290,102056,1,2,3:2:0:0:
308,202,102238,1,0,3:2:0:0:
96,32,102420,38,0,B|87:82|62:106|62:106|69:133|102:155|102:155|74:191|64:250,1,233.999989288331,6|10,3:1|0:0,0:0:0:0:
68,234,103511,1,2,3:0:0:0:
224,96,103692,2,0,L|281:87,1,58.4999973220826,0|2,3:0|0:0,0:0:0:0:
77,87,104056,1,0,3:0:0:0:
215,243,104238,2,0,L|272:252,1,58.4999973220826,2|0,3:0|0:0,0:0:0:0:
465,310,104601,1,10,0:0:0:0:
443,212,104783,1,0,3:0:0:0:
369,281,104965,1,2,3:0:0:0:
391,379,105147,1,0,3:0:0:0:
192,384,105329,6,0,L|77:364,1,116.999994644165,2|0,3:0|0:0,0:0:0:0:
0,256,105874,1,0,3:0:0:0:
0,256,105965,1,0,3:0:0:0:
0,256,106056,2,0,L|57:266,1,58.4999973220826,10|0,0:0|0:0,0:0:0:0:
224,224,106420,1,0,3:0:0:0:
96,51,106601,2,0,L|106:109,1,58.4999973220826,0|0,3:0|0:0,0:0:0:0:
224,224,106965,1,0,3:0:0:0:
384,128,107147,2,0,L|441:138,1,58.4999973220826,2|0,3:0|0:0,0:0:0:0:
508,320,107511,1,10,0:0:0:0:
418,367,107693,1,0,3:0:0:0:
422,267,107874,1,2,3:0:0:0:
512,219,108057,1,0,3:0:0:0:
464,16,108238,6,0,B|397:-16|397:-16|309:34,1,175.499991966248,6|0,3:1|0:0,0:0:0:0:
309,228,108965,2,0,L|318:170,1,58.4999973220826,10|0,0:0|0:0,0:0:0:0:
309,34,109329,1,0,3:0:0:0:
209,220,109511,1,0,3:0:0:0:
209,220,109601,1,0,3:0:0:0:
209,220,109692,2,0,L|217:277,1,58.4999973220826,2|0,3:0|3:2,0:0:0:0:
416,384,110056,1,2,3:0:0:0:
317,331,110238,1,0,3:0:0:0:
28,289,110420,1,14,3:2:0:0:
127,342,110602,1,0,3:0:0:0:
458,192,110783,1,2,3:0:0:0:
405,291,110965,1,0,3:0:0:0:
256,192,111147,5,6,3:1:0:0:
256,192,111511,1,0,3:0:0:0:
256,192,111874,1,8,0:0:0:0:
128,96,112238,1,8,0:0:0:0:
403,129,112601,1,10,0:0:0:0:
236,350,112965,1,8,0:0:0:0:
275,33,113329,1,8,0:0:0:0:
275,33,113420,2,0,L|266:0,2,29.2499986610413,8|0|0,0:0|3:0|3:0,0:0:0:0:
256,160,113692,1,8,0:0:0:0:
213,175,113783,1,8,0:0:0:0:
171,190,113874,1,8,0:0:0:0:
129,205,113965,1,8,0:0:0:0:
98,217,114056,37,6,3:1:0:0:
256,256,114238,1,0,0:0:0:0:
414,295,114420,2,0,L|486:283,1,67.5
512,259,114783,1,8,0:0:0:0:
288,384,114965,2,0,L|243:374,1,45,0|0,3:0|0:0,0:0:0:0:
55,341,115329,1,0,3:0:0:0:
59,362,115420,1,0,3:0:0:0:
64,384,115511,1,8,0:0:0:0:
192,256,115692,1,4,3:1:0:0:
0,192,115874,2,0,L|-13:119,1,67.5
8,89,116238,1,8,0:0:0:0:
192,256,116420,2,0,L|285:268,1,90,4|0,3:1|3:0,0:0:0:0:
343,333,116874,5,0,3:0:0:0:
343,333,116965,2,0,P|355:289|371:247,1,90,6|0,3:1|0:0,0:0:0:0:
464,208,117511,1,0,0:0:0:0:
305,90,117692,1,8,0:0:0:0:
295,188,117874,1,0,3:0:0:0:
396,50,118056,1,0,0:0:0:0:
392,155,118238,1,0,3:0:0:0:
392,155,118329,1,0,3:0:0:0:
392,155,118420,1,8,0:0:0:0:
64,64,118601,2,0,B|37:103|37:103|60:150,1,90,4|0,3:2|0:0,0:0:0:0:
105,195,119147,1,8,0:0:0:0:
396,50,119329,1,4,3:2:0:0:
320,256,119511,1,8,0:0:0:0:
311,209,119601,1,8,0:0:0:0:
302,163,119692,1,8,0:0:0:0:
293,116,119783,1,8,0:0:0:0:
284,70,119874,6,0,L|264:234,1,161.999995056153,6|0,3:1|0:0,0:0:0:0:
288,304,120601,1,8,0:0:0:0:
128,32,120783,1,0,3:0:0:0:
96,160,120965,1,0,0:0:0:0:
223,124,121147,1,0,3:0:0:0:
197,115,121238,1,0,3:0:0:0:
171,106,121329,1,8,0:0:0:0:
448,32,121511,1,8,0:0:0:0:
448,32,122056,1,8,0:0:0:0:
373,308,122238,1,8,0:0:0:0:
380,315,122601,1,0,3:0:0:0:
380,315,122692,1,0,3:0:0:0:
380,315,122783,6,0,B|330:323|311:342|311:342|283:332|283:332|268:348|217:354,1,161.999995056153,6|0,3:1|0:0,0:0:0:0:
160,384,123511,1,8,0:0:0:0:
459,343,123692,2,0,L|469:289,1,53.9999983520508,0|0,3:0|0:0,0:0:0:0:
448,192,124056,1,0,3:0:0:0:
511,115,124238,1,0,3:0:0:0:
511,115,124329,1,0,3:0:0:0:
511,115,124420,1,12,0:0:0:0:
192,64,124601,1,8,0:0:0:0:
241,165,124783,1,0,3:0:0:0:
241,165,124874,1,0,3:2:0:0:
241,165,124965,1,8,0:0:0:0:
511,115,125146,1,8,0:0:0:0:
326,249,125329,1,8,0:0:0:0:
272,258,125420,1,8,0:0:0:0:
218,267,125511,1,8,0:0:0:0:
165,277,125601,1,8,0:0:0:0:
111,287,125692,38,0,L|63:277,2,35.9999989013672,6|0|0,0:1|0:0|0:0,0:0:0:0:
64,208,126056,2,0,L|16:198,2,35.9999989013672
17,129,126420,1,8,0:0:0:0:
158,366,126601,2,0,B|197:358|197:358|225:370|225:370|273:359,1,107.999996704102,0|0,3:0|3:0,0:0:0:0:
261,361,127056,1,0,3:0:0:0:
261,361,127147,1,8,0:0:0:0:
512,384,127329,1,4,3:2:0:0:
320,256,127511,1,8,0:0:0:0:
310,217,127601,1,8,0:0:0:0:
300,177,127692,2,0,L|305:138,1,26.9999991760254,0|0,3:0|3:0,0:0:0:0:
384,32,127874,1,8,0:0:0:0:
224,256,128056,2,0,L|170:265,1,53.9999983520508,4|8,0:0|0:0,0:0:0:0:
118,308,128329,1,8,0:0:0:0:
106,241,128420,1,8,0:0:0:0:
95,174,128511,1,8,0:0:0:0:
83,108,128601,6,0,B|120:91|152:90|152:90|184:110|184:110|215:92|260:88,1,188.999994232178,6|0,3:1|0:0,0:0:0:0:
284,65,129329,1,8,0:0:0:0:
416,320,129511,1,0,3:0:0:0:
416,320,129692,1,0,0:0:0:0:
484,250,129874,1,0,3:0:0:0:
484,250,129965,1,0,3:0:0:0:
484,250,130056,1,8,0:0:0:0:
224,352,130238,1,4,0:0:0:0:
273,264,130420,1,8,0:0:0:0:
269,246,130480,1,8,0:0:0:0:
265,228,130541,1,8,0:0:0:0:
261,210,130601,2,0,L|264:191,2,17.9999994506836,0|0|0,3:0|3:0|3:2,0:0:0:0:
313,146,130783,1,0,3:0:0:0:
176,253,130965,1,0,3:0:0:0:
158,257,131025,1,0,3:0:0:0:
140,261,131086,1,0,3:0:0:0:
122,265,131147,1,8,0:0:0:0:
51,249,131238,1,8,0:0:0:0:
18,186,131329,1,8,0:0:0:0:
47,120,131420,1,8,0:0:0:0:
116,100,131511,6,0,B|151:104|176:121|176:121|195:107|225:99|225:99|250:126|315:122,1,188.999994232178,6|0,3:1|0:0,0:0:0:0:
313,146,132238,1,8,0:0:0:0:
32,12,132420,2,0,L|47:120,1,107.999996704102,0|0,3:0|3:0,0:0:0:0:
46,119,132874,1,0,3:0:0:0:
46,119,132965,1,8,0:0:0:0:
32,384,133147,1,8,0:0:0:0:
32,384,133692,1,8,0:0:0:0:
334,234,133874,1,8,0:0:0:0:
341,241,134238,1,0,3:0:0:0:
341,241,134329,1,0,3:0:0:0:
341,241,134420,5,6,3:1:0:0:
205,277,134602,1,0,3:0:0:0:
171,141,134784,1,0,3:0:0:0:
307,107,134966,1,0,3:0:0:0:
154,361,135147,37,10,0:0:0:0:
425,293,135329,1,10,0:0:0:0:
357,22,135511,1,10,0:0:0:0:
86,90,135693,1,10,0:0:0:0:
290,327,135874,5,10,0:0:0:0:
120,226,136056,1,10,0:0:0:0:
222,56,136238,1,10,0:0:0:0:
392,157,136420,1,10,0:0:0:0:
256,192,136601,5,6,3:2:0:0:
432,4,136783,1,8,0:0:0:0:
419,55,136874,1,8,0:0:0:0:
405,105,136965,1,8,0:0:0:0:
392,157,137056,1,8,0:0:0:0:
379,209,137147,1,8,0:0:0:0:
366,259,137238,1,8,0:0:0:0:
353,310,137329,6,0,L|299:318,3,33.7500012874604,6|0|0|0,3:1|0:0|0:0|0:0,0:0:0:0:
277,375,137692,2,0,L|223:367,1,33.7500012874604,10|0,0:0|0:0,0:0:0:0:
191,310,137874,2,0,L|137:318,5,33.7500012874604,2|0|0|0|0|0,0:0|0:0|0:0|0:0|0:0|0:0,0:0:0:0:
100,264,138420,2,0,L|46:272,7,33.7500012874604,10|0|0|0|0|0|0|0,0:0|0:0|0:0|0:0|0:0|0:0|0:0|0:0,0:0:0:0:
11,217,139147,1,10,0:0:0:0:
3,198,139237,1,0,0:0:0:0:
1,178,139328,1,0,0:0:0:0:
3,158,139419,1,0,0:0:0:0:
11,139,139510,1,2,0:0:0:0:
23,123,139601,1,0,0:0:0:0:
39,110,139692,1,0,0:0:0:0:
58,102,139783,1,0,0:0:0:0:
77,99,139874,1,10,0:0:0:0:
98,102,139965,1,0,0:0:0:0:
116,109,140056,1,0,0:0:0:0:
133,120,140146,1,0,0:0:0:0:
146,136,140238,38,0,L|152:177,3,33.7500012874604,2|0|0|0,0:0|0:0|0:0|0:0,0:0:0:0:
212,215,140601,2,0,L|206:256,3,33.7500012874604,10|0|0|0,0:0|0:0|0:0|0:0,0:0:0:0:
146,294,140965,2,0,L|152:335,3,33.7500012874604,2|0|0|0,0:0|0:0|0:0|0:0,0:0:0:0:
205,379,141329,2,0,L|246:384,1,33.7500012874604,10|0,0:0|0:0,0:0:0:0:
304,342,141511,2,0,L|345:337,5,33.7500012874604,2|0|0|0|0|0,0:0|0:0|0:0|0:0|0:0|0:0,0:0:0:0:
411,358,142056,1,10,0:0:0:0:
414,338,142147,1,0,0:0:0:0:
418,318,142238,1,0,0:0:0:0:
422,298,142329,1,0,0:0:0:0:
450,278,142420,1,2,0:0:0:0:
447,258,142511,1,0,0:0:0:0:
443,238,142602,1,0,0:0:0:0:
439,218,142693,1,0,0:0:0:0:
411,198,142783,1,10,0:0:0:0:
414,178,142874,1,0,0:0:0:0:
418,158,142965,1,0,0:0:0:0:
422,138,143056,1,0,0:0:0:0:
450,118,143147,6,0,L|444:78,3,33.7500012874604,2|0|0|0,0:0|0:0|0:0|0:0,0:0:0:0:
384,36,143511,2,0,L|344:42,3,33.7500012874604,8|0|0|0,0:0|0:0|0:0|0:0,0:0:0:0:
302,102,143874,2,0,L|308:142,3,33.7500012874604
368,184,144238,2,0,L|362:224,1,33.7500012874604,10|0,0:0|0:0,0:0:0:0:
302,266,144420,2,0,L|308:306,1,33.7500012874604,2|0,0:0|0:0,0:0:0:0:
262,361,144601,1,2,0:0:0:0:
244,371,144691,1,0,0:0:0:0:
225,378,144782,1,0,0:0:0:0:
205,379,144873,1,0,0:0:0:0:
185,377,144964,1,10,0:0:0:0:
166,369,145055,1,0,0:0:0:0:
150,357,145146,1,0,0:0:0:0:
137,342,145237,1,0,0:0:0:0:
127,324,145328,1,2,0:0:0:0:
122,305,145419,1,0,0:0:0:0:
122,284,145510,1,0,0:0:0:0:
126,265,145600,1,0,0:0:0:0:
135,247,145691,1,10,0:0:0:0:
148,231,145782,1,0,0:0:0:0:
164,219,145873,1,0,0:0:0:0:
183,211,145964,1,0,0:0:0:0:
203,208,146056,6,0,L|249:213,3,33.7500012874604,2|0|0|0,0:0|0:0|0:0|0:0,0:0:0:0:
290,268,146420,2,0,L|336:262,3,33.7500012874604,10|0|0|0,0:0|0:0|0:0|0:0,0:0:0:0:
377,208,146783,2,0,L|423:213,3,33.7500012874604,2|0|0|0,0:0|0:0|0:0|0:0,0:0:0:0:
478,173,147147,2,0,L|483:126,1,33.7500012874604,10|0,0:0|0:0,0:0:0:0:
425,86,147329,2,0,L|419:39,5,33.7500012874604,2|0|0|0|0|0,0:0|0:0|0:0|0:0|0:0|0:0,0:0:0:0:
354,15,147874,1,10,0:0:0:0:
334,12,147965,1,0,0:0:0:0:
314,8,148056,1,0,0:0:0:0:
294,4,148147,1,0,0:0:0:0:
274,0,148238,1,2,3:0:0:0:
247,14,148329,1,0,3:0:0:0:
230,60,148420,1,0,3:0:0:0:
246,103,148511,1,0,3:0:0:0:
287,144,148601,1,8,0:0:0:0:
320,207,148692,1,8,0:0:0:0:
305,281,148783,1,8,0:0:0:0:
244,332,148874,1,8,0:0:0:0:
160,343,148965,6,0,L|122:335,3,33.7500012874604,6|0|0|0,3:1|0:0|0:0|0:0,0:0:0:0:
74,279,149329,2,0,L|80:245,1,33.7500012874604,10|0,0:0|0:0,0:0:0:0:
25,192,149511,2,0,L|18:158,5,33.7500012874604,2|0|0|0|0|0,0:0|0:0|0:0|0:0|0:0|0:0,0:0:0:0:
72,100,150056,2,0,L|78:66,3,33.7500012874604,8|0|0|0,0:0|0:0|0:0|0:0,0:0:0:0:
140,20,150420,2,0,L|174:25,3,33.7500012874604
216,90,150783,1,10,0:0:0:0:
236,93,150874,1,0,0:0:0:0:
256,97,150965,1,0,0:0:0:0:
276,101,151056,1,0,0:0:0:0:
296,129,151147,1,2,0:0:0:0:
316,126,151238,1,0,0:0:0:0:
336,122,151329,1,0,0:0:0:0:
355,118,151420,1,0,0:0:0:0:
376,90,151510,1,10,0:0:0:0:
396,93,151601,1,0,0:0:0:0:
416,97,151692,1,0,0:0:0:0:
436,101,151783,1,0,0:0:0:0:
456,129,151874,38,0,L|496:123,3,33.7500012874604,2|0|0|0,0:0|0:0|0:0|0:0,0:0:0:0:
485,202,152238,2,0,L|517:226,3,33.7500012874604,10|0|0|0,0:0|0:0|0:0|0:0,0:0:0:0:
453,274,152601,2,0,L|459:314,3,33.7500012874604,2|0|0|0,0:0|0:0|0:0|0:0,0:0:0:0:
379,302,152965,2,0,L|354:334,1,33.7500012874604,10|0,0:0|0:0,0:0:0:0:
307,270,153147,2,0,L|266:276,5,33.7500012874604,2|0|0|0|0|0,0:0|0:0|0:0|0:0|0:0|0:0,0:0:0:0:
199,256,153692,1,10,0:0:0:0:
196,236,153783,1,0,0:0:0:0:
192,216,153874,1,0,0:0:0:0:
188,196,153965,1,0,0:0:0:0:
160,176,154056,1,2,0:0:0:0:
163,156,154147,1,0,0:0:0:0:
167,136,154238,1,0,0:0:0:0:
171,116,154329,1,0,0:0:0:0:
199,96,154420,2,0,L|194:52,1,33.7500012874604,10|8,0:0|0:0,0:0:0:0:
0,71,154601,1,0,3:0:0:0:
16,67,154692,1,0,3:0:0:0:
33,64,154783,6,0,B|3:124|3:124|40:180,1,135.000005149842,14|0,3:1|3:0,0:0:0:0:
479,320,155329,2,0,B|509:260|509:260|471:203,1,135.000005149842,10|0,3:2|3:0,0:0:0:0:
33,320,155874,2,0,B|3:260|3:260|40:203,1,135.000005149842,14|0,3:1|3:2,0:0:0:0:
479,64,156420,2,0,B|509:124|509:124|471:180,1,135.000005149842,10|0,3:2|3:0,0:0:0:0:
256,192,156965,1,14,0:1:0:0:
448,320,157147,1,0,3:0:0:0:
173,233,157329,2,0,L|163:166,1,67.5000025749208,8|0,0:0|0:0,0:0:0:0:
400,0,157692,6,0,L|381:133,1,135.000005149842,6|8,3:1|0:0,0:0:0:0:
415,227,158238,1,8,0:0:0:0:
271,149,158420,1,8,0:0:0:0:
192,352,158601,1,8,0:0:0:0:
127,71,158783,1,8,0:0:0:0:
336,336,158965,1,8,0:0:0:0:
0,256,159147,1,8,0:0:0:0:
242,65,159329,1,8,0:0:0:0:
192,352,159511,1,8,0:0:0:0:
434,161,159693,1,8,0:0:0:0:
3,259,159874,5,8,0:3:0:0:
3,259,159995,2,0,P|24:266|46:269,1,45.0000017166138,8|8,0:3|0:3,0:0:0:0:
236,342,160238,1,4,0:3:0:0:
236,342,160359,2,0,P|214:349|192:352,1,45.0000017166138,4|4,0:3|0:3,0:0:0:0:
114,76,160601,38,0,B|109:137|135:154|135:154|115:185|108:208|108:208|141:241|137:289,1,233.999989288331,6|10,3:1|0:0,0:0:0:0:
137,289,161692,1,2,3:0:0:0:
352,224,161874,2,0,L|409:233,1,58.4999973220826,0|2,3:0|0:0,0:0:0:0:
277,364,162238,1,0,3:0:0:0:
212,149,162420,2,0,L|221:91,1,58.4999973220826,2|0,3:0|0:0,0:0:0:0:
245,257,162783,1,10,0:0:0:0:
295,7,162965,1,0,3:0:0:0:
395,157,163147,1,2,3:0:0:0:
395,157,163238,1,0,3:0:0:0:
395,157,163329,1,0,3:0:0:0:
145,107,163511,6,0,P|87:111|47:152,1,116.999994644165,2|0,3:0|0:0,0:0:0:0:
0,320,164056,1,0,3:0:0:0:
0,320,164147,1,0,3:0:0:0:
0,320,164238,2,0,L|69:310,1,58.4999973220826,10|0,0:0|0:0,0:0:0:0:
160,352,164601,1,0,3:0:0:0:
56,210,164783,2,0,L|47:152,1,58.4999973220826,0|0,3:0|0:0,0:0:0:0:
160,352,165147,1,0,3:0:0:0:
264,210,165329,2,0,L|272:152,1,58.4999973220826,2|0,3:0|0:0,0:0:0:0:
160,68,165692,1,10,0:0:0:0:
160,210,165874,1,0,3:0:0:0:
167,359,166056,1,2,3:0:0:0:
167,359,166147,1,0,3:0:0:0:
167,359,166238,1,0,3:0:0:0:
160,68,166420,6,0,B|207:33|207:33|322:64,1,175.499991966248,6|2,3:1|0:0,0:0:0:0:
480,192,167147,2,0,L|423:176,1,58.4999973220826,8|2,0:0|0:0,0:0:0:0:
288,224,167511,1,0,3:0:0:0:
411,374,167692,2,0,L|396:318,1,58.4999973220826,2|0,3:0|0:0,0:0:0:0:
288,224,168056,1,0,3:0:0:0:
438,100,168238,2,0,L|381:115,1,58.4999973220826,0|0,3:0|0:0,0:0:0:0:
64,32,168601,2,0,B|91:28|91:28|121:39,1,58.4999973220826,14|0,0:0|3:0,0:0:0:0:
320,352,168965,2,0,B|293:356|293:356|263:345,1,58.4999973220826,2|0,3:0|3:0,0:0:0:0:
0,224,169329,6,0,B|34:225|58:198|58:198|91:202|126:219|126:219|159:182|221:180,1,233.999989288331,6|10,3:1|0:0,0:0:0:0:
212,181,170420,1,0,3:0:0:0:
416,256,170601,1,0,3:0:0:0:
416,256,170692,1,0,3:0:0:0:
416,256,170783,1,2,3:0:0:0:
314,218,170965,1,0,3:0:0:0:
434,363,171147,1,2,3:0:0:0:
332,325,171329,1,0,3:0:0:0:
500,187,171511,1,10,3:2:0:0:
512,290,171692,1,4,3:1:0:0:
302,115,171874,1,2,3:0:0:0:
314,218,172055,1,0,3:0:0:0:
512,64,172238,38,0,B|462:55|438:30|438:30|411:37|389:70|389:70|353:42|294:32,1,233.999989288331,6|10,3:1|0:0,0:0:0:0:
310,35,173329,1,2,3:0:0:0:
96,96,173511,2,0,L|39:87,1,58.4999973220826,0|2,3:0|0:0,0:0:0:0:
180,0,173874,1,0,3:0:0:0:
241,214,174056,2,0,L|232:271,1,58.4999973220826,2|0,3:0|0:0,0:0:0:0:
32,384,174420,1,10,0:0:0:0:
160,352,174601,1,0,3:0:0:0:
0,256,174783,1,2,3:0:0:0:
0,256,174874,1,0,3:0:0:0:
0,256,174965,1,0,3:0:0:0:
287,319,175147,6,0,P|345:317|385:269,1,116.999994644165,2|0,3:2|0:0,0:0:0:0:
448,96,175692,1,0,3:0:0:0:
448,96,175783,1,0,3:0:0:0:
448,96,175874,2,0,L|458:153,1,58.4999973220826,10|0,0:0|0:0,0:0:0:0:
512,224,176238,1,0,3:0:0:0:
352,64,176420,2,0,L|294:53,1,58.4999973220826,0|0,3:0|0:0,0:0:0:0:
512,32,176783,1,0,3:0:0:0:
352,192,176965,2,0,L|294:202,1,58.4999973220826,2|0,3:0|0:0,0:0:0:0:
27,202,177329,1,10,0:0:0:0:
180,184,177511,1,0,3:0:0:0:
117,326,177692,1,2,3:0:0:0:
117,326,177783,1,0,3:0:0:0:
117,326,177874,1,0,3:0:0:0:
90,60,178056,6,0,B|154:44|154:44|191:60|191:60|272:39,1,175.499991966248,6|0,3:1|0:0,0:0:0:0:
512,64,178783,2,0,L|455:48,1,58.4999973220826,10|0,0:0|0:0,0:0:0:0:
258,42,179147,1,0,3:0:0:0:
400,208,179329,1,0,3:0:0:0:
400,208,179420,1,0,3:0:0:0:
400,208,179511,2,0,L|384:151,1,58.4999973220826,2|0,3:0|3:2,0:0:0:0:
78,0,179874,1,2,3:0:0:0:
177,53,180056,1,0,3:0:0:0:
466,95,180238,1,14,3:2:0:0:
367,42,180420,1,0,3:0:0:0:
36,192,180601,1,2,3:0:0:0:
89,93,180783,1,0,3:0:0:0:
256,192,180965,5,6,3:1:0:0:
270,266,181329,1,0,3:0:0:0:
284,340,181692,1,8,0:0:0:0:
242,118,182056,1,8,0:0:0:0:
448,384,182420,1,10,0:0:0:0:
120,296,182783,1,8,0:0:0:0:
256,384,182965,1,0,3:0:0:0:
256,384,183056,1,0,3:0:0:0:
256,384,183147,1,8,0:0:0:0:
277,256,183329,1,8,0:0:0:0:
298,129,183511,1,8,0:0:0:0:
320,2,183692,1,8,0:0:0:0:
418,84,183874,5,2,0:0:0:0:
404,82,184056,1,0,0:0:0:0:
390,80,184238,1,0,0:0:0:0:
376,78,184601,1,2,0:0:0:0:
362,76,184783,1,0,0:0:0:0:
348,74,185147,1,0,0:0:0:0:
334,72,185238,1,0,0:0:0:0:
320,70,185329,1,2,0:0:0:0:
306,68,185511,1,0,0:0:0:0:
292,66,185692,1,0,0:0:0:0:
278,64,186057,1,2,0:0:0:0:
264,62,186238,1,0,0:0:0:0:
250,60,186601,1,0,0:0:0:0:
236,58,186692,1,0,0:0:0:0:
222,56,186783,5,2,0:0:0:0:
320,32,186965,1,0,0:0:0:0:
418,8,187147,1,0,0:0:0:0:
432,10,187511,1,2,0:0:0:0:
446,12,187692,1,0,0:0:0:0:
460,14,187874,1,0,0:0:0:0:
504,74,187995,1,0,0:0:0:0:
475,143,188117,1,0,0:0:0:0:
431,83,188238,1,2,0:0:0:0:
417,81,188420,1,0,0:0:0:0:
403,79,188601,1,0,0:0:0:0:
389,77,188965,1,2,0:0:0:0:
375,75,189147,1,0,0:0:0:0:
361,73,189329,1,0,0:0:0:0:
347,71,189420,1,0,0:0:0:0:
333,69,189511,1,0,0:0:0:0:
319,67,189601,1,0,0:0:0:0:
305,65,189692,69,2,0:0:0:0:
329,163,189874,1,0,0:0:0:0:
353,261,190056,1,0,0:0:0:0:
339,259,190420,1,0,0:0:0:0:
325,257,190601,1,0,0:0:0:0:
311,255,190965,1,0,0:0:0:0:
297,253,191056,1,0,0:0:0:0:
283,251,191147,1,2,0:0:0:0:
269,249,191329,1,0,0:0:0:0:
255,247,191511,1,0,0:0:0:0:
241,245,191874,1,2,0:0:0:0:
227,243,192056,1,0,0:0:0:0:
213,241,192420,1,0,0:0:0:0:
199,239,192511,1,0,0:0:0:0:
185,237,192601,5,2,0:0:0:0:
161,139,192783,1,0,0:0:0:0:
137,41,192965,1,0,0:0:0:0:
123,39,193329,1,2,0:0:0:0:
109,37,193511,1,0,0:0:0:0:
95,35,193692,1,0,0:0:0:0:
28,69,193813,1,0,0:0:0:0:
26,144,193935,1,0,0:0:0:0:
91,108,194056,1,2,0:0:0:0:
105,110,194238,1,0,0:0:0:0:
119,112,194420,1,0,0:0:0:0:
133,114,194783,1,2,0:0:0:0:
147,116,194965,1,0,0:0:0:0:
161,118,195147,2,0,L|182:116,6,11.25
230,79,195511,69,2,0:0:0:0:
206,177,195693,1,0,0:0:0:0:
182,275,195875,1,0,0:0:0:0:
196,273,196238,1,2,0:0:0:0:
210,271,196420,1,0,0:0:0:0:
224,269,196783,1,0,0:0:0:0:
238,267,196874,1,0,0:0:0:0:
252,265,196965,1,2,0:0:0:0:
266,263,197147,1,0,0:0:0:0:
280,261,197329,1,0,0:0:0:0:
294,259,197692,1,2,0:0:0:0:
308,257,197874,1,0,0:0:0:0:
322,255,198238,1,0,0:0:0:0:
336,253,198329,1,0,0:0:0:0:
350,251,198420,5,2,0:0:0:0:
252,227,198602,1,0,0:0:0:0:
154,203,198784,1,0,0:0:0:0:
140,205,199147,1,2,0:0:0:0:
126,207,199329,1,0,0:0:0:0:
112,209,199511,1,0,0:0:0:0:
56,158,199632,1,0,0:0:0:0:
73,85,199754,1,0,0:0:0:0:
127,137,199874,1,2,0:0:0:0:
141,135,200056,1,0,0:0:0:0:
155,133,200238,1,0,0:0:0:0:
169,131,200601,1,2,0:0:0:0:
183,129,200783,1,0,0:0:0:0:
197,127,200965,1,0,0:0:0:0:
211,125,201056,1,0,0:0:0:0:
225,123,201147,1,0,0:0:0:0:
239,121,201238,1,0,0:0:0:0:
253,119,201329,69,2,0:0:0:0:
277,217,201511,1,0,0:0:0:0:
301,315,201693,1,0,0:0:0:0:
315,317,202056,1,0,0:0:0:0:
329,319,202238,1,0,0:0:0:0:
343,321,202601,1,0,0:0:0:0:
357,323,202692,1,0,0:0:0:0:
371,325,202783,1,2,0:0:0:0:
385,327,202965,1,0,0:0:0:0:
399,329,203147,1,0,0:0:0:0:
413,331,203511,1,2,0:0:0:0:
427,333,203692,1,0,0:0:0:0:
441,335,204056,1,0,0:0:0:0:
455,337,204147,1,0,0:0:0:0:
469,339,204238,5,2,0:0:0:0:
445,241,204420,1,0,0:0:0:0:
421,143,204602,1,0,0:0:0:0:
407,141,204965,1,2,0:0:0:0:
393,139,205147,1,0,0:0:0:0:
379,137,205329,1,0,0:0:0:0:
310,101,205450,1,0,0:0:0:0:
309,26,205571,1,0,0:0:0:0:
373,62,205693,1,2,0:0:0:0:
387,64,205874,1,0,0:0:0:0:
401,66,206056,1,0,0:0:0:0:
415,68,206420,1,2,0:0:0:0:
429,70,206601,1,0,0:0:0:0:
443,72,206783,2,0,L|464:68,7,11.25
32,352,210056,6,0,B|50:298|26:269|26:269|43:237|69:220|69:220|62:192|64:139,1,233.999989288331,6|10,3:1|0:0,0:0:0:0:
64,140,211147,1,2,3:0:0:0:
224,288,211329,2,0,L|282:294,1,58.4999973220826,0|2,3:0|0:0,0:0:0:0:
70,294,211692,1,0,3:0:0:0:
218,134,211874,2,0,L|224:75,1,58.4999973220826,2|0,3:0|0:0,0:0:0:0:
192,1,212238,1,10,0:0:0:0:
384,160,212420,1,0,3:0:0:0:
162,262,212601,1,2,3:2:0:0:
145,222,212691,1,0,3:2:0:0:
154,180,212782,1,0,3:2:0:0:
186,151,212873,1,0,3:2:0:0:
230,147,212965,6,0,L|111:127,1,116.999994644165,2|0,3:2|0:0,0:0:0:0:
0,192,213511,1,0,3:0:0:0:
0,192,213601,1,0,3:0:0:0:
0,192,213692,2,0,L|57:182,1,58.4999973220826,10|0,0:0|0:0,0:0:0:0:
115,128,214056,1,0,3:0:0:0:
224,288,214238,2,0,L|281:297,1,58.4999973220826,0|0,3:0|0:0,0:0:0:0:
114,346,214601,1,0,3:0:0:0:
223,186,214783,2,0,L|280:176,1,58.4999973220826,2|0,3:0|0:0,0:0:0:0:
352,224,215147,1,10,0:0:0:0:
416,0,215329,1,0,3:0:0:0:
512,96,215511,1,2,3:0:0:0:
497,93,215601,1,0,3:0:0:0:
482,90,215692,1,0,3:0:0:0:
467,87,215783,1,0,3:0:0:0:
452,84,215874,6,0,B|399:74|399:74|437:253,1,233.999989288331,6|8,0:1|0:0,0:0:0:0:
436,250,216965,1,0,3:0:0:0:
288,384,217147,2,0,L|230:375,1,58.4999973220826,2|0,3:0|0:0,0:0:0:0:
406,384,217511,1,0,3:0:0:0:
258,250,217693,2,0,L|200:258,1,58.4999973220826,0|0,3:0|0:0,0:0:0:0:
64,352,218056,1,14,0:0:0:0:
200,258,218238,1,0,3:0:0:0:
119,44,218420,1,2,3:2:0:0:
77,33,218511,1,0,3:2:0:0:
36,46,218601,1,0,3:2:0:0:
7,78,218692,1,0,3:2:0:0:
0,121,218783,6,0,B|52:127|66:150|66:150|95:137|137:132|137:132|162:159|230:163,1,233.999989288331,6|10,3:1|0:0,0:0:0:0:
216,162,219874,1,0,3:0:0:0:
448,96,220056,1,0,3:0:0:0:
352,64,220238,1,2,3:0:0:0:
373,164,220420,1,0,3:0:0:0:
195,262,220601,1,2,3:0:0:0:
216,162,220783,1,0,3:0:0:0:
394,264,220965,1,10,3:2:0:0:
493,243,221147,1,4,3:1:0:0:
138,83,221329,1,2,3:0:0:0:
237,62,221511,1,0,3:0:0:0:
288,384,221692,38,0,B|263:354|265:324|265:324|304:304|314:281|314:281|270:241|287:179,1,233.999989288331,6|10,3:1|0:0,0:0:0:0:
285,189,222783,1,2,3:0:0:0:
416,0,222965,2,0,L|427:57,1,58.4999973220826,0|2,3:0|0:0,0:0:0:0:
445,160,223329,1,0,3:0:0:0:
256,29,223511,2,0,L|313:17,1,58.4999973220826,2|0,3:0|0:0,0:0:0:0:
427,57,223874,1,10,0:0:0:0:
160,0,224056,1,0,3:0:0:0:
337,93,224238,1,2,3:2:0:0:
336,137,224328,1,0,3:2:0:0:
312,172,224419,1,0,3:2:0:0:
272,189,224510,1,0,3:2:0:0:
230,181,224601,6,0,L|114:199,1,116.999994644165,2|0,3:0|0:0,0:0:0:0:
1,122,225147,1,0,3:0:0:0:
1,122,225238,1,0,3:0:0:0:
1,122,225329,2,0,L|58:131,1,58.4999973220826,10|0,0:0|0:0,0:0:0:0:
115,199,225692,1,0,3:0:0:0:
288,64,225874,2,0,L|345:54,1,58.4999973220826,0|0,3:0|0:0,0:0:0:0:
160,32,226238,1,0,3:0:0:0:
333,167,226420,2,0,L|390:176,1,58.4999973220826,2|0,3:0|0:0,0:0:0:0:
480,128,226783,1,10,0:0:0:0:
512,384,226965,1,0,3:0:0:0:
384,288,227147,1,2,3:0:0:0:
369,284,227238,1,0,3:0:0:0:
354,280,227329,1,0,3:0:0:0:
339,276,227420,1,0,3:0:0:0:
324,272,227511,6,0,B|257:281|257:281|235:313|235:313|166:323,1,175.499991966248,6|0,3:1|0:0,0:0:0:0:
32,384,228238,2,0,L|47:327,1,58.4999973220826,10|0,0:0|0:0,0:0:0:0:
182,243,228601,1,0,3:0:0:0:
0,64,228783,1,0,3:0:0:0:
0,64,228874,1,0,3:0:0:0:
0,64,228965,2,0,L|57:79,1,58.4999973220826,2|0,3:0|3:2,0:0:0:0:
384,96,229329,1,2,3:0:0:0:
256,32,229511,1,0,3:0:0:0:
54,307,229692,1,14,3:2:0:0:
182,243,229874,1,0,3:0:0:0:
438,371,230056,1,2,3:0:0:0:
310,307,230238,1,0,3:0:0:0:
480,32,230420,6,0,L|492:98,1,67.5000025749208,14|0,0:0|0:0,0:0:0:0:
507,181,230783,1,0,3:0:0:0:
192,0,230965,2,0,L|179:66,1,67.5000025749208,12|0,0:0|0:0,0:0:0:0:
164,149,231328,1,0,3:0:0:0:
480,32,231511,1,12,0:0:0:0:
352,0,231692,1,0,3:0:0:0:
384,160,231874,1,2,3:2:0:0:
384,160,231965,1,0,3:0:0:0:
384,160,232056,1,8,0:0:0:0:
383,217,232147,1,8,0:0:0:0:
343,259,232238,1,10,0:0:0:0:
285,263,232329,1,8,0:0:0:0:
241,226,232420,2,0,L|233:186,1,33.7500012874604,0|0,3:0|3:0,0:0:0:0:
418,68,232601,1,10,0:0:0:0:
418,68,232692,1,8,0:0:0:0:
418,68,232783,2,0,L|378:76,1,38.2500007295609,8|0,3:2|3:0,0:0:0:0:
111,244,232965,1,10,0:0:0:0:
111,244,233056,1,8,0:0:0:0:
111,244,233147,2,0,L|151:236,1,33.7500012874604,8|0,3:2|3:0,0:0:0:0:
496,255,233329,37,14,3:2:0:0:
369,209,233511,1,0,0:2:0:0:
322,335,233692,1,0,0:2:0:0:
450,382,233874,1,0,0:2:0:0:
32,352,234056,5,14,3:2:0:0:
128,338,234238,1,0,3:2:0:0:
465,223,234420,5,14,3:2:0:0:
369,209,234602,1,0,3:2:0:0:
0,32,234783,5,14,0:2:0:0:
24,179,234965,1,0,0:2:0:0:
171,155,235147,1,0,0:2:0:0:
147,8,235329,1,0,0:2:0:0:
512,32,235511,37,14,0:2:0:0:
488,179,235693,1,0,0:2:0:0:
341,155,235875,1,0,0:2:0:0:
365,8,236057,1,0,0:2:0:0:
256,384,236238,5,14,0:2:0:0:
256,256,236420,1,0,0:2:0:0:
256,128,236601,1,0,0:2:0:0:
256,0,236783,1,0,0:2:0:0:
448,320,236965,5,14,0:2:0:0:
480,224,237147,1,0,0:2:0:0:
64,320,237329,5,14,0:2:0:0:
32,224,237511,1,0,0:2:0:0:
256,0,237692,37,14,0:2:0:0:
146,65,237874,1,0,0:2:0:0:
256,128,238056,1,0,0:2:0:0:
366,63,238238,1,0,0:2:0:0:
256,384,238420,5,14,0:2:0:0:
101,292,238602,1,0,0:2:0:0:
256,204,238784,1,0,0:2:0:0:
410,295,238966,1,0,0:2:0:0:
133,5,239147,5,14,0:2:0:0:
155,131,239329,1,0,0:2:0:0:
177,257,239510,1,0,0:2:0:0:
200,384,239692,1,0,0:2:0:0:
63,94,239874,53,14,0:2:0:0:
155,131,240056,1,0,0:2:0:0:
411,294,240238,37,14,0:2:0:0:
319,257,240420,1,0,0:2:0:0:
363,5,240601,53,14,0:2:0:0:
341,131,240783,1,0,0:2:0:0:
319,257,240964,1,0,0:2:0:0:
296,384,241146,1,0,0:2:0:0:
120,113,241329,5,14,0:2:0:0:
177,326,241511,1,0,0:2:0:0:
390,269,241692,1,0,0:2:0:0:
333,56,241874,1,0,0:2:0:0:
83,237,242056,5,14,0:2:0:0:
209,19,242238,1,0,0:2:0:0:
427,145,242419,1,0,0:2:0:0:
301,363,242601,1,0,0:2:0:0:
83,92,242783,37,14,0:2:0:0:
427,290,242965,1,0,0:2:0:0:
354,19,243146,5,14,0:2:0:0:
156,363,243328,1,0,0:2:0:0:
256,192,243511,5,14,0:2:0:0:
256,192,243692,1,0,0:2:0:0:
256,192,243874,1,0,0:2:0:0:
256,192,244056,1,0,0:2:0:0:
91,220,244238,5,14,0:2:0:0:
313,35,244420,1,0,0:2:0:0:
363,319,244601,1,8,0:2:0:0:
363,319,244692,1,8,0:2:0:0:
363,319,244783,2,0,L|320:312,1,38.2500007295609,8|0,0:2|0:2,0:2:0:0:
63,60,244965,37,14,0:2:0:0:
172,157,245146,1,0,0:2:0:0:
153,303,245328,1,0,0:2:0:0:
21,369,245510,1,0,0:2:0:0:
63,60,245692,5,14,0:2:0:0:
169,29,245874,1,0,0:2:0:0:
47,272,246056,5,14,0:2:0:0:
153,303,246238,1,0,0:2:0:0:
256,128,246420,5,14,0:2:0:0:
366,192,246601,1,0,0:2:0:0:
256,256,246783,1,0,0:2:0:0:
146,192,246965,1,0,0:2:0:0:
256,43,247147,37,14,0:2:0:0:
0,192,247328,1,0,0:2:0:0:
256,340,247510,1,0,0:2:0:0:
511,192,247692,1,0,0:2:0:0:
491,369,247874,5,14,0:2:0:0:
359,303,248056,1,0,0:2:0:0:
340,157,248238,1,0,0:2:0:0:
449,60,248419,1,0,0:2:0:0:
491,369,248601,5,14,0:2:0:0:
384,384,248783,1,0,0:2:0:0:
136,222,248965,5,14,0:2:0:0:
243,237,249147,1,0,0:2:0:0:
440,24,249329,37,14,0:2:0:0:
416,171,249511,1,0,0:2:0:0:
269,147,249693,1,0,0:2:0:0:
293,0,249875,1,0,0:2:0:0:
72,360,250056,5,14,0:2:0:0:
219,384,250238,1,0,0:2:0:0:
243,237,250420,1,0,0:2:0:0:
96,213,250602,1,0,0:2:0:0:
158,299,250783,5,14,0:2:0:0:
149,94,250965,1,0,0:2:0:0:
354,85,251147,1,0,0:2:0:0:
363,290,251329,1,0,0:2:0:0:
160,0,251511,5,14,0:2:0:0:
256,320,251692,1,0,0:2:0:0:
384,0,251874,37,14,0:2:0:0:
256,352,252056,1,0,0:2:0:0:
149,94,252238,5,14,0:2:0:0:
158,299,252420,1,0,0:2:0:0:
363,290,252602,1,0,0:2:0:0:
354,85,252784,1,0,0:2:0:0:
64,200,252965,5,14,0:2:0:0:
247,0,253147,1,0,0:2:0:0:
447,183,253329,1,0,0:2:0:0:
264,383,253511,1,0,0:2:0:0:
256,192,253692,5,6,0:1:0:0:
256,192,254056,1,0,0:2:0:0:
256,192,254420,1,0,0:2:0:0:
158,360,254783,37,8,0:2:0:0:
158,23,255147,1,8,0:2:0:0:
450,192,255511,1,8,0:2:0:0:
256,192,255692,5,0,0:2:0:0:
256,192,255783,1,0,0:2:0:0:
256,192,255874,1,8,0:2:0:0:
450,192,256056,5,8,0:2:0:0:
158,23,256238,1,8,0:2:0:0:
158,360,256420,1,8,0:2:0:0:
256,192,256601,21,2,0:2:0:0:
