osu file format v14

[General]
AudioFilename: STARLET SEEKER.mp3
AudioLeadIn: 0
PreviewTime: 200430
Countdown: 0
SampleSet: Soft
StackLeniency: 0.7
Mode: 0
LetterboxInBreaks: 0
WidescreenStoryboard: 0

[Editor]
Bookmarks: 660,28830,80430,142830,200430,229230
DistanceSpacing: 1.4
BeatDivisor: 4
GridSize: 4
TimelineZoom: 1.9

[Metadata]
Title:STARLET SEEKER
TitleUnicode:STARLET SEEKER
Artist:Kitamura Eri
ArtistUnicode:喜多村英梨
Creator:sahuang
Version:COLLAB INSANE
Source:証x明 -SHOMEI-
Tags:collab [c u r i] left corinn akitoshi doyak snownino_ [ drop ] my angel azusa
BeatmapID:1177522
BeatmapSetID:556330

[Difficulty]
HPDrainRate:5.5
CircleSize:4
OverallDifficulty:8
ApproachRate:9
SliderMultiplier:1.7
SliderTickRate:1

[Events]
//Background and Video events
0,0,"BG.jpg",0,0
//Break Periods
//Storyboard Layer 0 (Background)
//Storyboard Layer 1 (Fail)
//Storyboard Layer 2 (Pass)
//Storyboard Layer 3 (Foreground)
//Storyboard Sound Samples

[TimingPoints]
660,375,4,2,1,40,1,0
660,-166.666666666667,4,2,1,40,0,0
28830,300,4,2,1,45,1,0
28830,-125,4,2,1,45,0,0
39030,-90.9090909090909,4,2,1,45,0,0
39630,-100,4,2,1,55,0,0
49230,-111.111111111111,4,2,1,50,0,0
58830,-100,4,2,1,60,0,0
80430,-90.9090909090909,4,2,1,60,0,1
102030,-100,4,2,1,40,0,0

[Colours]
Combo1 : 254,75,201
Combo2 : 228,228,228
Combo3 : 137,68,253
Combo4 : 253,217,72

[HitObjects]
353,301,660,6,0,P|402:287|445:312,2,101.999996887207
353,301,1785,2,0,L|342:233,1,50.9999984436036
378,174,2160,6,0,L|388:68,2,101.999996887207
378,174,3285,2,0,P|349:167|321:171,1,50.9999984436036
270,232,3660,6,0,B|243:249|243:249|172:243,1,101.999996887207
111,187,4410,2,0,P|162:159|207:167,1,101.999996887207
202,307,5160,2,0,B|184:321|184:321|172:238,1,101.999996887207
149,86,5910,1,0,0:0:0:0:
149,86,6660,6,0,B|184:82|184:82|213:91|213:91|272:87,1,101.999996887207
317,36,7222,1,0,0:0:0:0:
317,36,7410,2,0,P|334:83|321:132,1,101.999996887207
259,191,7972,1,0,0:0:0:0:
281,281,8160,6,0,B|255:256|255:256|260:171,1,101.999996887207
321,132,8722,2,0,L|391:128,1,50.9999984436036
258,190,9285,6,0,L|188:186,1,50.9999984436036
128,153,9660,2,0,P|105:103|123:42,1,101.999996887207
189,94,10410,2,0,L|302:83,1,101.999996887207
200,205,11160,5,0,0:0:0:0:
128,153,11535,1,0,0:0:0:0:
117,241,11910,1,0,0:0:0:0:
323,102,12660,6,0,P|371:115|416:71,2,101.999996887207
323,102,13785,2,0,L|312:36,1,50.9999984436036
234,79,14160,6,0,L|245:145,1,50.9999984436036
306,186,14535,1,0,0:0:0:0:
323,102,14910,1,0,0:0:0:0:
242,129,15285,2,0,P|209:137|175:135,1,50.9999984436036
156,53,15660,6,0,B|183:33|183:33|251:41,1,101.999996887207
321,91,16410,2,0,P|329:143|301:188,1,101.999996887207
140,138,17160,2,0,L|260:127,1,101.999996887207
390,197,17910,1,0,0:0:0:0:
390,197,18660,6,0,B|411:225|411:225|403:312,1,101.999996887207
343,356,19222,1,0,0:0:0:0:
343,356,19410,2,0,P|319:305|327:253,1,101.999996887207
506,281,20160,6,0,L|398:292,1,101.999996887207
323,260,20722,1,0,0:0:0:0:
323,260,20910,1,0,0:0:0:0:
185,351,21285,2,0,L|190:295,1,50.9999984436036
197,212,21660,6,0,P|147:203|107:233,1,101.999996887207
11,220,22410,2,0,B|47:240|47:240|123:229,1,101.999996887207
232,149,23160,5,0,0:0:0:0:
249,66,23535,1,0,0:0:0:0:
176,24,23910,1,0,0:0:0:0:
114,80,24285,1,0,0:0:0:0:
148,157,24660,1,0,0:0:0:0:
256,192,24753,12,0,27660,0:0:0:0:
168,146,28830,5,0,0:0:0:0:
302,104,29130,1,0,0:0:0:0:
344,238,29430,1,0,0:0:0:0:
210,280,29730,1,0,0:0:0:0:
168,146,30030,6,0,P|132:142|94:154,1,68
210,280,30330,2,0,P|206:316|218:354,1,68
344,238,30630,2,0,P|380:242|418:230,1,68
302,104,30930,2,0,P|306:68|294:30,1,68
168,146,31230,5,0,0:0:0:0:
168,146,31380,1,0,0:0:0:0:
276,242,31530,2,0,L|373:236,1,68
184,138,31830,5,0,0:0:0:0:
184,138,31980,1,0,0:0:0:0:
292,234,32130,2,0,L|389:228,1,68
214,346,32430,6,0,P|205:313|210:280,1,68
101,150,32730,2,0,P|134:141|168:146,1,68
297,37,33030,2,0,P|306:70|302:104,1,68
410,233,33330,2,0,P|377:242|344:238,1,68
302,104,33630,5,0,0:0:0:0:
302,104,33780,1,0,0:0:0:0:
206,212,33930,2,0,L|212:309,1,68
310,120,34230,5,0,0:0:0:0:
310,120,34380,1,0,0:0:0:0:
214,228,34530,2,0,L|220:325,1,68
410,233,34830,6,0,P|377:242|344:238,1,68
297,38,35130,2,0,P|306:71|302:104,1,68
102,151,35430,2,0,P|135:142|168:146,1,68
215,346,35730,2,0,P|206:313|210:280,1,68
344,238,36030,5,0,0:0:0:0:
344,238,36180,1,0,0:0:0:0:
236,142,36330,2,0,L|139:148,1,68
328,246,36630,5,0,0:0:0:0:
328,246,36780,1,0,0:0:0:0:
220,150,36930,2,0,L|123:156,1,68
328,246,37230,6,0,L|425:252,1,68
385,99,37530,2,0,L|482:93,1,68
343,256,37830,6,0,L|440:262,1,68
400,109,38130,2,0,L|497:103,1,68
310,170,38430,5,0,0:0:0:0:
278,182,38505,1,0,0:0:0:0:
244,186,38580,1,0,0:0:0:0:
211,180,38655,1,0,0:0:0:0:
181,165,38730,1,0,0:0:0:0:
181,165,38880,1,0,0:0:0:0:
181,165,38955,1,0,0:0:0:0:
181,165,39030,6,0,P|126:159|69:172,1,93.5000028533936
137,289,39330,2,0,P|192:295|249:282,1,93.5000028533936
88,165,39630,6,0,L|98:339,1,170
229,288,40080,2,0,P|274:260|396:285,1,170
313,371,40530,1,0,0:0:0:0:
384,276,40680,6,0,L|373:181,1,85
297,122,40980,1,0,0:0:0:0:
375,290,41130,2,0,L|364:195,1,85
288,136,41430,1,0,0:0:0:0:
226,238,41580,1,0,0:0:0:0:
111,160,41730,2,0,P|100:111|109:78,1,85
207,114,42030,6,0,L|28:121,1,170
