osu file format v14

[General]
AudioFilename: audio.mp3
AudioLeadIn: 0
PreviewTime: 80361
Countdown: 0
SampleSet: Normal
StackLeniency: 0.7
Mode: 0
LetterboxInBreaks: 0
WidescreenStoryboard: 1

[Editor]
DistanceSpacing: 1
BeatDivisor: 4
GridSize: 4
TimelineZoom: 0.9

[Metadata]
Title:STARLET SEEKER
TitleUnicode:STARLET SEEKER
Artist:Kitamura Eri
ArtistUnicode:喜多村英梨
Creator:CoLouRed GlaZeE
Version:Normal
Source:
Tags:delis shirohamymommy smm 証×明 -SHOMEI- japanese pop
BeatmapID:2269192
BeatmapSetID:1085124

[Difficulty]
HPDrainRate:4
CircleSize:3
OverallDifficulty:4
ApproachRate:6
SliderMultiplier:1
SliderTickRate:1

[Events]
//Background and Video events
0,0,"BG.jpg",0,0
//Break Periods
2,39918,48261
2,102311,110661
2,162321,170671
2,195921,199471
//Storyboard Layer 0 (Background)
//Storyboard Layer 1 (Fail)
//Storyboard Layer 2 (Pass)
//Storyboard Layer 3 (Foreground)
//Storyboard Layer 4 (Overlay)
//Storyboard Sound Samples

[TimingPoints]
745,375,4,2,1,40,1,0
745,-100,4,2,1,40,0,0
27745,387.096774193548,4,2,1,5,1,0
27745,-100,4,2,1,5,0,0
28906,303.030303030303,4,3,1,80,1,0
30118,302.267002518892,4,2,1,70,1,0
30118,-100,4,2,1,70,0,0
32536,300,4,2,1,70,1,0
32536,-100,4,2,1,70,0,0
38536,295.566502463054,4,2,1,70,1,0
39718,300,4,1,1,60,1,0
46917,299.25187032419,4,1,1,60,1,0
49311,300,4,1,1,60,1,0
49311,-100,4,2,1,60,0,0
58236,-100,4,2,1,40,0,0
58911,-100,4,1,2,60,0,0
68511,-100,4,2,1,60,0,0
75711,-100,4,1,1,70,0,0
78411,-100,4,1,1,5,0,0
78561,-100,4,1,1,70,0,0
79311,-100,4,1,1,5,0,0
79461,-100,4,1,1,70,0,0
80511,-100,4,1,1,80,0,0
84036,-100,4,1,2,80,0,0
84336,-100,4,1,1,80,0,0
84636,-100,4,1,2,80,0,0
84936,-100,4,1,1,80,0,0
91242,-100,4,1,2,80,0,0
91542,-100,4,1,1,80,0,0
91842,-100,4,1,2,80,0,0
92142,-100,4,1,1,80,0,0
98511,-100,4,1,1,60,0,0
99711,-100,4,1,1,70,0,0
100836,-100,4,1,1,60,0,0
100986,-100,4,1,1,60,0,0
101436,-100,4,1,1,60,0,0
101811,-100,4,1,1,60,0,0
102036,-100,4,1,1,60,0,0
111711,-100,4,1,2,60,0,0
120936,-100,4,1,1,60,0,0
121086,-100,4,1,1,60,0,0
128961,-100,4,1,1,70,0,0
129561,-100,4,1,1,60,0,0
130911,300.450676014021,4,2,1,60,1,0
130911,-100,4,2,1,60,0,0
138121,300,4,2,1,70,1,0
138121,-100,4,1,1,70,0,0
141796,-100,4,1,1,60,0,0
142921,-100,4,1,1,80,0,0
146446,-100,4,1,2,80,0,0
146746,-100,4,1,1,80,0,0
147046,-100,4,1,2,80,0,0
147346,-100,4,1,1,80,0,0
159721,-100,4,3,1,80,0,0
161521,-100,4,1,1,60,0,0
162046,-100,4,1,1,70,0,0
176296,-100,4,1,2,70,0,0
176521,-100,4,1,1,70,0,0
192121,-100,4,1,1,60,0,0
192196,-100,4,1,1,5,0,0
195721,631.578947368421,4,2,1,40,1,0
196352,625,4,2,1,40,1,0
196664,-100,4,2,1,40,0,0
196977,571.428571428571,4,2,1,40,1,0
196977,-100,4,2,1,40,0,0
197548,600,4,2,1,40,1,0
197848,-100,4,2,1,40,0,0
198148,600,4,2,1,40,1,0
198148,-100,4,2,1,40,0,0
199348,586.79706601467,4,2,1,40,1,0
199348,-100,4,2,1,40,0,0
199934,-100,4,1,1,80,0,0
200521,300,4,1,1,80,1,0
204121,-100,4,1,2,80,0,0
204346,-100,4,1,1,80,0,0
204646,-100,4,1,2,80,0,0
204946,-100,4,1,1,80,0,0
207346,-100,4,1,1,80,0,0
207496,-100,4,1,1,80,0,0
211246,-100,4,1,2,80,0,0
211546,-100,4,1,1,80,0,0
211846,-100,4,1,2,80,0,0
212146,-100,4,1,1,80,0,0
218521,-100,4,1,1,60,0,0
219721,-100,4,1,2,70,0,0
229321,-100,4,1,2,80,0,0
236521,-100,4,1,2,70,0,0

[Colours]
Combo1 : 198,96,136
Combo2 : 73,106,175
Combo3 : 102,171,255
Combo4 : 90,192,98

[HitObjects]
376,250,745,5,2,0:0:0:0:
446,106,1495,1,0,0:0:0:0:
298,44,2245,1,2,0:0:0:0:
207,176,2995,1,0,0:0:0:0:
85,71,3745,2,0,P|85:128|109:186,1,100,2|0,0:0|0:0,0:0:0:0:
47,229,4495,1,2,0:0:0:0:
197,285,5245,2,0,P|262:288|384:222,1,200,2|0,0:0|0:0,0:0:0:0:
396,149,6370,1,0,0:0:0:0:
368,73,6745,5,2,0:0:0:0:
212,37,7495,1,0,0:0:0:0:
69,108,8245,2,0,P|83:171|64:233,2,100,2|0|0,0:0|0:0|0:0,0:0:0:0:
222,152,9745,1,2,0:0:0:0:
286,104,10120,1,0,0:0:0:0:
364,116,10495,1,2,0:0:0:0:
510,180,11245,2,0,L|484:379,1,200,2|0,0:0|0:0,0:0:0:0:
360,276,12745,5,2,0:0:0:0:
220,354,13495,1,0,0:0:0:0:
144,212,14245,1,2,0:0:0:0:
288,142,14995,1,0,0:0:0:0:
444,175,15745,1,2,0:0:0:0:
429,253,16120,1,2,0:0:0:0:
351,271,16495,2,0,L|229:258,1,100,2|0,0:0|0:0,0:0:0:0:
201,198,17245,2,0,P|167:97|217:4,1,200,2|2,0:0|0:0,0:0:0:0:
363,26,18745,5,2,0:0:0:0:
480,134,19495,1,0,0:0:0:0:
414,280,20245,2,0,P|506:295|542:293,2,100,2|0|2,0:0|0:0|0:0,0:0:0:0:
298,169,21745,1,2,0:0:0:0:
389,37,22495,1,0,0:0:0:0:
229,37,23245,1,2,0:0:0:0:
153,178,23995,1,0,0:0:0:0:
253,302,24745,1,2,0:0:0:0:
256,192,24932,12,0,27745,0:0:0:0:
338,243,28906,6,0,L|344:125,1,100,2|2,3:0|3:0,2:0:0:0:
249,106,29512,2,0,L|243:224,1,100,2|2,3:0|3:0,2:0:0:0:
189,293,30118,2,0,P|125:264|82:268,1,100,4|8,0:0|0:0,0:0:0:0:
72,271,30571,1,0,0:0:0:0:
49,281,30722,2,0,L|39:171,1,100,2|8,0:0|0:0,0:0:0:0:
30,81,31327,1,2,0:0:0:0:
121,122,31629,1,8,0:0:0:0:
182,42,31931,2,0,P|241:50|296:47,1,100,2|8,0:0|0:0,0:0:0:0:
378,70,32536,6,0,P|413:120|412:177,1,100,6|8,0:0|0:0,0:0:0:0:
416,182,32986,1,0,0:0:0:0:
413,207,33136,2,0,L|512:176,1,100,2|8,0:0|0:0,0:0:0:0:
499,276,33736,2,0,L|400:307,1,100,2|8,0:0|0:0,0:0:0:0:
308,274,34336,1,2,0:0:0:0:
320,174,34636,1,8,0:0:0:0:
220,184,34936,6,0,P|165:189|113:180,1,100,6|8,0:0|0:0,0:0:0:0:
97,174,35386,1,0,0:0:0:0:
74,164,35536,2,0,P|76:92|69:47,1,100,2|8,0:0|0:0,0:0:0:0:
170,83,36136,1,2,0:0:0:0:
260,40,36436,1,8,0:0:0:0:
340,99,36736,2,0,P|347:154|344:215,1,100,2|8,0:0|0:0,0:0:0:0:
322,295,37336,6,0,P|380:290|431:294,1,100,6|8,0:0|0:0,0:0:0:0:
445,300,37786,1,0,0:0:0:0:
468,310,37936,2,0,P|475:236|467:187,1,100,2|8,0:0|0:0,0:0:0:0:
461,111,38536,2,0,P|407:108|363:117,1,100,8|4,3:0|3:0,0:0:0:0:
294,190,39127,1,12,0:0:0:0:
225,117,39422,1,8,0:0:0:0:
152,185,39718,1,4,0:0:0:0:
271,286,49311,6,0,P|333:283|384:293,1,100,4|0,0:0|0:0,0:0:0:0:
394,296,49761,1,2,3:0:0:0:
417,304,49911,2,0,P|428:243|418:186,1,100,0|0,0:0|0:0,0:0:0:0:
391,110,50511,1,0,0:0:0:0:
489,129,50811,1,2,2:2:0:0:
423,205,51111,2,0,P|370:225|309:212,1,100,8|8,0:0|0:0,0:0:0:0:
230,195,51711,6,0,P|217:250|222:302,1,100,6|0,0:2|0:0,0:0:0:0:
206,314,52161,1,2,3:0:0:0:
194,336,52311,2,0,L|76:363,1,100,0|0,0:0|0:0,0:0:0:0:
14,301,52911,1,0,0:0:0:0:
82,228,53211,2,0,L|59:114,1,100,2|8,0:0|0:0,0:0:0:0:
96,35,53811,1,8,0:0:0:0:
169,103,54111,6,0,P|216:132|282:133,1,100,6|0,0:0|0:0,0:0:0:0:
284,131,54561,1,2,0:0:0:0:
308,126,54711,2,0,P|365:111|419:116,1,100,0|0,0:0|0:0,0:0:0:0:
491,164,55311,1,0,0:0:0:0:
403,213,55611,1,2,0:0:0:0:
310,251,55911,2,0,P|243:258|199:254,1,100,8|8,0:0|0:0,0:0:0:0:
119,213,56511,6,0,L|104:103,1,100,6|0,0:0|0:0,0:0:0:0:
96,90,56961,1,2,0:0:0:0:
87,66,57111,2,0,L|201:81,1,100,0|0,0:0|0:0,0:0:0:0:
275,124,57711,1,8,0:1:0:0:
356,65,58011,1,8,0:1:0:0:
438,121,58311,1,2,0:0:0:0:
443,320,58911,6,0,P|403:354|320:355,1,100,4|8,0:0|0:0,0:0:0:0:
306,353,59361,2,0,L|256:344,1,50,0|2,0:0|0:3,0:0:0:0:
207,338,59661,1,2,0:3:0:0:
111,369,59961,2,0,P|94:314|113:256,1,100,8|2,0:0|0:3,0:0:0:0:
123,228,60411,1,8,0:0:0:0:
220,251,60711,2,0,L|204:131,1,100,2|8,0:3|0:0,0:0:0:0:
158,64,61311,6,0,L|276:78,1,100,0|8,0:0|0:0,0:0:0:0:
305,61,61761,2,0,L|324:123,1,50,0|2,0:0|0:3,0:0:0:0:
314,158,62061,1,2,0:3:0:0:
375,236,62361,2,0,P|433:258|479:250,1,100,8|0,0:0|0:0,0:0:0:0:
505,218,62811,1,8,0:0:0:0:
470,124,63111,2,0,P|449:64|451:12,1,100,2|8,0:3|0:0,0:0:0:0:
370,90,63711,6,0,P|320:68|270:70,1,100,4|8,0:0|0:0,0:0:0:0:
227,83,64161,2,0,L|171:62,1,50,0|2,0:0|0:3,0:0:0:0:
130,71,64461,1,2,0:3:0:0:
50,131,64761,2,0,L|67:238,1,100,8|2,0:0|0:3,0:0:0:0:
75,278,65211,1,8,0:0:0:0:
162,230,65511,2,0,P|215:262|257:265,1,100,2|8,0:3|0:0,0:0:0:0:
344,226,66111,6,0,L|365:290,2,50,12|8|8,0:0|0:0|0:0,0:0:0:0:
330,178,66561,1,4,0:2:0:0:
426,150,66861,1,4,0:2:0:0:
420,50,67161,1,4,0:0:0:0:
323,76,67461,2,0,P|307:56|286:38,1,50,2|8,0:3|0:0,0:0:0:0:
193,72,67911,1,8,0:0:0:0:
208,170,68211,1,4,3:3:0:0:
108,183,68511,6,0,L|40:172,2,50,8|8|12,0:0|0:0|0:0,0:0:0:0:
259,313,69411,1,8,0:0:0:0:
439,227,70011,1,8,0:0:0:0:
408,29,70611,1,8,0:0:0:0:
321,78,70911,6,0,L|269:38,2,50,8|8|12,0:0|0:0|0:0,0:0:0:0:
326,277,71811,1,8,0:0:0:0:
131,322,72411,1,8,0:0:0:0:
61,134,73011,1,8,0:0:0:0:
160,145,73311,6,0,L|180:211,2,50,8|8|12,0:0|0:0|0:0,0:0:0:0:
355,100,74211,1,8,0:0:0:0:
281,39,74511,1,8,3:0:0:0:
281,39,74661,2,2,L|168:56,2,100,4|0|2,3:0|0:0|0:0,0:0:0:0:
326,19,75411,1,12,0:0:0:0:
416,61,75711,5,8,0:0:0:0:
379,154,76011,1,8,0:0:0:0:
424,243,76311,2,0,L|314:239,1,100,8|8,0:0|0:0,0:0:0:0:
224,230,76911,1,8,0:0:0:0:
238,328,77211,1,8,0:0:0:0:
142,297,77511,2,0,L|124:192,1,100,8|8,0:0|0:0,0:0:0:0:
161,105,78111,6,0,P|88:91|6:134,1,150,4|4,0:1|0:1,0:0:0:0:
106,242,79011,2,0,P|179:256|261:213,1,150,4|4,0:1|0:1,0:0:0:0:
444,293,80511,6,0,L|454:184,1,100,4|8,0:0|0:0,0:0:0:0:
511,111,81111,1,0,0:0:0:0:
412,96,81411,2,0,L|354:105,1,50,10|2,0:0|0:0,0:0:0:0:
322,73,81711,1,0,0:0:0:0:
298,170,82011,2,0,P|287:230|293:278,1,100,8|0,0:0|0:0,0:0:0:0:
324,363,82611,6,0,P|300:368|271:366,1,50,10|2,0:0|0:0,0:0:0:0:
237,333,82911,2,2,P|194:324|134:348,1,100,2|10,0:0|0:0,0:0:0:0:
98,366,83361,2,0,L|106:261,1,100,2|2,0:0|0:0,0:0:0:0:
93,217,83811,1,8,0:0:0:0:
127,123,84111,2,0,L|87:79,2,50,2|2|8,0:3|0:3|0:0,0:0:0:0:
219,85,84711,2,0,L|227:34,2,50,2|2|10,0:3|0:3|0:0,0:0:0:0:
306,132,85311,6,2,L|408:110,1,100,6|10,0:0|0:0,0:0:0:0:
447,86,85761,2,2,P|461:160|458:193,1,100
452,234,86211,1,10,0:0:0:0:
353,216,86511,1,2,0:0:0:0:
364,315,86811,1,10,0:0:0:0:
364,315,86961,2,0,P|313:313|258:301,1,100,2|0,0:0|0:0,0:0:0:0:
242,258,87411,2,0,L|235:197,1,50,10|2,0:0|0:0,0:0:0:0:
230,158,87711,1,2,0:0:0:0:
130,148,88011,5,8,0:0:0:0:
130,148,88161,2,0,P|84:167|19:159,2,100,2|2|2,0:0|0:0|0:0,0:0:0:0:
157,105,88911,1,4,0:2:0:0:
248,65,89211,1,4,0:2:0:0:
317,136,89511,2,0,L|301:250,1,100,8|8,0:0|0:0,0:0:0:0:
398,264,90111,6,2,P|453:259|501:231,2,100,6|8|0,0:0|0:0|0:0,0:0:0:0:
349,351,91011,2,0,L|299:333,1,50,10|2,0:0|0:0,0:0:0:0:
254,350,91311,2,0,P|247:293|256:243,1,100,2|8,0:3|0:0,0:0:0:0:
275,153,91911,1,2,0:3:0:0:
348,220,92211,6,0,P|381:213|404:211,1,50,10|2,0:0|0:0,0:0:0:0:
447,212,92511,2,2,P|464:151|454:93,1,100,2|8,0:0|0:0,0:0:0:0:
440,69,92961,1,2,0:0:0:0:
349,25,93261,2,0,L|233:44,1,100,0|2,0:0|0:0,0:0:0:0:
200,34,93711,2,0,L|134:25,2,50,2|2|8,0:2|0:2|0:0,0:0:0:0:
226,130,94311,2,0,L|289:121,2,50,2|2|8,0:2|0:2|0:0,0:0:0:0:
136,175,94911,6,2,P|56:165|17:175,1,100,6|8,0:0|0:0,0:0:0:0:
4,206,95361,2,2,L|13:310,1,100,2|0,0:0|0:0,0:0:0:0:
19,355,95811,1,10,0:0:0:0:
118,366,96111,2,0,P|113:286|103:252,1,100,2|10,0:0|0:0,0:0:0:0:
98,217,96561,2,2,P|155:234|214:234,1,100,2|0,0:0|0:0,0:0:0:0:
239,211,97011,2,0,L|304:226,1,50,8|8,0:0|0:0,0:0:0:0:
328,193,97311,5,8,0:0:0:0:
340,292,97611,1,8,0:0:0:0:
439,282,97911,1,8,0:0:0:0:
433,182,98211,1,8,0:0:0:0:
373,101,98511,2,0,P|308:108|268:112,1,100,4|0,3:0|1:0,0:0:0:0:
179,75,99111,2,0,P|189:146|190:176,1,100,4|0,3:0|0:0,0:0:0:0:
118,244,99711,5,4,0:0:0:0:
189,314,100011,1,8,0:0:0:0:
255,239,100311,2,0,P|320:235|362:229,2,100,0|8|4,0:0|3:0|3:0,0:0:0:0:
183,168,101211,1,4,0:0:0:0:
198,69,101511,1,4,0:0:0:0:
292,37,101811,1,4,0:0:0:0:
387,66,102111,1,4,0:0:0:0:
202,292,111711,6,0,L|322:281,1,100,4|8,0:0|0:0,0:0:0:0:
349,298,112161,2,0,L|362:188,1,100,0|8,0:0|0:0,0:0:0:0:
396,105,112761,2,0,L|448:96,2,50,2|0|0,0:2|0:0|0:0,0:0:0:0:
346,114,113211,1,8,0:0:0:0:
265,54,113511,2,0,P|199:59|162:57,1,100,0|8,0:0|0:0,0:0:0:0:
67,36,114111,6,0,P|63:108|66:144,1,100,4|8,0:0|0:0,0:0:0:0:
78,183,114561,2,0,P|133:182|191:187,1,100,0|8,0:0|0:0,0:0:0:0:
248,256,115161,2,0,L|233:306,2,50,2|0|2,0:2|0:0|0:3,0:0:0:0:
263,208,115611,1,8,0:0:0:0:
230,113,115911,2,0,P|287:109|333:113,1,100,0|8,0:0|0:0,0:0:0:0:
420,69,116511,6,0,P|420:118|418:168,1,100,4|8,0:0|0:0,0:0:0:0:
402,216,116961,2,0,P|473:210|502:210,1,100,0|8,0:0|0:0,0:0:0:0:
490,309,117561,2,0,P|489:335|493:361,2,50,2|0|2,0:2|0:0|0:3,0:0:0:0:
441,295,118011,1,8,0:0:0:0:
362,356,118311,2,0,P|314:350|259:348,1,100,0|8,0:0|0:0,0:0:0:0:
260,248,118911,6,0,P|257:194|257:146,1,100,4|8,0:0|0:0,0:0:0:0:
265,98,119361,2,0,P|204:103|145:100,1,100,0|8,0:0|0:0,0:0:0:0:
67,83,119961,2,0,L|73:25,2,50,2|0|2,0:2|0:0|0:3,0:0:0:0:
61,132,120411,1,12,0:0:0:0:
14,220,120711,1,8,3:0:0:0:
72,301,121011,1,4,3:2:0:0:
139,227,121311,6,0,P|196:227|247:221,1,100,4|8,0:0|0:0,0:0:0:0:
281,196,121761,2,0,P|282:138|291:80,1,100
319,57,122211,1,8,0:0:0:0:
410,98,122511,1,8,0:0:0:0:
506,73,122811,1,8,0:0:0:0:
504,172,123111,2,0,P|442:185|399:187,1,100,8|8,0:0|0:0,0:0:0:0:
323,244,123711,6,0,P|318:316|321:356,1,100,8|8,0:0|0:0,0:0:0:0:
270,331,124161,2,0,P|209:326|163:328,1,100
156,279,124611,1,8,0:0:0:0:
176,180,124911,1,8,0:0:0:0:
76,193,125211,1,8,0:0:0:0:
45,97,125511,2,0,P|116:90|147:88,1,100,8|8,0:0|0:0,0:0:0:0:
244,81,126111,5,12,0:0:0:0:
243,180,126411,1,8,0:0:0:0:
243,180,126561,2,0,P|247:263|252:293,1,100
283,316,127011,1,8,0:0:0:0:
376,281,127311,2,0,P|372:215|365:173,1,100,8|8,0:0|0:0,0:0:0:0:
375,82,127911,1,8,0:0:0:0:
283,42,128211,1,8,0:0:0:0:
184,64,128511,6,0,P|182:140|184:168,1,100,4|8,0:2|0:0,0:0:0:0:
194,212,128961,1,4,0:2:0:0:
96,191,129261,1,4,0:2:0:0:
108,290,129561,2,0,P|172:318|215:319,1,100,4|0,0:0|0:2,0:0:0:0:
244,295,130011,1,8,0:0:0:0:
329,347,130311,2,0,P|387:340|438:357,1,100,8|8,3:0|3:0,0:0:0:0:
478,265,130911,6,0,L|491:206,2,50,8|8|12,0:0|0:0|0:0,0:0:0:0:
278,252,131812,1,8,0:0:0:0:
286,52,132413,1,8,0:0:0:0:
485,60,133014,1,8,0:0:0:0:
452,154,133314,6,0,L|496:209,2,50,8|8|12,0:0|0:0|0:0,0:0:0:0:
253,129,134215,1,8,0:0:0:0:
138,293,134816,1,8,0:0:0:0:
335,327,135417,1,8,0:0:0:0:
431,300,135718,6,0,L|474:349,2,50,8|8|4,3:0|3:0|3:0,0:0:0:0:
281,167,136619,1,8,0:0:0:0:
383,148,136920,1,8,3:0:0:0:
383,148,137070,2,0,P|374:224|373:252,2,100,8|2|2,3:2|0:0|0:0,0:0:0:0:
395,99,137821,1,12,0:0:0:0:
475,39,138121,5,4,0:0:0:0:
509,132,138421,1,8,0:0:0:0:
456,216,138721,2,0,P|452:269|456:324,1,100,8|8,0:0|0:0,0:0:0:0:
366,362,139321,1,8,0:0:0:0:
279,311,139621,1,8,0:0:0:0:
199,371,139921,2,0,P|151:374|98:372,1,100,8|8,0:0|0:0,0:0:0:0:
53,282,140521,6,0,L|33:235,2,50,4|0|0,0:0|0:0|0:0,0:0:0:0:
93,252,140971,2,0,P|142:228|194:223,1,100,4|0,0:0|0:0,0:0:0:0:
236,227,141421,2,0,L|253:168,2,50,4|0|0,0:0|0:0|0:0,0:0:0:0:
279,251,141871,1,4,0:0:0:0:
495,353,142921,6,2,P|492:285|493:244,1,100,4|8,0:0|0:0,0:0:0:0:
500,153,143521,1,0,0:0:0:0:
426,84,143821,2,0,L|408:142,1,50,10|2,0:0|0:0,0:0:0:0:
375,166,144121,2,0,P|381:221|380:276,1,100,2|8,0:0|0:0,0:0:0:0:
339,356,144721,1,0,0:0:0:0:
254,302,145021,6,0,P|252:265|253:247,1,50,10|2,0:0|0:0,0:0:0:0:
269,204,145321,2,0,P|268:150|266:100,1,100,2|10,0:0|0:0,0:0:0:0:
215,101,145771,2,0,P|144:104|97:109,1,100,2|2,0:0|0:0,0:0:0:0:
66,115,146221,1,8,0:0:0:0:
48,213,146521,2,0,L|-12:200,2,50,2|2|8,0:3|0:3|0:0,0:0:0:0:
114,287,147121,2,0,L|124:348,2,50,2|2|10,0:3|0:3|0:0,0:0:0:0:
178,211,147721,6,0,P|238:215|276:204,1,100,6|8,0:0|0:0,0:0:0:0:
325,213,148171,2,0,L|305:113,1,100,2|0,0:0|0:0,0:0:0:0:
331,71,148621,1,10,0:0:0:0:
423,109,148921,1,2,0:0:0:0:
436,208,149221,1,10,0:0:0:0:
436,208,149371,2,0,P|435:272|439:325,1,100,2|0,0:0|0:0,0:0:0:0:
442,357,149821,2,0,L|379:348,1,50,10|2,0:0|0:0,0:0:0:0:
342,342,150121,1,2,0:0:0:0:
245,366,150421,5,8,0:0:0:0:
245,366,150571,2,0,P|240:298|244:254,1,100,2|2,0:0|0:0,0:0:0:0:
275,172,151171,1,10,0:0:0:0:
275,172,151321,1,2,0:2:0:0:
239,78,151621,1,2,0:2:0:0:
146,116,151921,2,0,P|89:116|43:113,1,100,8|8,0:0|0:0,0:0:0:0:
11,207,152521,5,4,0:0:0:0:
90,267,152821,2,0,P|161:273|191:272,1,100,8|8,0:0|0:0,0:0:0:0:
273,216,153421,2,0,L|264:146,1,50,8|0,0:0|0:0,0:0:0:0:
281,118,153721,1,8,0:0:0:0:
349,45,154021,2,0,P|397:44|457:47,1,100,8|8,0:0|0:0,0:0:0:0:
510,125,154621,6,0,L|499:190,1,50,8|0,0:0|0:0,0:0:0:0:
465,209,154921,2,2,P|470:262|469:314,1,100,10|8,0:0|0:0,0:0:0:0:
455,356,155371,2,0,P|396:347|338:350,1,100,2|2,0:0|0:0,0:0:0:0:
306,355,155821,1,8,0:0:0:0:
279,258,156121,1,8,0:0:0:0:
378,248,156421,2,0,P|373:181|371:140,1,100,8|10,0:0|0:0,0:0:0:0:
347,51,157021,1,10,0:0:0:0:
270,115,157321,6,0,P|203:107|160:107,1,100,6|8,0:0|0:0,0:0:0:0:
121,94,157771,2,0,P|123:153|128:209,1,100,2|0,0:0|0:0,0:0:0:0:
120,243,158221,1,10,0:0:0:0:
182,320,158521,1,10,0:0:0:0:
237,236,158821,1,10,0:0:0:0:
237,236,158971,2,0,P|318:236|357:236,1,100,2|0,0:0|0:0,0:0:0:0:
386,230,159421,2,0,L|387:171,1,50,10|2,0:0|0:0,0:0:0:0:
400,132,159721,6,0,P|342:79|253:84,1,150,8|8,0:0|0:0,0:0:0:0:
224,84,160321,2,0,P|154:86|113:84,1,100,4|4,0:0|0:0,0:0:0:0:
38,135,160921,1,8,0:0:0:0:
38,135,161071,2,0,P|33:206|36:239,1,100,4|4,0:0|0:0,0:0:0:0:
48,283,161521,1,2,1:2:0:0:
121,351,161821,1,2,1:2:0:0:
212,311,162121,1,4,0:0:0:0:
420,262,171721,6,0,P|425:199|417:155,1,100,4|8,0:0|0:0,0:0:0:0:
319,162,172321,1,10,0:0:0:0:
327,62,172621,1,10,0:0:0:0:
231,93,172921,1,10,0:0:0:0:
131,87,173221,2,0,P|79:80|31:72,1,100,10|8,0:0|0:0,0:0:0:0:
26,172,173821,1,10,0:0:0:0:
49,269,174121,6,0,P|116:288|164:296,1,100,4|8,0:0|0:0,0:0:0:0:
230,240,174721,2,0,P|230:163|228:120,1,100,10|10,0:0|0:0,0:0:0:0:
222,40,175321,1,10,0:0:0:0:
311,84,175621,1,10,0:0:0:0:
400,40,175921,2,0,P|407:114|407:157,1,100,10|10,0:0|0:0,0:0:0:0:
400,239,176521,5,6,0:0:0:0:
490,195,176821,1,8,0:0:0:0:
488,294,177121,1,10,0:0:0:0:
397,337,177421,1,10,0:0:0:0:
302,304,177721,1,10,0:0:0:0:
214,353,178021,2,0,P|147:350|107:351,1,100,10|8,0:0|0:0,0:0:0:0:
23,308,178621,1,8,0:0:0:0:
90,234,178921,6,0,P|93:179|89:132,1,100,12|8,0:0|0:0,0:0:0:0:
78,34,179521,2,0,P|148:39|198:37,1,100,8|10,0:0|0:0,0:0:0:0:
278,34,180121,1,8,0:0:0:0:
318,125,180421,2,0,P|255:121|207:123,1,100,8|0,0:0|0:0,0:0:0:0:
126,162,181021,1,8,0:0:0:0:
136,261,181321,6,0,P|209:289|291:281,1,150,4|4,0:0|0:0,0:0:0:0:
370,165,182221,2,0,P|296:136|215:145,1,150,4|4,0:0|0:0,0:0:0:0:
87,196,183121,1,2,0:0:0:0:
82,96,183421,1,10,0:0:0:0:
166,41,183721,6,0,P|241:52|327:19,1,150,12|4,0:0|0:0,0:0:0:0:
391,156,184621,2,0,P|316:145|230:178,1,150,4|4,0:0|0:0,0:0:0:0:
254,317,185521,2,0,P|304:330|361:336,1,100,8|4,0:3|0:3,0:0:0:0:
440,288,186121,6,0,P|454:208|429:129,1,150,4|4,0:0|0:0,0:0:0:0:
297,84,187021,2,0,P|283:164|308:243,1,150,4|4,0:0|0:0,0:0:0:0:
203,343,187921,1,8,0:0:0:0:
104,358,188221,1,8,0:0:0:0:
21,302,188521,6,0,P|16:245|15:195,1,100,12|8,0:0|0:0,0:0:0:0:
72,120,189121,1,8,0:0:0:0:
171,116,189421,1,8,0:0:0:0:
256,168,189721,1,12,0:0:0:0:
355,175,190021,1,8,0:0:0:0:
404,88,190321,2,0,P|348:81|288:81,1,100,8|8,0:0|0:0,0:0:0:0:
212,41,190921,6,0,P|148:35|102:38,1,100,12|8,0:0|0:0,0:0:0:0:
65,54,191371,1,0,0:0:0:0:
25,86,191521,1,8,0:0:0:0:
2,183,191821,1,8,3:0:0:0:
59,264,192121,1,4,2:2:0:0:
256,192,192271,12,4,195721,0:0:0:0:
284,293,200521,6,0,P|198:302|163:307,1,100,4|8,0:0|0:0,0:0:0:0:
87,326,201121,1,0,0:0:0:0:
10,261,201421,2,0,L|21:209,1,50,10|2,0:0|0:0,0:0:0:0:
51,172,201721,1,0,0:0:0:0:
30,74,202021,2,0,P|93:69|132:63,1,100,8|0,0:0|0:0,0:0:0:0:
226,38,202621,6,0,L|248:89,1,50,10|2,0:0|0:0,0:0:0:0:
293,99,202921,2,2,P|353:104|402:114,1,100,2|10,0:0|0:0,0:0:0:0:
437,131,203371,2,2,P|445:192|449:238,1,100
453,280,203821,1,8,0:0:0:0:
370,329,204121,2,0,L|360:379,2,50,2|2|8,0:3|0:3|0:0,0:0:0:0:
323,240,204721,2,0,L|364:198,2,50,2|2|10,0:3|0:3|0:0,0:0:0:0:
264,320,205321,5,6,0:0:0:0:
188,254,205621,1,8,0:0:0:0:
188,254,205771,2,0,P|140:265|89:268,1,100,2|2,0:0|0:2,0:0:0:0:
42,250,206221,1,10,0:0:0:0:
13,154,206521,1,2,0:0:0:0:
112,167,206821,1,10,0:0:0:0:
112,167,206971,2,2,P|186:166|215:164,1,100,2|0,0:0|0:0,0:0:0:0:
261,156,207421,2,0,L|326:176,1,50,10|2,0:0|0:0,0:0:0:0:
358,162,207721,1,6,0:0:0:0:
457,173,208021,5,8,0:0:0:0:
457,173,208171,1,2,0:0:0:0:
441,74,208471,2,0,L|489:55,2,50,2|8|8,0:0|0:0|0:0,0:0:0:0:
395,52,208921,1,12,0:0:0:0:
299,82,209221,1,4,0:2:0:0:
207,41,209521,1,8,0:0:0:0:
113,75,209821,1,8,0:0:0:0:
13,64,210121,1,6,0:0:0:0:
3,163,210421,6,0,P|76:171|106:170,1,100,8|0,0:0|0:0,0:0:0:0:
202,159,211021,2,0,L|193:214,1,50,10|2,0:0|0:0,0:0:0:0:
208,256,211321,1,2,0:3:0:0:
299,295,211621,2,0,P|362:289|406:292,1,100,8|2,0:0|0:3,0:0:0:0:
485,241,212221,6,0,L|473:175,1,50,10|2,0:0|0:0,0:0:0:0:
475,141,212521,2,2,P|413:152|362:140,1,100,2|10,0:0|0:0,0:0:0:0:
333,121,212971,1,2,0:0:0:0:
248,175,213271,1,10,0:0:0:0:
325,238,213571,1,10,0:0:0:0:
325,238,213721,2,0,L|347:292,2,50,2|2|8,0:2|0:2|0:0,0:0:0:0:
250,304,214321,2,0,L|236:356,2,50,2|2|10,0:2|0:2|0:0,0:0:0:0:
174,238,214921,5,6,0:0:0:0:
84,282,215221,1,8,0:0:0:0:
84,282,215371,2,0,P|87:233|71:183,1,100,2|0,0:0|0:0,0:0:0:0:
51,138,215821,1,10,0:0:0:0:
2,50,216121,1,2,0:0:0:0:
106,54,216421,1,8,0:0:0:0:
106,54,216571,2,0,P|184:62|224:67,1,100,2|0,0:0|0:0,0:0:0:0:
255,70,217021,2,0,L|318:54,1,50,10|2,0:0|0:0,0:0:0:0:
353,61,217321,5,10,0:0:0:0:
402,148,217621,1,8,0:0:0:0:
302,157,217921,1,10,0:0:0:0:
275,250,218221,1,8,0:0:0:0:
377,266,218521,2,0,L|484:247,1,100,4|0,0:3|0:0,0:0:0:0:
451,345,219121,2,0,L|344:364,1,100
268,308,219721,6,0,L|277:207,1,100,4|8,0:0|0:0,0:0:0:0:
300,201,220171,2,0,L|277:99,1,100,2|0,0:2|0:0,0:0:0:0:
293,83,220621,1,8,0:0:0:0:
193,91,220921,2,0,L|164:47,2,50,0|2|8,0:0|0:2|0:0,0:0:0:0:
194,190,221521,1,2,0:2:0:0:
101,152,221821,1,8,0:1:0:0:
28,220,222121,6,0,P|24:278|30:326,1,100,4|8,0:0|0:0,0:0:0:0:
35,343,222571,2,0,P|96:340|138:342,1,100,2|0,0:2|0:0,0:0:0:0:
159,346,223021,1,10,0:0:0:0:
212,261,223321,2,0,L|191:211,2,50,2|2|10,0:3|0:3|0:0,0:0:0:0:
301,309,223921,1,2,0:0:0:0:
400,296,224221,1,10,0:0:0:0:
447,207,224521,6,0,P|448:147|453:97,1,100,6|8,0:0|0:0,0:0:0:0:
464,85,224971,2,0,P|393:97|353:103,1,100,2|0,0:0|0:0,0:0:0:0:
351,80,225421,1,8,0:0:0:0:
318,174,225721,2,0,L|364:204,2,50,2|2|8,0:3|0:2|0:0,0:0:0:0:
233,119,226321,1,2,0:2:0:0:
240,218,226621,1,8,0:0:0:0:
295,301,226921,6,0,P|212:317|173:320,1,100,4|8,0:0|0:0,0:0:0:0:
173,327,227371,2,0,P|116:323|59:323,1,100,2|2,0:2|0:3,0:0:0:0:
48,320,227821,1,8,0:0:0:0:
45,220,228121,2,0,L|19:157,2,50,2|2|8,0:3|0:2|0:0,0:0:0:0:
144,243,228721,1,8,0:0:0:0:
119,145,229021,1,8,0:0:0:0:
214,175,229321,6,2,P|277:178|321:174,1,100,14|8,0:0|0:0,0:0:0:0:
404,132,229921,1,8,0:0:0:0:
481,194,230221,1,10,0:0:0:0:
459,291,230521,2,0,P|381:299|338:301,1,100,8|8,0:0|0:0,0:0:0:0:
315,276,230971,1,0,0:0:0:0:
266,262,231121,2,0,P|202:262|151:271,1,100,10|8,0:0|0:0,0:0:0:0:
125,359,231721,5,14,0:0:0:0:
64,280,232021,2,0,L|84:181,1,100,8|8,0:0|0:0,0:0:0:0:
34,95,232621,1,10,0:0:0:0:
117,40,232921,2,0,P|170:46|221:41,1,100,8|8,0:0|0:0,0:0:0:0:
264,29,233371,1,0,0:0:0:0:
311,14,233521,2,0,L|299:130,1,100,10|8,0:0|0:0,0:0:0:0:
210,156,234121,5,14,0:0:0:0:
208,255,234421,1,8,0:0:0:0:
305,232,234721,1,8,0:0:0:0:
403,247,235021,1,10,0:0:0:0:
418,149,235321,2,0,P|425:88|418:43,1,100,8|8,0:0|0:0,0:0:0:0:
377,23,235771,1,0,0:0:0:0:
332,45,235921,2,0,L|225:55,1,100,10|10,0:0|0:0,0:0:0:0:
138,19,236521,6,2,P|99:101|142:174,1,150,6|4,0:0|0:3,0:0:0:0:
137,167,237121,2,0,L|118:281,1,100,8|4,0:0|0:0,0:0:0:0:
210,308,237721,2,0,P|267:300|319:300,1,100,2|0,0:3|0:0,0:0:0:0:
333,307,238171,1,8,0:0:0:0:
356,314,238321,2,0,P|358:264|360:215,1,100,8|4,0:0|0:3,0:0:0:0:
415,131,238921,1,4,0:0:0:0:
256,192,239071,12,2,243721,0:0:0:0:
