osu file format v14

[General]
AudioFilename: audio.mp3
AudioLeadIn: 0
PreviewTime: 72456
Countdown: 0
SampleSet: Soft
StackLeniency: 0.7
Mode: 0
LetterboxInBreaks: 0
WidescreenStoryboard: 0

[Editor]
DistanceSpacing: 1.3
BeatDivisor: 4
GridSize: 32
TimelineZoom: 1.6

[Metadata]
Title:Ruri-iro
TitleUnicode:瑠璃色
Artist:Kitamura Eri
ArtistUnicode:喜多村英梨
Creator:Mordred
Version:Lapis Lazuli
Source:
Tags:illusion dream dystopia record wataru koda japanese pop
BeatmapID:2247591
BeatmapSetID:1073935

[Difficulty]
HPDrainRate:6
CircleSize:4
OverallDifficulty:7
ApproachRate:8
SliderMultiplier:1.8
SliderTickRate:2

[Events]
//Background and Video events
0,0,"76661992_p0_master1201.jpg",0,0
//Break Periods
2,217300,237550
//Storyboard Layer 0 (Background)
//Storyboard Layer 1 (Fail)
//Storyboard Layer 2 (Pass)
//Storyboard Layer 3 (Foreground)
//Storyboard Layer 4 (Overlay)
//Storyboard Sound Samples

[TimingPoints]
1300,750,4,2,1,50,1,0
24925,-100,4,2,3,70,0,0
25300,-125,4,2,1,40,0,0
36925,-125,4,2,3,40,0,0
37300,-100,4,2,1,50,0,0
48737,-100,4,2,3,50,0,0
49300,-100,4,2,2,60,0,0
60737,-100,4,2,3,60,0,0
61300,-100,4,2,2,60,0,0
71237,-100,4,2,3,60,0,0
71800,-100,4,2,1,60,0,0
73300,-76.9230769230769,4,2,1,80,0,1
96925,-76.9230769230769,4,2,3,80,0,1
97300,-90.9090909090909,4,2,1,70,0,0
120911,-90.9090909090909,4,2,3,70,0,0
121300,-111.111111111111,4,2,1,40,0,0
132925,-111.111111111111,4,2,3,40,0,0
133300,-90.9090909090908,4,2,1,50,0,0
144737,-90.9090909090908,4,2,3,50,0,0
145300,-90.9090909090908,4,2,2,60,0,0
156737,-90.9090909090908,4,2,3,60,0,0
157300,-90.9090909090908,4,2,2,60,0,0
166300,-90.9090909090908,4,2,1,60,0,0
168550,-90.9090909090908,4,2,3,60,0,0
169300,-76.9230769230769,4,2,1,70,0,0
192550,-76.9230769230769,4,2,3,70,0,0
193300,-90.9090909090909,4,2,2,60,0,0
204737,-90.9090909090909,4,2,3,60,0,0
205300,-90.9090909090909,4,2,2,60,0,0
238300,-90.9090909090909,4,2,1,60,0,0
240925,-90.9090909090909,4,2,3,60,0,0
241300,-66.6666666666667,4,2,1,80,0,1
252362,-66.6666666666667,4,2,3,80,0,1
253300,-66.6666666666667,4,2,1,80,0,1
260800,-66.6666666666667,4,2,3,80,0,1
261550,-50,4,2,1,80,0,1
264175,-50,4,2,3,80,0,1
265300,-76.9230769230769,4,2,1,70,0,0
289300,930.232558139535,4,2,1,70,1,0
289300,-100,4,2,4,70,0,0
289765,-100,4,2,4,65,0,0
290230,-100,4,2,4,60,0,0
290695,-100,4,2,4,56,0,0
291160,-100,4,2,4,50,0,0
291625,-100,4,2,4,45,0,0
292090,-100,4,2,4,40,0,0
292555,-100,4,2,4,35,0,0
293020,-100,4,2,4,30,0,0

[Colours]
Combo1 : 250,180,240
Combo2 : 110,190,225
Combo3 : 255,230,130
Combo4 : 150,230,140

[HitObjects]
75,332,550,5,2,0:0:0:0:
66,301,925,5,2,0:0:0:0:
56,270,1300,6,0,L|68:180,1,90,6|0,1:0|0:0,0:0:0:0:
224,32,2050,2,0,L|212:121,1,90,10|0,0:0|0:0,0:0:0:0:
256,256,2612,1,0,3:0:0:0:
256,256,2706,1,0,3:0:0:0:
256,256,2800,1,2,1:0:0:0:
350,267,2987,1,0,3:0:0:0:
444,278,3175,1,0,1:0:0:0:
203,329,3550,1,10,0:0:0:0:
407,192,3925,1,2,0:0:0:0:
481,364,4300,6,0,L|378:356,2,90,2|0|8,1:2|0:0|0:0,0:0:0:0:
214,372,5425,2,0,L|203:329,1,45,2|0,0:0|3:0,0:0:0:0:
203,329,5706,1,0,3:0:0:0:
203,329,5800,1,2,1:0:0:0:
109,318,5988,1,0,3:0:0:0:
15,307,6175,1,0,1:0:0:0:
222,243,6550,1,10,0:0:0:0:
392,375,6925,1,2,0:0:0:0:
96,224,7300,6,0,L|83:134,1,90,6|0,1:1|0:0,0:0:0:0:
316,307,8050,2,0,L|328:217,1,90,10|0,0:0|0:0,0:0:0:0:
416,96,8612,1,0,3:0:0:0:
416,96,8706,1,0,3:0:0:0:
415,96,8800,2,0,P|394:102|372:105,1,45,2|0,1:2|3:0,0:0:0:0:
224,64,9175,2,0,P|245:57|267:54,1,45,2|0,1:2|0:0,0:0:0:0:
416,192,9550,2,0,L|422:236,1,45,10|0,0:0|0:0,0:0:0:0:
225,325,9925,2,0,L|231:280,1,45,2|0,0:0|0:0,0:0:0:0:
64,64,10300,6,0,B|24:104|24:104|54:227,1,180,2|8,1:2|0:0,0:0:0:0:
334,138,11425,2,0,L|289:132,1,45,2|0,0:0|3:0,0:0:0:0:
270,145,11706,1,0,3:0:0:0:
251,158,11800,1,2,1:2:0:0:
206,298,11987,1,0,3:0:0:0:
298,250,12175,1,0,1:0:0:0:
298,250,12362,1,0,1:0:0:0:
158,205,12550,1,10,0:0:0:0:
158,205,12737,1,0,1:0:0:0:
293,354,12925,1,10,0:0:0:0:
102,293,13112,1,8,0:0:0:0:
251,158,13300,6,0,L|340:146,1,90,6|0,1:1|0:0,0:0:0:0:
512,0,14050,2,0,L|422:11,1,90,10|0,0:0|0:0,0:0:0:0:
290,71,14612,1,0,3:0:0:0:
290,71,14706,1,0,3:0:0:0:
290,71,14800,1,2,1:2:0:0:
251,158,14987,1,0,3:0:0:0:
212,245,15175,1,2,1:2:0:0:
346,149,15550,1,10,0:0:0:0:
112,48,15925,1,2,0:0:0:0:
11,282,16300,6,0,L|23:378,2,90,2|0|8,1:2|0:0|0:0,0:0:0:0:
32,128,17425,1,2,3:2:0:0:
36,117,17518,1,0,3:0:0:0:
40,106,17612,1,0,3:0:0:0:
44,95,17706,1,0,3:0:0:0:
48,84,17800,1,2,1:2:0:0:
144,64,17987,1,0,3:0:0:0:
240,44,18175,1,0,1:0:0:0:
0,8,18550,1,10,0:0:0:0:
89,233,18925,1,2,0:0:0:0:
329,269,19300,6,0,L|418:262,1,90,6|0,1:1|0:0,0:0:0:0:
512,160,20050,1,10,0:0:0:0:
352,384,20425,1,2,3:2:0:0:
341,381,20518,1,0,3:2:0:0:
329,378,20612,1,0,3:2:0:0:
317,375,20706,1,0,3:2:0:0:
305,372,20800,1,2,1:2:0:0:
201,378,20987,1,0,3:0:0:0:
96,384,21175,1,0,1:2:0:0:
410,366,21550,1,10,0:0:0:0:
32,256,21925,1,2,0:0:0:0:
448,64,22300,5,2,1:2:0:0:
448,64,22487,2,0,L|455:122,1,45,0|0,3:0|0:0,0:0:0:0:
512,224,22862,1,0,1:0:0:0:
352,96,23050,2,0,L|262:85,1,90,8|0,0:0|0:0,0:0:0:0:
160,32,23612,1,0,3:0:0:0:
160,32,23706,1,0,3:0:0:0:
160,32,23800,1,0,1:0:0:0:
128,128,23987,1,8,0:0:0:0:
0,32,24175,1,2,1:3:0:0:
64,320,24550,1,10,0:0:0:0:
224,256,24737,1,8,0:0:0:0:
288,352,24925,1,10,0:3:0:0:
288,352,25300,6,0,P|334:370|440:327,1,144,6|8,1:1|0:0,0:0:0:0:
480,192,26425,1,2,0:0:0:0:
363,251,26800,2,0,P|357:268|356:286,2,36,2|0|0,1:2|3:0|1:0,0:0:0:0:
304,134,27362,1,2,0:0:0:0:
304,134,27550,1,10,0:0:0:0:
480,192,27925,1,2,0:0:0:0:
384,32,28300,6,0,P|313:45|241:52,1,144,2|8,1:2|0:0,0:0:0:0:
96,32,29425,2,0,P|103:48|108:65,1,36,2|0,0:0|0:0,0:0:0:0:
64,160,29800,2,0,P|47:167|30:172,2,36,2|0|0,1:2|3:0|1:0,0:0:0:0:
158,204,30550,1,10,0:0:0:0:
252,248,30925,1,2,0:0:0:0:
32,384,31300,6,0,P|0:320|13:250,1,144,2|10,1:2|0:0,0:0:0:0:
128,160,32425,1,2,0:0:0:0:
149,303,32800,2,0,P|131:308|113:310,2,36,2|0|0,1:2|3:0|1:0,0:0:0:0:
288,384,33550,1,10,0:0:0:0:
439,329,33925,1,2,0:0:0:0:
492,176,34300,6,0,P|498:141|502:105,2,72,2|0|8,1:2|0:0|0:0,0:0:0:0:
439,329,35425,1,2,0:0:0:0:
288,384,35800,1,2,1:2:0:0:
336,281,35987,1,8,0:0:0:0:
233,233,36175,2,0,L|185:229,1,36,2|0,1:3|0:0,0:0:0:0:
34,384,36550,1,10,0:0:0:0:
185,336,36737,1,8,0:0:0:0:
64,256,36925,1,8,0:3:0:0:
64,256,37300,6,0,L|50:73,1,180,6|8,1:1|0:0,0:0:0:0:
0,320,38425,1,2,0:0:0:0:
160,160,38800,2,0,L|205:156,1,45,2|0,1:2|3:0,0:0:0:0:
288,192,39175,1,0,1:0:0:0:
480,128,39550,1,10,0:0:0:0:
416,256,39925,1,2,0:0:0:0:
351,63,40300,6,0,P|309:50|265:40,2,90,2|0|8,1:2|0:0|0:0,0:0:0:0:
480,128,41425,1,2,0:0:0:0:
288,192,41800,1,2,1:2:0:0:
266,187,41987,1,0,3:0:0:0:
243,182,42175,1,0,1:0:0:0:
51,246,42550,1,10,0:0:0:0:
0,128,42925,1,2,0:0:0:0:
102,364,43300,6,0,L|294:386,1,180,2|10,1:2|0:0,0:0:0:0:
512,320,44425,1,2,0:0:0:0:
352,192,44800,1,2,1:2:0:0:
348,214,44987,1,0,3:0:0:0:
344,236,45175,1,2,1:2:0:0:
480,128,45550,1,10,0:0:0:0:
512,320,45925,1,2,0:0:0:0:
368,80,46300,6,0,L|278:69,1,90,2|0,1:2|0:0,0:0:0:0:
128,192,47050,2,0,L|217:202,1,90,8|0,0:0|0:0,0:0:0:0:
347,301,47800,1,0,1:0:0:0:
475,269,47987,1,8,0:0:0:0:
395,221,48175,1,2,1:3:0:0:
429,349,48362,1,8,0:0:0:0:
429,349,48456,1,8,0:0:0:0:
429,349,48550,1,10,0:0:0:0:
395,221,48737,1,8,0:3:0:0:
267,255,48925,1,6,0:3:0:0:
301,383,49112,1,4,0:3:0:0:
64,320,49300,6,0,B|22:278|22:278|45:159,1,180,6|12,1:1|0:0,0:0:0:0:
160,32,50425,1,2,0:0:0:0:
288,192,50800,1,2,1:2:0:0:
288,192,51175,1,0,1:2:0:0:
102,95,51550,1,10,0:0:0:0:
160,288,51925,1,2,0:0:0:0:
288,64,52300,6,0,P|332:52|375:46,2,90,2|0|12,1:2|0:0|0:0,0:0:0:0:
176,176,53425,1,2,0:0:0:0:
352,256,53800,2,0,L|367:196,1,45,2|0,1:2|3:0,0:0:0:0:
352,128,54175,1,0,1:0:0:0:
288,320,54550,1,10,0:0:0:0:
512,192,54925,1,2,0:0:0:0:
288,320,55300,6,0,L|95:334,1,180,2|12,1:2|0:0,0:0:0:0:
0,163,56425,1,2,0:0:0:0:
178,58,56800,1,2,1:2:0:0:
95,247,57175,1,2,1:2:0:0:
52,46,57550,1,10,0:0:0:0:
207,183,57925,1,2,0:0:0:0:
384,32,58300,6,0,P|428:38|472:48,1,90,2|0,1:2|0:0,0:0:0:0:
512,224,59050,1,14,0:0:0:0:
320,128,59425,1,2,0:0:0:0:
224,320,59800,1,2,1:2:0:0:
368,272,59987,1,8,0:0:0:0:
320,368,60175,1,2,1:3:0:0:
272,224,60362,1,8,0:0:0:0:
272,224,60456,1,8,0:0:0:0:
272,224,60550,1,8,0:0:0:0:
320,368,60737,1,8,0:3:0:0:
464,320,60925,1,6,0:3:0:0:
416,177,61112,1,4,0:3:0:0:
224,320,61300,6,0,B|166:347|166:347|56:309,1,180,6|12,1:1|0:0,0:0:0:0:
272,224,62425,1,2,0:0:0:0:
464,320,62800,2,0,L|472:268,1,45,2|0,1:2|3:0,0:0:0:0:
485,190,63175,1,0,1:2:0:0:
334,342,63550,1,10,0:0:0:0:
366,130,63925,1,2,0:0:0:0:
163,256,64300,6,0,P|118:180|140:95,1,180,2|12,1:2|0:0,0:0:0:0:
294,0,65425,1,2,0:0:0:0:
448,96,65800,1,2,1:2:0:0:
453,117,65987,1,0,3:0:0:0:
459,138,66175,1,0,1:0:0:0:
416,295,66550,1,10,0:0:0:0:
320,151,66925,1,2,0:0:0:0:
223,7,67300,6,0,P|179:15|136:28,1,90,2|0,1:2|0:0,0:0:0:0:
64,192,68050,1,14,0:0:0:0:
288,160,68425,1,2,0:0:0:0:
160,320,68800,2,0,L|142:261,1,45,2|0,1:2|3:0,0:0:0:0:
176,177,69175,1,0,1:0:0:0:
288,352,69550,1,10,0:0:0:0:
400,143,69925,1,2,0:0:0:0:
512,384,70300,5,2,1:2:0:0:
448,288,70487,1,8,0:0:0:0:
506,189,70675,2,0,L|517:134,1,45,2|0,1:2|3:0,0:0:0:0:
512,68,70956,1,8,0:0:0:0:
504,52,71050,1,14,0:0:0:0:
400,143,71237,1,8,0:3:0:0:
309,39,71425,1,10,0:3:0:0:
384,0,71612,1,4,0:3:0:0:
296,234,71800,1,10,0:0:0:0:
32,64,73300,6,0,B|73:45|73:45|148:66,1,116.999994644165,4|2,1:1|0:0,0:0:0:0:
320,160,74050,1,10,0:0:0:0:
407,150,74237,1,2,0:0:0:0:
494,141,74425,2,0,L|506:83,1,58.4999973220826,2|0,0:0|0:0,0:0:0:0:
320,160,74800,2,0,L|307:217,1,58.4999973220826,2|0,1:2|3:0,0:0:0:0:
471,277,75175,2,0,L|459:220,1,58.4999973220826,2|0,1:2|0:0,0:0:0:0:
355,80,75550,1,10,0:0:0:0:
268,70,75737,1,2,0:0:0:0:
181,61,75925,2,0,L|123:73,1,58.4999973220826,2|0,0:0|0:0,0:0:0:0:
0,224,76300,6,0,P|-7:284|-12:344,2,116.999994644165,0|2|10,1:2|0:0|0:0,0:0:0:0:
128,160,77238,1,2,0:0:0:0:
208,191,77425,2,0,P|236:196|265:199,1,58.4999973220826,2|0,0:0|0:0,0:0:0:0:
448,155,77800,2,0,L|458:90,1,58.4999973220826,2|0,1:2|3:0,0:0:0:0:
236,58,78175,2,0,L|245:115,1,58.4999973220826,2|0,1:2|0:0,0:0:0:0:
328,309,78550,1,10,0:0:0:0:
338,222,78737,1,2,0:0:0:0:
347,135,78925,1,2,0:0:0:0:
32,384,79300,6,0,L|19:267,1,116.999994644165,4|2,1:1|0:0,0:0:0:0:
160,32,80050,1,10,0:0:0:0:
151,119,80238,1,2,0:0:0:0:
141,206,80425,2,0,L|147:264,1,58.4999973220826,2|0,0:0|0:0,0:0:0:0:
320,224,80800,2,0,L|262:218,1,58.4999973220826,2|0,1:2|3:0,0:0:0:0:
96,352,81175,2,0,L|154:358,1,58.4999973220826,2|0,1:2|0:0,0:0:0:0:
469,290,81550,1,10,0:0:0:0:
382,299,81738,1,2,0:0:0:0:
295,309,81925,2,0,L|237:303,1,58.4999973220826,2|0,0:0|0:0,0:0:0:0:
32,192,82300,5,0,1:2:0:0:
256,384,82675,1,2,0:0:0:0:
480,192,83050,1,10,0:0:0:0:
495,95,83237,1,2,0:0:0:0:
512,0,83425,1,2,0:0:0:0:
151,119,83800,1,2,1:2:0:0:
320,192,83987,1,8,0:2:0:0:
272,71,84175,1,2,1:2:0:0:
272,71,84362,1,0,1:2:0:0:
198,240,84550,1,10,0:0:0:0:
198,240,84737,1,0,1:0:0:0:
345,202,84925,1,10,0:0:0:0:
125,108,85112,1,8,0:0:0:0:
419,34,85300,5,6,1:1:0:0:
51,278,85675,1,2,0:0:0:0:
407,341,86050,1,10,0:0:0:0:
416,254,86237,1,2,0:0:0:0:
426,167,86425,2,0,L|420:109,1,58.4999973220826,2|0,0:0|0:0,0:0:0:0:
287,208,86800,2,0,L|345:202,1,58.4999973220826,2|0,1:2|3:0,0:0:0:0:
246,69,87175,2,0,L|252:127,1,58.4999973220826,2|0,1:2|0:0,0:0:0:0:
301,303,87550,1,10,0:0:0:0:
214,312,87738,1,2,0:0:0:0:
127,322,87925,2,0,L|68:316,1,58.4999973220826,2|0,0:0|0:0,0:0:0:0:
0,127,88300,6,0,P|27:119|56:116,1,58.4999973220826,0|0,1:2|0:0,0:0:0:0:
108,43,88675,2,0,P|124:66|136:93,1,58.4999973220826,2|0,0:0|0:0,0:0:0:0:
184,257,89050,2,0,P|156:247|131:232,1,58.4999973220826,10|2,0:0|0:0,0:0:0:0:
45,260,89425,2,0,P|45:230|51:202,1,58.4999973220826,2|0,0:0|0:0,0:0:0:0:
225,124,89800,2,0,P|206:147|184:166,2,58.4999973220826,2|0|2,1:2|3:0|1:2,0:0:0:0:
480,32,90550,1,10,0:0:0:0:
493,118,90737,1,2,0:0:0:0:
506,204,90925,2,0,L|498:261,1,58.4999973220826,2|0,0:0|0:0,0:0:0:0:
225,124,91300,6,0,P|281:110|339:102,1,116.999994644165,4|2,1:1|0:0,0:0:0:0:
512,352,92050,2,0,P|483:348|454:340,1,58.4999973220826,10|2,0:0|0:0,0:0:0:0:
352,224,92425,2,0,P|323:227|294:235,1,58.4999973220826,2|0,0:0|0:0,0:0:0:0:
178,350,92800,1,2,1:2:0:0:
173,367,92987,1,0,3:0:0:0:
168,384,93175,1,2,1:2:0:0:
360,282,93550,2,0,L|352:224,1,58.4999973220826,10|2,0:0|0:0,0:0:0:0:
416,128,93925,2,0,L|408:70,1,58.4999973220826,2|0,0:0|0:0,0:0:0:0:
192,32,94300,5,2,1:2:0:0:
268,131,94487,2,0,L|326:139,1,58.4999973220826,8|2,0:0|0:0,0:0:0:0:
512,192,94862,1,0,1:0:0:0:
436,291,95050,2,0,L|378:299,1,58.4999973220826,10|2,0:0|0:0,0:0:0:0:
256,352,95425,2,0,L|198:344,1,58.4999973220826,2|0,0:0|0:0,0:0:0:0:
64,256,95800,1,2,1:2:0:0:
87,367,95988,1,8,0:0:0:0:
175,233,96175,2,0,L|167:175,1,58.4999973220826,2|0,1:2|0:0,0:0:0:0:
64,32,96550,1,10,0:0:0:0:
256,64,96737,1,8,0:0:0:0:
448,32,96925,1,10,0:3:0:0:
448,32,97300,6,0,B|467:62|467:62|455:124,1,99.0000030212403,6|0,1:1|0:0,0:0:0:0:
512,352,98050,2,0,B|492:321|492:321|505:257,1,99.0000030212403,10|0,0:0|0:0,0:0:0:0:
463,132,98612,1,0,3:0:0:0:
463,132,98706,1,0,3:0:0:0:
463,132,98800,1,2,1:2:0:0:
370,119,98987,1,0,3:0:0:0:
276,106,99175,1,0,1:0:0:0:
480,32,99550,1,10,0:0:0:0:
356,212,99925,1,2,0:0:0:0:
182,93,100300,6,0,L|83:102,2,99.0000030212403,2|0|8,1:2|0:0|0:0,0:0:0:0:
306,207,101425,2,0,L|356:212,1,49.5000015106202,2|0,0:0|3:0,0:0:0:0:
355,211,101706,1,0,3:0:0:0:
355,211,101800,1,2,1:2:0:0:
384,301,101987,1,0,3:0:0:0:
409,380,102175,1,0,1:2:0:0:
512,192,102550,1,10,0:0:0:0:
328,362,102925,1,2,0:0:0:0:
78,330,103300,6,0,P|69:282|57:234,1,99.0000030212403,6|0,1:1|0:0,0:0:0:0:
305,155,104050,2,0,P|293:203|284:251,1,99.0000030212403,10|0,0:0|0:0,0:0:0:0:
183,195,104612,1,0,3:0:0:0:
183,195,104706,1,0,3:0:0:0:
183,195,104800,2,0,P|176:169|173:146,1,49.5000015106202,2|0,1:2|3:0,0:0:0:0:
275,3,105175,2,0,P|272:27|265:51,1,49.5000015106202,2|0,1:2|0:0,0:0:0:0:
64,64,105550,2,0,L|123:51,1,49.5000015106202,10|0,0:0|0:0,0:0:0:0:
353,165,105925,2,0,L|305:155,1,49.5000015106202,2|0,0:0|0:0,0:0:0:0:
32,192,106300,6,0,B|3:253|3:253|43:376,1,198.000006042481,2|8,1:2|0:0,0:0:0:0:
224,384,107425,1,2,3:2:0:0:
240,381,107518,1,0,3:0:0:0:
257,378,107612,1,0,3:0:0:0:
274,375,107706,1,0,3:0:0:0:
291,372,107800,1,2,1:0:0:0:
352,224,107987,1,0,3:0:0:0:
247,267,108175,1,0,1:2:0:0:
247,267,108362,1,0,1:0:0:0:
399,332,108550,1,10,0:0:0:0:
399,332,108737,1,0,1:0:0:0:
309,120,108925,1,10,0:0:0:0:
291,372,109112,1,8,0:0:0:0:
496,144,109300,6,0,L|512:44,1,99.0000030212403,6|0,1:1|0:0,0:0:0:0:
309,120,110050,2,0,L|293:217,1,99.0000030212403,10|0,0:0|0:0,0:0:0:0:
399,332,110612,1,0,3:0:0:0:
399,332,110706,1,0,3:0:0:0:
399,332,110800,1,2,1:2:0:0:
307,352,110987,1,0,3:0:0:0:
214,372,111175,1,0,1:0:0:0:
480,384,111550,1,10,0:0:0:0:
293,218,111925,1,2,0:0:0:0:
480,32,112300,6,0,L|496:129,2,99.0000030212403,2|0|8,1:2|0:0|0:0,0:0:0:0:
317,12,113425,1,2,3:2:0:0:
300,17,113518,1,0,3:2:0:0:
283,22,113612,1,0,3:2:0:0:
266,27,113706,1,0,3:2:0:0:
249,32,113800,1,2,1:2:0:0:
155,24,113987,1,0,3:0:0:0:
60,17,114175,1,0,1:0:0:0:
283,116,114550,1,10,0:0:0:0:
0,224,114925,1,2,0:0:0:0:
232,384,115300,6,0,L|248:286,1,99.0000030212403,6|0,1:1|0:0,0:0:0:0:
64,96,116050,1,10,0:0:0:0:
160,320,116425,1,2,0:0:0:0:
401,348,116800,1,2,1:2:0:0:
425,257,116987,1,0,3:0:0:0:
449,165,117175,1,0,1:2:0:0:
512,384,117550,1,10,0:0:0:0:
338,129,117925,1,2,0:0:0:0:
83,303,118300,5,2,1:2:0:0:
0,256,118487,2,0,L|7:189,1,49.5000015106202,0|0,3:0|0:0,0:0:0:0:
128,128,118862,1,0,1:0:0:0:
224,224,119050,2,0,L|322:213,1,99.0000030212403,8|0,0:0|0:0,0:0:0:0:
448,256,119612,1,0,3:0:0:0:
448,256,119706,1,0,3:0:0:0:
448,256,119800,1,0,1:0:0:0:
346,343,119987,1,0,3:0:0:0:
424,125,120175,1,2,3:0:0:0:
421,108,120268,1,0,3:0:0:0:
417,90,120362,1,0,3:0:0:0:
414,72,120456,1,0,3:0:0:0:
411,54,120550,1,10,0:0:0:0:
224,0,120737,1,8,0:0:0:0:
128,96,120925,1,10,0:3:0:0:
128,96,121300,6,0,P|111:175|102:255,1,161.999995056153,6|8,1:1|0:0,0:0:0:0:
160,384,122425,1,2,0:0:0:0:
288,319,122800,2,0,P|307:315|327:313,2,40.4999987640381,2|0|0,1:2|3:0|1:0,0:0:0:0:
160,384,123550,1,10,0:0:0:0:
224,224,123925,1,2,0:0:0:0:
352,384,124300,6,0,P|430:375|474:311,1,161.999995056153,2|8,1:2|0:0,0:0:0:0:
479,160,125425,2,0,P|460:165|440:168,1,40.4999987640381,2|0,0:0|0:0,0:0:0:0:
320,96,125800,2,0,P|314:76|311:56,2,40.4999987640381,2|0|0,1:2|3:0|1:0,0:0:0:0:
317,237,126550,1,10,0:0:0:0:
441,169,126925,1,2,0:0:0:0:
230,49,127300,6,0,L|68:35,1,161.999995056153,2|8,1:2|0:0,0:0:0:0:
0,192,128425,1,2,0:0:0:0:
68,348,128800,2,0,L|108:345,2,40.4999987640381,2|0|0,1:2|3:0|1:0,0:0:0:0:
224,224,129550,1,10,0:0:0:0:
320,384,129925,1,2,0:0:0:0:
480,287,130300,6,0,P|517:218|500:140,1,161.999995056153,2|8,1:2|0:0,0:0:0:0:
384,32,131425,1,2,0:0:0:0:
349,188,131800,1,2,1:2:0:0:
411,121,131987,1,8,0:0:0:0:
321,100,132175,1,2,1:3:0:0:
377,276,132550,1,10,0:0:0:0:
259,168,132737,1,8,0:0:0:0:
224,352,132925,1,10,0:3:0:0:
224,352,133300,6,0,B|161:382|161:382|32:351,1,198.000006042481,6|8,1:1|0:0,0:0:0:0:
256,256,134425,1,2,0:0:0:0:
428,369,134800,1,2,1:2:0:0:
456,360,134987,1,0,3:0:0:0:
484,351,135175,1,0,1:0:0:0:
256,256,135550,1,10,0:0:0:0:
480,192,135925,1,2,0:0:0:0:
348,384,136300,6,0,L|369:187,1,198.000006042481,2|8,1:2|0:0,0:0:0:0:
512,32,137425,1,2,0:0:0:0:
320,96,137800,1,2,1:2:0:0:
290,91,137987,1,0,3:0:0:0:
260,86,138175,1,0,1:2:0:0:
68,150,138550,1,10,0:0:0:0:
224,0,138925,1,2,0:0:0:0:
304,208,139300,6,0,L|409:195,1,99.0000030212403,2|0,1:2|0:0,0:0:0:0:
512,320,140050,1,10,0:0:0:0:
288,384,140425,1,2,0:0:0:0:
512,320,140800,2,0,L|518:270,1,49.5000015106202,2|0,1:2|3:0,0:0:0:0:
512,192,141175,1,2,1:2:0:0:
416,0,141550,1,10,0:0:0:0:
512,192,141925,1,2,0:0:0:0:
320,96,142300,5,2,1:2:0:0:
320,96,142487,2,0,L|270:89,1,49.5000015106202,0|0,3:0|0:0,0:0:0:0:
144,16,142862,1,0,0:0:0:0:
144,16,143050,2,0,L|94:20,1,49.5000015106202,8|0,0:0|0:0,0:0:0:0:
0,128,143425,2,0,L|49:133,1,49.5000015106202
160,224,143800,1,0,1:0:0:0:
320,192,143987,1,8,0:0:0:0:
268,347,144175,1,2,1:3:0:0:
249,254,144362,1,8,0:0:0:0:
249,254,144456,1,8,0:0:0:0:
249,254,144550,1,10,0:0:0:0:
157,335,144737,1,8,0:3:0:0:
365,293,144925,1,6,0:3:0:0:
225,134,145112,1,4,0:3:0:0:
459,350,145300,6,0,L|476:250,2,99.0000030212403,6|0|12,1:1|0:0|0:0,0:0:0:0:
256,256,146425,1,2,0:0:0:0:
53,350,146800,2,0,L|36:252,1,99.0000030212403,2|0,1:0|1:2,0:0:0:0:
64,64,147550,1,10,0:0:0:0:
64,64,147925,1,2,0:0:0:0:
160,288,148300,6,0,P|253:277|290:190,1,198.000006042481,2|12,1:2|0:0,0:0:0:0:
240,16,149425,1,2,0:0:0:0:
129,188,149800,1,2,1:2:0:0:
162,193,149987,1,0,3:0:0:0:
195,198,150175,1,0,1:0:0:0:
320,96,150550,1,10,0:0:0:0:
480,256,150925,1,2,0:0:0:0:
431,0,151300,6,0,L|405:196,1,198.000006042481,2|12,1:1|0:0,0:0:0:0:
313,361,152425,1,2,0:0:0:0:
500,272,152800,1,2,1:2:0:0:
295,234,153175,1,2,1:2:0:0:
438,384,153550,1,10,0:0:0:0:
412,180,153925,1,2,0:0:0:0:
192,320,154300,6,0,L|93:306,1,99.0000030212403,2|0,1:2|0:0,0:0:0:0:
0,160,155050,1,14,0:0:0:0:
32,384,155425,1,2,0:0:0:0:
160,192,155800,1,0,1:0:0:0:
320,224,155987,1,8,0:0:0:0:
268,69,156175,1,2,1:3:0:0:
249,162,156362,1,8,0:0:0:0:
249,162,156456,1,8,0:0:0:0:
249,162,156550,1,10,0:0:0:0:
157,81,156737,1,8,0:3:0:0:
365,123,156925,1,6,0:3:0:0:
225,282,157112,1,4,0:3:0:0:
448,32,157300,6,0,L|476:227,1,198.000006042481,6|12,1:1|0:0,0:0:0:0:
310,383,158425,1,2,0:0:0:0:
297,169,158800,2,0,L|354:187,1,49.5000015106202,2|0,1:2|3:0,0:0:0:0:
424,203,159175,1,0,1:0:0:0:
225,282,159550,1,10,0:0:0:0:
434,334,159925,1,2,0:0:0:0:
492,140,160300,6,0,L|297:169,1,198.000006042481,2|12,1:2|0:0,0:0:0:0:
128,64,161425,1,2,0:0:0:0:
32,224,161800,1,2,1:2:0:0:
24,257,161987,1,0,3:0:0:0:
16,290,162175,1,0,1:0:0:0:
0,96,162550,1,10,0:0:0:0:
8,323,162925,1,2,0:0:0:0:
224,224,163300,6,0,L|244:128,1,99.0000030212403,2|0,1:2|0:0,0:0:0:0:
384,0,164050,1,14,0:0:0:0:
448,224,164425,1,2,0:0:0:0:
256,40,164800,2,0,L|207:45,1,49.5000015106202,2|0,1:2|3:2,0:0:0:0:
96,32,165175,1,2,1:0:0:0:
160,256,165550,1,10,0:0:0:0:
96,32,165925,1,2,0:0:0:0:
0,288,166300,5,2,1:2:0:0:
64,384,166487,2,0,L|127:378,1,49.5000015106202,8|2,0:0|0:0,0:0:0:0:
256,288,166862,1,0,1:0:0:0:
448,384,167050,1,14,0:0:0:0:
448,384,167237,1,0,1:0:0:0:
512,160,167425,2,0,L|501:109,1,49.5000015106202,14|0,0:0|0:0,0:0:0:0:
320,0,167800,2,0,L|330:48,1,49.5000015106202,6|8,1:2|0:3,0:0:0:0:
339,60,168081,1,8,0:3:0:0:
347,71,168175,1,8,0:3:0:0:
320,160,168362,1,8,0:3:0:0:
115,195,168550,1,6,0:3:0:0:
204,222,168737,1,4,0:3:0:0:
231,133,168925,1,4,0:3:0:0:
142,106,169112,1,4,0:3:0:0:
266,338,169300,6,0,L|382:327,1,116.999994644165,4|2,1:1|0:0,0:0:0:0:
512,160,170050,1,10,0:0:0:0:
470,228,170237,1,2,0:0:0:0:
486,135,170425,2,0,L|474:64,1,58.4999973220826,2|0,0:0|0:0,0:0:0:0:
352,0,170800,2,0,L|361:57,1,58.4999973220826,2|0,1:2|3:0,0:0:0:0:
288,160,171175,2,0,L|217:172,1,58.4999973220826,2|0,1:2|0:0,0:0:0:0:
64,96,171550,1,10,0:0:0:0:
141,77,171737,1,2,0:0:0:0:
51,126,171925,1,2,0:0:0:0:
163,372,172300,5,0,1:2:0:0:
336,286,172675,1,2,0:0:0:0:
77,199,173050,1,10,0:0:0:0:
121,286,173237,1,2,0:0:0:0:
163,372,173425,1,2,0:0:0:0:
250,113,173800,1,2,1:2:0:0:
34,329,174175,1,2,1:2:0:0:
337,286,174550,1,10,0:0:0:0:
208,243,174737,1,2,0:0:0:0:
373,257,174925,1,2,0:0:0:0:
0,32,175300,6,0,L|17:147,1,116.999994644165,4|2,1:1|0:0,0:0:0:0:
85,342,176050,1,10,0:0:0:0:
125,250,176237,1,2,0:0:0:0:
119,361,176425,1,2,0:0:0:0:
336,272,176800,2,0,L|403:281,1,58.4999973220826,2|0,1:2|3:0,0:0:0:0:
495,377,177175,2,0,L|428:386,1,58.4999973220826,2|0,1:2|0:0,0:0:0:0:
258,363,177550,1,10,0:0:0:0:
216,277,177738,1,2,0:0:0:0:
235,184,177925,1,2,0:0:0:0:
479,63,178300,6,0,P|496:120|505:178,1,116.999994644165,0|2,1:2|0:0,0:0:0:0:
403,337,179050,1,10,0:0:0:0:
495,377,179237,1,2,0:0:0:0:
384,371,179425,1,2,0:0:0:0:
320,128,179800,1,2,1:2:0:0:
160,192,179987,1,8,0:2:0:0:
184,21,180175,1,2,1:2:0:0:
184,21,180362,1,0,1:2:0:0:
258,206,180550,1,10,0:2:0:0:
258,206,180737,1,0,1:2:0:0:
331,15,180925,1,10,0:2:0:0:
74,119,181112,1,8,0:2:0:0:
300,307,181300,6,0,L|430:293,1,116.999994644165,4|2,1:1|0:0,0:0:0:0:
468,99,182050,1,10,0:0:0:0:
508,191,182237,1,2,0:0:0:0:
502,80,182425,1,2,0:0:0:0:
352,192,182800,2,0,L|294:186,1,58.4999973220826,2|0,1:2|3:0,0:0:0:0:
224,96,183175,2,0,L|166:90,1,58.4999973220826,2|0,1:2|0:0,0:0:0:0:
29,18,183550,1,10,0:0:0:0:
14,119,183737,1,2,0:0:0:0:
0,219,183925,2,0,L|11:287,1,58.4999973220826,2|0,0:0|0:0,0:0:0:0:
209,355,184300,6,0,P|152:367|96:384,2,116.999994644165,0|2|10,1:2|0:0|0:0,0:0:0:0:
384,384,185237,1,2,0:0:0:0:
464,336,185425,2,0,L|473:278,1,58.4999973220826,2|0,0:0|0:0,0:0:0:0:
320,192,185800,1,2,1:2:0:0:
441,158,185987,1,0,3:0:0:0:
397,235,186175,1,2,1:2:0:0:
98,190,186550,1,10,0:0:0:0:
191,242,186738,1,2,0:0:0:0:
243,149,186925,1,2,0:0:0:0:
512,320,187300,5,6,1:1:0:0:
448,192,187487,1,2,0:0:0:0:
320,256,187675,1,2,0:0:0:0:
384,384,187862,1,2,0:0:0:0:
416,288,188050,5,8,0:0:0:0:
256,384,188237,5,2,0:0:0:0:
128,320,188424,1,2,0:0:0:0:
192,192,188612,1,2,0:0:0:0:
320,256,188799,1,2,1:2:0:0:
224,288,188987,5,8,0:0:0:0:
288,160,189175,5,0,1:0:0:0:
288,160,189362,1,0,1:0:0:0:
448,320,189550,2,0,L|505:310,1,58.4999973220826,8|0,0:0|0:0,0:0:0:0:
320,256,189925,1,8,0:0:0:0:
192,384,190112,1,10,0:0:0:0:
192,384,190300,1,8,0:3:0:0:
32,160,190487,6,0,L|19:43,1,116.999994644165,14|8,1:2|0:3,0:0:0:0:
192,192,191050,2,0,L|198:250,1,58.4999973220826,4|0,0:3|0:0,0:0:0:0:
192,384,191425,1,4,0:3:0:0:
480,320,191612,6,0,L|493:203,1,116.999994644165,14|4,1:2|0:3,0:0:0:0:
224,4,192175,2,0,L|230:62,1,58.4999973220826,12|0,1:2|0:0,0:0:0:0:
395,205,192550,1,10,0:3:0:0:
512,112,192737,1,8,0:3:0:0:
373,58,192925,1,6,0:3:0:0:
256,151,193112,1,4,0:3:0:0:
417,352,193300,6,0,P|465:361|514:367,2,99.0000030212403,6|0|12,1:1|0:0|0:0,0:0:0:0:
224,384,194425,1,2,0:0:0:0:
32,320,194800,1,2,1:2:0:0:
26,285,194987,1,0,3:0:0:0:
20,250,195175,1,0,1:0:0:0:
64,64,195550,1,10,0:0:0:0:
128,288,195925,1,2,0:0:0:0:
288,128,196300,6,0,L|496:109,1,198.000006042481,2|12,1:2|0:0,0:0:0:0:
224,32,197425,1,2,0:0:0:0:
64,128,197800,1,2,1:2:0:0:
58,163,197988,1,0,3:0:0:0:
52,198,198175,1,0,1:0:0:0:
96,384,198550,1,10,0:0:0:0:
282,340,198925,1,2,0:0:0:0:
238,154,199300,6,0,L|251:55,2,99.0000030212403,2|0|12,1:2|0:0|0:0,0:0:0:0:
282,340,200425,1,2,0:0:0:0:
468,296,200800,2,0,L|474:246,1,49.5000015106202,2|0,1:2|3:0,0:0:0:0:
512,160,201175,1,2,1:0:0:0:
380,349,201550,1,10,0:0:0:0:
238,154,201925,1,2,0:0:0:0:
128,384,202300,6,0,L|29:372,1,99.0000030212403,2|0,1:2|0:0,0:0:0:0:
0,192,203050,1,14,0:0:0:0:
0,192,203425,1,2,0:0:0:0:
176,274,203800,1,2,1:2:0:0:
320,226,203987,1,8,0:0:0:0:
272,322,204175,1,2,1:3:0:0:
224,178,204362,1,8,0:0:0:0:
224,178,204456,1,8,0:0:0:0:
224,178,204550,1,10,0:0:0:0:
272,322,204737,1,8,0:3:0:0:
416,274,204925,1,6,0:3:0:0:
368,131,205112,1,4,0:3:0:0:
378,376,205300,6,0,L|476:364,2,99.0000030212403,6|0|12,1:1|0:0|0:0,0:0:0:0:
176,274,206425,1,2,0:0:0:0:
394,204,206800,1,2,1:0:0:0:
394,204,207175,1,0,1:0:0:0:
256,32,207550,1,10,0:0:0:0:
285,239,207925,1,2,0:0:0:0:
512,139,208300,6,0,L|316:110,1,198.000006042481,2|12,1:2|0:0,0:0:0:0:
192,288,209425,1,2,0:0:0:0:
57,148,209800,1,2,1:2:0:0:
51,113,209987,1,0,3:0:0:0:
44,78,210175,1,0,1:0:0:0:
0,288,210550,1,10,0:0:0:0:
37,43,210925,1,2,0:0:0:0:
96,320,211300,6,0,L|193:329,1,99.0000030212403,2|0,1:2|0:0,0:0:0:0:
416,256,212050,1,14,0:0:0:0:
194,183,212425,1,2,0:0:0:0:
331,373,212800,2,0,L|380:368,1,49.5000015106202,2|0,1:2|3:0,0:0:0:0:
480,320,213175,1,2,1:2:0:0:
263,278,213550,1,10,0:0:0:0:
407,111,213925,1,2,0:0:0:0:
190,69,214300,5,2,0:0:0:0:
335,195,214487,1,8,0:0:0:0:
153,257,214675,1,2,1:3:0:0:
269,137,214862,1,8,0:0:0:0:
269,137,214956,1,8,0:0:0:0:
269,137,215050,1,12,0:0:0:0:
62,141,215237,1,8,0:3:0:0:
280,331,215424,1,4,0:3:0:0:
334,48,215612,1,4,0:3:0:0:
448,128,215753,1,8,0:0:0:0:
448,128,215800,5,8,0:0:0:0:
32,160,238300,5,8,0:3:0:0:
32,160,238487,1,8,0:3:0:0:
160,288,238862,1,8,0:3:0:0:
179,292,238956,1,8,0:3:0:0:
198,296,239050,2,0,L|247:289,1,49.5000015106202,14|0,1:2|0:0,0:0:0:0:
512,192,239425,2,0,L|462:185,1,49.5000015106202,6|0,1:2|0:0,0:0:0:0:
256,85,239800,6,0,L|249:35,2,33.0000010070801,14|8|8,1:2|0:0|0:0,0:0:0:0:
371,135,240175,6,0,L|378:85,2,33.0000010070801,10|8|8,0:2|0:3|0:3,0:0:0:0:
231,171,240550,5,10,0:0:0:0:
239,229,240675,1,8,0:0:0:0:
294,252,240800,1,8,0:3:0:0:
394,239,240925,5,6,0:3:0:0:
429,285,241050,1,4,0:3:0:0:
406,340,241175,1,4,0:3:0:0:
320,384,241300,6,0,L|118:364,1,202.500007724762,6|0,1:1|0:0,0:0:0:0:
35,272,242050,2,0,P|68:267|100:256,1,67.5000025749208,10|2,0:0|0:0,0:0:0:0:
160,67,242425,2,0,P|147:98|140:131,1,67.5000025749208,2|0,0:0|0:0,0:0:0:0:
275,277,242800,2,0,P|254:250|228:228,1,67.5000025749208,2|0,1:2|3:0,0:0:0:0:
0,66,243175,2,0,P|32:77|66:82,1,67.5000025749208,2|0,1:2|0:0,0:0:0:0:
320,64,243550,1,10,0:0:0:0:
416,49,243737,1,2,0:0:0:0:
512,32,243925,1,2,0:0:0:0:
192,19,244300,5,0,1:2:0:0:
448,192,244675,1,2,0:0:0:0:
192,365,245050,1,10,0:0:0:0:
96,348,245238,1,2,0:0:0:0:
0,333,245425,2,0,L|-9:262,1,67.5000025749208,2|0,0:0|0:0,0:0:0:0:
281,318,245800,2,0,L|289:384,1,67.5000025749208,2|0,1:2|3:0,0:0:0:0:
512,288,246175,2,0,L|503:217,1,67.5000025749208,2|0,1:2|0:0,0:0:0:0:
342,33,246550,1,10,0:0:0:0:
357,129,246737,1,2,0:0:0:0:
374,225,246925,1,2,0:0:0:0:
0,64,247300,6,0,B|44:46|44:46|143:70,1,135.000005149842,6|2,1:1|0:0,0:0:0:0:
278,240,248050,1,10,0:0:0:0:
374,225,248237,1,2,0:0:0:0:
470,208,248425,2,0,L|487:141,1,67.5000025749208,2|0,0:0|0:0,0:0:0:0:
297,84,248800,2,0,L|314:150,1,67.5000025749208,2|0,1:2|3:0,0:0:0:0:
403,331,249175,2,0,L|338:315,1,67.5000025749208,2|0,1:2|0:0,0:0:0:0:
128,352,249550,1,10,0:0:0:0:
102,257,249738,1,2,0:0:0:0:
79,163,249925,1,2,0:0:0:0:
320,0,250253,5,8,0:0:0:0:
320,0,250300,2,0,L|386:9,1,67.5000025749208,10|0,0:0|1:0,0:0:0:0:
512,192,250675,2,0,L|446:201,1,67.5000025749208,2|0,0:0|1:0,0:0:0:0:
256,384,251050,1,14,0:2:0:0:
256,384,251237,1,0,1:0:0:0:
128,160,251425,2,0,L|119:226,1,67.5000025749208,14|0,0:2|0:0,0:0:0:0:
448,384,251800,6,0,L|439:318,1,67.5000025749208,6|8,1:2|0:0,0:0:0:0:
416,283,252081,1,8,0:0:0:0:
393,249,252175,1,10,0:0:0:0:
176,298,252362,1,8,0:3:0:0:
199,302,252456,1,8,0:3:0:0:
222,306,252550,1,10,0:3:0:0:
158,125,252737,1,4,0:3:0:0:
143,142,252831,1,4,0:3:0:0:
128,160,252925,1,10,0:3:0:0:
317,195,253112,1,0,1:2:0:0:
310,173,253206,1,0,1:2:0:0:
302,152,253300,5,6,1:1:0:0:
33,271,253675,1,2,0:0:0:0:
352,352,254050,1,10,0:0:0:0:
480,288,254237,1,2,0:0:0:0:
336,382,254425,2,0,L|268:375,1,67.5000025749208,2|0,0:0|0:0,0:0:0:0:
33,271,254800,2,0,L|100:264,1,67.5000025749208,2|0,1:2|3:0,0:0:0:0:
317,195,255175,2,0,L|323:127,1,67.5000025749208,2|0,1:2|0:0,0:0:0:0:
128,32,255550,1,10,0:0:0:0:
144,176,255737,1,2,0:0:0:0:
90,15,255925,1,2,0:0:0:0:
317,195,256300,5,0,1:2:0:0:
33,271,256675,1,2,0:0:0:0:
242,348,257050,1,10,0:0:0:0:
340,357,257238,1,2,0:0:0:0:
436,363,257425,1,2,0:0:0:0:
512,108,257800,1,2,1:2:0:0:
391,274,257987,1,0,3:0:0:0:
500,226,258175,1,2,1:2:0:0:
500,226,258362,1,0,1:0:0:0:
307,86,258550,2,0,L|230:77,1,67.5000025749208,10|2,0:0|0:0,0:0:0:0:
64,224,258925,1,10,0:0:0:0:
33,7,259112,1,8,0:0:0:0:
64,224,259300,6,0,L|71:291,1,67.5000025749208,6|0,1:1|0:0,0:0:0:0:
192,384,259675,1,2,1:2:0:0:
192,384,259862,1,0,1:0:0:0:
320,272,260050,2,0,L|185:257,1,135.000005149842,10|2,0:0|0:0,0:0:0:0:
16,144,260612,1,8,0:3:0:0:
192,32,260800,1,6,0:3:0:0:
192,32,260987,1,4,0:3:0:0:
192,32,261175,2,0,L|199:99,1,67.5000025749208,6|0,0:3|0:0,0:0:0:0:
480,96,261550,2,0,B|439:80|439:80|386:86,1,90,14|0,0:0|0:0,0:0:0:0:
290,335,261925,2,0,B|330:350|330:350|383:344,1,90,14|0,0:0|0:0,0:0:0:0:
512,211,262300,6,0,L|392:223,1,120,6|8,1:2|0:0,0:0:0:0:
285,243,262675,1,8,0:0:0:0:
208,229,262800,1,8,0:0:0:0:
131,215,262925,1,8,0:0:0:0:
54,202,263050,2,0,L|38:141,1,60,6|0,1:2|0:0,0:0:0:0:
236,75,263300,1,6,1:2:0:0:
222,152,263425,1,8,0:0:0:0:
208,229,263550,1,8,0:0:0:0:
194,306,263675,1,8,0:0:0:0:
180,383,263800,6,0,L|149:266,1,120,6|8,1:2|0:0,0:0:0:0:
54,99,264175,1,10,0:3:0:0:
54,99,264300,2,0,P|83:107|113:113,1,60,8|8,0:3|0:3,0:0:0:0:
312,27,264550,1,6,0:3:0:0:
312,27,264675,2,0,P|291:48|272:71,1,60,4|4,0:3|0:3,0:0:0:0:
245,286,264925,1,2,1:2:0:0:
245,286,265050,2,0,P|237:257|226:229,1,60,0|0,1:0|1:0,0:0:0:0:
512,64,265300,6,0,L|493:185,1,116.999994644165,6|0,1:1|0:0,0:0:0:0:
320,384,266050,2,0,L|338:268,1,116.999994644165,10|0,0:0|0:0,0:0:0:0:
432,112,266612,1,0,3:0:0:0:
432,112,266706,1,0,3:0:0:0:
432,112,266800,1,2,1:2:0:0:
320,160,266987,1,0,3:0:0:0:
208,112,267175,1,0,1:0:0:0:
432,208,267550,1,10,0:0:0:0:
305,39,267925,1,2,0:0:0:0:
96,64,268300,6,0,P|37:58|-19:46,2,116.999994644165,2|0|8,1:2|0:0|0:0,0:0:0:0:
305,39,269425,2,0,L|312:97,1,58.4999973220826,2|0,0:0|3:0,0:0:0:0:
312,97,269706,1,0,3:0:0:0:
312,97,269800,1,2,1:2:0:0:
337,216,269987,1,0,3:0:0:0:
361,334,270175,1,0,1:0:0:0:
428,135,270550,1,10,0:0:0:0:
243,358,270925,1,2,0:0:0:0:
20,173,271300,6,0,P|9:115|5:57,1,116.999994644165,6|0,1:1|0:0,0:0:0:0:
257,242,272050,2,0,P|253:300|242:358,1,116.999994644165,10|0,0:0|0:0,0:0:0:0:
64,384,272612,1,0,3:0:0:0:
64,384,272706,1,0,3:0:0:0:
64,384,272800,2,0,L|56:325,1,58.4999973220826,2|0,1:2|3:0,0:0:0:0:
144,160,273175,2,0,L|136:218,1,58.4999973220826,2|0,1:0|0:0,0:0:0:0:
243,358,273550,2,0,L|301:350,1,58.4999973220826,10|0,0:0|0:0,0:0:0:0:
512,256,273925,2,0,L|453:248,1,58.4999973220826,2|0,0:0|0:0,0:0:0:0:
256,31,274300,6,0,P|366:30|414:130,1,233.999989288331,2|8,1:2|0:0,0:0:0:0:
355,306,275425,1,2,3:2:0:0:
326,310,275518,1,0,3:0:0:0:
297,314,275612,1,0,3:0:0:0:
268,318,275706,1,0,3:0:0:0:
239,323,275800,1,2,1:2:0:0:
67,274,275987,1,8,0:0:0:0:
177,212,276175,1,0,1:0:0:0:
177,212,276362,1,0,1:0:0:0:
128,384,276550,1,10,0:0:0:0:
128,384,276737,1,0,1:0:0:0:
68,147,276925,1,8,0:0:0:0:
239,323,277112,1,8,0:0:0:0:
476,262,277300,6,0,L|497:147,1,116.999994644165,6|0,1:1|0:0,0:0:0:0:
288,64,278050,2,0,L|309:179,1,116.999994644165,10|0,0:0|0:0,0:0:0:0:
239,323,278612,1,0,3:0:0:0:
239,323,278706,1,0,3:0:0:0:
239,323,278800,1,2,1:2:0:0:
130,266,278987,1,0,3:0:0:0:
73,375,279175,1,0,1:2:0:0:
348,380,279550,1,10,0:0:0:0:
21,209,279925,1,2,0:0:0:0:
320,0,280300,6,0,L|286:235,1,233.999989288331,2|8,1:2|0:0,0:0:0:0:
64,96,281425,2,0,L|121:87,1,58.4999973220826,2|0,0:0|3:0,0:0:0:0:
121,87,281706,1,0,3:0:0:0:
121,87,281800,1,2,1:2:0:0:
16,16,281987,1,0,3:0:0:0:
0,160,282175,1,0,1:0:0:0:
251,22,282550,1,10,0:0:0:0:
352,320,282925,1,2,0:0:0:0:
512,32,283300,6,0,L|396:51,1,116.999994644165,6|0,1:1|0:0,0:0:0:0:
128,32,284050,1,10,0:0:0:0:
416,192,284425,1,2,3:2:0:0:
420,220,284518,1,0,3:2:0:0:
425,249,284612,1,0,3:2:0:0:
430,278,284706,1,0,3:2:0:0:
435,307,284800,1,0,1:2:0:0:
320,384,284987,1,0,3:0:0:0:
212,299,285175,1,0,1:0:0:0:
512,352,285550,1,10,0:0:0:0:
259,170,285925,1,2,0:0:0:0:
64,384,286300,5,2,1:2:0:0:
6,252,286487,2,0,L|0:193,1,58.4999973220826,8|0,0:0|0:0,0:0:0:0:
32,96,286862,1,0,1:0:0:0:
160,320,287050,2,0,B|197:342|197:342|271:330,1,116.999994644165,14|0,0:0|0:0,0:0:0:0:
352,256,287612,1,0,1:0:0:0:
480,384,287800,1,8,0:0:0:0:
480,384,288175,1,8,0:3:0:0:
480,384,288550,1,8,0:3:0:0:
488,308,288737,1,4,0:3:0:0:
496,232,288925,1,4,0:3:0:0:
196,307,289300,70,0,B|175:340|122:365|72:361|16:319|16:319|75:294|90:260|71:260|95:225|138:222|138:222|96:213|56:170|45:122|68:56|68:56|109:102|145:108|140:90|181:105|197:141,1,720,6|2,1:1|0:0,0:0:0:0:
