osu file format v14

[General]
AudioFilename: audio.mp3
AudioLeadIn: 0
PreviewTime: 153217
Countdown: 0
SampleSet: Soft
StackLeniency: 0.4
Mode: 0
LetterboxInBreaks: 0
WidescreenStoryboard: 1

[Editor]
Bookmarks: 186193
DistanceSpacing: 0.3
BeatDivisor: 4
GridSize: 32
TimelineZoom: 2.3

[Metadata]
Title:Psychological Mental Health
TitleUnicode:Psychological Mental Health
Artist:Kitamura Eri
ArtistUnicode:喜多村英梨
Creator:Mordred
Version:gazimal's Expert
Source:
Tags:kowari gazimal yogurtt oriental illusion dream dystopia record kitaeri 南悠翔 minami yuto yuuto corsace open co2021 ro16 tb japanese rock
BeatmapID:3277590
BeatmapSetID:1557347

[Difficulty]
HPDrainRate:6
CircleSize:4
OverallDifficulty:8.7
ApproachRate:9.4
SliderMultiplier:1.8
SliderTickRate:1

[Events]
//Background and Video events
0,0,"46073811_p0 x.jpg",0,0
//Break Periods
2,131395,132370
2,181110,185703
//Storyboard Layer 0 (Background)
//Storyboard Layer 1 (Fail)
//Storyboard Layer 2 (Pass)
//Storyboard Layer 3 (Foreground)
//Storyboard Layer 4 (Overlay)
//Storyboard Sound Samples

[TimingPoints]
530,375,4,2,1,50,1,0
12530,392.156862745098,4,2,1,50,1,0
26647,-66.6666666666667,4,2,1,60,0,0
27235,-83.3333333333333,4,2,1,60,0,0
31745,-62.5,4,2,1,60,0,0
32137,-83.3333333333333,4,2,1,60,0,0
38020,-62.5,4,2,1,60,0,0
38412,-83.3333333333333,4,2,1,60,0,0
39196,333.333333333333,4,2,1,70,1,0
39196,-1000,4,2,1,70,0,0
40529,333.333333333333,4,2,1,50,1,0
40529,-100,4,2,1,50,0,0
45862,-100,4,2,1,60,0,0
51195,-100,4,2,1,70,0,0
61862,-125,4,2,1,50,0,0
67195,-125,4,2,1,60,0,0
69862,-100,4,2,1,60,0,0
71195,-83.3333333333333,4,2,1,60,0,0
72195,-66.6666666666667,4,2,1,50,0,0
72528,-83.3333333333333,4,2,1,60,0,0
74862,-66.6666666666667,4,2,1,60,0,0
75195,-83.3333333333333,4,2,1,60,0,0
77528,-66.6666666666667,4,2,1,60,0,0
77862,-83.3333333333333,4,2,1,60,0,0
80195,-66.6666666666667,4,2,1,60,0,0
80528,-83.3333333333333,4,2,1,60,0,0
81695,-66.6666666666667,4,2,1,60,0,0
82362,-83.3333333333333,4,2,1,60,0,0
82695,-250,4,2,1,60,0,0
83195,-83.3333333333333,4,2,1,60,0,0
99195,-71.4285714285714,4,2,1,60,0,0
100528,-83.3333333333333,4,2,1,60,0,0
104528,-333.333333333333,4,2,1,60,0,0
109195,-100,4,2,1,60,0,0
131196,428.571428571429,4,2,1,60,1,0
132910,428.571428571429,4,2,1,50,1,0
138052,-83.3333333333333,4,2,1,60,0,0
139338,-58.8235294117647,4,2,1,60,0,0
139767,-66.6666666666667,4,2,1,80,0,0
151660,-100,4,2,1,80,0,0
151767,-100,4,2,1,70,0,0
153052,-55.5555555555556,4,2,1,80,0,0
153481,-66.6666666666667,4,2,1,80,0,0
160552,-100,4,2,1,80,0,0
160767,-66.6666666666667,4,2,1,80,0,0
161195,-52.6315789473684,4,2,1,80,0,0
161624,-66.6666666666667,4,2,1,80,0,0
162910,-52.6315789473684,4,2,1,80,0,0
163338,-66.6666666666667,4,2,1,80,0,0
165481,-52.6315789473684,4,2,1,80,0,0
165910,-66.6666666666667,4,2,1,80,0,0
174267,-100,4,2,1,80,0,0
174481,-66.6666666666667,4,2,1,80,0,0
174910,-52.6315789473684,4,2,1,80,0,0
175338,-66.6666666666667,4,2,1,80,0,0
176624,-52.6315789473684,4,2,1,80,0,0
178017,-66.6666666666667,4,2,1,80,0,0
179195,-100,4,2,1,80,0,0
180481,-55.5555555555556,4,2,1,80,0,0
180910,333.333333333333,4,2,1,80,1,0
180993,-100,4,2,1,5,0,0
182243,-100,4,2,1,10,0,0
182910,-100,4,2,1,15,0,0
183576,-100,4,2,1,20,0,0
184243,-100,4,2,1,25,0,0
184910,-100,4,2,1,30,0,0
185243,-100,4,2,1,35,0,0
185576,-100,4,2,1,40,0,0
185910,-100,4,2,1,45,0,0
186160,-100,4,2,1,5,0,0
186243,-100,4,2,1,50,0,0
190243,-100,4,2,1,60,0,0
191576,-100,4,2,1,50,0,0
192076,-83.3333333333333,4,2,1,50,0,0
196909,-83.3333333333333,4,2,1,60,0,0
202243,-83.3333333333333,4,2,1,70,0,0
212909,-100,4,2,1,60,0,0
220909,-83.3333333333333,4,2,1,60,0,0
224909,-71.4285714285714,4,2,1,60,0,0
226743,-83.3333333333333,4,2,1,60,0,0
228909,-66.6666666666667,4,2,1,60,0,0
229576,-71.4285714285714,4,2,1,60,0,0
229743,-71.4285714285714,4,2,1,60,0,0
229826,-71.4285714285714,4,2,1,60,0,0
229993,-71.4285714285714,4,2,1,60,0,0
230076,-71.4285714285714,4,2,1,60,0,0
230409,-71.4285714285714,4,2,1,60,0,0
230493,-71.4285714285714,4,2,1,60,0,0
230659,-71.4285714285714,4,2,1,60,0,0
230743,-71.4285714285714,4,2,1,60,0,0
234243,-83.3333333333333,4,2,1,60,0,0
236576,-66.6666666666667,4,2,1,60,0,0
236909,-83.3333333333333,4,2,1,60,0,0
239243,-66.6666666666667,4,2,1,60,0,0
239576,-83.3333333333333,4,2,1,60,0,0
241909,-66.6666666666667,4,2,1,60,0,0
242243,-83.3333333333333,4,2,1,60,0,0
243576,-55.5555555555556,4,2,1,60,0,0
244076,-66.6666666666667,4,2,1,60,0,0
244409,-250,4,2,1,60,0,0
244909,-71.4285714285714,4,2,1,60,0,0
245743,-83.3333333333333,4,2,1,60,0,0
260909,-71.4285714285714,4,2,1,60,0,0
262243,-83.3333333333333,4,2,1,60,0,0
266243,-76.9230769230769,4,2,1,70,0,0
277243,-83.3333333333333,4,2,1,70,0,0
287076,-66.6666666666667,4,2,1,70,0,0
287409,-100,4,2,1,70,0,0

[Colours]
Combo1 : 230,215,236
Combo2 : 250,182,199
Combo3 : 253,209,190
Combo4 : 230,170,170

[HitObjects]
67,232,12530,5,6,1:1:0:0:
62,252,12628,1,0,1:2:0:0:
174,350,12922,1,0,1:2:0:0:
169,330,13020,1,0,1:2:0:0:
28,362,13314,1,8,0:2:0:0:
48,357,13412,1,0,1:0:0:0:
68,352,13510,1,0,1:2:0:0:
88,347,13608,1,0,1:2:0:0:
196,250,13804,1,0,1:2:0:0:
176,245,13902,1,0,1:2:0:0:
274,344,14294,5,0,1:2:0:0:
294,339,14392,1,0,1:2:0:0:
314,334,14490,1,0,1:2:0:0:
453,281,14882,1,8,0:2:0:0:
433,276,14980,1,0,1:2:0:0:
413,271,15078,1,0,1:2:0:0:
393,266,15176,1,0,1:2:0:0:
412,384,15373,1,0,1:2:0:0:
407,364,15471,1,0,1:2:0:0:
373,168,15667,5,6,1:1:0:0:
295,241,15863,1,0,1:2:0:0:
290,221,15961,1,0,1:2:0:0:
285,201,16059,1,0,1:2:0:0:
202,66,16255,1,0,1:2:0:0:
197,86,16353,1,0,1:2:0:0:
192,106,16451,1,8,0:2:0:0:
187,126,16549,1,0,1:2:0:0:
182,146,16647,1,0,1:2:0:0:
177,166,16745,1,0,1:2:0:0:
326,42,16941,1,0,1:2:0:0:
321,22,17039,1,0,1:2:0:0:
321,22,17431,5,0,1:2:0:0:
326,42,17529,1,0,1:2:0:0:
331,62,17628,1,0,1:2:0:0:
453,141,18020,1,8,0:2:0:0:
458,121,18118,1,0,1:2:0:0:
427,236,18314,1,0,1:2:0:0:
312,266,18510,1,0,1:2:0:0:
332,261,18608,1,0,1:2:0:0:
497,306,18804,5,6,1:1:0:0:
511,320,18902,1,0,1:2:0:0:
336,145,19196,1,0,1:2:0:0:
322,131,19294,1,0,1:2:0:0:
427,236,19588,1,8,0:2:0:0:
317,286,19784,1,0,1:2:0:0:
312,266,19882,1,0,1:2:0:0:
160,206,20079,1,0,1:2:0:0:
155,226,20177,1,0,1:2:0:0:
155,226,20569,5,0,1:2:0:0:
160,206,20667,1,0,1:2:0:0:
165,186,20765,1,0,1:2:0:0:
20,34,21157,5,8,0:2:0:0:
25,54,21255,1,0,1:2:0:0:
30,74,21353,1,0,1:2:0:0:
35,94,21451,1,0,1:2:0:0:
194,109,21647,1,0,1:2:0:0:
174,104,21745,1,0,1:2:0:0:
300,127,21941,5,6,1:1:0:0:
308,15,22137,1,0,1:2:0:0:
288,20,22235,1,0,1:2:0:0:
268,25,22333,1,0,1:2:0:0:
400,102,22530,1,0,1:2:0:0:
380,107,22628,1,0,1:2:0:0:
360,112,22726,1,8,0:2:0:0:
340,117,22824,1,0,1:2:0:0:
320,122,22922,1,0,1:2:0:0:
300,127,23020,1,0,1:2:0:0:
445,28,23216,1,0,1:2:0:0:
465,33,23314,1,0,1:2:0:0:
494,185,23706,5,0,1:2:0:0:
499,165,23804,1,0,1:2:0:0:
504,145,23902,1,0,1:2:0:0:
381,192,24294,5,8,0:2:0:0:
386,212,24392,1,0,1:2:0:0:
391,232,24490,1,0,1:2:0:0:
396,252,24588,1,0,1:2:0:0:
401,272,24686,1,0,1:2:0:0:
406,292,24784,1,0,1:2:0:0:
411,312,24882,1,0,1:2:0:0:
416,332,24981,1,0,1:2:0:0:
421,352,25079,5,2,1:2:0:0:
381,192,25471,1,2,0:2:0:0:
251,291,25863,1,2,0:2:0:0:
239,286,25961,1,2,0:2:0:0:
227,281,26059,1,2,0:2:0:0:
333,321,26255,1,10,0:2:0:0:
151,253,26451,1,2,0:2:0:0:
255,384,26647,6,0,L|223:179,1,202.500007724762,6|0,1:1|0:0,0:0:0:0:
211,108,27039,1,8,0:2:0:0:
315,190,27235,2,0,L|375:180,1,53.9999983520508,2|0,0:2|0:2,0:0:0:0:
504,119,27431,2,0,L|443:109,1,53.9999983520508,2|0,1:2|0:2,0:0:0:0:
352,42,27628,2,0,L|361:101,1,53.9999983520508,2|0,0:2|0:2,0:0:0:0:
445,249,27824,2,0,L|454:196,1,53.9999983520508,10|0,0:2|0:2,0:0:0:0:
335,281,28020,2,0,L|343:334,1,53.9999983520508,2|0,0:2|0:2,0:0:0:0:
504,382,28216,6,0,P|467:344|406:352,1,107.999996704102,2|0,1:2|0:0,0:0:0:0:
284,384,28510,1,0,0:2:0:0:
284,384,28608,2,0,L|228:375,1,53.9999983520508,8|0,0:2|0:2,0:0:0:0:
173,270,28804,2,0,L|137:313,1,53.9999983520508,2|0,0:2|0:2,0:0:0:0:
49,384,29000,1,2,1:2:0:0:
39,358,29098,1,0,1:2:0:0:
29,332,29196,1,2,1:2:0:0:
19,307,29294,1,0,1:2:0:0:
9,282,29392,2,0,L|76:271,1,53.9999983520508,10|0,0:2|0:2,0:0:0:0:
194,178,29588,2,0,L|127:167,1,53.9999983520508,2|0,1:2|0:2,0:0:0:0:
14,105,29784,6,0,L|25:178,1,53.9999983520508,2|0,1:2|0:0,0:0:0:0:
169,49,29980,1,0,0:0:0:0:
169,49,30079,2,0,L|102:38,1,53.9999983520508,0|8,0:0|0:2,0:0:0:0:
337,87,30275,1,0,0:2:0:0:
337,87,30374,2,0,L|270:98,1,53.9999983520508,2|0,0:2|0:2,0:0:0:0:
362,2,30569,2,0,P|396:18|416:54,1,53.9999983520508,2|0,1:2|0:2,0:0:0:0:
504,155,30765,2,0,L|513:96,1,53.9999983520508,2|0,0:2|0:2,0:0:0:0:
396,163,30961,2,0,P|362:179|342:215,1,53.9999983520508,10|0,0:2|0:2,0:0:0:0:
254,316,31157,2,0,L|244:257,1,53.9999983520508,2|0,0:2|0:2,0:0:0:0:
140,169,31353,6,0,L|130:227,1,53.9999983520508,2|0,1:2|0:0,0:0:0:0:
41,384,31549,1,0,0:0:0:0:
32,366,31647,1,0,0:2:0:0:
24,349,31745,2,0,B|84:338|84:338|99:312|99:312|163:300,1,144,10|0,0:2|0:2,0:0:0:0:
258,320,32039,1,2,0:2:0:0:
258,320,32137,2,0,L|325:331,1,53.9999983520508,0|0,1:2|0:2,0:0:0:0:
436,379,32333,1,2,1:2:0:0:
394,347,32431,1,0,1:2:0:0:
398,296,32529,1,10,0:2:0:0:
444,271,32627,1,0,1:2:0:0:
489,296,32726,2,0,L|478:230,1,53.9999983520508,2|0,1:2|0:2,0:0:0:0:
400,98,32922,6,0,P|440:139|505:127,1,107.999996704102,6|0,1:2|0:0,0:0:0:0:
497,16,33216,1,0,0:0:0:0:
497,16,33314,2,0,L|434:25,1,53.9999983520508,8|0,0:2|0:2,0:0:0:0:
320,68,33510,2,0,L|257:58,1,53.9999983520508,2|0,0:2|0:2,0:0:0:0:
139,109,33706,2,0,P|168:95|179:47,1,53.9999983520508,2|0,1:2|0:2,0:0:0:0:
111,4,33902,2,0,P|82:18|71:66,1,53.9999983520508,2|0,0:2|0:2,0:0:0:0:
0,133,34098,2,0,L|11:203,1,53.9999983520508,10|0,0:2|0:2,0:0:0:0:
92,268,34294,2,0,L|103:197,1,53.9999983520508,2|0,0:2|0:2,0:0:0:0:
18,384,34490,6,0,P|58:348|133:361,1,107.999996704102,2|0,1:2|0:0,0:0:0:0:
199,384,34784,1,0,0:2:0:0:
199,384,34882,2,0,L|265:373,1,53.9999983520508,8|0,0:2|0:2,0:0:0:0:
370,279,35079,2,0,L|303:268,1,53.9999983520508,2|0,0:2|0:2,0:0:0:0:
227,182,35275,1,2,1:2:0:0:
250,135,35373,1,0,1:2:0:0:
228,88,35471,1,2,1:2:0:0:
178,77,35569,1,0,1:2:0:0:
138,110,35667,2,0,P|143:139|146:166,1,53.9999983520508,10|0,0:2|0:2,0:0:0:0:
142,287,35863,2,0,P|117:276|92:268,1,53.9999983520508,2|0,1:2|0:2,0:0:0:0:
199,384,36059,6,0,P|245:351|325:351,1,107.999996704102,2|0,1:2|0:0,0:0:0:0:
377,384,36353,1,0,0:0:0:0:
377,384,36451,2,0,L|445:373,1,53.9999983520508,8|0,0:2|0:2,0:0:0:0:
512,253,36647,2,0,L|443:242,1,53.9999983520508,2|0,0:2|0:2,0:0:0:0:
300,201,36843,2,0,P|323:180|331:159,1,53.9999983520508,2|0,1:2|0:2,0:0:0:0:
272,13,37039,2,0,P|277:43|292:60,1,53.9999983520508,2|0,0:2|0:2,0:0:0:0:
447,82,37235,2,0,P|417:71|395:75,1,53.9999983520508,10|0,0:2|0:2,0:0:0:0:
224,137,37431,2,0,P|197:140|172:130,1,53.9999983520508,2|0,1:2|0:2,0:0:0:0:
36,31,37628,6,0,L|46:97,1,53.9999983520508,2|0,1:2|0:0,0:0:0:0:
92,252,37824,1,0,0:0:0:0:
80,234,37922,1,0,0:2:0:0:
70,215,38020,2,0,B|31:214|-1:191|-1:191|28:218|27:263,1,144,10|0,0:2|0:2,0:0:0:0:
104,335,38314,1,2,0:2:0:0:
104,335,38412,2,0,P|139:322|160:292,1,53.9999983520508,0|0,1:2|0:2,0:0:0:0:
224,137,38608,1,2,1:2:0:0:
259,98,38706,1,0,1:2:0:0:
312,91,38804,1,10,0:2:0:0:
356,120,38902,1,0,1:2:0:0:
371,171,39000,1,2,1:2:0:0:
350,219,39098,1,0,0:2:0:0:
303,242,39196,6,0,L|241:234,1,63,6|0,1:1|0:0,0:0:0:0:
20,212,40529,5,6,1:2:0:0:
249,142,40695,1,10,0:2:0:0:
10,79,40862,1,2,1:2:0:0:
152,208,41029,2,0,L|135:99,1,90,10|0,0:2|1:2,0:0:0:0:
324,0,41362,2,0,L|307:108,1,90,10|0,0:2|1:2,0:0:0:0:
266,298,41695,1,10,0:2:0:0:
463,238,41862,5,2,1:2:0:0:
288,198,42029,1,10,0:2:0:0:
342,370,42195,1,2,1:2:0:0:
388,168,42362,1,10,0:2:0:0:
440,338,42529,5,8,0:2:0:0:
414,288,42612,1,8,0:2:0:0:
366,261,42695,1,8,0:2:0:0:
310,264,42779,1,8,0:2:0:0:
266,298,42862,1,8,0:3:0:0:
252,315,42945,1,8,0:3:0:0:
233,327,43028,1,4,0:3:0:0:
211,333,43112,1,4,0:3:0:0:
189,331,43195,5,6,1:2:0:0:
40,197,43362,1,10,0:2:0:0:
79,384,43529,1,2,1:2:0:0:
202,252,43695,2,0,L|99:268,1,90,10|0,0:2|1:2,0:0:0:0:
299,153,44029,2,0,L|401:169,1,90,10|0,0:2|1:2,0:0:0:0:
256,0,44362,1,10,0:2:0:0:
146,182,44528,5,2,1:2:0:0:
356,78,44695,1,8,0:2:0:0:
201,58,44862,2,0,L|218:165,1,90,2|8,1:2|0:2,0:0:0:0:
249,378,45195,1,10,0:2:0:0:
447,245,45362,1,8,0:2:0:0:
430,196,45445,1,8,0:2:0:0:
388,167,45528,1,10,0:2:0:0:
336,170,45612,1,8,0:2:0:0:
298,204,45695,1,10,0:2:0:0:
288,255,45778,1,8,0:2:0:0:
311,300,45862,5,6,1:2:0:0:
512,192,46028,1,10,0:2:0:0:
302,100,46195,1,2,1:2:0:0:
368,243,46362,2,0,L|351:136,1,90,10|0,0:2|1:2,0:0:0:0:
512,26,46695,2,0,L|495:132,1,90,10|0,0:2|1:2,0:0:0:0:
457,326,47028,1,10,0:2:0:0:
286,210,47195,5,2,1:2:0:0:
512,192,47362,1,10,0:2:0:0:
311,300,47528,1,2,1:2:0:0:
353,154,47695,2,0,L|456:170,1,90,10|0,0:2|1:2,0:0:0:0:
143,289,48028,2,0,L|246:272,1,90,10|0,0:2|1:2,0:0:0:0:
5,181,48362,1,10,0:2:0:0:
263,68,48528,5,2,1:2:0:0:
241,29,48611,1,0,1:2:0:0:
202,7,48694,1,10,1:2:0:0:
158,10,48778,1,0,1:2:0:0:
122,36,48861,1,2,1:2:0:0:
106,77,48944,1,0,1:2:0:0:
114,121,49028,1,10,1:2:0:0:
144,153,49111,1,0,1:2:0:0:
187,164,49194,1,0,1:2:0:0:
231,162,49279,1,0,1:2:0:0:
270,185,49362,1,10,1:2:0:0:
289,225,49446,1,0,1:2:0:0:
285,269,49529,1,0,1:2:0:0:
258,304,49612,1,0,1:2:0:0:
216,319,49695,2,0,P|186:317|159:297,1,45,10|0,1:2|1:2,0:0:0:0:
65,198,49862,5,2,1:2:0:0:
65,198,49945,1,0,1:2:0:0:
65,198,50028,2,0,P|78:224|74:258,1,45,8|0,1:2|1:2,0:0:0:0:
23,384,50195,1,2,1:2:0:0:
23,384,50278,1,0,1:2:0:0:
23,384,50362,2,0,P|39:359|70:345,1,45,8|0,1:2|1:2,0:0:0:0:
213,241,50528,1,10,0:3:0:0:
268,249,50611,1,8,0:3:0:0:
324,258,50694,1,4,0:3:0:0:
379,267,50778,1,4,0:3:0:0:
435,276,50862,2,0,B|406:237|406:237|303:220,1,135,10|0,1:2|0:2,0:0:0:0:
213,241,51195,6,0,L|229:143,1,90,6|8,1:2|0:2,0:0:0:0:
256,0,51528,1,2,1:2:0:0:
402,159,51695,1,10,0:2:0:0:
507,16,51862,2,0,L|406:31,1,90,2|8,1:2|0:2,0:0:0:0:
166,70,52195,1,2,1:2:0:0:
320,222,52362,1,10,0:2:0:0:
358,78,52528,6,0,L|257:93,1,90,2|8,1:2|0:2,0:0:0:0:
17,112,52862,2,0,L|24:61,1,45,2|0,1:2|0:0,0:0:0:0:
149,179,53028,2,0,L|156:229,1,45,10|0,0:2|0:0,0:0:0:0:
0,363,53195,1,2,1:2:0:0:
33,206,53362,1,8,0:2:0:0:
168,362,53528,1,2,1:2:0:0:
17,283,53695,1,8,0:2:0:0:
231,207,53862,6,0,L|332:223,1,90,2|8,1:2|0:2,0:0:0:0:
268,345,54195,1,2,1:2:0:0:
389,157,54362,1,10,0:2:0:0:
501,314,54528,2,0,L|412:328,1,90,2|8,1:2|0:2,0:0:0:0:
286,137,54862,1,2,1:2:0:0:
495,177,55028,1,10,0:2:0:0:
412,328,55195,6,0,L|401:260,1,45,2|2,1:2|1:2,0:0:0:0:
292,104,55362,1,10,1:2:0:0:
286,137,55445,1,2,1:2:0:0:
281,170,55528,1,2,1:2:0:0:
276,204,55612,1,0,1:0:0:0:
270,237,55695,1,10,0:2:0:0:
385,77,55862,5,10,0:2:0:0:
352,31,55945,1,8,0:2:0:0:
300,12,56028,1,10,0:2:0:0:
248,20,56112,1,8,0:2:0:0:
206,59,56195,1,10,0:3:0:0:
178,95,56278,1,8,0:3:0:0:
146,115,56362,1,6,0:3:0:0:
107,114,56445,1,4,0:3:0:0:
77,95,56528,6,0,L|95:207,1,90,6|8,1:2|0:2,0:0:0:0:
125,384,56862,1,2,1:2:0:0:
0,243,57028,1,10,0:2:0:0:
206,184,57195,2,0,L|188:296,1,90,2|8,1:2|0:0,0:0:0:0:
341,384,57528,1,2,1:2:0:0:
304,173,57695,1,10,0:0:0:0:
194,347,57862,6,0,L|305:327,1,90,2|8,1:2|0:0,0:0:0:0:
491,301,58195,2,0,L|482:246,1,45,2|0,1:2|0:0,0:0:0:0:
412,113,58362,2,0,L|403:167,1,45,10|0,0:0|0:0,0:0:0:0:
373,314,58528,1,2,1:2:0:0:
206,184,58695,1,8,0:0:0:0:
424,111,58862,1,2,1:2:0:0:
220,184,59028,1,8,0:0:0:0:
384,320,59195,6,0,L|366:217,1,90,2|8,1:2|0:0,0:0:0:0:
332,4,59528,1,2,1:2:0:0:
484,173,59695,1,10,0:0:0:0:
283,104,59862,2,0,B|235:96|235:96|231:92|231:92|169:83,1,90,2|8,1:2|0:0,0:0:0:0:
0,55,60195,1,2,1:2:0:0:
151,232,60362,1,10,0:0:0:0:
113,10,60528,6,0,L|104:65,1,45,2|2,1:2|1:2,0:0:0:0:
7,188,60695,1,10,1:2:0:0:
28,161,60778,1,2,1:2:0:0:
46,135,60862,1,2,1:2:0:0:
79,143,60945,1,0,1:0:0:0:
112,149,61028,1,10,0:2:0:0:
54,343,61195,5,10,0:0:0:0:
92,374,61278,1,8,0:0:0:0:
140,381,61361,1,10,0:0:0:0:
187,364,61445,1,8,0:0:0:0:
218,328,61528,1,10,0:0:0:0:
250,290,61612,1,8,0:0:0:0:
295,273,61696,1,10,0:0:0:0:
344,281,61779,1,8,0:0:0:0:
383,312,61862,6,0,L|368:223,1,72,6|8,1:2|0:0,0:0:0:0:
350,122,62195,1,2,1:2:0:0:
481,147,62362,2,0,L|466:236,1,72,10|0,0:0|1:0,0:0:0:0:
274,77,62695,2,0,B|290:43|290:43|335:38,1,72,8|0,0:0|1:0,0:0:0:0:
269,164,63028,1,10,0:2:0:0:
103,119,63195,5,2,1:2:0:0:
194,112,63362,1,10,0:0:0:0:
64,281,63528,1,2,1:2:0:0:
47,191,63695,2,0,L|147:206,1,72,10|0,0:2|1:0,0:0:0:0:
296,314,64028,2,0,L|195:329,1,72,8|0,0:0|1:0,0:0:0:0:
134,343,64362,1,10,0:0:0:0:
369,267,64528,6,0,B|392:296|392:296|376:349,1,72,6|8,1:2|0:0,0:0:0:0:
224,324,64862,1,2,1:2:0:0:
269,164,65028,2,0,B|282:129|282:129|336:115,1,72,10|0,0:0|1:0,0:0:0:0:
472,156,65362,1,10,0:0:0:0:
446,0,65528,1,0,1:0:0:0:
345,191,65695,1,10,0:0:0:0:
508,62,65862,5,6,1:2:0:0:
316,120,66028,1,8,0:3:0:0:
299,113,66111,1,8,0:3:0:0:
285,102,66194,1,6,0:3:0:0:
275,87,66277,1,2,0:3:0:0:
270,70,66361,1,4,0:3:0:0:
378,41,66528,6,0,L|336:47,1,36,6|0,0:3|0:0,0:0:0:0:
171,87,66695,1,8,0:3:0:0:
130,78,66778,1,8,0:3:0:0:
87,34,66862,1,8,0:3:0:0:
92,69,66946,1,4,0:3:0:0:
98,105,67029,1,4,0:3:0:0:
103,140,67112,1,4,0:3:0:0:
109,176,67196,5,6,1:2:0:0:
316,120,67362,1,10,0:0:0:0:
202,335,67528,1,2,1:2:0:0:
308,305,67695,1,10,0:0:0:0:
196,138,67862,5,2,1:2:0:0:
115,376,68028,1,10,0:0:0:0:
4,227,68195,1,2,1:2:0:0:
29,326,68362,1,10,0:0:0:0:
239,250,68528,5,2,1:2:0:0:
0,135,68695,1,10,0:0:0:0:
150,228,68862,1,2,1:2:0:0:
85,158,69028,1,10,0:0:0:0:
29,326,69195,5,2,1:2:0:0:
196,138,69362,1,10,0:0:0:0:
388,282,69528,1,2,1:2:0:0:
374,180,69695,1,10,0:0:0:0:
202,335,69862,5,2,1:2:0:0:
202,291,69945,1,0,1:2:0:0:
232,258,70028,1,10,1:2:0:0:
275,254,70111,1,0,1:2:0:0:
311,280,70195,1,2,1:2:0:0:
321,323,70278,1,0,1:2:0:0:
354,353,70361,1,10,1:2:0:0:
397,362,70444,1,0,1:2:0:0:
439,346,70528,1,0,1:2:0:0:
465,311,70611,1,0,1:2:0:0:
469,267,70694,1,10,1:2:0:0:
449,227,70778,1,0,1:2:0:0:
411,205,70862,1,0,1:2:0:0:
374,180,70945,1,0,1:2:0:0:
360,138,71028,1,8,1:2:0:0:
377,97,71111,1,0,1:0:0:0:
415,75,71195,6,0,L|354:65,1,53.9999983520508,2|0,1:0|1:0,0:0:0:0:
209,0,71362,1,8,1:2:0:0:
209,0,71445,1,0,1:0:0:0:
209,0,71528,2,0,L|169:47,1,53.9999983520508,2|0,1:0|1:0,0:0:0:0:
40,140,71696,1,8,1:2:0:0:
40,140,71779,1,0,1:0:0:0:
40,140,71862,2,0,L|60:198,1,53.9999983520508,10|8,0:3|0:3,0:0:0:0:
76,356,72029,1,4,0:3:0:0:
76,356,72112,1,4,0:3:0:0:
76,356,72195,2,0,B|161:341|153:262|153:262|105:259|81:298,1,202.500007724762,14|0,0:2|0:0,0:0:0:0:
195,371,72528,6,0,P|224:363|275:358,1,53.9999983520508,14|0,1:2|1:2,0:0:0:0:
434,334,72695,1,0,1:2:0:0:
462,290,72778,1,0,1:2:0:0:
445,240,72861,1,0,1:2:0:0:
396,222,72944,1,0,1:2:0:0:
352,248,73028,2,0,L|362:181,1,53.9999983520508,10|0,1:2|1:2,0:0:0:0:
381,76,73195,1,0,1:2:0:0:
422,107,73278,1,0,1:2:0:0:
471,90,73361,1,0,1:2:0:0:
484,40,73444,1,0,1:2:0:0:
450,1,73528,2,0,L|391:10,1,53.9999983520508,10|0,1:2|1:2,0:0:0:0:
268,101,73695,1,0,1:2:0:0:
214,92,73778,1,0,1:2:0:0:
161,84,73862,6,0,P|157:115|170:145,1,53.9999983520508,8|0,1:2|1:2,0:0:0:0:
282,275,74028,2,0,P|257:256|224:252,1,53.9999983520508,2|0,1:2|1:2,0:0:0:0:
26,208,74195,1,0,1:2:0:0:
40,247,74278,1,0,1:2:0:0:
56,284,74361,2,0,P|84:271|104:245,1,53.9999983520508,8|0,1:2|1:2,0:0:0:0:
268,101,74528,2,0,P|296:114|316:140,1,53.9999983520508,2|0,1:2|1:2,0:0:0:0:
480,284,74695,1,0,1:2:0:0:
480,284,74778,1,0,1:2:0:0:
480,284,74862,2,0,B|508:230|479:184|479:184|415:153|432:81,1,202.500007724762,14|0,1:2|1:2,0:0:0:0:
512,53,75195,6,0,P|515:79|507:104,1,53.9999983520508,14|0,1:2|1:2,0:0:0:0:
402,240,75362,1,0,1:2:0:0:
348,231,75445,1,0,1:2:0:0:
295,223,75528,1,0,1:2:0:0:
241,214,75611,1,0,1:2:0:0:
188,206,75695,2,0,L|247:196,1,53.9999983520508,10|0,1:2|1:2,0:0:0:0:
293,83,75862,1,0,1:2:0:0:
277,32,75945,1,0,1:2:0:0:
233,3,76028,1,0,1:2:0:0:
180,10,76111,1,0,1:2:0:0:
145,49,76195,2,0,L|155:112,1,53.9999983520508,10|0,1:2|1:2,0:0:0:0:
186,303,76362,1,0,1:2:0:0:
144,295,76445,1,0,1:2:0:0:
103,286,76528,6,0,L|45:276,1,53.9999983520508,8|0,1:2|1:2,0:0:0:0:
10,139,76695,2,0,L|68:129,1,53.9999983520508,2|0,1:2|1:2,0:0:0:0:
293,83,76862,1,0,1:2:0:0:
285,125,76945,1,0,1:2:0:0:
276,166,77028,2,0,L|266:224,1,53.9999983520508,8|0,1:2|1:2,0:0:0:0:
385,370,77195,2,0,L|375:312,1,53.9999983520508,2|0,1:2|1:2,0:0:0:0:
391,138,77362,1,0,1:2:0:0:
391,138,77445,1,0,1:2:0:0:
391,138,77528,2,0,B|400:70|481:75|512:108|512:108|487:125|484:161,1,202.500007724762,14|0,1:2|1:2,0:0:0:0:
480,234,77862,6,0,L|424:222,1,53.9999983520508,14|0,1:2|1:2,0:0:0:0:
276,166,78028,1,0,1:2:0:0:
223,177,78111,1,0,1:2:0:0:
170,188,78194,1,0,1:2:0:0:
117,200,78277,1,0,1:2:0:0:
64,209,78362,2,0,L|74:149,1,53.9999983520508,10|0,1:2|1:2,0:0:0:0:
145,0,78528,1,0,1:2:0:0:
135,51,78612,1,0,1:2:0:0:
91,81,78695,1,0,1:2:0:0:
39,71,78778,1,0,1:2:0:0:
10,28,78862,2,0,L|22:106,1,53.9999983520508,10|0,1:2|1:2,0:0:0:0:
22,272,79028,1,0,1:2:0:0:
42,241,79112,1,0,1:2:0:0:
64,209,79195,6,0,L|142:195,1,53.9999983520508,8|0,1:2|1:2,0:0:0:0:
276,166,79362,2,0,L|198:152,1,53.9999983520508,2|0,1:2|1:2,0:0:0:0:
198,320,79528,1,0,1:2:0:0:
234,311,79612,1,0,1:2:0:0:
268,303,79695,2,0,L|346:289,1,53.9999983520508,8|0,1:2|1:2,0:0:0:0:
483,199,79862,2,0,L|405:185,1,53.9999983520508,2|0,1:2|1:2,0:0:0:0:
361,81,80028,1,0,1:2:0:0:
361,81,80112,1,0,1:2:0:0:
361,81,80195,2,0,B|446:108|474:21|474:21|432:1|407:19,1,202.500007724762,14|0,1:2|1:2,0:0:0:0:
330,0,80528,6,0,P|300:12|284:34,1,53.9999983520508,14|0,1:2|1:2,0:0:0:0:
214,174,80695,1,0,1:2:0:0:
160,165,80778,1,0,1:2:0:0:
107,157,80861,1,0,1:2:0:0:
53,148,80944,1,0,1:2:0:0:
0,140,81028,2,0,L|72:128,1,53.9999983520508,10|0,1:2|1:2,0:0:0:0:
205,84,81195,1,0,1:2:0:0:
208,31,81278,1,0,1:2:0:0:
168,0,81361,1,0,1:2:0:0:
119,14,81444,1,0,1:2:0:0:
105,64,81528,2,0,P|129:92|137:127,1,53.9999983520508,10|0,1:2|1:2,0:0:0:0:
52,257,81695,1,0,1:2:0:0:
52,257,81778,1,0,1:2:0:0:
52,257,81862,6,0,B|89:234|89:234|203:252,1,135.000005149842,2|0,1:2|1:0,0:0:0:0:
267,208,82112,2,0,B|278:205|278:205|302:155|302:155|251:171|251:171|245:186,1,135.000005149842,2|0,1:2|1:0,0:0:0:0:
249,304,82362,2,0,L|311:294,1,53.9999983520508,2|0,1:2|1:0,0:0:0:0:
512,265,82528,1,10,1:2:0:0:
391,352,82695,6,0,L|380:303,2,36,2|2|2,0:0|0:0|0:0,0:0:0:0:
483,188,83195,6,0,B|443:161|400:194|400:194|374:240|322:231,1,161.999995056153,6|0,1:2|0:0,0:0:0:0:
267,208,83528,1,2,1:2:0:0:
422,18,83695,2,0,P|474:37|488:97,1,107.999996704102,10|0,0:0|1:0,0:0:0:0:
331,154,84028,2,0,L|312:37,1,107.999996704102,10|0,0:0|1:0,0:0:0:0:
174,295,84362,2,0,L|193:178,1,107.999996704102,10|0,0:0|1:0,0:0:0:0:
367,381,84695,5,10,0:0:0:0:
342,232,84862,1,2,1:2:0:0:
163,379,85028,1,10,0:0:0:0:
390,306,85195,1,0,1:2:0:0:
420,270,85278,1,0,1:2:0:0:
427,224,85361,1,10,1:2:0:0:
409,181,85444,1,0,1:2:0:0:
372,153,85528,1,2,1:2:0:0:
325,149,85611,1,0,1:2:0:0:
284,170,85694,1,10,1:2:0:0:
259,210,85778,1,0,1:2:0:0:
258,256,85862,6,0,P|203:271|152:232,1,107.999996704102,6|8,1:2|0:0,0:0:0:0:
14,108,86195,1,2,1:2:0:0:
14,108,86278,1,0,1:0:0:0:
14,108,86362,2,0,L|31:217,1,107.999996704102,10|0,0:2|1:0,0:0:0:0:
100,362,86695,2,0,P|79:318|14:311,1,107.999996704102,10|0,0:2|1:0,0:0:0:0:
225,384,87028,6,0,B|305:374|305:374|309:370|309:370|415:356,1,161.999995056153,10|0,0:2|0:0,0:0:0:0:
459,348,87362,1,10,0:0:0:0:
260,225,87528,1,2,1:2:0:0:
512,145,87695,1,10,0:2:0:0:
411,285,87862,1,0,1:0:0:0:
331,93,88028,1,8,0:3:0:0:
375,118,88112,1,8,0:3:0:0:
423,113,88195,1,10,0:3:0:0:
455,88,88278,1,4,0:3:0:0:
468,48,88362,1,6,0:3:0:0:
463,19,88445,1,4,0:3:0:0:
450,0,88528,6,0,B|397:8|397:8|395:12|395:12|328:23,1,107.999996704102,6|8,1:2|0:0,0:0:0:0:
254,72,88778,2,0,B|201:64|201:64|199:60|199:60|132:49,1,107.999996704102,2|0,0:2|0:0,0:0:0:0:
53,34,89028,2,0,L|62:96,1,53.9999983520508,10|0,0:0|0:0,0:0:0:0:
84,230,89195,2,0,P|49:188|-9:205,1,107.999996704102,2|8,1:2|0:0,0:0:0:0:
50,343,89528,1,2,0:2:0:0:
50,343,89612,1,2,0:2:0:0:
50,343,89695,2,0,L|108:334,1,53.9999983520508,10|0,0:0|0:0,0:0:0:0:
274,312,89862,6,0,B|245:288|245:288|230:192,1,107.999996704102,2|8,1:2|0:0,0:0:0:0:
382,157,90112,2,0,B|375:193|375:193|300:254,1,107.999996704102,2|0,0:0|0:0,0:0:0:0:
241,140,90362,2,0,B|311:151,1,53.9999983520508,10|0,0:0|0:0,0:0:0:0:
482,167,90528,1,2,1:2:0:0:
476,134,90611,1,0,1:2:0:0:
471,102,90694,1,0,1:2:0:0:
466,70,90777,1,0,1:2:0:0:
461,38,90862,2,0,L|398:47,1,53.9999983520508,8|8,0:2|0:0,0:0:0:0:
243,131,91028,2,0,L|297:140,1,53.9999983520508,10|8,0:2|0:0,0:0:0:0:
316,10,91195,6,0,L|209:26,1,107.999996704102,6|8,1:2|0:0,0:0:0:0:
382,157,91528,1,10,0:0:0:0:
154,115,91695,2,0,L|47:99,1,107.999996704102,2|8,1:2|0:0,0:0:0:0:
182,198,92028,1,2,1:2:0:0:
5,29,92195,1,2,1:2:0:0:
12,262,92362,6,0,B|35:317|111:314|144:272|144:272|109:255|102:205,1,215.999993408203,6|0,1:2|1:2,0:0:0:0:
100,199,92778,1,0,1:0:0:0:
100,199,92862,1,8,0:0:0:0:
238,331,93028,1,0,1:2:0:0:
260,327,93111,1,0,1:0:0:0:
283,324,93196,1,0,1:2:0:0:
249,282,93279,1,8,0:0:0:0:
242,229,93362,1,10,0:0:0:0:
263,180,93445,1,8,0:0:0:0:
306,149,93529,1,10,0:0:0:0:
359,145,93612,1,8,0:0:0:0:
407,170,93695,1,10,0:0:0:0:
435,215,93779,1,8,0:0:0:0:
435,268,93862,6,0,L|319:249,1,107.999996704102,6|8,1:2|0:0,0:0:0:0:
100,199,94195,1,2,1:2:0:0:
292,74,94362,2,0,B|281:53|294:23|294:23|269:44|243:43,1,107.999996704102,10|0,0:2|1:0,0:0:0:0:
80,42,94695,2,0,B|130:28|167:62|167:62|181:113|231:119,1,161.999995056153,10|0,0:0|0:0,0:0:0:0:
273,162,95028,2,0,B|259:184|264:216|264:216|245:190|222:188,1,107.999996704102,10|0,0:2|1:2,0:0:0:0:
3,62,95362,5,10,0:0:0:0:
192,256,95528,1,2,1:2:0:0:
0,209,95695,1,10,0:0:0:0:
155,371,95862,1,0,1:2:0:0:
195,384,95945,1,0,1:2:0:0:
238,380,96028,1,10,1:2:0:0:
276,359,96111,1,0,1:2:0:0:
302,325,96195,1,2,1:2:0:0:
329,290,96279,1,0,1:2:0:0:
366,269,96362,1,10,1:2:0:0:
409,265,96445,1,0,1:2:0:0:
451,280,96528,6,0,L|433:169,1,107.999996704102,6|8,1:2|0:0,0:0:0:0:
409,4,96862,1,2,1:2:0:0:
208,113,97028,2,0,P|264:102|334:92,1,107.999996704102,10|0,0:2|1:0,0:0:0:0:
106,24,97362,2,0,P|49:13|-20:3,1,107.999996704102,10|0,0:2|1:0,0:0:0:0:
118,256,97695,6,0,B|158:260|192:238|203:196|203:196|168:193|152:168,1,161.999995056153,10|0,0:0|0:0,0:0:0:0:
122,109,98028,1,10,0:0:0:0:
38,282,98195,2,0,L|21:175,1,107.999996704102,2|10,1:2|0:0,0:0:0:0:
0,5,98528,1,0,1:0:0:0:
208,113,98695,1,10,0:0:0:0:
250,106,98778,1,8,0:0:0:0:
293,99,98861,1,10,0:0:0:0:
336,92,98944,1,8,0:0:0:0:
378,85,99028,1,10,0:0:0:0:
421,79,99111,1,8,0:0:0:0:
464,72,99195,6,0,B|450:111|450:111|352:123,1,125.999996154785,6|8,1:2|0:0,0:0:0:0:
293,99,99445,2,0,B|295:69|276:39|276:39|308:56|344:46,1,125.999996154785,2|0,0:2|0:0,0:0:0:0:
309,185,99695,2,0,L|161:162,1,125.999996154785,10|0,0:0|1:0,0:0:0:0:
0,135,100028,1,10,0:0:0:0:
205,30,100195,1,2,1:2:0:0:
0,2,100362,1,10,0:0:0:0:
127,117,100528,6,0,L|106:-13,1,107.999996704102,6|8,1:2|0:0,0:0:0:0:
0,325,100862,2,0,L|21:195,1,107.999996704102,2|8,1:2|0:0,0:0:0:0:
163,384,101195,1,10,0:2:0:0:
133,229,101361,1,0,1:0:0:0:
133,229,101445,1,0,1:0:0:0:
133,229,101528,1,8,0:0:0:0:
282,325,101695,1,0,1:0:0:0:
255,320,101778,1,0,1:0:0:0:
228,316,101861,5,6,1:2:0:0:
363,338,102028,1,8,0:0:0:0:
147,302,102195,1,8,0:0:0:0:
347,256,102362,1,2,1:2:0:0:
163,384,102528,1,10,0:0:0:0:
260,102,102695,1,10,0:3:0:0:
424,283,102862,1,6,0:3:0:0:
228,316,103028,6,0,L|260:97,1,215.999993408203,6|2,1:2|1:2,0:0:0:0:
264,78,103445,1,0,1:0:0:0:
268,54,103528,1,10,0:0:0:0:
485,112,103695,1,0,1:2:0:0:
481,88,103778,1,0,1:2:0:0:
477,64,103861,1,10,0:0:0:0:
431,85,103944,1,8,0:0:0:0:
410,127,104027,1,10,0:0:0:0:
417,174,104112,1,8,0:0:0:0:
449,209,104194,1,10,0:0:0:0:
490,236,104278,1,8,0:0:0:0:
505,282,104361,1,10,0:0:0:0:
490,326,104444,1,8,0:0:0:0:
453,355,104528,6,0,L|397:347,4,53.9999983520508,6|0|0|0|0,1:1|1:2|1:2|1:2|1:2,0:0:0:0:
363,274,106028,1,2,0:0:0:0:
251,384,106195,1,2,1:2:0:0:
208,231,106362,1,2,0:0:0:0:
275,294,106528,5,2,1:2:0:0:
230,306,106695,1,2,1:2:0:0:
85,372,106862,1,2,1:2:0:0:
130,384,107029,1,2,1:2:0:0:
126,266,107195,6,0,L|113:205,4,53.9999983520508,6|0|0|0|0,1:1|1:0|1:0|1:0|1:0,0:0:0:0:
126,266,109195,6,0,B|128:280|140:272|140:272|144:284|155:276|155:276|162:289|172:277|172:277|182:287|189:275|189:275|199:283|204:270|204:270|217:274|221:260|221:260|234:265|236:250|236:250|253:252|253:234|253:234|262:235|262:235|263:215|281:217|281:217|283:198|298:203|298:203|305:185|317:188|317:188|325:177|337:185|337:185|349:174|356:185|356:185|367:177|372:189|372:189|391:186|392:205,1,360,2|6,1:2|1:1,0:0:0:0:
391,201,110195,5,0,1:2:0:0:
385,167,110278,1,0,1:2:0:0:
380,134,110361,1,0,1:2:0:0:
375,100,110444,1,0,1:2:0:0:
369,67,110528,1,8,0:2:0:0:
410,319,110862,1,0,1:2:0:0:
369,67,111362,1,0,1:2:0:0:
492,218,111696,1,0,1:2:0:0:
458,212,111779,1,0,1:2:0:0:
424,206,111862,1,8,0:2:0:0:
170,164,112112,1,0,1:2:0:0:
297,185,112362,1,0,1:2:0:0:
250,63,112528,5,6,1:1:0:0:
210,321,112862,1,0,1:2:0:0:
244,315,112945,1,0,1:2:0:0:
277,310,113028,1,0,1:2:0:0:
311,305,113111,1,0,1:2:0:0:
344,299,113195,1,8,0:2:0:0:
92,340,113529,1,0,1:2:0:0:
344,299,114029,1,0,1:2:0:0:
133,234,114362,1,0,1:2:0:0:
99,228,114445,1,0,1:2:0:0:
66,223,114528,1,8,0:2:0:0:
1,122,114695,1,0,1:2:0:0:
35,116,114778,1,0,1:2:0:0:
208,93,115028,1,0,1:2:0:0:
4,9,115195,5,6,1:1:0:0:
66,223,115529,1,0,1:2:0:0:
100,217,115612,1,0,1:2:0:0:
133,212,115695,1,0,1:2:0:0:
167,207,115778,1,0,1:2:0:0:
200,201,115862,1,8,0:2:0:0:
105,51,116195,1,0,1:2:0:0:
161,373,116695,1,0,1:2:0:0:
336,184,117028,1,0,1:2:0:0:
330,218,117111,1,0,1:2:0:0:
325,251,117194,1,8,0:2:0:0:
467,281,117362,1,0,1:2:0:0:
462,248,117445,1,0,1:2:0:0:
483,376,117695,1,0,1:2:0:0:
449,160,117862,5,6,1:1:0:0:
393,343,118195,1,0,1:2:0:0:
359,337,118278,1,0,1:2:0:0:
326,332,118361,1,0,1:2:0:0:
292,327,118444,1,0,1:2:0:0:
259,321,118528,1,8,0:2:0:0:
7,290,118862,1,0,1:2:0:0:
259,321,119362,1,0,1:2:0:0:
15,209,119695,1,0,1:2:0:0:
15,209,119778,1,0,1:2:0:0:
15,209,119862,6,0,B|52:199|79:240|79:240|99:183|165:201|165:201|161:206|161:206|186:259|136:291|136:291|128:295|129:306|129:306|120:308|127:315|127:315|118:322|128:326|128:326|121:335|132:338|132:338|130:349|141:351|141:351|143:361,1,360,8|6,0:2|1:1,0:0:0:0:
133,346,120862,5,0,1:0:0:0:
125,301,120945,1,0,1:0:0:0:
118,257,121028,1,0,1:0:0:0:
111,212,121111,1,0,1:0:0:0:
104,168,121195,1,8,0:0:0:0:
236,316,121528,1,0,1:2:0:0:
0,198,122028,1,0,1:0:0:0:
163,249,122362,1,0,1:2:0:0:
118,257,122445,1,0,1:2:0:0:
74,264,122528,1,8,0:2:0:0:
263,234,122778,1,0,1:2:0:0:
452,204,123028,1,0,1:2:0:0:
336,127,123195,5,6,1:1:0:0:
502,370,123528,1,0,1:0:0:0:
458,363,123612,1,0,1:0:0:0:
413,356,123695,1,0,1:0:0:0:
369,349,123778,1,0,1:0:0:0:
324,341,123861,1,8,0:0:0:0:
512,152,124195,1,0,1:0:0:0:
324,341,124695,1,0,1:2:0:0:
502,370,125028,1,0,1:2:0:0:
495,326,125112,1,0,1:2:0:0:
488,281,125195,1,8,0:2:0:0:
299,251,125445,1,0,1:0:0:0:
110,221,125695,1,0,1:0:0:0:
226,144,125862,5,6,1:1:0:0:
10,370,126195,1,0,1:0:0:0:
54,363,126279,1,0,1:0:0:0:
99,356,126362,1,0,1:0:0:0:
143,349,126445,1,0,1:0:0:0:
188,341,126528,1,8,0:0:0:0:
0,152,126862,1,0,1:2:0:0:
188,341,127362,1,0,1:0:0:0:
10,370,127695,1,0,1:2:0:0:
17,326,127779,1,0,1:2:0:0:
24,281,127862,1,8,0:2:0:0:
169,215,128028,1,0,1:2:0:0:
176,260,128111,1,0,1:2:0:0:
57,91,128362,1,0,1:2:0:0:
24,281,128528,5,6,1:1:0:0:
6,8,128862,1,0,1:0:0:0:
50,15,128946,1,0,1:0:0:0:
95,22,129029,1,0,1:0:0:0:
139,29,129112,1,0,1:0:0:0:
184,37,129195,1,8,0:0:0:0:
39,186,129528,1,0,1:2:0:0:
306,142,130028,1,0,1:2:0:0:
127,171,130362,1,0,1:2:0:0:
171,164,130446,1,0,1:2:0:0:
216,157,130529,1,8,0:2:0:0:
317,62,130695,1,0,1:2:0:0:
273,55,130779,1,0,1:2:0:0:
451,120,131028,1,0,1:2:0:0:
512,0,131195,5,2,1:2:0:0:
451,120,132910,6,0,L|443:74,2,45,6|0|0,1:1|0:0|0:0,0:0:0:0:
368,222,133338,2,0,L|360:176,2,45,0|0|0,1:2|0:0|0:0,0:0:0:0:
353,69,133767,2,0,L|360:23,2,45,0|0|0,1:2|0:0|0:0,0:0:0:0:
466,272,134195,2,0,L|473:226,2,45,0|0|0,1:2|0:0|0:0,0:0:0:0:
319,353,134624,5,0,1:2:0:0:
297,349,134731,1,0,0:0:0:0:
275,345,134838,1,0,0:0:0:0:
253,341,134945,1,0,0:0:0:0:
231,337,135052,2,0,L|298:322,1,45,0|0,1:0|0:0,0:0:0:0:
376,302,135267,1,0,0:0:0:0:
298,224,135481,5,0,1:0:0:0:
350,194,135588,1,0,3:0:0:0:
355,133,135695,1,0,0:0:0:0:
319,96,135802,1,0,3:0:0:0:
272,91,135910,1,0,1:0:0:0:
233,110,136017,1,0,0:0:0:0:
218,140,136124,1,0,3:0:0:0:
217,164,136231,1,0,0:0:0:0:
221,181,136338,5,0,1:2:0:0:
221,181,136767,1,0,1:2:0:0:
221,181,137195,1,0,1:2:0:0:
221,181,137624,1,0,1:2:0:0:
208,171,137731,1,0,0:0:0:0:
195,161,137838,1,0,0:0:0:0:
182,151,137945,1,0,0:0:0:0:
234,191,138052,6,0,L|292:181,1,53.9999983520508,2|0,1:2|0:0,0:0:0:0:
474,118,138267,1,0,1:2:0:0:
487,108,138374,1,0,1:2:0:0:
461,128,138481,2,0,L|403:118,1,53.9999983520508,2|0,1:2|0:0,0:0:0:0:
221,55,138696,1,0,1:2:0:0:
208,45,138803,1,0,1:2:0:0:
234,65,138910,6,0,L|280:57,2,26.9999991760254,2|0|0,1:2|1:2|1:2,0:0:0:0:
123,51,139124,1,0,1:0:0:0:
12,37,139231,1,0,1:2:0:0:
1,188,139338,2,0,B|54:235|140:197|135:132|135:132|97:136|73:111,1,229.500004377365,14|0,0:0|0:0,0:0:0:0:
12,37,139767,6,0,L|24:117,1,67.5000025749208,6|2,1:0|0:0,0:0:0:0:
58,301,139981,1,2,0:0:0:0:
108,288,140088,1,2,0:0:0:0:
158,275,140195,1,10,0:0:0:0:
208,262,140302,2,0,P|179:240|125:242,1,67.5000025749208,2|0,0:0|0:0,0:0:0:0:
48,384,140517,1,2,0:0:0:0:
48,384,140624,2,0,L|131:364,1,67.5000025749208,2|0,1:2|0:0,0:0:0:0:
274,278,140838,1,2,0:0:0:0:
274,278,140945,2,0,L|191:258,1,67.5000025749208,2|8,0:0|0:0,0:0:0:0:
48,172,141160,2,0,L|131:152,1,67.5000025749208,2|0,0:0|0:0,0:0:0:0:
274,66,141374,1,2,0:0:0:0:
274,66,141481,6,0,B|285:51|283:28|283:28|271:46|246:55,1,67.5000025749208,2|0,1:2|0:0,0:0:0:0:
219,147,141695,1,0,0:0:0:0:
263,166,141802,1,0,0:0:0:0:
315,156,141910,1,10,0:0:0:0:
351,123,142017,2,0,L|338:200,1,67.5000025749208,0|0,0:0|0:0,0:0:0:0:
439,80,142231,1,0,0:0:0:0:
439,80,142338,2,0,L|426:157,1,67.5000025749208,2|0,1:2|0:0,0:0:0:0:
399,320,142552,1,0,0:0:0:0:
423,313,142660,1,0,0:0:0:0:
445,308,142767,1,10,0:0:0:0:
434,351,142874,1,2,0:0:0:0:
386,360,142981,1,2,0:0:0:0:
334,339,143088,1,2,0:0:0:0:
292,290,143195,5,2,1:2:0:0:
238,248,143302,1,2,0:0:0:0:
179,253,143410,1,2,0:0:0:0:
137,284,143517,1,2,0:0:0:0:
126,329,143624,1,10,0:0:0:0:
139,367,143731,2,0,P|176:356|225:348,1,67.5000025749208,2|0,0:0|0:0,0:0:0:0:
65,246,143945,1,2,0:0:0:0:
65,246,144052,2,0,P|26:235|-21:227,1,67.5000025749208,2|0,1:2|0:0,0:0:0:0:
0,92,144267,1,2,0:0:0:0:
0,92,144374,2,0,P|33:102|86:111,1,67.5000025749208,2|8,0:2|0:0,0:0:0:0:
178,174,144588,2,0,P|211:163|264:155,1,67.5000025749208,2|0,0:0|0:0,0:0:0:0:
427,146,144802,1,2,0:0:0:0:
374,153,144910,6,0,P|381:119|385:77,1,67.5000025749208,2|0,1:2|0:0,0:0:0:0:
373,303,145124,1,2,0:0:0:0:
340,260,145232,2,0,P|374:249|410:232,1,67.5000025749208,2|10,0:0|0:0,0:0:0:0:
512,363,145445,2,0,P|477:352|441:335,1,67.5000025749208,0|0,0:0|0:0,0:0:0:0:
261,261,145660,1,0,0:0:0:0:
261,261,145767,2,0,P|226:272|190:289,1,67.5000025749208,2|0,1:2|0:0,0:0:0:0:
30,384,145981,1,0,0:0:0:0:
20,357,146088,1,0,0:0:0:0:
10,330,146196,5,10,0:0:0:0:
90,319,146303,1,8,0:0:0:0:
130,248,146410,1,8,0:0:0:0:
97,173,146517,1,8,0:0:0:0:
18,155,146624,5,6,1:2:0:0:
50,208,146731,1,2,0:0:0:0:
109,218,146838,1,2,0:2:0:0:
163,195,146945,1,2,0:2:0:0:
188,138,147052,1,10,0:2:0:0:
169,79,147160,2,0,L|98:100,1,67.5000025749208,2|0,0:0|0:0,0:0:0:0:
7,10,147374,1,2,0:2:0:0:
7,10,147481,2,0,L|76:20,1,67.5000025749208,2|0,1:2|0:0,0:0:0:0:
247,86,147695,1,2,0:2:0:0:
247,86,147802,2,0,L|316:76,1,67.5000025749208,2|8,0:2|0:0,0:0:0:0:
477,53,148017,2,0,P|458:20|418:12,1,67.5000025749208,2|0,0:0|0:0,0:0:0:0:
371,150,148231,1,2,0:0:0:0:
371,150,148338,6,0,L|382:220,1,67.5000025749208,2|0,1:2|0:0,0:0:0:0:
405,376,148552,1,0,0:0:0:0:
460,367,148660,1,0,0:0:0:0:
501,329,148767,1,10,0:0:0:0:
501,271,148874,2,0,L|419:283,1,67.5000025749208,0|0,0:0|0:0,0:0:0:0:
306,357,149088,1,0,0:0:0:0:
306,357,149195,1,2,1:2:0:0:
255,345,149302,1,0,0:0:0:0:
204,333,149410,2,0,P|240:318|251:265,1,67.5000025749208,0|0,0:0|0:0,0:0:0:0:
11,273,149624,1,10,0:0:0:0:
1,313,149731,1,2,0:0:0:0:
12,355,149838,1,2,0:0:0:0:
52,383,149945,1,2,0:0:0:0:
108,384,150052,5,2,1:2:0:0:
96,319,150160,1,2,0:0:0:0:
135,265,150267,1,2,0:0:0:0:
200,255,150374,1,2,0:0:0:0:
252,295,150481,1,10,0:0:0:0:
306,357,150588,2,0,L|293:276,1,67.5000025749208,2|0,0:0|0:0,0:0:0:0:
435,237,150802,1,2,0:0:0:0:
435,237,150910,2,0,P|406:260|363:262,1,67.5000025749208,2|0,1:2|0:0,0:0:0:0:
263,196,151124,1,2,0:0:0:0:
263,196,151231,2,0,L|276:115,1,67.5000025749208,2|8,0:0|0:0,0:0:0:0:
143,57,151445,2,0,P|171:80|214:82,1,67.5000025749208,2|0,0:0|0:0,0:0:0:0:
371,52,151660,1,2,0:0:0:0:
371,52,151767,6,0,P|386:39|415:35,2,45,0|0|0,1:2|0:0|1:2,0:0:0:0:
278,133,152088,1,0,1:2:0:0:
278,133,152195,2,0,L|269:78,1,45,0|0,1:2|0:0,0:0:0:0:
202,203,152410,2,0,L|193:148,1,45,0|0,1:2|1:2,0:0:0:0:
126,273,152624,6,0,L|121:238,2,22.5,0|0|2,1:2|1:2|1:2,0:0:0:0:
50,343,152838,1,2,1:0:0:0:
30,227,152945,1,2,1:2:0:0:
10,111,153052,2,0,B|82:74|143:130|143:130|163:202|221:208,1,242.999992584229,14|0,0:0|0:0,0:0:0:0:
278,133,153481,6,0,B|254:120|232:134|232:134|251:142|264:156,1,67.5000025749208,6|0,1:1|0:0,0:0:0:0:
393,217,153695,1,0,0:0:0:0:
385,166,153802,1,0,0:0:0:0:
377,116,153909,1,8,0:0:0:0:
369,66,154016,1,0,0:0:0:0:
380,0,154124,2,0,L|366:85,1,67.5000025749208,2|0,0:0|0:0,0:0:0:0:
369,290,154338,2,0,B|351:286|337:293|337:293|338:275|330:259,1,67.5000025749208,2|0,1:2|3:0,0:0:0:0:
464,366,154552,1,0,0:0:0:0:
464,366,154660,2,0,B|481:362|495:369|495:369|494:351|502:335,1,67.5000025749208,0|8,3:0|0:0,0:0:0:0:
459,206,154874,1,0,0:0:0:0:
459,206,154981,2,0,L|384:218,1,67.5000025749208,2|0,0:0|0:0,0:0:0:0:
183,251,155195,6,0,B|223:238|249:203|249:203|232:236|237:274,1,135.000005149842,2|0,1:2|0:0,0:0:0:0:
154,330,155517,1,2,0:0:0:0:
154,330,155624,2,0,P|122:312|106:277,1,67.5000025749208,8|0,0:0|0:0,0:0:0:0:
274,135,155838,2,0,P|306:153|322:188,1,67.5000025749208,2|0,0:0|0:0,0:0:0:0:
115,206,156052,5,2,1:2:0:0:
120,172,156159,1,0,3:0:0:0:
125,139,156266,1,0,0:0:0:0:
130,105,156373,1,0,3:0:0:0:
86,33,156481,5,8,0:0:0:0:
135,71,156588,1,0,0:0:0:0:
196,59,156695,2,0,P|221:37|263:33,1,67.5000025749208,2|2,0:0|0:0,0:0:0:0:
440,96,156910,2,0,B|462:115|505:96|505:96|515:42|472:25,1,135.000005149842,2|0,1:2|0:0,0:0:0:0:
371,35,157231,1,2,0:0:0:0:
371,35,157338,2,0,P|349:67|348:102,1,67.5000025749208,8|0,0:0|0:0,0:0:0:0:
430,223,157552,2,0,P|413:187|383:169,1,67.5000025749208,2|0,0:0|0:0,0:0:0:0:
266,254,157767,2,0,L|342:237,1,67.5000025749208,2|0,1:2|0:0,0:0:0:0:
502,273,157981,2,0,B|486:303|484:341|484:341|456:315|422:309,1,135.000005149842,2|8,0:0|0:0,0:0:0:0:
177,105,158410,5,2,0:0:0:0:
187,82,158517,1,2,0:0:0:0:
196,59,158624,2,0,B|190:25|147:9|107:35|107:35|125:56|128:83,1,135.000005149842,2|0,1:2|0:0,0:0:0:0:
43,89,158945,1,2,0:0:0:0:
43,89,159052,2,0,P|19:53|26:13,1,67.5000025749208,8|0,0:0|0:0,0:0:0:0:
143,186,159267,2,0,P|167:150|160:110,1,67.5000025749208,2|0,0:0|0:0,0:0:0:0:
0,206,159481,1,2,1:2:0:0:
8,245,159588,2,0,L|31:391,1,135.000005149842,0|0,3:0|3:0,0:0:0:0:
56,311,159910,5,8,0:0:0:0:
115,263,160017,1,8,0:0:0:0:
191,255,160124,1,8,0:0:0:0:
259,290,160231,1,8,0:0:0:0:
293,358,160338,5,6,1:2:0:0:
300,343,160445,1,0,0:0:0:0:
307,328,160552,2,0,L|325:282,1,45,0|0,0:0|0:0,0:0:0:0:
385,134,160767,2,0,B|429:150|446:181|446:181|439:148|456:119,1,135.000005149842,10|0,0:0|0:0,0:0:0:0:
413,53,161088,1,0,0:0:0:0:
413,53,161195,2,0,B|338:38|298:96|298:96|269:180|197:175,1,256.499993150711,2|0,1:2|0:0,0:0:0:0:
196,98,161624,2,0,B|188:78|208:67|208:67|217:82|207:96,1,67.5000025749208,8|0,0:0|0:0,0:0:0:0:
138,156,161838,2,0,P|107:141|67:137,1,67.5000025749208,2|0,0:2|0:0,0:0:0:0:
62,295,162052,6,0,P|132:287|159:220,1,135.000005149842,2|0,1:2|0:0,0:0:0:0:
38,204,162374,1,0,0:0:0:0:
38,204,162481,2,0,P|7:183|1:142,1,67.5000025749208,10|0,0:2|0:0,0:0:0:0:
50,26,162695,2,0,B|33:27|15:17|15:17|24:34|19:49,1,67.5000025749208,0|0,0:0|0:0,0:0:0:0:
211,175,162910,5,2,1:2:0:0:
211,175,163017,2,0,B|250:182|278:150|278:150|281:154|281:154|320:112|372:127,1,170.999995433807,0|0,3:0|0:0,0:0:0:0:
503,233,163338,1,8,0:0:0:0:
488,247,163445,1,0,0:0:0:0:
454,256,163552,1,2,0:0:0:0:
414,239,163660,1,0,0:0:0:0:
400,193,163766,5,2,1:2:0:0:
439,125,163874,1,0,0:0:0:0:
510,87,163981,1,0,0:0:0:0:
495,10,164088,1,0,0:0:0:0:
415,0,164195,1,10,0:2:0:0:
383,69,164302,2,0,B|354:91|351:127|351:127|337:97|293:88,1,135.000005149842,0|0,0:0|0:0,0:0:0:0:
211,175,164624,2,0,P|246:177|289:146,1,67.5000025749208,2|0,1:2|3:0,0:0:0:0:
272,12,164838,1,0,0:0:0:0:
272,12,164945,2,0,P|241:29|222:78,1,67.5000025749208,2|8,3:2|0:0,0:0:0:0:
183,252,165160,1,0,0:0:0:0:
183,252,165267,2,0,P|152:235|133:186,1,67.5000025749208,2|0,0:0|0:0,0:0:0:0:
21,34,165481,6,0,B|34:117|34:117|38:121|38:121|51:203,1,170.999995433807,2|0,1:2|0:0,0:0:0:0:
86,353,165802,1,2,0:0:0:0:
86,353,165910,2,0,L|18:338,1,67.5000025749208,0|0,0:0|0:0,0:0:0:0:
281,319,166124,1,2,0:0:0:0:
258,324,166232,2,0,L|190:338,1,67.5000025749208,0|0,0:0|1:2,0:0:0:0:
473,361,166445,1,2,0:0:0:0:
430,353,166552,2,0,L|362:338,1,67.5000025749208,0|0,0:0|0:0,0:0:0:0:
477,267,166767,5,10,0:0:0:0:
505,190,166874,1,8,0:0:0:0:
458,124,166981,1,8,0:0:0:0:
377,124,167088,1,8,0:0:0:0:
331,191,167195,6,0,L|416:177,1,67.5000025749208,6|0,1:1|0:0,0:0:0:0:
512,43,167410,1,0,0:0:0:0:
461,35,167517,1,0,0:0:0:0:
411,27,167624,1,8,0:0:0:0:
361,19,167731,1,0,0:0:0:0:
294,29,167838,2,0,L|367:17,1,67.5000025749208,2|0,0:0|0:0,0:0:0:0:
261,161,168052,2,0,B|244:159|222:168|222:168|222:145|214:130,1,67.5000025749208,2|0,1:2|3:0,0:0:0:0:
25,83,168267,1,0,0:0:0:0:
25,83,168374,2,0,B|42:81|64:90|64:90|64:67|72:52,1,67.5000025749208,0|8,3:0|0:0,0:0:0:0:
174,20,168588,1,0,0:0:0:0:
174,20,168695,2,0,L|161:102,1,67.5000025749208,2|0,0:0|0:0,0:0:0:0:
148,275,168910,6,0,B|133:216|73:228|73:228|87:251|90:275,1,135.000005149842,2|0,1:2|0:0,0:0:0:0:
186,355,169231,1,2,0:0:0:0:
186,355,169338,2,0,P|218:325|224:289,1,67.5000025749208,8|0,0:0|0:0,0:0:0:0:
38,166,169552,2,0,P|5:195|0:231,1,67.5000025749208,2|0,0:0|0:0,0:0:0:0:
214,223,169767,5,2,1:2:0:0:
248,218,169874,1,0,3:2:0:0:
281,213,169981,1,0,0:0:0:0:
315,208,170088,1,0,3:2:0:0:
359,145,170195,1,8,0:2:0:0:
349,203,170303,1,0,0:0:0:0:
389,245,170410,2,0,P|421:263|460:250,1,67.5000025749208,2|2,0:2|0:2,0:0:0:0:
476,54,170624,6,0,B|448:32|409:35|386:70|386:70|412:78|428:106,1,135.000005149842,2|0,1:2|0:0,0:0:0:0:
509,173,170945,1,2,0:0:0:0:
509,173,171052,2,0,L|425:159,1,67.5000025749208,8|0,0:0|0:0,0:0:0:0:
309,79,171267,2,0,L|254:144,1,67.5000025749208,2|0,0:0|0:0,0:0:0:0:
150,268,171481,2,0,L|127:205,1,67.5000025749208,2|0,1:2|0:0,0:0:0:0:
87,36,171695,2,0,B|55:36|26:13|26:13|39:45|29:80,1,135.000005149842,2|8,0:2|0:0,0:0:0:0:
42,372,172124,5,2,0:0:0:0:
26,353,172231,1,2,0:0:0:0:
14,332,172338,2,0,B|4:280|71:261|71:261|68:286|79:301,1,135.000005149842,2|0,1:2|0:0,0:0:0:0:
139,367,172660,1,2,0:0:0:0:
139,367,172767,2,0,L|211:355,1,67.5000025749208,8|0,0:0|0:0,0:0:0:0:
339,288,172981,2,0,L|267:276,1,67.5000025749208,2|0,0:0|0:0,0:0:0:0:
396,384,173195,1,2,1:2:0:0:
433,355,173302,2,0,B|460:324|460:324|443:213,1,135.000005149842,0|0,3:0|3:0,0:0:0:0:
375,201,173624,5,8,0:0:0:0:
339,134,173731,1,8,0:0:0:0:
367,63,173838,1,8,0:0:0:0:
441,46,173945,1,8,0:0:0:0:
507,84,174052,5,6,1:2:0:0:
502,102,174160,1,0,0:0:0:0:
495,122,174267,2,0,L|450:114,1,45,0|0,0:0|0:0,0:0:0:0:
207,128,174481,2,0,B|247:137|271:170|271:170|255:138|269:91,1,135.000005149842,10|0,0:0|0:0,0:0:0:0:
167,51,174802,1,0,0:0:0:0:
167,51,174910,2,0,B|102:90|126:167|126:167|196:211|171:285,1,256.499993150711,2|0,1:2|0:0,0:0:0:0:
68,274,175338,2,0,B|75:249|101:247|101:247|97:272|110:292,1,67.5000025749208,8|0,0:0|0:0,0:0:0:0:
52,362,175552,2,0,P|16:352|-3:319,1,67.5000025749208,2|0,0:2|0:0,0:0:0:0:
175,269,175767,6,0,B|210:255|237:289|237:289|250:328|285:336,1,135.000005149842,2|0,1:2|0:0,0:0:0:0:
374,251,176088,1,0,0:0:0:0:
374,251,176195,2,0,P|337:248|309:278,1,67.5000025749208,10|0,0:0|0:0,0:0:0:0:
475,372,176410,2,0,L|461:289,1,67.5000025749208,0|0,0:0|0:0,0:0:0:0:
434,103,176624,1,2,1:2:0:0:
434,103,176731,2,0,B|390:79|350:98|350:98|341:147|297:162,1,170.999995433807,0|0,3:0|0:0,0:0:0:0:
147,78,177052,5,8,0:0:0:0:
160,53,177160,1,0,0:0:0:0:
197,38,177267,1,2,0:0:0:0:
240,47,177374,1,0,0:0:0:0:
271,87,177481,5,2,1:2:0:0:
219,144,177588,1,0,0:0:0:0:
241,216,177695,1,0,0:0:0:0:
315,239,177802,1,0,0:0:0:0:
340,312,177910,1,10,0:0:0:0:
296,376,178017,2,0,P|233:346|155:339,1,135.000005149842,0|0,0:0|0:0,0:0:0:0:
12,346,178338,2,0,P|46:335|70:304,1,67.5000025749208,2|0,1:2|3:0,0:0:0:0:
142,167,178552,1,0,0:0:0:0:
142,167,178660,2,0,L|129:243,1,67.5000025749208,2|8,3:0|0:0,0:0:0:0:
14,34,178874,1,0,0:0:0:0:
14,34,178982,2,0,L|27:110,1,67.5000025749208,2|0,0:0|0:0,0:0:0:0:
219,144,179195,6,0,P|212:120|186:100,2,45,2|0|0,1:2|0:0|1:2,0:0:0:0:
319,243,179517,1,0,1:2:0:0:
319,243,179624,2,0,L|269:235,1,45,0|0,1:2|0:0,0:0:0:0:
401,162,179838,2,0,L|351:154,1,45,0|0,1:2|0:0,0:0:0:0:
483,81,180052,6,0,L|449:75,2,22.5,0|0|2,1:2|1:2|1:2,0:0:0:0:
387,46,180267,1,2,1:2:0:0:
401,162,180374,1,2,1:2:0:0:
415,278,180481,2,0,B|433:206|433:206|362:147|362:147|382:65,1,242.999992584229,14|0,0:0|0:0,0:0:0:0:
387,46,180910,5,6,1:1:0:0:
224,351,186243,5,6,1:2:0:0:
102,244,186576,1,0,1:2:0:0:
408,139,186909,1,0,1:2:0:0:
377,298,187243,1,0,1:2:0:0:
133,85,187577,5,0,1:2:0:0:
286,32,187910,1,0,1:2:0:0:
161,300,188243,1,0,1:2:0:0:
396,219,188576,1,0,1:2:0:0:
211,59,188910,5,0,1:2:0:0:
117,162,189242,1,0,1:2:0:0:
304,326,189576,1,0,1:2:0:0:
350,78,189910,1,0,1:2:0:0:
161,300,190243,5,0,1:2:0:0:
152,272,190326,1,0,1:2:0:0:
143,244,190410,1,0,1:2:0:0:
304,326,190576,1,0,1:2:0:0:
350,78,190743,1,0,1:2:0:0:
353,107,190826,1,0,1:2:0:0:
356,136,190910,1,0,1:2:0:0:
211,59,191076,1,0,1:2:0:0:
117,162,191243,1,8,0:0:0:0:
188,178,191326,1,8,0:0:0:0:
260,193,191410,1,10,0:0:0:0:
329,207,191493,1,8,0:0:0:0:
396,219,191576,5,6,1:2:0:0:
304,326,191743,1,10,0:0:0:0:
350,78,191910,1,2,1:2:0:0:
143,244,192076,2,0,L|259:225,1,107.999996704102,10|0,0:0|1:0,0:0:0:0:
512,150,192410,2,0,L|395:131,1,107.999996704102,8|0,0:0|1:0,0:0:0:0:
136,86,192743,1,10,0:0:0:0:
233,317,192910,5,2,1:2:0:0:
274,107,193076,1,10,0:0:0:0:
64,259,193243,1,2,1:2:0:0:
320,282,193410,1,10,0:0:0:0:
136,86,193576,1,0,1:2:0:0:
139,119,193659,1,0,1:2:0:0:
143,153,193742,1,12,1:2:0:0:
146,186,193826,1,0,1:2:0:0:
150,220,193909,1,0,1:2:0:0:
153,253,193992,1,0,1:2:0:0:
157,287,194076,1,14,1:2:0:0:
160,320,194159,1,0,1:2:0:0:
164,354,194242,5,6,1:2:0:0:
297,191,194410,1,10,0:0:0:0:
42,57,194576,1,2,1:2:0:0:
64,259,194743,2,0,L|202:237,1,107.999996704102,10|0,0:0|1:2,0:0:0:0:
355,374,195076,2,0,L|216:352,1,107.999996704102,10|0,0:0|1:0,0:0:0:0:
297,191,195409,1,10,0:0:0:0:
458,382,195576,5,2,1:2:0:0:
450,138,195743,1,8,0:0:0:0:
370,281,195909,2,0,L|509:259,1,107.999996704102,2|8,1:2|0:0,0:0:0:0:
321,57,196243,1,10,0:0:0:0:
179,284,196409,1,8,0:0:0:0:
143,245,196492,1,8,0:0:0:0:
138,192,196575,1,10,0:0:0:0:
167,147,196659,1,8,0:0:0:0:
217,130,196742,1,10,0:0:0:0:
267,147,196825,1,8,0:0:0:0:
297,191,196909,5,6,1:2:0:0:
65,166,197076,1,10,0:0:0:0:
252,0,197243,1,2,1:2:0:0:
217,211,197409,2,0,L|197:333,1,107.999996704102,10|0,0:0|1:2,0:0:0:0:
48,59,197743,2,0,L|67:181,1,107.999996704102,8|0,0:0|1:2,0:0:0:0:
107,384,198076,1,10,0:0:0:0:
237,134,198243,5,2,1:2:0:0:
21,242,198409,1,10,0:2:0:0:
292,281,198576,1,2,1:2:0:0:
40,341,198743,2,0,B|78:300|78:300|145:307,1,107.999996704102,10|0,0:0|1:0,0:0:0:0:
361,238,199076,2,0,B|323:197|323:197|256:204,1,107.999996704102,8|0,0:0|1:0,0:0:0:0:
314,384,199409,1,10,0:0:0:0:
462,252,199576,5,2,1:2:0:0:
476,205,199659,1,0,1:2:0:0:
470,158,199742,1,8,1:2:0:0:
441,118,199826,1,0,1:2:0:0:
399,96,199909,1,2,1:2:0:0:
351,96,199992,1,0,1:2:0:0:
308,116,200076,1,10,1:2:0:0:
279,154,200159,1,0,1:2:0:0:
271,202,200242,1,0,1:2:0:0:
262,250,200326,1,0,1:2:0:0:
234,289,200409,1,10,1:2:0:0:
190,309,200493,1,0,1:2:0:0:
142,309,200576,1,0,1:2:0:0:
100,286,200659,1,0,1:2:0:0:
72,247,200743,2,0,L|144:235,1,53.9999983520508,10|0,1:2|1:2,0:0:0:0:
296,291,200909,5,2,1:2:0:0:
296,291,200993,1,0,1:0:0:0:
296,291,201076,2,0,L|249:234,1,53.9999983520508,8|0,1:2|1:0,0:0:0:0:
222,75,201243,1,2,1:2:0:0:
222,75,201326,1,0,1:0:0:0:
222,75,201409,2,0,L|196:143,1,53.9999983520508,8|0,1:2|1:0,0:0:0:0:
74,326,201576,1,10,0:3:0:0:
129,318,201659,1,8,0:3:0:0:
185,309,201742,1,4,0:3:0:0:
240,300,201826,1,4,0:3:0:0:
296,291,201909,2,0,B|261:249|261:249|149:267,1,161.999995056153,14|0,0:0|0:0,0:0:0:0:
74,326,202243,6,0,L|94:194,1,107.999996704102,6|8,1:2|0:0,0:0:0:0:
123,10,202576,1,2,1:2:0:0:
267,171,202743,1,10,0:0:0:0:
3,71,202909,2,0,L|140:92,1,107.999996704102,2|8,1:2|0:0,0:0:0:0:
368,131,203243,1,2,1:2:0:0:
225,0,203409,1,10,0:0:0:0:
161,189,203576,6,0,L|298:167,1,107.999996704102,2|8,1:2|0:0,0:0:0:0:
471,138,203909,2,0,L|461:80,1,53.9999983520508,2|0,1:2|0:0,0:0:0:0:
367,228,204076,2,0,L|357:285,1,53.9999983520508,10|0,0:0|0:0,0:0:0:0:
512,383,204243,1,2,1:2:0:0:
486,220,204409,1,8,0:0:0:0:
334,383,204576,1,2,1:2:0:0:
501,300,204743,1,8,0:0:0:0:
341,174,204909,6,0,L|361:301,1,107.999996704102,2|8,1:2|0:0,0:0:0:0:
132,377,205243,1,2,1:2:0:0:
161,189,205409,1,8,0:0:0:0:
264,307,205576,2,0,B|219:274|219:274|150:286,1,107.999996704102,2|8,1:2|0:0,0:0:0:0:
0,372,205909,1,2,1:2:0:0:
29,162,206076,1,10,0:0:0:0:
76,300,206243,2,0,L|65:235,1,53.9999983520508,2|2,1:2|1:2,0:0:0:0:
175,61,206409,1,10,1:2:0:0:
171,92,206492,1,2,1:2:0:0:
167,124,206575,1,2,1:2:0:0:
164,157,206659,1,0,1:0:0:0:
161,189,206742,1,10,0:0:0:0:
11,24,206909,5,10,0:2:0:0:
33,80,206993,1,8,0:2:0:0:
88,99,207076,1,10,0:2:0:0:
142,92,207159,1,8,0:2:0:0:
175,61,207243,1,10,0:3:0:0:
215,22,207326,1,8,0:3:0:0:
265,7,207409,1,6,0:3:0:0:
311,14,207493,1,4,0:3:0:0:
337,35,207576,6,0,L|318:153,1,107.999996704102,6|8,1:2|0:2,0:0:0:0:
283,327,207909,1,2,1:2:0:0:
487,190,208076,1,10,0:0:0:0:
236,126,208243,2,0,L|255:244,1,107.999996704102,2|8,1:2|0:0,0:0:0:0:
341,384,208576,1,2,1:2:0:0:
399,161,208743,1,10,0:0:0:0:
512,324,208909,6,0,L|374:303,1,107.999996704102,2|8,1:2|0:2,0:0:0:0:
178,278,209243,2,0,L|168:217,1,53.9999983520508,2|0,1:2|0:0,0:0:0:0:
32,143,209409,2,0,L|22:203,1,53.9999983520508,10|0,0:0|0:0,0:0:0:0:
0,358,209576,1,2,1:2:0:0:
154,142,209743,1,8,0:2:0:0:
193,366,209909,1,2,1:2:0:0:
149,115,210076,1,8,0:2:0:0:
7,276,210243,6,0,B|62:278|62:278|96:231,1,107.999996704102,2|8,1:2|0:0,0:0:0:0:
43,28,210576,1,2,1:2:0:0:
169,224,210743,1,10,0:0:0:0:
284,60,210909,2,0,L|167:41,1,107.999996704102,2|8,1:2|0:2,0:0:0:0:
263,213,211243,1,2,1:2:0:0:
504,181,211409,1,10,0:0:0:0:
354,17,211576,6,0,L|363:78,1,53.9999983520508,2|2,1:2|1:2,0:0:0:0:
411,260,211743,1,10,1:2:0:0:
415,229,211826,1,2,1:2:0:0:
419,197,211909,1,2,1:2:0:0:
422,164,211993,1,0,1:0:0:0:
425,132,212076,1,10,0:2:0:0:
492,353,212243,5,10,0:0:0:0:
462,305,212325,1,8,0:0:0:0:
407,291,212409,1,10,0:0:0:0:
353,311,212493,1,8,0:0:0:0:
317,356,212576,1,8,0:0:0:0:
264,378,212659,1,8,0:0:0:0:
207,378,212743,1,10,0:0:0:0:
167,335,212826,1,8,0:0:0:0:
166,278,212909,6,0,L|269:292,1,90,6|8,1:2|0:0,0:0:0:0:
173,179,213243,1,2,1:2:0:0:
2,248,213409,2,0,B|48:256|48:256|94:211,1,90,10|0,0:0|1:0,0:0:0:0:
69,27,213743,2,0,L|82:119,1,90,8|0,0:0|1:0,0:0:0:0:
262,117,214076,1,10,0:0:0:0:
165,62,214243,5,2,1:2:0:0:
337,160,214409,1,10,0:0:0:0:
336,48,214576,1,2,1:2:0:0:
337,250,214743,2,0,P|382:221|432:194,1,90,10|0,0:0|1:0,0:0:0:0:
259,295,215076,2,0,P|301:318|354:349,1,90,8|0,0:0|1:0,0:0:0:0:
181,249,215409,1,10,0:0:0:0:
102,377,215576,6,0,P|144:354|197:322,1,90,6|8,1:2|0:0,0:0:0:0:
410,297,215909,1,2,1:2:0:0:
259,295,216076,2,0,P|301:318|354:349,1,90,10|0,0:0|1:2,0:0:0:0:
257,205,216409,1,10,0:0:0:0:
180,333,216576,1,0,1:2:0:0:
40,217,216743,1,10,0:0:0:0:
181,249,216909,5,6,1:2:0:0:
7,350,217076,1,8,0:3:0:0:
17,318,217159,1,8,0:3:0:0:
40,294,217242,1,4,0:3:0:0:
72,282,217326,1,8,0:3:0:0:
105,286,217409,1,8,0:3:0:0:
122,384,217576,6,0,P|90:370|79:341,1,45,6|0,0:3|0:0,0:0:0:0:
14,187,217743,1,8,0:3:0:0:
40,217,217826,1,8,0:3:0:0:
72,282,217909,1,8,0:3:0:0:
64,237,217992,1,4,0:3:0:0:
57,193,218075,1,4,0:3:0:0:
50,148,218159,1,4,0:3:0:0:
43,104,218242,5,6,1:2:0:0:
233,271,218409,1,10,0:2:0:0:
208,13,218576,1,2,1:2:0:0:
272,76,218743,1,10,0:2:0:0:
135,187,218909,5,2,1:2:0:0:
450,134,219076,1,10,0:2:0:0:
286,1,219243,1,2,1:2:0:0:
191,89,219409,1,10,0:2:0:0:
392,299,219576,5,2,1:2:0:0:
352,47,219743,1,10,0:2:0:0:
224,270,219909,1,2,1:2:0:0:
212,178,220076,1,10,0:2:0:0:
512,245,220243,5,2,1:2:0:0:
300,207,220409,1,10,0:2:0:0:
416,384,220576,1,2,1:2:0:0:
392,299,220743,1,10,0:2:0:0:
150,384,220909,5,2,1:2:0:0:
97,377,220992,1,0,1:2:0:0:
56,343,221075,1,10,1:2:0:0:
41,292,221159,1,0,1:2:0:0:
56,241,221242,1,2,1:2:0:0:
97,206,221325,1,0,1:2:0:0:
150,200,221409,1,10,1:2:0:0:
198,224,221492,1,0,1:2:0:0:
224,270,221575,1,0,1:2:0:0:
250,316,221660,1,0,1:2:0:0:
298,340,221743,1,10,1:2:0:0:
351,334,221827,1,0,1:2:0:0:
392,299,221910,1,0,1:2:0:0:
407,248,221993,1,0,1:2:0:0:
392,197,222077,1,10,1:2:0:0:
351,163,222160,1,0,1:2:0:0:
298,155,222243,6,0,L|310:233,1,53.9999983520508,2|0,1:2|1:2,0:0:0:0:
442,318,222409,1,8,1:2:0:0:
442,318,222493,1,0,1:2:0:0:
442,318,222576,2,0,L|368:289,1,53.9999983520508,2|0,1:2|1:2,0:0:0:0:
231,367,222743,1,8,1:2:0:0:
231,367,222826,1,0,1:2:0:0:
231,367,222909,2,0,L|292:317,1,53.9999983520508,10|8,0:3|0:3,0:0:0:0:
512,188,223076,1,4,0:3:0:0:
512,188,223159,1,4,0:3:0:0:
512,188,223243,1,10,0:0:0:0:
458,180,223326,1,8,0:0:0:0:
405,172,223409,1,8,0:0:0:0:
351,163,223493,1,8,0:0:0:0:
298,155,223576,6,0,L|310:233,1,53.9999983520508,6|0,1:2|0:0,0:0:0:0:
146,339,223743,2,0,L|163:221,1,107.999996704102,8|0,0:0|1:0,0:0:0:0:
15,66,224076,2,0,L|32:184,1,107.999996704102,8|0,0:0|1:0,0:0:0:0:
52,336,224409,1,8,0:0:0:0:
230,197,224576,2,0,B|196:154|196:154|133:159,1,107.999996704102,2|8,1:2|0:0,0:0:0:0:
280,269,224909,6,0,B|342:258|342:258|344:254|344:254|415:243,1,125.999996154785,2|8,1:2|0:0,0:0:0:0:
488,282,225159,2,0,B|468:313|468:313|378:329,1,125.999996154785,2|0,0:2|0:0,0:0:0:0:
230,197,225409,2,0,L|309:184,1,62.9999980773926,10|0,0:2|0:0,0:0:0:0:
512,155,225576,1,2,1:2:0:0:
247,22,225743,1,8,0:0:0:0:
401,245,225909,1,0,1:0:0:0:
503,0,226076,1,8,0:0:0:0:
275,104,226243,5,2,1:2:0:0:
400,12,226409,1,10,0:0:0:0:
430,168,226576,1,2,1:2:0:0:
230,197,226743,2,0,L|101:176,1,107.999996704102,10|0,0:2|1:2,0:0:0:0:
0,374,227076,2,0,L|128:353,1,107.999996704102,10|0,0:2|1:2,0:0:0:0:
289,330,227409,1,10,0:0:0:0:
65,247,227576,6,0,B|26:209|26:209|40:153,1,107.999996704102,2|8,1:2|0:2,0:0:0:0:
248,14,227909,2,0,B|287:52|287:52|273:108,1,107.999996704102,2|8,1:2|0:2,0:0:0:0:
207,341,228243,1,10,0:0:0:0:
216,288,228326,1,8,0:0:0:0:
255,252,228409,1,8,0:0:0:0:
307,248,228493,1,8,0:0:0:0:
352,276,228576,1,8,0:3:0:0:
348,258,228659,1,8,0:3:0:0:
345,240,228742,1,4,0:3:0:0:
343,224,228826,1,4,0:3:0:0:
340,207,228909,6,0,B|362:253|362:253|335:289|335:289|354:335,1,135.000005149842,6|8,1:2|0:0,0:0:0:0:
502,171,229243,1,0,1:0:0:0:
404,384,229409,1,8,0:0:0:0:
305,129,229576,2,0,B|345:111|345:111|420:148,1,125.999996154785,2|8,1:2|0:0,0:0:0:0:
502,171,229826,2,0,L|481:40,1,125.999996154785,2|0,0:2|0:0,0:0:0:0:
410,15,230076,2,0,L|336:26,1,62.9999980773926,10|0,0:2|0:0,0:0:0:0:
119,74,230243,6,0,B|113:50|89:22|89:22|118:44|151:51,1,125.999996154785,2|8,1:2|0:0,0:0:0:0:
183,135,230493,2,0,L|162:263,1,125.999996154785,2|0,0:2|0:0,0:0:0:0:
131,351,230743,2,0,L|205:339,1,62.9999980773926,10|0,0:2|0:0,0:0:0:0:
431,311,230909,1,2,1:2:0:0:
305,129,231076,1,8,0:0:0:0:
264,384,231243,1,0,1:0:0:0:
502,171,231409,1,8,0:0:0:0:
266,307,231576,6,0,B|248:272|248:272|148:256,1,125.999996154785,2|8,1:2|0:0,0:0:0:0:
55,272,231826,2,0,B|43:274|43:274|21:317|21:317|69:302|69:302|75:289,1,125.999996154785,2|0,0:2|0:0,0:0:0:0:
99,201,232076,2,0,L|88:134,1,62.9999980773926,10|0,0:2|0:0,0:0:0:0:
0,30,232243,2,0,B|35:54|35:54|137:38,1,125.999996154785,2|8,1:2|0:0,0:0:0:0:
226,0,232493,2,0,B|292:9|292:9|295:15|295:15|347:23,1,125.999996154785,2|0,0:2|0:0,0:0:0:0:
381,122,232743,2,0,L|311:111,1,62.9999980773926,10|0,0:2|0:0,0:0:0:0:
458,41,232909,6,0,B|478:75|478:75|462:176,1,125.999996154785,2|8,1:2|0:0,0:0:0:0:
290,274,233159,2,0,B|309:239|309:239|404:203,1,125.999996154785,2|0,0:0|0:0,0:0:0:0:
469,248,233409,2,0,L|457:318,1,62.9999980773926,10|0,0:2|0:0,0:0:0:0:
221,348,233576,5,10,0:0:0:0:
192,292,233659,1,8,0:0:0:0:
201,231,233742,1,8,0:0:0:0:
245,187,233826,1,8,0:0:0:0:
306,176,233909,1,8,0:2:0:0:
361,204,233992,1,8,0:0:0:0:
391,258,234076,1,8,0:2:0:0:
382,320,234159,1,8,0:0:0:0:
339,365,234243,6,0,L|276:355,1,53.9999983520508,14|0,1:2|1:2,0:0:0:0:
88,359,234409,1,0,1:2:0:0:
91,319,234492,1,0,1:2:0:0:
116,288,234575,1,0,1:2:0:0:
155,278,234659,1,0,1:2:0:0:
192,292,234743,2,0,L|127:302,1,53.9999983520508,10|0,1:2|1:2,0:0:0:0:
0,330,234909,1,0,1:2:0:0:
6,289,234992,1,0,1:2:0:0:
12,249,235075,1,0,1:2:0:0:
18,209,235159,1,0,1:2:0:0:
24,169,235243,2,0,L|88:179,1,53.9999983520508,10|0,1:2|1:2,0:0:0:0:
283,112,235409,1,0,1:2:0:0:
277,72,235493,1,0,1:2:0:0:
271,32,235577,6,0,L|207:42,1,53.9999983520508,8|0,1:2|1:2,0:0:0:0:
273,188,235743,2,0,P|304:185|341:157,1,53.9999983520508,2|0,1:2|1:2,0:0:0:0:
500,77,235909,1,0,1:2:0:0:
472,50,235993,1,0,1:2:0:0:
441,19,236076,2,0,L|427:102,1,53.9999983520508,8|0,1:2|1:2,0:0:0:0:
512,240,236243,2,0,L|498:157,1,53.9999983520508,0|0,1:2|1:2,0:0:0:0:
290,275,236409,1,0,1:2:0:0:
290,275,236493,1,0,1:2:0:0:
290,275,236576,2,0,B|342:223|394:273|394:273|407:330|461:338,1,202.500007724762,14|0,1:2|0:0,0:0:0:0:
512,240,236909,6,0,P|481:248|462:281,1,53.9999983520508,14|0,1:2|1:2,0:0:0:0:
292,384,237076,1,0,1:2:0:0:
246,376,237159,1,0,1:2:0:0:
202,369,237242,1,0,1:2:0:0:
158,362,237326,1,0,1:2:0:0:
114,355,237409,2,0,L|190:342,1,53.9999983520508,10|0,1:2|1:2,0:0:0:0:
273,188,237576,1,0,1:2:0:0:
264,144,237659,1,0,1:2:0:0:
231,114,237742,1,0,1:2:0:0:
187,113,237826,1,0,1:2:0:0:
151,138,237909,2,0,L|161:72,1,53.9999983520508,10|0,1:2|1:2,0:0:0:0:
0,9,238076,1,0,1:2:0:0:
6,52,238159,1,0,1:2:0:0:
13,96,238243,6,0,L|23:165,1,53.9999983520508,8|0,1:2|1:2,0:0:0:0:
45,313,238409,2,0,P|64:289|114:275,1,53.9999983520508,2|0,1:2|1:2,0:0:0:0:
273,188,238576,1,0,1:2:0:0:
267,231,238659,1,0,1:2:0:0:
261,274,238743,2,0,P|237:260|221:238,1,53.9999983520508,8|0,1:2|1:2,0:0:0:0:
191,17,238909,2,0,P|214:30|230:52,1,53.9999983520508,2|0,1:2|1:2,0:0:0:0:
426,168,239076,1,0,1:2:0:0:
426,168,239159,1,0,1:2:0:0:
426,168,239243,2,0,B|507:142|488:49|488:49|460:75|421:78,1,202.500007724762,14|0,1:2|0:0,0:0:0:0:
350,48,239576,6,0,L|361:118,1,53.9999983520508,14|0,1:2|1:2,0:0:0:0:
393,281,239743,1,0,1:2:0:0:
445,283,239826,1,0,1:2:0:0:
479,244,239909,1,0,1:2:0:0:
471,193,239993,1,0,1:2:0:0:
426,167,240076,2,0,P|401:185|371:194,1,53.9999983520508,10|0,1:2|1:2,0:0:0:0:
224,224,240243,1,0,1:2:0:0:
196,268,240326,1,0,1:2:0:0:
213,316,240409,1,0,1:2:0:0:
261,335,240493,1,0,1:2:0:0:
306,309,240576,2,0,P|302:278|310:247,1,53.9999983520508,10|0,1:2|1:2,0:0:0:0:
358,101,240743,1,0,1:2:0:0:
334,54,240826,1,0,1:2:0:0:
284,45,240909,6,0,P|255:64|221:65,1,53.9999983520508,8|0,1:2|1:2,0:0:0:0:
29,54,241076,1,2,1:2:0:0:
60,11,241159,1,0,1:2:0:0:
112,6,241242,1,0,1:2:0:0:
151,42,241326,1,0,1:2:0:0:
151,94,241409,2,0,P|127:121|125:155,1,53.9999983520508,8|0,1:2|1:2,0:0:0:0:
135,311,241576,1,2,1:2:0:0:
124,258,241659,1,0,1:2:0:0:
80,229,241742,1,0,1:2:0:0:
29,239,241826,1,0,1:2:0:0:
0,283,241909,2,0,B|46:311|90:286|90:286|136:236|199:258,1,202.500007724762,14|0,1:2|0:0,0:0:0:0:
306,309,242243,6,0,L|296:247,1,53.9999983520508,14|0,1:2|1:2,0:0:0:0:
237,67,242409,1,0,1:2:0:0:
279,117,242492,1,0,1:2:0:0:
344,126,242575,1,0,1:2:0:0:
398,87,242659,1,0,1:2:0:0:
411,23,242743,2,0,L|401:84,1,53.9999983520508,10|0,1:2|1:2,0:0:0:0:
372,252,242909,1,0,1:2:0:0:
422,209,242992,1,0,1:2:0:0:
484,226,243075,1,0,1:2:0:0:
506,287,243159,1,0,1:2:0:0:
468,340,243243,2,0,L|414:331,1,53.9999983520508,10|0,1:2|1:2,0:0:0:0:
232,193,243409,1,0,1:2:0:0:
232,193,243493,1,0,1:2:0:0:
232,193,243576,6,0,B|187:176|147:209|159:208|124:256|66:230,1,161.999995056153,2|0,1:2|1:2,0:0:0:0:
20,159,243826,2,0,B|-7:136|5:102|55:80|100:116|96:167,1,161.999995056153,2|0,1:2|1:2,0:0:0:0:
35,296,244076,2,0,P|13:270|9:228,1,67.5000025749208,2|0,1:2|0:0,0:0:0:0:
169,120,244243,1,10,1:2:0:0:
216,306,244409,6,0,L|208:257,2,36,2|2|2,0:0|0:0|0:0,0:0:0:0:
327,101,244909,6,0,L|295:298,1,188.999994232178,6|0,1:2|0:0,0:0:0:0:
282,364,245243,1,2,1:2:0:0:
492,274,245409,2,0,B|484:244|495:208|495:208|470:230|423:233,1,125.999996154785,10|0,0:0|1:2,0:0:0:0:
216,306,245743,2,0,L|198:199,1,107.999996704102,10|0,0:0|1:2,0:0:0:0:
60,0,246076,2,0,L|42:106,1,107.999996704102,10|0,0:2|1:0,0:0:0:0:
0,320,246409,5,10,0:0:0:0:
291,235,246576,1,0,1:2:0:0:
42,106,246743,1,10,0:0:0:0:
142,358,246909,1,0,1:2:0:0:
114,312,246992,1,0,1:2:0:0:
116,259,247075,1,10,1:2:0:0:
147,216,247159,1,0,1:2:0:0:
197,199,247242,1,2,1:2:0:0:
241,170,247326,1,0,1:2:0:0:
264,122,247409,1,10,1:2:0:0:
256,69,247493,1,0,1:2:0:0:
219,31,247576,6,0,B|168:26|148:53|148:53|178:61|188:86,1,107.999996704102,6|8,1:2|0:0,0:0:0:0:
299,242,247909,1,2,1:2:0:0:
299,242,247993,1,0,1:0:0:0:
299,242,248076,2,0,L|409:224,1,107.999996704102,10|0,0:2|1:0,0:0:0:0:
503,382,248409,2,0,P|452:360|451:289,1,107.999996704102,10|0,0:2|1:0,0:0:0:0:
512,87,248743,6,0,B|472:52|421:70|408:112|408:112|424:135|419:165,1,161.999995056153,10|0,0:0|0:0,0:0:0:0:
405,224,249076,1,10,0:0:0:0:
279,0,249243,1,2,1:2:0:0:
177,269,249409,1,10,0:2:0:0:
344,167,249576,1,0,1:0:0:0:
112,14,249743,1,8,0:3:0:0:
107,72,249826,1,8,0:3:0:0:
135,119,249909,1,10,0:3:0:0:
173,147,249993,1,4,0:3:0:0:
212,158,250076,1,6,0:3:0:0:
248,151,250159,1,4,0:3:0:0:
270,136,250243,6,0,P|313:90|370:93,1,107.999996704102,6|8,1:2|0:0,0:0:0:0:
420,144,250493,2,0,B|435:120|472:106|472:106|439:108|410:92,1,107.999996704102,2|0,0:2|0:0,0:0:0:0:
344,167,250743,2,0,L|355:238,1,53.9999983520508,10|0,0:0|0:0,0:0:0:0:
489,380,250909,2,0,L|507:263,1,107.999996704102,2|8,1:2|0:0,0:0:0:0:
459,19,251243,1,0,0:0:0:0:
459,19,251326,1,0,0:0:0:0:
459,19,251409,2,0,L|397:28,1,53.9999983520508,10|0,0:0|0:0,0:0:0:0:
270,136,251576,6,0,B|219:128|219:128|215:125|215:125|138:113,1,107.999996704102,2|8,1:2|0:0,0:0:0:0:
19,26,251826,2,0,P|85:26|105:68,1,107.999996704102,2|0,0:0|0:0,0:0:0:0:
84,134,252076,2,0,L|92:193,1,53.9999983520508,10|0,0:0|0:0,0:0:0:0:
123,363,252243,1,2,1:2:0:0:
120,310,252326,1,0,1:2:0:0:
79,277,252409,1,0,1:2:0:0:
27,286,252493,1,0,1:2:0:0:
0,330,252576,2,0,L|70:318,1,53.9999983520508,8|8,0:2|0:0,0:0:0:0:
217,199,252743,2,0,L|262:253,1,53.9999983520508,10|8,0:2|0:0,0:0:0:0:
392,384,252909,5,6,1:2:0:0:
379,122,253076,1,8,0:0:0:0:
227,349,253243,1,10,0:0:0:0:
486,265,253409,2,0,L|358:244,1,107.999996704102,2|8,1:2|0:0,0:0:0:0:
133,205,253743,1,2,1:2:0:0:
259,0,253909,1,2,1:2:0:0:
304,242,254076,6,0,B|319:180|262:134|200:154|200:154|222:183|215:223,1,215.999993408203,6|0,1:2|1:2,0:0:0:0:
219,240,254493,1,0,1:0:0:0:
219,240,254576,1,8,0:0:0:0:
42,353,254743,1,0,1:2:0:0:
56,336,254826,1,0,1:0:0:0:
70,320,254910,1,0,1:2:0:0:
105,360,254993,1,8,0:0:0:0:
155,376,255076,1,10,0:0:0:0:
208,365,255160,1,8,0:0:0:0:
247,329,255243,1,10,0:0:0:0:
286,292,255326,1,8,0:0:0:0:
338,281,255410,1,10,0:0:0:0:
388,298,255493,1,8,0:0:0:0:
424,338,255576,6,0,L|404:211,1,107.999996704102,6|8,1:2|0:0,0:0:0:0:
372,1,255909,1,2,1:2:0:0:
275,177,256076,2,0,B|315:175|340:187|340:187|316:166|311:135,1,107.999996704102,10|0,0:2|1:2,0:0:0:0:
55,155,256409,2,0,P|127:120|209:175,1,161.999995056153,10|0,0:2|0:0,0:0:0:0:
211,228,256743,2,0,B|192:263|169:279|169:279|199:269|209:275,1,107.999996704102,10|0,0:0|0:0,0:0:0:0:
388,115,257076,5,10,0:0:0:0:
175,0,257243,1,2,1:2:0:0:
290,259,257409,1,10,0:0:0:0:
427,32,257576,1,0,1:2:0:0:
374,25,257659,1,0,1:2:0:0:
326,50,257742,1,10,1:2:0:0:
301,96,257826,1,0,1:2:0:0:
307,149,257909,1,2,1:2:0:0:
341,190,257992,1,0,1:2:0:0:
393,204,258076,1,10,1:2:0:0:
443,186,258159,1,0,1:2:0:0:
475,143,258243,6,0,L|456:261,1,107.999996704102,6|8,1:2|0:0,0:0:0:0:
295,384,258576,1,2,1:2:0:0:
481,376,258743,2,0,P|446:330|374:322,1,107.999996704102,10|0,0:0|1:0,0:0:0:0:
127,371,259076,2,0,P|184:363|227:305,1,107.999996704102,10|0,0:0|1:0,0:0:0:0:
308,67,259409,6,0,B|259:43|222:77|222:77|199:118|159:120,1,161.999995056153,10|0,0:2|0:0,0:0:0:0:
92,113,259743,1,10,0:0:0:0:
149,291,259909,2,0,L|130:175,1,107.999996704102,2|10,1:2|0:2,0:0:0:0:
13,372,260243,1,0,1:0:0:0:
215,198,260409,1,10,0:0:0:0:
237,180,260493,1,8,0:0:0:0:
271,140,260576,1,10,0:0:0:0:
262,193,260659,1,8,0:0:0:0:
254,246,260742,1,10,0:0:0:0:
245,300,260826,1,8,0:0:0:0:
237,353,260909,6,0,B|274:333|274:333|365:357,1,125.999996154785,6|8,1:2|0:0,0:0:0:0:
453,378,261159,2,0,B|463:339|488:313|488:313|460:334|441:333,1,125.999996154785,2|0,0:2|0:0,0:0:0:0:
376,265,261409,2,0,B|385:203|385:203|382:199|382:199|395:118,1,125.999996154785,10|0,0:2|1:0,0:0:0:0:
512,245,261743,1,10,0:0:0:0:
271,140,261909,1,2,1:2:0:0:
497,24,262076,1,10,0:0:0:0:
376,265,262243,6,0,L|269:248,1,107.999996704102,6|8,1:2|0:0,0:0:0:0:
32,372,262576,2,0,L|138:355,1,107.999996704102,2|8,1:2|0:0,0:0:0:0:
78,191,262909,1,10,0:2:0:0:
250,351,263076,1,0,1:0:0:0:
250,351,263159,1,0,1:0:0:0:
250,351,263243,1,8,0:0:0:0:
166,219,263409,1,0,1:0:0:0:
167,249,263493,1,0,1:0:0:0:
168,279,263576,5,6,1:2:0:0:
15,140,263743,1,8,0:0:0:0:
32,372,263909,1,8,0:0:0:0:
240,147,264076,1,2,1:2:0:0:
25,262,264243,1,10,0:0:0:0:
243,344,264409,1,2,1:2:0:0:
0,264,264576,1,2,1:2:0:0:
188,81,264743,6,0,B|239:42|309:87|309:87|329:138|387:138,1,215.999993408203,6|2,1:2|1:2,0:0:0:0:
399,130,265159,1,0,1:0:0:0:
422,124,265243,1,10,0:0:0:0:
288,258,265409,1,0,1:0:0:0:
265,252,265493,1,0,1:0:0:0:
242,246,265576,1,10,0:2:0:0:
280,208,265660,1,8,0:2:0:0:
333,199,265743,1,10,0:2:0:0:
382,219,265826,1,8,0:2:0:0:
413,262,265910,1,10,0:2:0:0:
416,315,265993,1,8,0:2:0:0:
390,362,266076,1,10,0:2:0:0:
343,387,266160,1,8,0:2:0:0:
290,384,266243,6,0,L|169:364,1,116.999994644165,6|8,1:2|0:2,0:0:0:0:
0,330,266576,1,2,1:2:0:0:
212,170,266743,1,10,0:0:0:0:
0,107,266909,2,0,L|21:240,1,116.999994644165,0|8,1:2|0:0,0:0:0:0:
185,17,267243,1,2,1:2:0:0:
148,280,267409,1,10,0:0:0:0:
327,188,267576,6,0,L|188:166,1,116.999994644165,2|8,1:2|0:0,0:0:0:0:
332,9,267909,2,0,L|393:0,1,58.4999973220826,2|0,1:2|0:0,0:0:0:0:
512,139,268076,2,0,L|450:129,1,58.4999973220826,10|0,0:0|0:0,0:0:0:0:
228,96,268243,1,2,1:2:0:0:
473,41,268409,1,8,0:0:0:0:
427,309,268576,1,2,1:2:0:0:
371,78,268743,1,8,0:0:0:0:
225,294,268909,6,0,L|363:272,1,116.999994644165,2|8,1:2|0:0,0:0:0:0:
512,254,269243,1,2,1:2:0:0:
303,142,269409,1,10,0:0:0:0:
237,384,269576,2,0,L|98:362,1,116.999994644165,2|8,1:2|0:0,0:0:0:0:
238,198,269909,1,2,1:2:0:0:
0,234,270076,1,10,0:0:0:0:
147,293,270243,6,0,L|137:232,1,58.4999973220826,2|2,1:2|1:2,0:0:0:0:
22,101,270409,1,10,1:2:0:0:
16,134,270493,1,2,1:2:0:0:
11,167,270575,1,2,1:0:0:0:
6,201,270659,1,0,1:0:0:0:
0,234,270743,1,10,0:0:0:0:
4,10,270909,5,10,0:0:0:0:
28,68,270993,1,8,0:0:0:0:
80,107,271076,1,10,0:0:0:0:
143,114,271159,1,8,0:0:0:0:
203,88,271243,1,10,0:3:0:0:
234,40,271326,1,8,0:3:0:0:
277,11,271409,1,6,0:3:0:0:
323,10,271493,1,4,0:3:0:0:
357,25,271576,6,0,L|334:165,1,116.999994644165,6|8,1:2|0:0,0:0:0:0:
294,366,271909,1,2,1:2:0:0:
512,218,272076,1,10,0:0:0:0:
287,249,272243,2,0,L|419:228,1,116.999994644165,2|8,1:2|0:0,0:0:0:0:
396,381,272576,1,2,1:2:0:0:
338,140,272743,1,10,0:0:0:0:
84,298,272909,6,0,L|216:318,1,116.999994644165,2|8,1:2|0:0,0:0:0:0:
250,154,273243,2,0,L|182:164,1,58.4999973220826,2|0,1:2|0:0,0:0:0:0:
28,23,273409,2,0,L|95:33,1,58.4999973220826,10|0,0:0|0:0,0:0:0:0:
281,80,273576,1,2,1:2:0:0:
38,227,273743,1,8,0:0:0:0:
176,0,273909,1,2,1:2:0:0:
306,218,274076,1,8,0:0:0:0:
103,106,274243,6,0,L|125:245,1,116.999994644165,2|8,1:2|0:0,0:0:0:0:
152,384,274576,1,2,1:2:0:0:
250,154,274743,1,10,0:0:0:0:
392,348,274909,2,0,L|258:327,1,116.999994644165,2|8,1:2|0:0,0:0:0:0:
458,199,275242,1,2,1:2:0:0:
222,231,275409,1,10,0:0:0:0:
392,348,275576,6,0,L|381:279,1,58.4999973220826,2|2,1:2|1:2,0:0:0:0:
474,99,275743,1,10,1:2:0:0:
468,132,275826,1,2,1:2:0:0:
463,165,275909,1,2,1:2:0:0:
458,199,275993,1,0,1:0:0:0:
452,232,276076,1,10,0:0:0:0:
321,122,276243,5,10,0:0:0:0:
333,65,276326,1,8,0:0:0:0:
377,29,276409,1,10,0:0:0:0:
435,28,276492,1,8,0:0:0:0:
479,64,276576,1,10,0:3:0:0:
411,51,276659,1,8,0:3:0:0:
344,42,276742,1,6,0:3:0:0:
277,31,276825,1,4,0:3:0:0:
210,21,276909,1,6,1:2:0:0:
210,21,277243,5,0,1:0:0:0:
217,68,277326,1,0,1:0:0:0:
224,116,277409,1,0,1:0:0:0:
232,164,277492,1,0,1:0:0:0:
239,212,277576,1,8,0:0:0:0:
27,5,277909,1,0,1:2:0:0:
63,244,278409,1,0,1:2:0:0:
103,104,278743,1,0,1:2:0:0:
76,101,278826,1,0,1:2:0:0:
49,98,278909,1,8,0:2:0:0:
250,120,279159,1,0,1:0:0:0:
451,142,279409,1,0,1:0:0:0:
362,30,279576,5,6,1:2:0:0:
333,221,279910,1,0,1:0:0:0:
340,174,279993,1,0,1:0:0:0:
347,126,280076,1,0,1:0:0:0:
355,78,280159,1,0,1:0:0:0:
362,30,280243,1,8,0:0:0:0:
326,268,280576,1,0,1:2:0:0:
362,30,281076,1,0,1:2:0:0:
461,197,281409,1,0,1:2:0:0:
456,168,281492,1,0,1:2:0:0:
451,142,281575,1,8,0:2:0:0:
326,268,281743,1,0,1:2:0:0:
331,242,281826,1,0,1:2:0:0:
486,341,282076,1,0,1:2:0:0:
346,158,282243,5,6,1:2:0:0:
246,380,282576,1,0,1:0:0:0:
293,373,282659,1,0,1:0:0:0:
341,366,282742,1,0,1:0:0:0:
389,358,282825,1,0,1:0:0:0:
437,351,282909,1,8,0:0:0:0:
203,232,283243,1,0,1:2:0:0:
437,351,283743,1,0,1:2:0:0:
294,289,284076,1,0,1:2:0:0:
321,286,284159,1,0,1:2:0:0:
348,283,284242,1,8,0:2:0:0:
246,380,284409,1,0,1:2:0:0:
219,377,284492,1,0,1:2:0:0:
15,346,284743,1,0,1:2:0:0:
203,232,284909,5,6,1:2:0:0:
113,384,285243,1,0,1:0:0:0:
106,337,285326,1,0,1:0:0:0:
99,289,285409,1,0,1:0:0:0:
91,241,285492,1,0,1:0:0:0:
84,193,285576,1,8,0:0:0:0:
294,289,285909,1,0,1:2:0:0:
330,50,286409,1,0,1:2:0:0:
401,275,286743,5,0,1:2:0:0:
374,278,286826,1,0,1:2:0:0:
347,281,286909,2,0,L|279:291,1,53.9999983520508,2|0,1:2|1:2,0:0:0:0:
148,288,287076,1,2,1:2:0:0:
148,288,287159,2,0,B|172:339|228:333|228:333|215:306|216:283,1,135.000005149842,0|0,1:0|1:0,0:0:0:0:
246,224,287409,2,0,L|236:162,1,45,10|8,0:0|0:0,0:0:0:0:
212,0,287576,5,8,0:0:0:0:
