osu file format v14

[General]
AudioFilename: audio.mp3
AudioLeadIn: 0
PreviewTime: 153217
Countdown: 0
SampleSet: Soft
StackLeniency: 0.7
Mode: 0
LetterboxInBreaks: 0
WidescreenStoryboard: 1

[Editor]
Bookmarks: 287526
DistanceSpacing: 1
BeatDivisor: 4
GridSize: 32
TimelineZoom: 2.5

[Metadata]
Title:Psychological Mental Health
TitleUnicode:Psychological Mental Health
Artist:Kitamura Eri
ArtistUnicode:喜多村英梨
Creator:Mordred
Version:Yogurtt's Extra
Source:
Tags:kowari gazimal yogurtt oriental illusion dream dystopia record kitaeri 南悠翔 minami yuto yuuto corsace open co2021 ro16 tb japanese rock
BeatmapID:3264241
BeatmapSetID:1557347

[Difficulty]
HPDrainRate:7
CircleSize:4
OverallDifficulty:8
ApproachRate:9.3
SliderMultiplier:1.8
SliderTickRate:1

[Events]
//Background and Video events
0,0,"46073811_p0 x.jpg",0,0
//Break Periods
2,181110,185689
//Storyboard Layer 0 (Background)
//Storyboard Layer 1 (Fail)
//Storyboard Layer 2 (Pass)
//Storyboard Layer 3 (Foreground)
//Storyboard Layer 4 (Overlay)
//Storyboard Sound Samples

[TimingPoints]
530,375,4,2,1,50,1,0
12530,392.156862745098,4,2,1,50,1,0
26647,-83.3333333333333,4,2,1,60,0,0
31745,-62.5,4,2,1,60,0,0
32333,-83.3333333333333,4,2,1,60,0,0
38020,-62.5,4,2,1,60,0,0
38314,-62.5,4,2,1,60,0,0
38608,-83.3333333333333,4,2,1,60,0,0
39196,333.333333333333,4,2,1,70,1,0
39196,-1000,4,2,1,70,0,0
40529,333.333333333333,4,2,1,50,1,0
40529,-100,4,2,1,50,0,0
45862,-100,4,2,1,60,0,0
50862,-142.857142857143,4,2,1,60,0,0
51195,-90.9090909090909,4,2,1,70,0,1
61862,-100,4,2,1,50,0,0
66862,-71.4285714285714,4,2,1,50,0,0
67195,-100,4,2,1,60,0,0
72195,-76.9230769230769,4,2,1,50,0,0
72528,-90.9090909090909,4,2,1,60,0,0
74862,-71.4285714285714,4,2,1,60,0,0
75195,-90.9090909090909,4,2,1,60,0,0
77528,-71.4285714285714,4,2,1,60,0,0
77862,-90.9090909090909,4,2,1,60,0,0
80195,-71.4285714285714,4,2,1,60,0,0
80528,-90.9090909090909,4,2,1,60,0,0
83195,-90.9090909090909,4,2,1,60,0,0
104528,-125,4,2,1,60,0,0
109195,-166.666666666667,4,2,1,60,0,0
109862,-100,4,2,1,60,0,0
119862,-133.333333333333,4,2,1,60,0,0
120862,-100,4,2,1,60,0,0
131196,428.571428571429,4,2,1,60,1,0
132910,428.571428571429,4,2,1,50,1,0
138052,-83.3333333333333,4,2,1,60,0,0
139338,-66.6666666666667,4,2,1,60,0,0
139767,-83.3333333333333,4,2,1,80,0,1
144910,-71.4285714285714,4,2,1,80,0,1
145231,-83.3333333333333,4,2,1,80,0,1
151767,-166.666666666667,4,2,1,70,0,0
152195,-111.111111111111,4,2,1,70,0,0
152624,-83.3333333333333,4,2,1,70,0,0
153052,-66.6666666666667,4,2,1,80,0,0
153481,-76.9230769230769,4,2,1,80,0,1
179195,-166.666666666667,4,2,1,80,0,1
179624,-111.111111111111,4,2,1,80,0,1
179945,-83.3333333333333,4,2,1,80,0,1
180481,-62.5,4,2,1,80,0,1
180910,333.333333333333,4,2,1,80,1,0
180993,-100,4,2,1,5,0,0
182243,-100,4,2,1,10,0,0
182910,-100,4,2,1,15,0,0
183576,-100,4,2,1,20,0,0
184243,-100,4,2,1,25,0,0
184910,-100,4,2,1,30,0,0
185243,-100,4,2,1,35,0,0
185576,-100,4,2,1,40,0,0
185910,-100,4,2,1,45,0,0
186160,-100,4,2,1,5,0,0
186243,-125,4,2,1,50,0,0
190243,-100,4,2,1,60,0,0
191576,-100,4,2,1,50,0,0
196909,-100,4,2,1,60,0,0
201909,-142.857142857143,4,2,1,60,0,0
202243,-90.9090909090909,4,2,1,70,0,1
212909,-100,4,2,1,60,0,0
217909,-71.4285714285714,4,2,1,60,0,0
218243,-100,4,2,1,60,0,0
223576,-90.9090909090909,4,2,1,60,0,0
236576,-71.4285714285714,4,2,1,60,0,0
236909,-90.9090909090909,4,2,1,60,0,0
239243,-71.4285714285714,4,2,1,60,0,0
239576,-90.9090909090909,4,2,1,60,0,0
241909,-71.4285714285714,4,2,1,60,0,0
242243,-90.9090909090909,4,2,1,60,0,0
243576,-76.9230769230769,4,2,1,60,0,0
244909,-90.9090909090909,4,2,1,60,0,0
266243,-90.9090909090909,4,2,1,70,0,1
276909,-100,4,2,1,70,0,0

[Colours]
Combo1 : 230,215,236
Combo2 : 250,182,199
Combo3 : 253,209,190
Combo4 : 230,170,170

[HitObjects]
55,84,12530,5,6,1:1:0:0:
67,106,12628,1,0,1:2:0:0:
212,20,12922,1,0,1:2:0:0:
204,44,13020,1,0,1:2:0:0:
384,120,13314,1,8,0:2:0:0:
359,126,13412,1,0,1:2:0:0:
334,132,13510,1,0,1:2:0:0:
309,138,13608,1,0,1:2:0:0:
169,277,13804,1,0,1:2:0:0:
161,253,13902,1,0,1:2:0:0:
287,300,14098,5,2,0:0:0:0:
423,206,14294,1,0,1:2:0:0:
415,230,14392,1,0,1:2:0:0:
407,254,14490,1,0,1:2:0:0:
195,99,14882,1,8,0:2:0:0:
206,121,14980,1,0,1:2:0:0:
217,144,15078,1,0,1:2:0:0:
228,167,15177,1,0,1:2:0:0:
284,251,15373,1,0,1:2:0:0:
295,228,15472,1,0,1:2:0:0:
398,70,15667,5,6,1:1:0:0:
375,81,15766,1,0,1:0:0:0:
352,92,15864,1,0,1:2:0:0:
330,103,15962,1,0,1:2:0:0:
307,115,16059,1,0,1:2:0:0:
195,249,16255,1,0,1:2:0:0:
172,237,16352,1,0,1:2:0:0:
150,226,16450,1,8,0:2:0:0:
127,215,16548,1,0,1:2:0:0:
105,202,16647,1,0,1:2:0:0:
83,189,16745,1,0,1:2:0:0:
72,314,16941,1,0,0:0:0:0:
92,299,17039,1,0,1:2:0:0:
278,220,17235,5,2,0:0:0:0:
271,377,17431,1,0,1:2:0:0:
263,353,17529,1,0,1:2:0:0:
255,329,17627,1,0,1:2:0:0:
407,190,18020,1,8,0:2:0:0:
396,213,18118,1,0,1:2:0:0:
243,233,18314,1,0,1:2:0:0:
267,241,18412,1,0,1:0:0:0:
291,249,18510,1,0,1:2:0:0:
315,257,18608,1,0,1:2:0:0:
476,292,18804,5,6,1:1:0:0:
465,269,18902,1,0,1:2:0:0:
471,110,19196,1,0,1:2:0:0:
482,133,19294,1,0,1:2:0:0:
301,156,19588,1,8,0:2:0:0:
312,133,19686,1,0,1:0:0:0:
323,110,19784,1,0,1:2:0:0:
334,87,19882,1,0,1:2:0:0:
451,34,20079,1,0,1:2:0:0:
428,45,20177,1,0,1:2:0:0:
258,27,20373,5,0,0:0:0:0:
214,112,20569,1,0,1:2:0:0:
191,101,20667,1,0,1:2:0:0:
168,90,20765,1,0,1:2:0:0:
110,290,21157,1,8,0:2:0:0:
121,267,21255,1,0,1:2:0:0:
132,244,21353,1,0,1:2:0:0:
143,221,21451,1,0,1:2:0:0:
90,112,21647,1,0,1:2:0:0:
101,135,21745,1,0,1:2:0:0:
236,219,21941,5,6,1:1:0:0:
302,110,22137,1,0,1:2:0:0:
313,87,22235,1,0,1:2:0:0:
324,64,22333,1,0,1:2:0:0:
460,264,22530,1,0,1:2:0:0:
437,253,22628,1,0,1:2:0:0:
414,242,22726,1,8,0:2:0:0:
391,231,22824,1,0,1:2:0:0:
368,220,22922,1,0,1:2:0:0:
345,209,23020,1,0,1:2:0:0:
197,142,23216,1,0,1:2:0:0:
220,131,23314,1,0,1:2:0:0:
307,32,23510,5,0,0:0:0:0:
259,207,23706,1,0,1:2:0:0:
266,231,23804,1,0,1:2:0:0:
274,255,23902,1,0,1:2:0:0:
208,362,24294,5,8,0:2:0:0:
200,338,24392,1,0,1:2:0:0:
193,314,24490,2,0,L|174:247,1,45,0|0,1:2|1:2,0:0:0:0:
166,137,24686,2,0,L|178:180,1,45,0|0,1:2|1:2,0:0:0:0:
109,355,24882,2,0,L|90:288,1,45,0|0,1:2|1:2,0:0:0:0:
250,140,25079,5,2,1:2:0:0:
53,94,25471,1,2,0:2:0:0:
180,270,25863,1,2,0:2:0:0:
180,270,25961,1,2,0:2:0:0:
180,270,26059,2,0,L|245:290,1,45,2|0,0:2|0:0,0:0:0:0:
261,25,26255,2,0,L|225:37,6,22.5,10|0|0|0|2|0|0,0:2|0:0|0:0|0:0|0:2|0:0|0:0,0:0:0:0:
284,4,26647,6,0,P|268:102|260:234,1,215.999993408203,6|8,1:1|0:2,0:2:0:0:
342,266,27137,1,0,0:2:0:0:
342,266,27235,2,0,P|337:239|336:212,1,53.9999983520508,2|0,0:2|0:2,0:2:0:0:
420,142,27431,2,0,P|415:168|414:195,1,53.9999983520508,2|0,1:2|0:2,0:2:0:0:
242,196,27628,2,0,P|215:191|188:190,1,53.9999983520508,2|0,0:2|0:2,0:2:0:0:
116,293,27824,2,0,P|142:288|169:287,1,53.9999983520508,10|0,0:2|0:2,0:2:0:0:
263,303,28020,2,0,P|258:329|257:356,1,53.9999983520508,2|0,0:2|0:2,0:2:0:0:
81,376,28216,6,0,P|27:299|51:232,1,161.999995056153,2|0,1:2|0:2,0:2:0:0:
108,197,28608,1,8,0:2:0:0:
120,188,28706,1,0,0:2:0:0:
132,179,28804,2,0,L|116:111,1,53.9999983520508,2|0,0:2|0:2,0:2:0:0:
205,15,29000,1,2,1:2:0:0:
237,17,29098,1,0,1:2:0:0:
266,33,29196,1,2,1:2:0:0:
286,59,29294,1,0,1:2:0:0:
294,91,29392,2,0,P|286:131|284:161,1,53.9999983520508,10|0,0:2|0:2,0:2:0:0:
224,237,29588,2,0,P|217:210|214:183,1,53.9999983520508,2|0,1:2|0:2,0:2:0:0:
437,163,29784,6,0,P|367:178|357:283,1,161.999995056153,2|0,1:2|0:0,0:2:0:0:
427,314,30177,1,8,0:2:0:0:
432,301,30275,1,0,0:2:0:0:
436,288,30373,2,0,P|421:252|418:213,1,53.9999983520508,2|0,0:2|0:2,0:2:0:0:
310,380,30569,2,0,P|324:343|350:314,1,53.9999983520508,2|0,1:2|0:2,0:2:0:0:
155,355,30765,2,0,P|191:340|230:337,1,53.9999983520508,2|0,0:2|0:2,0:2:0:0:
63,227,30961,2,0,P|99:241|128:267,1,53.9999983520508,10|0,0:2|0:2,0:2:0:0:
88,71,31157,2,0,P|103:107|106:145,1,53.9999983520508,2|0,0:2|0:2,0:2:0:0:
224,237,31353,2,0,P|204:183|234:108,1,107.999996704102,2|0,1:2|0:0,0:2:0:0:
384,46,31647,5,0,1:2:0:0:
403,67,31745,2,0,P|346:90|262:44,1,144,10|0,0:2|0:2,0:2:0:0:
288,48,32039,6,0,P|311:105|265:189,1,144,2|0,0:2|0:2,0:2:0:0:
191,154,32333,1,2,1:2:0:0:
191,154,32431,1,0,1:2:0:0:
191,154,32530,2,0,P|179:103|170:66,1,53.9999983520508,10|0,0:2|1:2,0:0:0:0:
355,204,32726,2,0,P|343:255|334:292,1,53.9999983520508,2|0,1:2|0:2,0:2:0:0:
238,353,32922,6,0,P|172:321|62:332,1,161.999995056153,6|0,1:2|0:0,0:2:0:0:
32,382,33314,1,8,0:2:0:0:
23,369,33412,1,0,0:2:0:0:
14,356,33510,2,0,P|7:322|-5:278,1,53.9999983520508,2|0,0:2|0:2,0:2:0:0:
113,184,33706,2,0,P|106:218|94:262,1,53.9999983520508,2|0,1:2|0:2,0:2:0:0:
240,242,33902,2,0,P|213:236|187:230,1,53.9999983520508,2|0,0:2|0:2,0:2:0:0:
0,137,34098,2,0,P|26:131|52:125,1,53.9999983520508,10|0,0:2|0:2,0:2:0:0:
156,89,34294,2,0,P|149:62|144:36,1,53.9999983520508,2|0,0:2|0:2,0:2:0:0:
293,20,34490,6,0,P|248:72|266:176,1,161.999995056153,2|0,1:2|0:2,0:2:0:0:
381,128,34882,1,8,0:2:0:0:
381,128,34980,1,0,0:2:0:0:
381,128,35079,2,0,P|355:112|308:106,1,53.9999983520508,2|0,0:2|0:2,0:2:0:0:
267,351,35275,1,2,1:2:0:0:
305,343,35373,1,0,1:2:0:0:
332,315,35471,1,2,1:2:0:0:
339,276,35569,1,0,1:2:0:0:
322,240,35667,2,0,P|323:213|328:172,1,53.9999983520508,10|0,0:2|0:2,0:2:0:0:
459,71,35863,2,0,P|460:98|465:139,1,53.9999983520508,2|0,1:2|0:2,0:2:0:0:
238,264,36059,6,0,P|178:276|64:321,1,161.999995056153,2|0,1:2|0:0,0:2:0:0:
22,268,36451,1,8,0:2:0:0:
11,251,36549,1,0,0:2:0:0:
0,234,36647,2,0,P|3:190|2:154,1,53.9999983520508,2|0,0:2|0:2,0:2:0:0:
147,89,36843,2,0,P|150:133|149:169,1,53.9999983520508,2|0,1:2|0:2,0:2:0:0:
47,92,37039,2,0,P|50:48|49:12,1,53.9999983520508,2|0,0:2|0:2,0:2:0:0:
286,124,37235,2,0,P|242:121|206:122,1,53.9999983520508,10|0,0:2|0:2,0:2:0:0:
163,10,37431,2,0,P|189:9|216:6,1,53.9999983520508,2|0,1:2|0:2,0:2:0:0:
358,15,37628,2,0,P|321:55|319:128,1,107.999996704102,2|0,1:2|0:0,0:2:0:0:
390,232,37922,5,0,0:2:0:0:
411,221,38020,2,0,P|448:140|399:88,1,144,10|0,0:2|0:2,0:2:0:0:
407,90,38314,6,0,P|399:144|491:215,1,144,2|0,0:2|0:2,0:2:0:0:
512,303,38608,5,2,1:2:0:0:
512,303,38706,1,0,1:2:0:0:
512,303,38804,2,0,P|503:332|499:377,1,53.9999983520508,10|0,0:2|1:2,0:0:0:0:
317,278,39000,2,0,P|308:249|304:204,1,53.9999983520508,2|0,1:2|0:2,0:2:0:0:
494,137,39196,5,6,1:1:0:0:
256,192,39279,12,2,40362,0:2:0:0:
92,78,40529,5,6,1:2:0:0:
202,186,40695,2,0,P|205:236|220:306,1,90,10|2,0:2|1:2,0:0:0:0:
331,143,41029,1,10,0:2:0:0:
211,364,41195,2,0,P|141:333|141:226,1,180,0|0,1:2|1:2,0:0:0:0:
253,112,41695,1,10,0:2:0:0:
88,169,41862,6,0,P|41:178|-11:174,1,90,2|10,1:2|0:2,0:0:0:0:
300,282,42195,2,0,P|253:273|201:277,1,90,2|10,1:2|0:2,0:0:0:0:
287,33,42529,1,8,0:2:0:0:
311,45,42612,1,8,0:2:0:0:
329,65,42695,1,8,0:2:0:0:
339,91,42779,1,8,0:2:0:0:
337,120,42862,2,0,P|331:154|330:194,3,45,8|8|4|4,0:3|0:3|0:3|0:3,0:0:0:0:
372,227,43195,5,6,1:2:0:0:
197,106,43362,2,0,P|198:150|190:194,1,90,10|2,0:2|1:2,0:0:0:0:
385,309,43695,2,0,P|447:268|405:152,1,180,10|10,0:2|0:2,0:2:0:0:
282,263,44195,2,0,P|290:307|289:352,1,90,0|10,1:2|0:2,0:0:0:0:
190,194,44528,5,2,1:2:0:0:
370,82,44695,1,8,0:2:0:0:
202,26,44862,1,2,1:2:0:0:
328,164,45028,1,8,0:2:0:0:
139,262,45195,2,0,P|104:213|116:159,1,90,10|8,0:2|0:2,0:0:0:0:
138,157,45445,1,8,0:2:0:0:
177,151,45528,1,10,0:2:0:0:
213,169,45612,1,8,0:2:0:0:
250,183,45695,1,10,0:2:0:0:
290,178,45778,1,8,0:2:0:0:
328,164,45862,5,6,1:2:0:0:
140,79,46028,1,10,0:2:0:0:
282,263,46195,1,2,1:2:0:0:
282,263,46362,2,0,P|290:307|289:352,1,90,10|0,0:2|1:2,0:2:0:0:
416,139,46695,2,0,P|407:94|409:50,1,90,10|0,0:2|1:2,0:2:0:0:
259,99,47028,1,10,0:2:0:0:
399,224,47195,5,2,1:2:0:0:
487,86,47362,1,10,0:2:0:0:
328,164,47528,1,2,1:2:0:0:
493,256,47695,1,10,0:2:0:0:
493,256,47862,2,0,P|500:304|509:355,1,90,0|10,1:2|0:2,0:0:0:0:
335,145,48195,2,0,P|328:97|319:46,1,90,0|10,1:2|0:2,0:0:0:0:
163,174,48528,5,2,1:2:0:0:
133,188,48611,1,0,1:2:0:0:
112,213,48694,1,10,1:2:0:0:
103,245,48778,1,0,1:2:0:0:
109,278,48862,2,0,P|117:312|120:349,1,45,2|0,1:2|1:2,0:0:0:0:
250,184,49028,2,0,P|242:217|239:254,3,45,10|0|0|0,1:2|1:2|1:2|1:2,0:0:0:0:
348,283,49362,2,0,P|340:249|337:212,3,45,10|0|0|0,1:2|1:2|1:2|1:2,0:0:0:0:
392,156,49695,5,10,1:2:0:0:
392,156,49778,1,0,1:2:0:0:
392,156,49862,2,0,P|413:161|435:165,1,45,2|0,1:2|1:2,0:0:0:0:
286,71,50028,2,0,P|264:65|242:61,1,45,8|0,1:2|1:2,0:2:0:0:
416,35,50195,1,2,1:2:0:0:
416,35,50278,1,0,1:2:0:0:
416,35,50362,2,0,P|437:29|459:25,1,45,8|0,1:2|1:2,0:2:0:0:
267,174,50528,5,10,0:3:0:0:
249,198,50611,1,8,0:3:0:0:
240,227,50694,1,4,0:3:0:0:
240,257,50778,1,4,0:3:0:0:
249,285,50862,2,0,P|267:335|269:384,1,94.499997116089,10|0,1:2|0:2,0:2:0:0:
325,243,51195,5,6,1:2:0:0:
156,136,51362,1,8,0:2:0:0:
305,48,51528,1,2,1:2:0:0:
305,48,51612,1,0,1:0:0:0:
305,48,51695,1,10,0:2:0:0:
218,240,51862,2,0,P|171:264|104:261,1,99.0000030212403,2|8,1:2|0:2,0:0:0:0:
161,18,52195,2,0,P|185:65|182:132,1,99.0000030212403,2|10,1:2|0:2,0:0:0:0:
86,361,52528,6,0,P|24:276|79:179,1,198.000006042481,2|2,1:2|1:2,0:2:0:0:
275,158,53028,1,10,0:2:0:0:
104,84,53195,1,2,1:2:0:0:
305,48,53362,1,8,0:2:0:0:
305,48,53445,1,0,1:0:0:0:
305,48,53528,1,2,1:2:0:0:
202,222,53695,1,8,0:2:0:0:
367,303,53862,6,0,P|357:258|352:191,1,99.0000030212403,2|8,1:2|0:2,0:2:0:0:
434,108,54195,1,2,1:2:0:0:
217,237,54362,1,10,0:2:0:0:
434,241,54528,1,2,1:2:0:0:
275,158,54695,5,8,0:2:0:0:
419,10,54862,2,0,P|429:55|434:122,1,99.0000030212403,2|10,1:2|0:2,0:0:0:0:
256,77,55195,5,2,1:2:0:0:
222,89,55278,1,2,1:2:0:0:
197,116,55361,1,10,0:2:0:0:
187,151,55445,1,2,1:2:0:0:
194,186,55528,1,2,1:2:0:0:
328,228,55695,1,10,0:2:0:0:
275,158,55862,5,10,0:2:0:0:
226,167,55945,1,8,0:2:0:0:
177,177,56028,1,10,0:2:0:0:
129,186,56112,1,8,0:2:0:0:
80,196,56195,2,0,L|-2:213,1,49.5000015106202,10|8,0:3|0:3,0:0:0:0:
125,44,56362,2,0,L|108:126,1,49.5000015106202,6|4,0:3|0:3,0:0:0:0:
209,306,56528,5,6,1:2:0:0:
359,148,56695,1,8,0:2:0:0:
135,269,56862,2,0,P|125:317|161:379,1,99.0000030212403,2|10,1:2|0:2,0:0:0:0:
387,239,57195,5,2,1:2:0:0:
237,81,57362,1,8,0:0:0:0:
461,202,57529,2,0,P|471:250|435:312,1,99.0000030212403,2|10,1:2|0:0,0:0:0:0:
204,188,57862,5,2,1:2:0:0:
387,239,58028,1,8,0:0:0:0:
225,327,58195,1,2,1:2:0:0:
393,110,58361,1,10,0:0:0:0:
294,227,58528,2,0,P|307:276|322:355,1,99.0000030212403,2|8,1:2|0:0,0:0:0:0:
177,177,58862,1,2,1:2:0:0:
407,83,59028,1,8,0:0:0:0:
209,306,59195,6,0,P|160:293|81:278,1,99.0000030212403,2|8,1:2|0:0,0:0:0:0:
41,187,59528,1,2,1:2:0:0:
140,371,59695,1,10,0:0:0:0:
164,68,59862,1,2,1:2:0:0:
112,283,60028,5,8,0:0:0:0:
0,164,60195,2,0,P|48:154|95:142,1,99.0000030212403,2|10,1:2|0:0,0:0:0:0:
266,45,60528,1,2,1:2:0:0:
258,72,60612,1,2,1:2:0:0:
250,99,60695,1,10,0:2:0:0:
242,126,60778,1,2,1:2:0:0:
234,153,60861,1,2,1:2:0:0:
144,46,61028,1,10,0:2:0:0:
331,148,61195,5,10,0:0:0:0:
344,191,61279,1,8,0:0:0:0:
357,235,61362,1,10,0:0:0:0:
370,279,61445,1,8,0:0:0:0:
383,323,61528,2,0,L|398:372,1,49.5000015106202,10|8,0:0|0:0,0:0:0:0:
453,127,61695,2,0,L|438:176,1,49.5000015106202,10|8,0:0|0:0,0:0:0:0:
303,324,61862,6,0,P|240:331|194:350,1,90,6|8,1:2|0:0,0:0:0:0:
126,377,62195,1,2,1:2:0:0:
238,249,62362,2,0,P|175:242|65:184,2,180,10|8|10,0:0|0:0|0:2,0:0:0:0:
344,191,63195,5,2,1:2:0:0:
189,124,63362,1,10,0:0:0:0:
311,43,63528,1,2,1:2:0:0:
233,1,63695,1,10,0:2:0:0:
337,11,63862,6,0,P|343:62|356:130,1,90,0|8,1:0|0:0,0:0:0:0:
238,249,64195,2,0,P|232:198|219:130,1,90,0|10,1:0|0:0,0:0:0:0:
425,50,64528,6,0,P|472:91|462:203,1,180,6|2,1:2|1:2,0:0:0:0:
351,296,65028,2,0,P|423:276|461:280,1,90,10|0,0:0|1:0,0:0:0:0:
225,159,65362,2,0,P|297:179|335:175,1,90,10|0,0:0|1:0,0:0:0:0:
397,138,65695,1,10,0:0:0:0:
255,275,65862,5,6,1:2:0:0:
282,66,66028,1,8,0:3:0:0:
282,66,66112,1,8,0:3:0:0:
282,66,66195,2,0,L|136:89,1,135,6|0,0:3|0:0,0:0:0:0:
63,58,66528,2,0,L|80:120,1,45,6|0,0:3|0:0,0:0:0:0:
144,183,66695,2,0,L|161:245,1,45,8|8,0:3|0:3,0:0:0:0:
6,224,66862,6,0,P|27:204|78:190,1,62.9999980773926,8|4,0:3|0:3,0:0:0:0:
285,232,67028,2,0,P|260:213|231:204,1,62.9999980773926,4|4,0:3|0:3,0:0:0:0:
112,374,67195,6,0,P|86:337|95:279,1,90,6|10,1:2|0:0,0:0:0:0:
288,324,67528,1,2,1:2:0:0:
254,123,67695,1,10,0:0:0:0:
254,123,67778,1,0,1:0:0:0:
254,123,67862,2,0,P|228:160|237:218,1,90,2|10,1:2|0:0,0:0:0:0:
387,269,68195,1,2,1:2:0:0:
318,71,68362,1,10,0:0:0:0:
510,119,68528,5,2,1:2:0:0:
316,206,68695,1,10,0:0:0:0:
469,295,68862,1,2,1:2:0:0:
377,384,69028,1,10,0:0:0:0:
377,384,69195,2,0,P|372:335|360:285,1,90,2|10,1:2|0:0,0:0:0:0:
424,93,69528,2,0,P|429:142|441:192,1,90,2|10,1:2|0:0,0:0:0:0:
276,314,69862,5,2,1:2:0:0:
239,297,69945,1,0,1:2:0:0:
199,303,70028,1,10,1:2:0:0:
168,329,70112,1,0,1:2:0:0:
132,347,70195,1,2,1:2:0:0:
91,345,70278,1,0,1:2:0:0:
56,323,70362,2,0,L|37:273,3,45,10|0|0|0,1:2|1:2|1:2|1:2,0:0:0:0:
110,220,70695,2,0,L|129:170,3,45,10|0|0|0,1:2|1:2|1:2|1:2,0:0:0:0:
11,95,71028,5,8,1:2:0:0:
11,95,71112,1,0,1:0:0:0:
11,95,71195,2,0,P|39:104|79:105,1,45,2|0,1:0|1:0,0:0:0:0:
236,231,71362,1,8,1:2:0:0:
236,231,71446,1,0,1:0:0:0:
236,231,71529,2,0,P|208:222|168:221,1,45,2|0,1:0|1:0,0:0:0:0:
132,20,71695,1,8,1:2:0:0:
132,20,71779,1,0,1:0:0:0:
132,20,71862,2,0,P|160:29|200:30,1,45,10|8,0:3|0:3,0:0:0:0:
366,37,72028,5,4,0:3:0:0:
366,37,72112,1,4,0:3:0:0:
366,37,72195,2,0,P|306:67|315:180,1,175.499991966248,14|0,0:2|0:0,0:0:0:0:
390,231,72528,5,14,1:2:0:0:
396,213,72612,1,0,1:2:0:0:
402,195,72695,1,0,1:2:0:0:
408,177,72778,1,0,1:2:0:0:
414,159,72862,2,0,L|405:98,1,49.5000015106202,0|0,1:2|1:2,1:2:0:0:
477,239,73028,5,10,1:2:0:0:
483,257,73112,1,0,1:2:0:0:
489,275,73195,1,0,1:2:0:0:
495,293,73278,1,0,1:2:0:0:
501,311,73362,2,0,L|492:372,1,49.5000015106202,0|0,1:2|1:2,1:2:0:0:
320,312,73528,6,0,L|312:263,3,49.5000015106202,10|0|0|0,1:2|1:2|1:2|1:2,0:0:0:0:
218,199,73862,1,8,1:2:0:0:
218,199,73945,1,0,1:2:0:0:
218,199,74028,2,0,L|225:150,1,49.5000015106202,2|0,1:2|1:2,0:0:0:0:
345,62,74195,2,0,L|296:69,1,49.5000015106202,0|0,1:2|1:2,0:0:0:0:
138,161,74362,1,8,1:2:0:0:
138,161,74445,1,0,1:2:0:0:
138,161,74528,2,0,L|89:153,1,49.5000015106202,2|0,1:2|1:2,0:0:0:0:
312,263,74695,2,0,L|360:270,1,49.5000015106202,0|0,1:2|1:2,0:0:0:0:
136,384,74862,6,0,P|70:314|107:235,1,188.999994232178,14|0,1:2|1:2,1:2:0:0:
225,150,75195,5,14,1:2:0:0:
222,173,75278,1,0,1:2:0:0:
219,197,75361,1,0,1:2:0:0:
216,220,75444,1,0,1:2:0:0:
213,244,75528,2,0,L|226:318,1,49.5000015106202,0|0,1:2|1:2,1:2:0:0:
368,185,75695,5,10,1:2:0:0:
365,162,75778,1,0,1:2:0:0:
362,138,75861,1,0,1:2:0:0:
359,115,75944,1,0,1:2:0:0:
356,91,76028,2,0,L|369:17,1,49.5000015106202,0|0,1:2|1:2,1:2:0:0:
507,225,76195,6,0,L|433:238,3,49.5000015106202,10|0|0|0,1:2|1:2|1:2|1:2,0:0:0:0:
377,332,76528,1,8,1:2:0:0:
377,332,76612,1,0,1:2:0:0:
377,332,76695,2,0,L|303:319,1,49.5000015106202,2|0,1:2|1:2,0:0:0:0:
233,198,76862,2,0,L|220:124,1,49.5000015106202,0|0,1:2|1:2,0:0:0:0:
368,185,77028,1,8,1:2:0:0:
368,185,77112,1,0,1:2:0:0:
368,185,77195,2,0,L|359:233,1,49.5000015106202,2|0,1:2|1:2,0:0:0:0:
247,351,77362,2,0,L|198:359,1,49.5000015106202,0|0,1:2|1:2,0:0:0:0:
55,305,77528,6,0,P|28:226|47:120,1,188.999994232178,14|0,1:2|1:2,1:2:0:0:
113,43,77862,5,14,1:2:0:0:
130,59,77945,1,0,1:2:0:0:
143,79,78028,1,0,1:2:0:0:
150,101,78111,1,0,1:2:0:0:
151,127,78195,2,0,P|140:172|137:209,1,49.5000015106202,0|0,1:2|1:2,1:2:0:0:
242,255,78362,5,10,1:2:0:0:
259,238,78445,1,0,1:2:0:0:
272,218,78528,1,0,1:2:0:0:
279,196,78611,1,0,1:2:0:0:
280,171,78695,2,0,P|269:126|266:89,1,49.5000015106202,0|0,1:2|1:2,1:2:0:0:
412,38,78862,6,0,P|401:83|398:120,3,49.5000015106202,10|0|0|0,1:2|1:2|1:2|1:2,0:0:0:0:
488,181,79195,1,8,1:2:0:0:
488,181,79278,1,0,1:2:0:0:
488,181,79362,2,0,P|493:206|500:230,1,49.5000015106202,2|0,1:2|1:2,0:0:0:0:
428,358,79528,2,0,P|403:363|379:370,1,49.5000015106202,0|0,1:2|1:2,0:0:0:0:
272,218,79695,1,8,1:2:0:0:
272,218,79778,1,0,1:2:0:0:
272,218,79862,2,0,P|295:224|320:229,1,49.5000015106202,2|0,1:2|1:2,0:0:0:0:
261,378,80028,2,0,P|268:354|273:330,1,49.5000015106202,0|0,1:2|1:2,0:0:0:0:
270,124,80195,6,0,P|246:130|73:144,1,188.999994232178,14|0,1:2|1:2,1:2:0:0:
10,33,80528,1,14,1:2:0:0:
16,45,80611,1,0,1:2:0:0:
22,57,80694,1,0,1:2:0:0:
28,69,80777,1,0,1:2:0:0:
34,81,80862,2,0,L|111:60,1,49.5000015106202,0|0,1:2|1:2,1:2:0:0:
223,54,81028,1,10,1:2:0:0:
229,42,81111,1,0,1:2:0:0:
235,30,81194,1,0,1:2:0:0:
241,18,81277,1,0,1:2:0:0:
247,6,81362,2,0,L|324:27,1,49.5000015106202,0|0,1:2|1:2,1:2:0:0:
444,12,81528,5,10,1:2:0:0:
470,36,81611,1,0,1:2:0:0:
487,69,81694,1,0,1:2:0:0:
492,105,81777,1,0,1:2:0:0:
485,140,81862,2,0,P|456:174|386:186,1,99.0000030212403,2|0,1:2|1:0,0:0:0:0:
356,254,82112,2,0,P|327:220|257:208,1,99.0000030212403,2|0,1:2|1:0,0:0:0:0:
179,176,82362,2,0,P|187:205|197:243,1,49.5000015106202,2|0,1:2|1:0,0:0:0:0:
408,100,82528,1,10,1:2:0:0:
280,288,82695,5,2,0:0:0:0:
285,309,82862,1,2,0:0:0:0:
280,288,83028,1,2,0:0:0:0:
132,376,83195,6,0,P|124:328|104:266,1,99.0000030212403,6|8,1:2|0:0,0:0:0:0:
58,176,83528,1,2,1:2:0:0:
210,76,83695,1,10,0:0:0:0:
177,248,83862,1,0,1:0:0:0:
5,215,84028,2,0,P|19:167|27:118,1,99.0000030212403,10|0,0:0|1:0,0:0:0:0:
258,12,84362,2,0,P|243:59|235:108,1,99.0000030212403,10|0,0:0|1:0,0:0:0:0:
364,221,84695,5,10,0:0:0:0:
448,133,84862,1,2,1:2:0:0:
248,202,85028,1,10,0:0:0:0:
441,363,85195,5,0,1:2:0:0:
439,351,85278,1,0,1:2:0:0:
437,340,85361,1,10,1:2:0:0:
436,329,85444,1,0,1:2:0:0:
434,317,85528,1,2,1:2:0:0:
432,306,85611,1,0,1:2:0:0:
431,295,85694,1,10,1:2:0:0:
429,284,85778,1,0,1:2:0:0:
428,272,85862,6,0,L|414:163,1,99.0000030212403,6|8,1:2|0:0,0:0:0:0:
411,62,86195,1,2,1:2:0:0:
248,202,86362,2,0,P|299:242|344:247,1,99.0000030212403,10|0,0:2|1:0,0:0:0:0:
499,129,86695,2,0,P|448:169|403:174,1,99.0000030212403,10|0,0:2|1:0,0:0:0:0:
219,116,87028,6,0,P|164:172|204:283,1,198.000006042481,10|10,0:2|0:0,0:0:0:0:
320,163,87528,1,2,1:2:0:0:
134,75,87695,1,10,0:2:0:0:
313,20,87862,1,0,1:0:0:0:
313,20,87945,1,0,1:0:0:0:
313,20,88028,2,0,P|303:47|295:84,1,49.5000015106202,8|8,0:3|0:3,0:0:0:0:
203,163,88195,2,0,P|213:136|221:99,1,49.5000015106202,10|4,0:3|0:3,0:0:0:0:
436,86,88362,2,0,P|409:76|372:68,1,49.5000015106202,6|4,0:3|0:3,0:0:0:0:
334,194,88528,6,0,P|324:221|313:308,1,99.0000030212403,6|8,1:2|0:0,0:0:0:0:
250,374,88778,2,0,P|244:324|228:277,1,99.0000030212403,2|0,0:2|0:0,0:0:0:0:
151,250,89028,1,10,0:0:0:0:
381,339,89195,2,0,P|457:301|438:169,1,198.000006042481,2|0,1:2|1:0,0:0:0:0:
324,170,89695,1,10,0:0:0:0:
228,277,89862,6,0,P|178:282|131:298,1,99.0000030212403,2|8,1:2|0:0,0:0:0:0:
109,222,90112,2,0,P|59:216|12:200,1,99.0000030212403,2|0,0:0|0:0,0:0:0:0:
3,122,90362,1,10,0:0:0:0:
224,11,90528,1,2,1:2:0:0:
224,11,90612,1,0,1:2:0:0:
224,11,90695,2,0,P|214:43|210:96,1,49.5000015106202,0|0,1:2|1:2,0:0:0:0:
137,196,90862,2,0,P|132:171|124:148,1,49.5000015106202,8|8,0:2|0:0,0:0:0:0:
344,66,91028,2,0,P|320:61|297:54,1,49.5000015106202,10|8,0:2|0:0,0:0:0:0:
133,13,91195,5,6,1:2:0:0:
244,198,91362,1,8,0:0:0:0:
244,198,91445,1,8,0:0:0:0:
244,198,91528,1,10,0:0:0:0:
394,11,91695,1,2,1:2:0:0:
394,11,91862,2,0,P|365:73|356:141,1,99.0000030212403,8|2,0:0|1:2,0:0:0:0:
348,284,92195,1,2,1:2:0:0:
162,114,92362,6,0,P|191:176|212:338,1,198.000006042481,6|0,1:2|1:2,0:0:0:0:
213,302,92778,1,0,1:0:0:0:
213,302,92862,1,8,0:0:0:0:
472,214,93028,1,0,1:2:0:0:
472,214,93112,1,0,1:0:0:0:
472,214,93195,2,0,L|397:196,1,49.5000015106202,0|8,1:2|0:0,0:0:0:0:
396,295,93362,2,0,L|321:277,1,49.5000015106202,10|8,0:0|0:0,0:0:0:0:
323,119,93528,2,0,L|248:101,1,49.5000015106202,10|8,0:0|0:0,0:0:0:0:
170,219,93695,2,0,L|95:201,1,49.5000015106202,10|8,0:0|0:0,0:0:0:0:
9,108,93862,6,0,L|44:303,1,198.000006042481,6|2,1:2|1:2,0:0:0:0:
163,138,94362,1,10,0:2:0:0:
26,88,94528,1,0,1:0:0:0:
264,25,94695,2,0,P|255:74|258:154,1,99.0000030212403,10|0,0:0|0:0,0:0:0:0:
160,317,95028,2,0,P|169:268|166:188,1,99.0000030212403,10|0,0:2|1:2,0:0:0:0:
113,64,95362,1,10,0:0:0:0:
261,213,95528,1,2,1:2:0:0:
113,64,95695,1,10,0:0:0:0:
366,46,95862,5,0,1:2:0:0:
363,57,95945,1,0,1:2:0:0:
361,68,96028,1,10,1:2:0:0:
359,79,96111,1,0,1:2:0:0:
357,90,96195,1,2,1:2:0:0:
355,102,96278,1,0,1:2:0:0:
353,113,96361,1,10,1:2:0:0:
351,124,96445,1,0,1:2:0:0:
350,135,96528,6,0,L|334:251,1,99.0000030212403,6|8,1:2|0:0,0:0:0:0:
371,344,96862,1,2,1:2:0:0:
501,243,97028,2,0,P|456:269|388:264,1,99.0000030212403,10|0,0:2|1:0,0:0:0:0:
441,25,97362,2,0,P|486:50|515:112,1,99.0000030212403,10|0,0:2|1:0,0:0:0:0:
289,301,97695,6,0,P|235:254|275:120,1,198.000006042481,10|10,0:0|0:0,0:0:0:0:
428,107,98195,1,2,1:2:0:0:
371,344,98362,1,10,0:0:0:0:
134,287,98528,2,0,L|153:210,1,49.5000015106202,0|0,1:0|0:0,0:0:0:0:
191,50,98695,1,10,0:0:0:0:
191,50,98778,1,8,0:0:0:0:
191,50,98862,1,10,0:0:0:0:
191,50,98945,1,8,0:0:0:0:
191,50,99028,1,10,0:0:0:0:
191,50,99112,1,8,0:0:0:0:
191,50,99195,6,0,L|303:37,1,99.0000030212403,6|8,1:2|0:0,0:0:0:0:
373,21,99445,2,0,L|360:133,1,99.0000030212403,2|0,0:2|0:0,0:0:0:0:
417,198,99695,2,0,B|319:175|339:230|199:214,1,198.000006042481,10|10,0:0|0:0,0:0:0:0:
125,165,100195,1,2,1:2:0:0:
244,97,100362,1,10,0:0:0:0:
110,352,100528,6,0,P|73:311|85:249,1,99.0000030212403,6|8,1:2|0:0,0:0:0:0:
222,216,100778,2,0,P|219:264|185:298,1,99.0000030212403,2|0,1:2|0:0,0:0:0:0:
138,189,101028,1,8,0:0:0:0:
285,311,101195,1,10,0:2:0:0:
301,305,101278,1,0,1:0:0:0:
318,300,101361,1,0,1:0:0:0:
334,296,101444,1,0,1:0:0:0:
352,293,101528,1,8,0:0:0:0:
369,291,101611,1,0,1:0:0:0:
386,290,101694,1,0,1:0:0:0:
403,290,101778,1,0,1:0:0:0:
421,290,101862,6,0,P|463:217|424:90,1,198.000006042481,6|8,1:2|0:0,0:0:0:0:
350,78,102362,1,2,1:2:0:0:
290,137,102528,1,10,0:0:0:0:
205,136,102695,1,10,0:3:0:0:
145,75,102862,1,6,0:3:0:0:
302,8,103028,5,6,1:2:0:0:
90,190,103362,5,2,1:2:0:0:
90,190,103445,1,0,1:0:0:0:
90,190,103528,2,0,P|108:249|113:309,1,99.0000030212403,10|0,0:0|1:2,0:0:0:0:
133,325,103778,1,0,1:2:0:0:
164,339,103862,1,10,0:0:0:0:
198,340,103945,1,8,0:0:0:0:
230,327,104028,1,10,0:0:0:0:
260,309,104112,1,8,0:0:0:0:
292,297,104195,1,10,0:0:0:0:
326,292,104278,1,8,0:0:0:0:
360,295,104362,1,10,0:0:0:0:
388,314,104445,1,8,0:0:0:0:
411,343,104528,1,6,1:1:0:0:
347,212,104862,5,0,1:2:0:0:
350,187,105195,1,0,1:2:0:0:
353,162,105528,1,0,1:2:0:0:
356,137,105862,1,0,1:2:0:0:
306,75,106028,6,0,L|233:59,2,72,2|2|2,0:0|1:2|0:0,0:0:0:0:
399,43,106528,2,0,L|469:58,2,72,2|2|2,1:2|1:2|1:2,0:0:0:0:
399,43,107028,1,2,1:2:0:0:
267,152,107195,5,6,1:1:0:0:
250,157,107528,1,0,1:0:0:0:
233,162,107862,1,0,1:0:0:0:
216,167,108195,1,0,1:0:0:0:
133,140,108528,5,0,1:0:0:0:
35,339,109195,6,0,B|74:321|74:321|98:339|98:339|152:306|210:319,1,188.999994232178,2|0,1:2|0:0,0:0:0:0:
280,352,109862,5,6,1:1:0:0:
423,327,110195,1,0,1:2:0:0:
419,304,110278,1,0,1:2:0:0:
416,282,110361,1,0,1:2:0:0:
413,259,110444,1,0,1:2:0:0:
409,237,110528,1,8,0:2:0:0:
274,132,110862,5,0,1:2:0:0:
481,40,111362,1,0,1:2:0:0:
409,237,111695,1,0,1:2:0:0:
387,242,111778,1,0,1:2:0:0:
365,248,111861,1,8,0:2:0:0:
218,233,112112,5,0,1:2:0:0:
173,328,112362,5,0,1:2:0:0:
98,170,112528,5,6,1:1:0:0:
311,90,112862,1,0,1:2:0:0:
307,112,112946,1,0,1:2:0:0:
304,135,113029,1,0,1:2:0:0:
301,157,113112,1,0,1:2:0:0:
297,180,113195,1,8,0:2:0:0:
147,295,113528,5,0,1:2:0:0:
226,117,114028,1,0,1:2:0:0:
116,189,114362,1,0,1:2:0:0:
90,195,114445,1,0,1:2:0:0:
65,202,114528,1,8,0:2:0:0:
216,244,114695,2,0,P|235:294|205:357,1,90,0|0,1:2|0:0,0:0:0:0:
147,295,115028,1,0,1:2:0:0:
73,113,115195,5,6,1:1:0:0:
233,218,115528,1,0,1:2:0:0:
255,222,115612,1,0,1:2:0:0:
278,225,115695,1,0,1:2:0:0:
300,228,115778,1,0,1:2:0:0:
323,232,115861,1,8,0:2:0:0:
434,152,116195,5,0,1:2:0:0:
307,318,116695,1,0,1:2:0:0:
293,140,117028,1,0,1:2:0:0:
315,144,117112,1,0,1:2:0:0:
338,147,117195,1,8,0:2:0:0:
226,65,117445,5,0,1:2:0:0:
88,151,117695,5,0,1:2:0:0:
278,225,117862,5,6,1:1:0:0:
139,364,118195,1,0,1:2:0:0:
142,342,118278,1,0,1:2:0:0:
145,321,118361,1,0,1:2:0:0:
148,299,118444,1,0,1:2:0:0:
151,278,118528,1,8,0:2:0:0:
74,132,118862,5,0,1:2:0:0:
233,300,119362,1,0,1:2:0:0:
297,190,119695,1,0,1:2:0:0:
297,190,119778,1,0,1:2:0:0:
297,190,119862,2,0,B|355:188|425:143|425:143|386:197|423:262,1,236.250009012223,8|0,0:2|1:2,0:0:0:0:
485,199,120528,5,6,1:1:0:0:
262,106,120862,1,0,1:0:0:0:
233,123,120945,1,0,1:0:0:0:
214,150,121028,1,0,1:0:0:0:
208,182,121111,1,0,1:0:0:0:
215,215,121195,1,8,0:0:0:0:
344,301,121528,5,0,1:2:0:0:
262,106,122028,1,0,1:0:0:0:
478,223,122362,1,0,1:2:0:0:
444,226,122445,1,0,1:2:0:0:
412,233,122528,1,8,0:2:0:0:
332,319,122778,5,0,1:2:0:0:
223,226,123028,5,0,1:2:0:0:
131,384,123195,5,6,1:1:0:0:
21,251,123528,1,0,1:0:0:0:
5,221,123611,1,0,1:0:0:0:
0,189,123694,1,0,1:0:0:0:
0,156,123777,1,0,1:0:0:0:
13,125,123861,1,8,0:0:0:0:
177,31,124195,5,0,1:0:0:0:
79,181,124695,1,0,1:2:0:0:
233,292,125028,1,0,1:2:0:0:
226,260,125111,1,0,1:2:0:0:
223,226,125194,1,8,0:2:0:0:
372,130,125362,2,0,P|304:154|255:155,1,90
157,126,125695,1,0,1:0:0:0:
319,242,125862,5,6,1:1:0:0:
389,47,126195,1,0,1:0:0:0:
419,58,126278,1,0,1:0:0:0:
443,81,126361,1,0,1:0:0:0:
456,112,126444,1,0,1:0:0:0:
455,145,126528,1,8,0:0:0:0:
286,155,126862,5,0,1:2:0:0:
496,253,127362,1,0,1:0:0:0:
396,361,127695,1,0,1:2:0:0:
393,335,127778,1,0,1:2:0:0:
390,310,127861,1,8,0:2:0:0:
411,201,128028,5,0,1:2:0:0:
268,278,128362,5,0,1:2:0:0:
490,351,128528,5,6,1:1:0:0:
238,200,128862,1,0,1:0:0:0:
206,217,128945,1,0,1:0:0:0:
186,248,129028,1,0,1:0:0:0:
182,284,129111,1,0,1:0:0:0:
196,318,129195,1,8,0:0:0:0:
129,145,129528,5,0,1:2:0:0:
325,205,130028,1,0,1:2:0:0:
196,318,130362,1,0,1:2:0:0:
167,325,130445,1,0,1:2:0:0:
140,336,130528,1,8,0:2:0:0:
48,374,130695,2,0,P|22:323|41:205,1,180,0|0,1:2|1:2,0:0:0:0:
256,96,131196,5,2,1:2:0:0:
306,273,132910,6,0,P|362:256|403:252,1,90,6|0,1:1|0:0,0:0:0:0:
471,205,133231,1,0,1:2:0:0:
471,205,133338,2,0,P|495:291|464:374,1,180,0|0,1:2|1:2,0:0:0:0:
218,321,134195,2,0,P|217:232|264:174,1,135,0|0,1:2|0:0,0:0:0:0:
306,140,134624,6,0,P|362:157|403:161,1,90,0|0,1:2|0:0,0:0:0:0:
142,214,135052,2,0,P|86:197|45:193,1,90,0|0,1:0|0:0,0:0:0:0:
197,76,135481,1,0,1:0:0:0:
197,76,135588,1,0,3:0:0:0:
197,76,135695,2,0,P|198:109|202:152,1,45,0|0,0:0|3:0,0:0:0:0:
309,270,135910,2,0,P|310:247|310:225,1,45,0|0,1:0|0:0,0:0:0:0:
391,115,136124,2,0,P|392:148|396:191,1,45,0|0,3:0|0:0,0:0:0:0:
142,214,136338,5,0,1:2:0:0:
142,214,136767,1,0,1:2:0:0:
142,214,137195,2,0,P|148:274|158:323,1,90,0|0,1:2|0:0,0:0:0:0:
252,350,137517,1,0,0:0:0:0:
252,350,137624,2,0,P|258:310|262:269,3,45,0|0|0|0,1:2|0:0|0:0|0:0,0:0:0:0:
231,219,138052,6,0,L|345:240,1,107.999996704102,2|0,1:2|1:2,0:0:0:0:
469,138,138374,1,0,1:2:0:0:
451,126,138481,2,0,L|337:147,1,107.999996704102,2|0,1:2|1:2,0:0:0:0:
239,136,138803,5,0,1:2:0:0:
227,118,138910,2,0,L|231:74,2,26.9999991760254,2|0|0,1:2|1:2|1:2,0:0:0:0:
143,252,139124,1,0,1:0:0:0:
82,195,139231,1,0,1:2:0:0:
161,170,139338,2,0,P|190:247|164:378,1,202.500007724762,14|0,0:0|0:0,0:0:0:0:
68,335,139767,5,6,1:0:0:0:
68,335,139874,1,2,0:0:0:0:
68,335,139981,2,0,P|58:298|63:264,1,53.9999983520508,2|2,0:0|0:0,0:0:0:0:
92,137,140195,1,10,0:0:0:0:
73,154,140302,2,0,P|36:164|2:159,1,53.9999983520508,2|0,0:0|0:0,0:0:0:0:
259,194,140517,1,2,0:0:0:0:
284,195,140624,2,0,P|317:214|337:241,1,53.9999983520508,2|0,1:2|0:0,0:0:0:0:
397,289,140838,1,2,0:0:0:0:
455,219,140945,2,0,P|463:193|464:166,1,53.9999983520508,2|8,0:0|0:0,0:0:0:0:
364,90,141160,2,0,P|372:115|373:142,1,53.9999983520508,2|0,0:0|0:0,0:0:0:0:
309,365,141374,5,2,0:0:0:0:
309,365,141481,2,0,P|260:304|274:254,1,107.999996704102,2|0,1:2|0:0,0:0:0:0:
482,60,141910,2,0,P|468:123|464:188,1,107.999996704102,10|0,0:0|0:0,0:0:0:0:
384,268,142231,1,2,0:0:0:0:
391,248,142338,2,0,P|385:194|373:141,1,107.999996704102,2|0,1:2|0:0,0:0:0:0:
273,68,142660,1,2,0:0:0:0:
253,49,142767,5,10,0:0:0:0:
214,85,142874,1,2,0:0:0:0:
162,100,142981,1,2,0:0:0:0:
110,89,143088,1,2,0:0:0:0:
18,17,143195,5,2,1:2:0:0:
18,17,143302,1,2,0:0:0:0:
18,17,143410,2,0,P|30:49|40:94,1,53.9999983520508,2|2,0:0|0:0,0:0:0:0:
102,191,143624,1,10,0:0:0:0:
105,169,143731,2,0,P|112:143|122:117,1,53.9999983520508,2|0,0:0|0:0,0:0:0:0:
319,236,143945,1,2,0:0:0:0:
297,233,144052,2,0,P|271:225|245:215,1,53.9999983520508,2|0,1:2|0:0,0:0:0:0:
217,130,144267,1,2,0:0:0:0:
306,141,144374,2,0,P|331:133|357:123,1,53.9999983520508,2|8,0:2|0:0,0:0:0:0:
456,97,144588,2,0,P|446:122|438:148,1,53.9999983520508,2|0,0:0|0:0,0:0:0:0:
438,338,144802,5,2,0:0:0:0:
414,334,144910,2,0,P|363:282|384:218,1,125.999996154785,2|2,1:2|0:0,0:0:0:0:
287,301,145231,1,2,0:0:0:0:
270,316,145338,2,0,P|218:325|182:333,1,53.9999983520508,10|0,0:0|0:0,0:0:0:0:
59,199,145552,1,2,0:0:0:0:
72,186,145660,1,2,0:0:0:0:
89,171,145767,2,0,P|141:162|177:154,1,53.9999983520508,2|0,1:2|0:0,0:0:0:0:
215,74,145981,1,2,0:0:0:0:
228,87,146089,1,2,0:0:0:0:
245,102,146195,5,10,0:0:0:0:
317,58,146302,1,8,0:0:0:0:
361,130,146410,1,8,0:0:0:0:
289,174,146517,1,8,0:0:0:0:
308,125,146624,5,6,1:2:0:0:
308,125,146731,1,2,0:0:0:0:
308,125,146838,2,0,P|318:162|313:196,1,53.9999983520508,2|2,0:2|0:2,0:0:0:0:
401,304,147052,1,10,0:2:0:0:
395,283,147160,2,0,P|395:256|404:230,1,53.9999983520508,2|0,0:0|0:0,0:0:0:0:
246,307,147373,1,2,0:2:0:0:
225,313,147481,2,0,P|198:312|172:303,1,53.9999983520508,2|0,1:2|0:0,0:0:0:0:
127,209,147695,1,2,0:2:0:0:
203,216,147802,2,0,P|177:224|150:225,1,53.9999983520508,2|8,0:2|0:0,0:0:0:0:
35,343,148017,2,0,P|60:334|87:333,1,53.9999983520508,2|0,0:0|0:0,0:0:0:0:
286,235,148231,5,2,0:0:0:0:
286,235,148338,2,0,P|283:179|225:134,1,107.999996704102,2|0,1:2|0:0,0:0:0:0:
16,62,148767,2,0,P|63:57|154:33,1,107.999996704102,10|0,0:0|0:0,0:0:0:0:
303,86,149088,1,2,0:0:0:0:
318,102,149195,2,0,P|271:107|180:131,1,107.999996704102,2|0,1:2|0:0,0:0:0:0:
103,192,149517,1,2,0:0:0:0:
91,211,149624,5,10,0:0:0:0:
142,197,149731,1,2,0:0:0:0:
189,222,149838,1,2,0:0:0:0:
208,271,149945,1,2,0:0:0:0:
116,341,150052,5,2,1:2:0:0:
116,341,150160,1,2,0:0:0:0:
116,341,150267,2,0,P|126:298|131:262,1,53.9999983520508,2|2,0:0|0:0,0:0:0:0:
310,220,150481,1,10,0:0:0:0:
299,239,150588,2,0,P|289:282|284:318,1,53.9999983520508,2|0,0:0|0:0,0:0:0:0:
211,120,150802,1,2,0:0:0:0:
200,101,150909,2,0,P|190:58|185:22,1,53.9999983520508,2|0,1:2|0:0,0:0:0:0:
318,102,151124,1,2,0:0:0:0:
388,57,151231,2,0,P|345:67|309:72,1,53.9999983520508,2|8,0:0|0:0,0:0:0:0:
448,168,151445,2,0,P|491:158|527:153,1,53.9999983520508,2|0,0:0|0:0,0:0:0:0:
397,265,151660,5,2,0:0:0:0:
400,278,151767,2,0,L|410:320,2,26.9999991760254,0|0|0,1:2|1:0|1:2,0:0:0:0:
318,295,152088,5,0,1:2:0:0:
321,308,152195,2,0,L|331:353,2,40.4999987640381,0|0|0,1:2|1:0|1:2,0:0:0:0:
239,327,152517,5,0,1:2:0:0:
242,340,152624,2,0,L|251:381,2,26.9999991760254,0|0|2,1:2|1:2|1:2,0:0:0:0:
159,189,152838,1,2,1:0:0:0:
247,133,152945,1,2,1:2:0:0:
256,237,153052,2,0,B|153:240|182:307|56:291,1,202.500007724762,14|0,0:0|0:0,0:0:0:0:
7,237,153481,6,0,P|-6:209|2:166,1,58.4999973220826,6|0,1:1|0:0,0:0:0:0:
160,104,153695,2,0,P|132:117|89:109,1,58.4999973220826
0,44,153910,1,8,0:0:0:0:
0,44,154017,1,0,0:0:0:0:
0,44,154124,2,0,P|13:75|24:117,1,58.4999973220826,2|0,0:0|0:0,0:0:0:0:
140,248,154338,2,0,P|148:220|160:193,1,58.4999973220826,2|0,1:2|3:0,0:0:0:0:
313,89,154552,2,0,P|284:95|255:98,1,58.4999973220826,0|0,0:0|3:0,0:0:0:0:
337,201,154767,1,8,0:0:0:0:
337,201,154874,1,0,0:0:0:0:
337,201,154981,2,0,P|366:204|394:210,1,58.4999973220826,2|0,0:0|0:0,0:0:0:0:
463,280,155195,6,0,P|493:222|465:151,1,116.999994644165,2|0,1:2|0:0,0:0:0:0:
454,101,155517,1,2,0:0:0:0:
454,101,155624,2,0,P|425:107|396:110,1,58.4999973220826,8|0,0:0|0:0,0:0:0:0:
289,267,155838,1,2,0:0:0:0:
289,267,155945,1,0,0:0:0:0:
289,267,156052,2,0,P|259:263|231:257,1,58.4999973220826,2|0,1:2|3:0,0:0:0:0:
132,187,156267,5,0,0:0:0:0:
116,138,156374,1,0,3:0:0:0:
222,89,156481,5,8,0:0:0:0:
206,138,156588,1,0,0:0:0:0:
115,232,156695,6,0,P|71:245|37:261,1,58.4999973220826,2|2,0:0|0:0,0:0:0:0:
159,335,156910,2,0,P|186:345|279:359,1,116.999994644165,2|0,1:2|0:0,0:0:0:0:
371,342,157231,1,2,0:0:0:0:
362,321,157338,2,0,P|351:276|349:248,1,58.4999973220826,8|0,0:0|0:0,0:0:0:0:
305,181,157552,2,0,P|316:136|318:108,1,58.4999973220826,2|0,0:0|0:0,0:0:0:0:
453,44,157767,6,0,P|490:90|471:160,1,116.999994644165,2|2,1:2|0:0,0:0:0:0:
430,207,158088,1,0,0:0:0:0:
421,219,158195,2,0,L|354:238,1,58.4999973220826,8|0,0:0|0:0,0:0:0:0:
220,201,158410,1,2,0:0:0:0:
290,169,158517,1,2,0:0:0:0:
200,185,158624,6,0,P|163:139|182:69,1,116.999994644165,2|0,1:2|0:0,0:0:0:0:
269,2,158945,1,2,0:0:0:0:
276,19,159052,2,0,P|264:60|262:99,1,58.4999973220826,8|0,0:0|0:0,0:0:0:0:
75,100,159267,2,0,P|87:141|89:180,1,58.4999973220826,2|0,0:0|0:0,0:0:0:0:
241,315,159481,2,0,P|229:274|220:165,1,116.999994644165,2|0,1:2|0:0,0:0:0:0:
364,94,159910,1,8,0:0:0:0:
451,83,160017,1,8,0:0:0:0:
488,162,160124,1,8,0:0:0:0:
424,222,160231,1,8,0:0:0:0:
347,179,160338,5,6,1:2:0:0:
347,179,160445,1,0,1:2:0:0:
347,179,160552,2,0,P|320:172|266:168,1,58.4999973220826,0|0,1:0|0:0,0:0:0:0:
117,260,160767,2,0,P|84:212|99:138,1,116.999994644165,10|0,0:0|0:0,0:0:0:0:
269,88,161088,1,0,0:0:0:0:
240,98,161195,2,0,P|207:146|222:220,1,116.999994644165,2|0,1:2|0:0,0:0:0:0:
289,230,161517,2,0,P|316:220|345:213,1,58.4999973220826,0|8,0:0|0:0,0:0:0:0:
155,376,161731,1,0,0:0:0:0:
172,360,161838,2,0,P|181:322|201:279,1,58.4999973220826,2|0,0:2|0:0,0:0:0:0:
88,155,162052,6,0,P|79:193|38:283,1,116.999994644165,2|0,1:2|0:0,0:0:0:0:
211,202,162374,1,0,0:0:0:0:
211,202,162481,2,0,P|172:213|128:212,1,58.4999973220826,10|0,0:2|0:0,0:0:0:0:
301,286,162695,2,0,P|340:275|384:276,1,58.4999973220826
477,307,162910,1,2,1:2:0:0:
499,224,163017,1,0,3:0:0:0:
465,145,163124,1,0,0:0:0:0:
389,105,163231,1,0,0:0:0:0:
304,122,163338,2,0,P|274:118|247:109,1,58.4999973220826,8|0,0:0|0:0,0:0:0:0:
428,17,163552,2,0,P|424:46|415:73,1,58.4999973220826,2|0,0:0|0:0,0:0:0:0:
183,169,163767,6,0,P|156:111|193:48,1,116.999994644165,2|0,1:2|0:0,0:0:0:0:
302,41,164088,1,0,0:0:0:0:
316,65,164195,2,0,P|306:92|303:121,1,58.4999973220826,10|0,0:2|0:0,0:0:0:0:
158,193,164410,2,0,P|167:220|170:249,1,58.4999973220826
336,303,164624,2,0,P|363:293|392:290,1,58.4999973220826,2|0,1:2|3:0,0:0:0:0:
202,350,164838,1,0,0:0:0:0:
182,334,164945,2,0,P|136:329|93:273,1,116.999994644165,2|0,3:2|0:0,0:0:0:0:
268,217,165267,2,0,P|258:244|255:273,1,58.4999973220826,2|0,0:0|0:0,0:0:0:0:
445,365,165481,6,0,P|484:294|434:212,1,175.499991966248,2|2,1:2|0:0,0:0:0:0:
354,194,165910,1,0,0:0:0:0:
345,170,166017,1,0,0:0:0:0:
338,149,166124,2,0,L|315:69,1,58.4999973220826,2|0,0:0|0:0,0:0:0:0:
151,214,166338,1,0,1:2:0:0:
158,193,166445,2,0,L|181:113,1,58.4999973220826,2|0,0:0|0:0,0:0:0:0:
268,0,166660,1,0,0:0:0:0:
261,21,166767,2,0,L|238:101,1,58.4999973220826,10|8,0:0|0:0,0:0:0:0:
257,245,166981,2,0,L|234:325,1,58.4999973220826,8|8,0:0|0:0,0:0:0:0:
69,266,167195,6,0,P|52:223|65:180,1,58.4999973220826,6|0,1:1|0:0,0:0:0:0:
157,82,167410,2,0,P|174:125|161:168,1,58.4999973220826
170,372,167624,1,8,0:0:0:0:
170,372,167731,1,0,1:2:0:0:
170,372,167838,2,0,L|147:292,1,58.4999973220826,2|0,1:2|0:0,0:0:0:0:
257,245,168052,2,0,L|313:261,1,58.4999973220826,2|0,1:2|3:0,0:0:0:0:
311,139,168267,2,0,L|254:155,1,58.4999973220826,0|0,0:0|3:0,0:0:0:0:
378,317,168481,1,8,0:0:0:0:
378,317,168588,1,0,0:0:0:0:
378,317,168695,2,0,P|395:274|382:231,1,58.4999973220826,2|0,0:0|0:0,0:0:0:0:
507,187,168910,6,0,P|478:184|411:124,1,116.999994644165,2|0,1:2|0:0,0:0:0:0:
479,12,169231,1,2,0:0:0:0:
479,12,169338,2,0,P|465:53|464:91,1,58.4999973220826,8|0,0:0|0:0,0:0:0:0:
316,180,169552,1,2,0:0:0:0:
316,180,169660,1,0,0:0:0:0:
316,180,169767,2,0,P|330:139|331:101,1,58.4999973220826,2|0,1:2|3:2,0:0:0:0:
272,30,169981,5,0,0:0:0:0:
241,13,170088,1,0,3:2:0:0:
178,111,170195,5,8,0:2:0:0:
209,94,170302,1,0,0:0:0:0:
121,22,170410,6,0,P|110:63|92:95,1,58.4999973220826,2|2,0:2|0:2,0:0:0:0:
36,152,170624,2,0,P|84:159|104:247,1,116.999994644165,2|0,1:2|0:0,0:0:0:0:
98,326,170945,1,2,0:0:0:0:
113,317,171052,2,0,P|149:305|197:300,1,58.4999973220826,8|0,0:0|0:0,0:0:0:0:
254,179,171267,2,0,P|248:207|238:235,1,58.4999973220826,2|0,0:0|0:0,0:0:0:0:
324,375,171481,2,0,P|329:346|372:253,1,116.999994644165,2|2,1:2|0:2,0:0:0:0:
422,155,171802,1,0,0:0:0:0:
407,164,171909,2,0,P|371:176|323:181,1,58.4999973220826,8|0,0:0|0:0,0:0:0:0:
213,71,172124,1,2,0:0:0:0:
247,150,172231,1,2,0:0:0:0:
228,50,172338,6,0,B|169:44|177:101|70:93,1,116.999994644165,2|0,1:2|0:0,0:0:0:0:
28,212,172660,1,2,0:0:0:0:
40,230,172767,2,0,P|73:235|129:263,1,58.4999973220826,8|0,0:0|0:0,0:0:0:0:
190,163,172981,2,0,P|223:158|279:130,1,58.4999973220826,2|0,0:0|0:0,0:0:0:0:
346,239,173195,2,0,P|376:294|370:363,1,116.999994644165,2|0,1:2|0:0,0:0:0:0:
194,384,173624,1,8,0:0:0:0:
116,358,173731,1,8,0:0:0:0:
116,276,173838,1,8,0:0:0:0:
194,251,173945,1,8,0:0:0:0:
248,324,174052,5,6,1:2:0:0:
248,324,174159,1,0,0:0:0:0:
248,324,174266,2,0,P|275:317|329:313,1,58.4999973220826
450,173,174481,2,0,P|420:169|328:140,1,116.999994644165,10|0,0:0|0:0,0:0:0:0:
206,100,174802,1,0,0:0:0:0:
218,74,174910,2,0,P|247:70|339:41,1,116.999994644165,2|0,1:2|0:0,0:0:0:0:
423,11,175231,2,0,P|408:60|404:102,1,58.4999973220826,0|8,0:0|0:0,0:0:0:0:
285,254,175445,1,0,0:0:0:0:
281,233,175552,2,0,P|274:204|264:176,1,58.4999973220826,2|0,0:2|0:0,0:0:0:0:
129,58,175767,6,0,P|122:86|82:179,1,116.999994644165,2|0,1:2|0:0,0:0:0:0:
33,238,176088,1,0,0:0:0:0:
17,223,176195,2,0,P|-1:184|11:139,1,58.4999973220826,10|0,0:0|0:0,0:0:0:0:
150,241,176410,2,0,P|132:280|144:325,1,58.4999973220826
234,352,176624,1,2,1:2:0:0:
309,351,176731,1,0,3:0:0:0:
368,304,176838,1,0,0:0:0:0:
387,232,176945,1,0,0:0:0:0:
360,154,177052,2,0,P|348:113|346:75,1,58.4999973220826,8|0,0:0|0:0,0:0:0:0:
463,19,177267,2,0,P|422:31|384:33,1,58.4999973220826,2|0,0:0|0:0,0:0:0:0:
160,100,177481,6,0,P|188:104|286:140,1,116.999994644165,2|0,1:2|0:0,0:0:0:0:
310,233,177802,1,0,0:0:0:0:
315,256,177910,2,0,P|303:297|301:335,1,58.4999973220826,10|0,0:0|0:0,0:0:0:0:
174,366,178124,2,0,P|165:338|161:310,1,58.4999973220826
92,210,178338,2,0,P|119:219|148:223,1,58.4999973220826,2|0,1:2|3:0,0:0:0:0:
423,270,178552,1,0,0:0:0:0:
415,294,178660,2,0,P|387:303|287:311,1,116.999994644165,2|0,3:0|0:0,0:0:0:0:
220,200,178981,2,0,P|232:241|234:279,1,58.4999973220826,2|0,0:0|0:0,0:0:0:0:
355,102,179195,6,0,L|358:72,2,26.9999991760254,2|0|0,1:2|1:2|1:2,0:0:0:0:
277,95,179517,5,0,1:2:0:0:
279,78,179624,2,0,L|284:38,2,40.4999987640381,0|0|0,1:2|1:0|1:2,0:0:0:0:
201,71,179945,5,0,1:0:0:0:
204,54,180052,2,0,L|211:18,2,26.9999991760254,0|0|2,1:2|1:2|1:2,0:0:0:0:
117,213,180267,1,2,1:2:0:0:
26,153,180374,1,2,1:2:0:0:
145,125,180481,2,0,P|171:185|145:274,1,144,14|0,0:0|0:0,0:0:0:0:
78,310,180802,5,0,0:0:0:0:
78,310,180910,1,6,1:1:0:0:
464,33,186243,5,6,1:2:0:0:
428,209,186576,1,0,1:2:0:0:
348,45,186910,1,0,1:2:0:0:
372,149,187243,1,0,1:2:0:0:
277,116,187576,5,0,1:2:0:0:
182,149,187910,5,0,1:2:0:0:
206,45,188243,1,0,1:2:0:0:
126,209,188577,1,0,1:2:0:0:
90,33,188910,1,0,1:2:0:0:
43,310,189243,6,0,P|38:245|28:212,1,72,0|0,1:2|0:0,0:0:0:0:
114,303,189576,2,0,P|49:308|16:318,1,72,0|0,1:2|0:0,0:0:0:0:
210,377,189910,2,0,P|205:312|195:279,1,72,0|0,1:2|0:0,0:0:0:0:
259,145,190243,5,0,1:2:0:0:
223,147,190326,1,0,1:2:0:0:
187,154,190409,1,0,1:2:0:0:
306,284,190576,1,0,1:2:0:0:
352,143,190743,1,0,1:2:0:0:
345,107,190826,1,0,1:2:0:0:
343,71,190909,1,0,1:2:0:0:
231,232,191076,1,0,1:2:0:0:
426,101,191243,5,8,0:0:0:0:
466,119,191326,1,8,0:0:0:0:
495,153,191409,1,10,0:0:0:0:
506,196,191493,1,8,0:0:0:0:
498,240,191576,1,6,1:2:0:0:
391,352,191743,2,0,P|401:302|398:260,1,90,10|2,0:0|1:2,0:0:0:0:
331,181,192076,1,10,0:0:0:0:
143,294,192243,2,0,B|244:269|222:319|327:292,1,180,0|0,1:0|1:0,0:0:0:0:
425,193,192743,1,10,0:0:0:0:
223,114,192910,6,0,P|243:171|247:217,1,90,2|10,1:2|0:0,0:0:0:0:
374,69,193243,2,0,P|329:61|287:45,1,90,2|10,1:2|0:0,0:0:0:0:
65,123,193576,1,0,1:2:0:0:
109,120,193659,1,0,1:2:0:0:
148,142,193742,1,12,1:2:0:0:
168,181,193826,1,0,1:2:0:0:
165,225,193910,2,0,P|156:268|156:291,3,45,0|0|14|0,1:2|1:2|1:2|1:2,0:0:0:0:
205,335,194243,5,6,1:2:0:0:
33,343,194410,2,0,P|26:298|14:255,1,90,10|2,0:0|1:2,0:0:0:0:
266,233,194743,2,0,P|196:231|80:192,1,180,10|10,0:0|0:0,0:0:0:0:
314,98,195243,2,0,P|270:110|226:116,1,90,0|10,1:0|0:0,0:0:0:0:
411,216,195576,5,2,1:2:0:0:
332,120,195743,1,8,0:0:0:0:
504,44,195909,1,2,1:2:0:0:
414,132,196076,1,8,0:0:0:0:
296,2,196243,1,10,0:0:0:0:
512,154,196409,1,8,0:0:0:0:
505,180,196492,1,8,0:0:0:0:
499,207,196575,1,10,0:0:0:0:
496,234,196659,1,8,0:0:0:0:
494,262,196742,1,10,0:0:0:0:
493,289,196825,1,8,0:0:0:0:
494,316,196909,5,6,1:2:0:0:
414,132,197076,1,10,0:0:0:0:
243,273,197243,1,2,1:2:0:0:
243,273,197409,2,0,P|294:260|346:258,1,90,10|0,0:0|1:2,0:0:0:0:
195,173,197743,2,0,P|150:169|106:157,1,90,8|0,0:0|1:2,0:0:0:0:
268,65,198076,1,10,0:0:0:0:
331,257,198243,5,2,1:2:0:0:
212,195,198409,1,10,0:2:0:0:
402,80,198576,1,2,1:2:0:0:
258,361,198743,1,10,0:0:0:0:
258,361,198909,2,0,P|254:316|242:272,1,90,0|8,1:0|0:0,0:0:0:0:
293,32,199243,2,0,P|296:76|308:120,1,90,0|10,1:0|0:0,0:0:0:0:
102,297,199576,5,2,1:2:0:0:
60,280,199659,1,0,1:2:0:0:
35,243,199742,1,8,1:2:0:0:
32,199,199826,1,0,1:2:0:0:
57,160,199909,2,0,P|83:152|124:130,1,45,2|0,1:2|1:2,0:0:0:0:
203,206,200076,2,0,P|223:197|245:190,3,45,10|0|0|0,1:2|1:2|1:2|1:2,0:0:0:0:
277,74,200409,2,0,P|285:53|292:31,3,45,10|0|0|0,1:2|1:2|1:2|1:2,0:0:0:0:
341,204,200743,5,10,1:2:0:0:
341,204,200826,1,0,1:2:0:0:
341,204,200909,2,0,P|332:224|325:246,1,45,2|0,1:2|1:0,0:0:0:0:
413,91,201076,2,0,P|392:99|370:106,1,45,8|0,1:2|1:0,0:0:0:0:
469,235,201243,1,2,1:2:0:0:
469,235,201326,1,0,1:0:0:0:
469,235,201409,2,0,P|489:226|511:219,1,45,8|0,1:2|1:0,0:0:0:0:
305,336,201576,5,10,0:3:0:0:
265,315,201659,1,8,0:3:0:0:
238,280,201742,1,4,0:3:0:0:
231,236,201826,1,4,0:3:0:0:
245,193,201909,2,0,P|261:146|248:74,1,94.499997116089,14|0,0:0|0:0,0:0:0:0:
176,28,202243,5,6,1:2:0:0:
351,86,202409,1,8,0:0:0:0:
165,186,202576,1,2,1:2:0:0:
165,186,202659,1,0,1:0:0:0:
165,186,202743,1,10,0:0:0:0:
355,267,202909,2,0,P|370:220|368:171,1,99.0000030212403,2|8,1:2|0:0,0:0:0:0:
142,293,203243,2,0,P|191:294|237:279,1,99.0000030212403,2|10,1:2|0:0,0:0:0:0:
258,101,203576,6,0,B|159:99|177:170|36:145,1,198.000006042481,2|2,1:2|1:2,0:0:0:0:
98,25,204076,1,10,0:0:0:0:
181,213,204243,1,2,1:2:0:0:
290,76,204409,1,8,0:0:0:0:
290,76,204493,1,0,1:0:0:0:
290,76,204576,1,2,1:2:0:0:
69,149,204743,1,8,0:0:0:0:
295,294,204909,6,0,P|296:244|281:198,1,99.0000030212403,2|8,1:2|0:0,0:0:0:0:
373,115,205243,1,2,1:2:0:0:
203,252,205409,1,8,0:0:0:0:
386,264,205576,2,0,P|387:313|372:359,1,99.0000030212403,2|8,1:2|0:0,0:0:0:0:
169,344,205909,2,0,P|218:345|264:330,1,99.0000030212403,2|10,1:2|0:0,0:0:0:0:
176,128,206243,5,2,1:2:0:0:
127,133,206326,1,2,1:2:0:0:
89,164,206409,1,10,0:2:0:0:
75,210,206493,1,2,1:2:0:0:
88,257,206576,1,2,1:2:0:0:
186,323,206743,1,10,0:0:0:0:
398,307,206909,5,10,0:2:0:0:
379,252,206992,1,8,0:2:0:0:
367,198,207075,1,10,0:2:0:0:
362,142,207159,1,8,0:2:0:0:
363,86,207243,2,0,P|368:61|370:18,1,49.5000015106202,10|8,0:3|0:3,0:0:0:0:
273,216,207409,2,0,P|270:191|265:167,1,49.5000015106202,6|4,0:3|0:3,0:0:0:0:
449,62,207576,5,6,1:2:0:0:
238,1,207743,1,8,0:2:0:0:
367,198,207909,2,0,P|364:222|343:320,1,99.0000030212403,2|10,1:2|0:0,0:0:0:0:
152,147,208243,5,2,1:2:0:0:
363,86,208410,1,8,0:0:0:0:
234,283,208576,2,0,P|236:307|258:405,1,99.0000030212403,2|10,1:2|0:0,0:0:0:0:
284,141,208909,5,2,1:2:0:0:
145,292,209076,1,8,0:2:0:0:
380,221,209243,1,2,1:2:0:0:
140,119,209409,1,10,0:0:0:0:
330,325,209576,2,0,P|354:327|452:349,1,99.0000030212403,2|8,1:2|0:2,0:0:0:0:
512,155,209909,1,2,1:2:0:0:
377,241,210076,1,8,0:2:0:0:
255,112,210243,6,0,P|256:166|279:234,1,99.0000030212403,2|8,1:2|0:0,0:0:0:0:
399,28,210576,1,2,1:2:0:0:
338,147,210743,1,10,0:0:0:0:
140,119,210909,5,2,1:2:0:0:
201,257,211076,1,8,0:2:0:0:
380,221,211243,6,0,P|381:167|404:99,1,99.0000030212403,2|10,1:2|0:0,0:0:0:0:
208,345,211576,1,2,1:2:0:0:
159,338,211659,1,2,1:2:0:0:
122,306,211742,1,10,0:2:0:0:
108,260,211826,1,2,1:2:0:0:
122,213,211909,1,2,1:2:0:0:
273,124,212076,1,10,0:2:0:0:
420,254,212243,5,10,0:0:0:0:
366,260,212326,1,8,0:0:0:0:
314,270,212409,1,10,0:0:0:0:
262,285,212493,1,8,0:0:0:0:
212,304,212576,2,0,P|202:269|177:240,1,49.5000015106202,8|8,0:0|0:0,0:0:0:0:
277,44,212743,2,0,P|287:79|312:108,1,49.5000015106202,10|8,0:0|0:0,0:0:0:0:
122,213,212909,6,0,P|57:230|11:260,1,90,6|8,1:2|0:0,0:0:0:0:
157,107,213243,1,2,1:2:0:0:
108,319,213409,2,0,P|154:345|283:354,2,180,10|8|10,0:0|0:0|0:0,0:0:0:0:
212,181,214243,5,2,1:2:0:0:
150,24,214409,1,10,0:0:0:0:
303,142,214576,1,2,1:2:0:0:
232,277,214743,1,10,0:0:0:0:
404,241,214909,6,0,P|384:285|375:342,1,90,0|8,1:0|0:0,0:0:0:0:
323,169,215243,2,0,P|343:125|352:68,1,90,0|10,1:0|0:0,0:0:0:0:
469,327,215576,6,0,P|504:280|469:155,1,180,6|2,1:2|1:2,0:0:0:0:
284,243,216076,2,0,P|328:263|385:272,1,90,10|0,0:0|1:2,0:0:0:0:
172,371,216409,2,0,P|216:351|273:342,1,90,10|0,0:0|1:2,0:0:0:0:
376,360,216743,1,10,0:0:0:0:
306,150,216909,1,6,1:2:0:0:
187,274,217076,1,8,0:3:0:0:
148,251,217159,1,8,0:3:0:0:
125,213,217242,1,4,0:3:0:0:
123,168,217326,1,4,0:3:0:0:
141,128,217409,1,8,0:3:0:0:
263,47,217576,6,0,P|245:86|245:117,1,45,6|4,0:3|0:3,0:0:0:0:
299,231,217743,2,0,P|317:192|317:161,1,45,8|8,0:3|0:3,0:0:0:0:
151,150,217909,6,0,P|204:172|240:169,1,62.9999980773926,8|4,0:3|0:3,0:0:0:0:
401,80,218076,2,0,P|348:102|312:99,1,62.9999980773926,4|4,0:3|0:3,0:0:0:0:
167,295,218243,6,0,P|222:304|277:343,1,90,6|10,1:2|0:2,0:0:0:0:
335,210,218576,1,2,1:2:0:0:
110,231,218743,1,10,0:2:0:0:
110,231,218826,1,0,0:0:0:0:
110,231,218909,2,0,P|69:250|25:255,1,90,2|10,1:2|0:2,0:0:0:0:
87,66,219243,1,2,1:2:0:0:
42,274,219409,1,10,0:2:0:0:
251,319,219576,5,2,1:2:0:0:
44,169,219743,1,10,0:2:0:0:
277,109,219909,1,2,1:2:0:0:
110,231,220076,1,10,0:2:0:0:
266,299,220243,2,0,P|252:252|255:186,1,90,2|10,1:2|0:2,0:0:0:0:
162,75,220576,2,0,P|115:89|49:86,1,90,2|10,1:2|0:2,0:0:0:0:
331,238,220909,5,2,1:2:0:0:
374,227,220992,1,0,1:2:0:0:
410,200,221075,1,10,1:2:0:0:
431,161,221159,1,0,1:2:0:0:
435,117,221242,1,2,1:2:0:0:
420,75,221325,1,0,1:2:0:0:
390,42,221409,2,0,P|361:38|338:28,3,45,10|0|0|0,1:2|1:2|1:2|1:2,0:0:0:0:
286,100,221743,2,0,P|257:104|234:114,3,45,10|0|0|0,1:2|1:2|1:2|1:2,0:0:0:0:
103,37,222076,5,10,1:2:0:0:
103,37,222159,1,0,1:2:0:0:
103,37,222243,2,0,P|116:68|122:106,1,45,2|0,1:2|1:2,0:0:0:0:
295,218,222409,1,8,1:2:0:0:
295,218,222492,1,0,1:2:0:0:
295,218,222576,2,0,P|282:187|276:149,1,45,2|0,1:2|1:2,0:0:0:0:
61,145,222743,1,8,1:2:0:0:
61,145,222826,1,0,1:2:0:0:
61,145,222910,2,0,P|74:176|80:214,1,45,10|8,0:3|0:3,0:0:0:0:
237,359,223076,5,4,0:3:0:0:
228,339,223159,1,4,0:3:0:0:
220,318,223242,1,10,0:0:0:0:
214,298,223326,1,8,0:0:0:0:
208,277,223409,1,8,0:0:0:0:
204,256,223492,1,8,0:0:0:0:
200,235,223576,1,6,1:2:0:0:
317,96,223743,6,0,P|362:133|365:191,1,99.0000030212403,8|0,0:0|1:0,0:0:0:0:
219,380,224076,1,8,0:0:0:0:
287,169,224243,1,0,1:0:0:0:
107,224,224409,1,8,0:0:0:0:
333,317,224576,1,2,1:2:0:0:
102,197,224743,5,8,0:0:0:0:
228,28,224909,2,0,P|213:83|215:150,1,99.0000030212403,2|8,1:2|0:0,0:0:0:0:
203,215,225159,2,0,P|200:165|186:118,1,99.0000030212403,2|0,0:2|0:0,0:0:0:0:
106,62,225409,1,10,0:2:0:0:
310,189,225576,2,0,P|357:175|406:172,1,99.0000030212403,2|8,1:2|0:0,0:0:0:0:
488,55,225909,1,0,1:0:0:0:
323,2,226076,1,8,0:0:0:0:
409,86,226243,5,2,1:2:0:0:
227,148,226409,1,10,0:0:0:0:
289,330,226576,1,2,1:2:0:0:
471,268,226743,2,0,P|490:215|487:160,1,99.0000030212403,10|0,0:2|1:2,0:0:0:0:
287,79,227076,2,0,P|306:132|303:187,1,99.0000030212403,10|0,0:2|1:2,0:0:0:0:
192,308,227409,5,10,0:0:0:0:
91,188,227576,1,2,1:2:0:0:
208,93,227743,1,8,0:2:0:0:
114,278,227909,2,0,P|109:328|145:382,1,99.0000030212403,2|8,1:2|0:2,0:0:0:0:
290,195,228243,5,10,0:0:0:0:
290,195,228326,1,8,0:0:0:0:
290,195,228409,1,8,0:0:0:0:
290,195,228493,1,8,0:0:0:0:
290,195,228576,2,0,P|283:234|281:270,1,49.5000015106202,8|8,0:3|0:3,0:0:0:0:
76,155,228743,1,4,0:3:0:0:
192,308,228909,6,0,P|185:269|183:233,1,49.5000015106202,6|0,1:2|0:0,0:0:0:0:
306,90,229076,2,0,P|330:86|420:66,1,99.0000030212403,8|0,0:0|1:0,0:0:0:0:
210,11,229409,1,8,0:0:0:0:
473,183,229576,2,0,P|424:171|375:164,1,99.0000030212403,2|8,1:2|0:0,0:0:0:0:
344,189,229826,2,0,P|332:237|325:286,1,99.0000030212403,2|0,0:2|0:0,0:0:0:0:
267,345,230076,1,10,0:2:0:0:
23,199,230243,6,0,P|71:210|120:217,1,99.0000030212403,2|8,1:2|0:0,0:0:0:0:
152,192,230493,2,0,P|163:143|170:94,1,99.0000030212403,2|0,0:2|0:0,0:0:0:0:
229,36,230743,1,10,0:2:0:0:
420,85,230909,6,0,P|371:92|322:103,1,99.0000030212403,2|8,1:2|0:0,0:0:0:0:
175,274,231243,2,0,P|223:281|272:292,1,99.0000030212403,0|8,1:0|0:0,0:0:0:0:
453,363,231576,6,0,P|494:329|500:261,1,99.0000030212403,2|8,1:2|0:0,0:0:0:0:
371,206,231826,2,0,P|412:240|418:308,1,99.0000030212403,2|0,0:2|0:0,0:0:0:0:
354,347,232076,1,10,0:2:0:0:
156,371,232243,6,0,P|163:323|174:274,1,99.0000030212403,2|8,1:2|0:0,0:0:0:0:
142,201,232493,2,0,P|94:194|45:183,1,99.0000030212403,2|0,0:2|0:0,0:0:0:0:
13,111,232743,1,10,0:2:0:0:
226,33,232909,6,0,P|219:81|208:130,1,99.0000030212403,2|8,1:2|0:0,0:0:0:0:
240,203,233159,2,0,P|288:210|337:221,1,99.0000030212403,2|0,0:0|0:0,0:0:0:0:
369,293,233409,1,10,0:2:0:0:
474,81,233576,1,10,0:0:0:0:
462,83,233659,1,8,0:0:0:0:
451,86,233742,1,8,0:0:0:0:
440,89,233826,1,8,0:0:0:0:
429,92,233909,1,8,0:2:0:0:
418,95,233992,1,8,0:0:0:0:
407,98,234076,1,8,0:2:0:0:
396,101,234159,1,8,0:0:0:0:
385,103,234243,6,0,L|336:91,1,49.5000015106202,14|0,1:2|1:2,0:0:0:0:
226,33,234409,2,0,L|238:82,1,49.5000015106202,0|0,1:2|1:2,0:0:0:0:
118,171,234576,2,0,L|130:122,1,49.5000015106202,0|0,1:2|1:2,1:2:0:0:
22,147,234743,5,10,1:2:0:0:
16,195,234826,1,0,1:2:0:0:
36,239,234909,1,0,1:2:0:0:
77,266,234993,1,0,1:2:0:0:
126,268,235076,2,0,P|161:259|201:259,1,49.5000015106202,0|0,1:2|1:2,1:2:0:0:
380,197,235243,2,0,P|355:193|331:186,3,49.5000015106202,10|0|0|0,1:2|1:2|1:2|1:2,0:0:0:0:
223,118,235576,5,8,1:2:0:0:
223,118,235659,1,0,1:2:0:0:
223,118,235743,2,0,P|226:142|233:166,1,49.5000015106202,2|0,1:2|1:2,0:0:0:0:
317,322,235909,2,0,P|320:297|327:273,1,49.5000015106202,0|0,1:2|1:2,0:0:0:0:
471,134,236076,1,8,1:2:0:0:
471,134,236159,1,0,1:2:0:0:
471,134,236243,2,0,P|446:130|422:123,1,49.5000015106202,0|0,1:2|1:2,0:0:0:0:
197,241,236409,2,0,P|221:244|245:251,1,49.5000015106202,0|0,1:2|1:2,0:0:0:0:
422,373,236576,6,0,P|476:322|453:207,1,188.999994232178,14|0,1:2|0:0,0:0:0:0:
353,213,236909,5,14,1:2:0:0:
350,190,236992,1,0,1:2:0:0:
347,166,237075,1,0,1:2:0:0:
344,143,237158,1,0,1:2:0:0:
341,119,237242,2,0,L|354:45,1,49.5000015106202,0|0,1:2|1:2,1:2:0:0:
211,24,237409,5,10,1:2:0:0:
214,47,237492,1,0,1:2:0:0:
217,71,237575,1,0,1:2:0:0:
220,94,237658,1,0,1:2:0:0:
223,118,237742,2,0,L|210:192,1,49.5000015106202,0|0,1:2|1:2,1:2:0:0:
84,98,237909,6,0,L|27:109,3,49.5000015106202,10|0|0|0,1:2|1:2|1:2|1:2,0:0:0:0:
0,260,238243,1,8,1:2:0:0:
0,260,238326,1,0,1:2:0:0:
0,260,238409,2,0,L|57:271,1,49.5000015106202,2|0,1:2|1:2,0:0:0:0:
252,238,238576,2,0,L|203:247,1,49.5000015106202,0|0,1:2|1:2,0:0:0:0:
100,370,238743,1,8,1:2:0:0:
100,370,238826,1,0,1:2:0:0:
100,370,238909,2,0,L|109:321,1,49.5000015106202,2|0,1:2|1:2,0:0:0:0:
223,118,239076,2,0,L|213:166,1,49.5000015106202,0|0,1:2|1:2,0:0:0:0:
342,374,239243,6,0,B|357:329|357:329|346:292|346:292|372:159,1,188.999994232178,14|0,1:2|0:0,0:0:0:0:
466,66,239576,5,14,1:2:0:0:
447,93,239659,1,0,1:2:0:0:
420,112,239742,1,0,1:2:0:0:
388,120,239826,1,0,1:2:0:0:
355,117,239909,2,0,P|319:105|287:103,1,49.5000015106202,0|0,1:2|1:2,1:2:0:0:
181,30,240076,5,10,1:2:0:0:
154,49,240159,1,0,1:2:0:0:
135,76,240242,1,0,1:2:0:0:
127,108,240326,1,0,1:2:0:0:
130,141,240409,2,0,P|142:177|144:209,1,49.5000015106202,0|0,1:2|1:2,1:2:0:0:
254,309,240576,6,0,P|258:284|267:261,3,49.5000015106202,10|0|0|0,1:2|1:2|1:2|1:2,0:0:0:0:
357,220,240909,1,8,1:2:0:0:
357,220,240993,1,0,1:2:0:0:
357,220,241076,2,0,P|393:232|425:234,1,49.5000015106202,2|0,1:2|1:2,0:0:0:0:
183,254,241243,2,0,P|147:242|115:240,1,49.5000015106202,0|0,1:2|1:2,0:0:0:0:
280,122,241409,1,8,1:2:0:0:
280,122,241493,1,0,1:2:0:0:
280,122,241576,2,0,P|275:146|266:169,1,49.5000015106202,2|0,1:2|1:2,0:0:0:0:
154,369,241743,2,0,P|145:345|140:321,1,49.5000015106202,0|0,1:2|1:2,0:0:0:0:
10,169,241909,6,0,P|90:141|210:139,1,188.999994232178,14|0,1:2|0:0,0:0:0:0:
253,34,242243,2,0,P|229:41|205:45,1,49.5000015106202,14|0,1:2|1:2,0:0:0:0:
364,120,242409,2,0,P|387:112|411:108,1,49.5000015106202,0|0,1:2|1:2,0:0:0:0:
266,169,242576,2,0,P|273:192|277:216,1,49.5000015106202,0|0,1:2|1:2,1:2:0:0:
385,375,242743,5,10,1:2:0:0:
411,360,242826,1,0,1:2:0:0:
430,337,242909,1,0,1:2:0:0:
440,308,242993,1,0,1:2:0:0:
440,278,243076,2,0,P|435:253|428:230,1,49.5000015106202,0|0,1:2|1:2,1:2:0:0:
499,52,243243,5,10,1:2:0:0:
499,52,243326,1,0,1:2:0:0:
499,52,243409,1,0,1:2:0:0:
499,52,243493,1,0,1:2:0:0:
499,52,243576,2,0,B|420:78|420:78|364:68,1,116.999994644165,2|0,1:2|1:2,0:0:0:0:
350,137,243826,2,0,B|271:111|271:111|237:116,1,116.999994644165,2|0,1:2|1:2,0:0:0:0:
177,67,244076,1,2,1:2:0:0:
256,287,244243,1,10,1:2:0:0:
55,222,244409,5,2,0:0:0:0:
76,227,244576,1,2,0:0:0:0:
55,222,244742,1,2,0:0:0:0:
154,369,244909,6,0,P|199:351|275:343,1,99.0000030212403,6|8,1:2|0:0,0:0:0:0:
405,262,245243,1,2,1:2:0:0:
239,211,245409,1,10,0:0:0:0:
454,126,245576,1,0,1:2:0:0:
353,331,245743,2,0,P|320:267|329:218,1,99.0000030212403,10|0,0:0|1:2,0:0:0:0:
422,36,246076,2,0,P|455:100|446:149,1,99.0000030212403,10|0,0:2|1:0,0:0:0:0:
283,32,246409,5,10,0:0:0:0:
453,125,246576,1,0,1:2:0:0:
321,241,246743,1,10,0:0:0:0:
138,152,246909,5,0,1:2:0:0:
155,150,246992,1,0,1:2:0:0:
172,148,247075,1,10,1:2:0:0:
189,146,247159,1,0,1:2:0:0:
206,144,247242,1,2,1:2:0:0:
223,141,247325,1,0,1:2:0:0:
241,138,247409,1,10,1:2:0:0:
258,135,247492,1,0,1:2:0:0:
278,129,247576,6,0,P|324:119|391:98,1,99.0000030212403,6|8,1:2|0:0,0:0:0:0:
182,39,247909,1,2,1:2:0:0:
334,206,248076,2,0,B|351:239|351:239|338:328,1,99.0000030212403,10|0,0:2|1:0,0:0:0:0:
112,376,248409,2,0,B|95:343|95:343|108:254,1,99.0000030212403,10|0,0:2|1:0,0:0:0:0:
218,128,248743,6,0,B|184:239|253:209|227:335,1,198.000006042481,10|10,0:0|0:0,0:0:0:0:
105,103,249243,1,2,1:2:0:0:
323,26,249409,1,10,0:2:0:0:
141,215,249576,1,0,1:0:0:0:
141,215,249659,1,0,1:0:0:0:
141,215,249743,2,0,P|171:203|207:199,1,49.5000015106202,8|8,0:3|0:3,0:0:0:0:
348,119,249909,2,0,P|323:113|301:103,1,49.5000015106202,10|4,0:3|0:3,0:0:0:0:
317,302,250076,2,0,P|305:332|301:368,1,49.5000015106202,6|4,0:3|0:3,0:0:0:0:
456,295,250243,6,0,P|444:265|441:187,1,99.0000030212403,6|8,1:2|0:0,0:0:0:0:
334,195,250493,2,0,P|347:147|375:106,1,99.0000030212403,2|0,0:2|0:0,0:0:0:0:
475,93,250743,1,10,0:0:0:0:
327,294,250909,2,0,P|257:259|262:136,1,198.000006042481,2|0,1:2|0:0,0:0:0:0:
375,106,251409,1,10,0:0:0:0:
215,227,251576,6,0,B|155:241|155:241|110:218,1,99.0000030212403,2|8,1:2|0:0,0:0:0:0:
93,298,251826,2,0,B|33:284|33:284|-12:307,1,99.0000030212403,2|0,0:0|0:0,0:0:0:0:
0,384,252076,1,10,0:0:0:0:
166,158,252243,5,2,1:2:0:0:
166,158,252326,1,0,1:2:0:0:
166,158,252409,2,0,P|172:128|188:83,1,49.5000015106202,0|0,1:2|1:2,0:0:0:0:
82,17,252576,2,0,P|76:47|60:92,1,49.5000015106202,8|8,0:2|0:0,0:0:0:0:
266,79,252743,2,0,P|289:72|314:67,1,49.5000015106202,10|8,0:2|0:0,0:0:0:0:
461,84,252909,5,6,1:2:0:0:
211,16,253076,1,8,0:0:0:0:
211,16,253159,1,0,1:0:0:0:
211,16,253243,1,10,0:0:0:0:
360,182,253409,1,2,1:2:0:0:
212,287,253576,1,8,0:0:0:0:
200,107,253743,1,2,1:2:0:0:
318,283,253909,1,2,1:2:0:0:
481,116,254076,6,0,B|378:97|393:175|256:143,1,198.000006042481,6|0,1:2|1:2,0:0:0:0:
290,149,254493,1,0,1:0:0:0:
290,149,254576,1,8,0:0:0:0:
187,25,254743,1,0,1:2:0:0:
187,25,254826,1,0,1:0:0:0:
187,25,254909,2,0,L|175:94,1,49.5000015106202,0|8,1:2|0:0,0:0:0:0:
348,49,255076,2,0,L|360:118,1,49.5000015106202,10|8,0:0|0:0,0:0:0:0:
129,176,255243,2,0,L|141:245,1,49.5000015106202,10|8,0:0|0:0,0:0:0:0:
391,247,255409,2,0,L|379:316,1,49.5000015106202,10|8,0:0|0:0,0:0:0:0:
263,380,255576,6,0,B|247:311|247:311|268:256|268:256|250:169,1,198.000006042481,6|2,1:2|1:2,0:0:0:0:
323,12,256076,1,10,0:2:0:0:
254,189,256243,1,0,1:2:0:0:
102,153,256409,2,0,P|75:109|92:37,1,99.0000030212403,10|0,0:2|1:2,0:0:0:0:
327,190,256743,2,0,P|283:217|211:200,1,99.0000030212403,10|0,0:0|0:0,0:0:0:0:
152,88,257076,5,10,0:0:0:0:
323,12,257243,1,2,1:2:0:0:
77,63,257409,1,10,0:0:0:0:
268,141,257576,5,0,1:2:0:0:
274,163,257659,1,0,1:2:0:0:
279,187,257742,1,10,1:2:0:0:
284,210,257826,1,0,1:2:0:0:
288,233,257909,1,2,1:2:0:0:
292,257,257992,1,0,1:2:0:0:
295,280,258076,1,10,1:2:0:0:
297,304,258159,1,0,1:2:0:0:
300,326,258243,6,0,P|355:349|420:336,1,99.0000030212403,6|8,1:2|0:0,0:0:0:0:
499,283,258576,1,2,1:2:0:0:
180,183,258743,2,0,P|235:160|300:173,1,99.0000030212403,10|0,0:0|1:0,0:0:0:0:
102,377,259076,2,0,P|79:322|92:257,1,99.0000030212403,10|0,0:0|1:0,0:0:0:0:
327,80,259409,6,0,P|371:143|317:254,1,198.000006042481,10|10,0:2|0:0,0:0:0:0:
69,164,259909,1,2,1:2:0:0:
248,29,260076,1,10,0:2:0:0:
166,303,260243,2,0,L|189:380,1,49.5000015106202,0|0,1:0|0:0,0:0:0:0:
273,162,260409,1,10,0:0:0:0:
273,162,260493,1,8,0:0:0:0:
273,162,260576,1,10,0:0:0:0:
273,162,260659,1,8,0:0:0:0:
273,162,260743,1,10,0:0:0:0:
273,162,260826,1,8,0:0:0:0:
273,162,260909,6,0,P|327:149|399:113,1,99.0000030212403,6|8,1:2|0:0,0:0:0:0:
419,195,261159,2,0,P|467:206|512:224,1,99.0000030212403,2|0,0:2|0:0,0:0:0:0:
387,384,261409,2,0,P|325:336|350:217,1,198.000006042481,10|10,0:2|0:0,0:0:0:0:
493,80,261909,1,2,1:2:0:0:
401,292,262076,1,10,0:0:0:0:
222,242,262243,6,0,P|182:200|184:137,1,99.0000030212403,6|8,1:2|0:0,0:0:0:0:
301,83,262493,2,0,P|261:125|263:188,1,99.0000030212403
339,227,262743,1,8,0:0:0:0:
423,21,262909,5,2,1:2:0:0:
393,26,262992,1,0,1:2:0:0:
363,32,263075,1,0,1:2:0:0:
334,37,263158,1,0,1:2:0:0:
304,43,263242,1,8,1:2:0:0:
274,49,263325,1,8,1:2:0:0:
245,54,263408,1,8,1:2:0:0:
215,60,263492,1,8,1:2:0:0:
185,66,263576,6,0,B|86:62|102:128|-10:117,1,198.000006042481,6|8,1:2|0:0,0:0:0:0:
291,242,264076,1,2,1:2:0:0:
161,149,264243,1,10,0:0:0:0:
304,43,264409,1,2,1:2:0:0:
211,265,264576,1,2,1:2:0:0:
438,192,264743,6,0,P|371:197|357:333,1,198.000006042481,6|2,1:2|1:2,0:0:0:0:
336,308,265159,1,0,1:0:0:0:
336,308,265243,1,10,0:0:0:0:
168,373,265409,1,0,1:0:0:0:
136,334,265493,1,0,1:0:0:0:
126,285,265576,1,10,0:2:0:0:
145,239,265659,1,8,0:2:0:0:
189,215,265743,1,10,0:2:0:0:
226,183,265826,1,8,0:2:0:0:
244,137,265909,1,10,0:2:0:0:
230,88,265993,1,8,0:2:0:0:
188,61,266076,1,10,0:2:0:0:
139,67,266159,1,8,0:2:0:0:
115,111,266243,6,0,P|129:167|130:243,1,99.0000030212403,6|8,1:2|0:2,0:0:0:0:
32,46,266576,1,2,1:2:0:0:
32,46,266659,1,0,1:0:0:0:
32,46,266743,1,10,0:0:0:0:
205,134,266909,2,0,P|261:120|337:119,1,99.0000030212403,0|8,1:2|0:0,0:0:0:0:
97,272,267243,2,0,P|41:258|-35:257,1,99.0000030212403,2|10,1:2|0:0,0:0:0:0:
213,383,267576,6,0,P|277:328|247:193,1,198.000006042481,2|2,1:2|1:2,0:0:0:0:
109,113,268076,1,10,0:0:0:0:
168,218,268243,1,2,1:2:0:0:
368,55,268409,1,8,0:0:0:0:
368,55,268493,1,0,1:0:0:0:
368,55,268576,1,2,1:2:0:0:
272,221,268743,1,8,0:0:0:0:
467,306,268909,6,0,P|493:262|476:191,1,99.0000030212403,2|8,1:2|0:0,0:0:0:0:
314,121,269243,1,2,1:2:0:0:
416,240,269409,1,10,0:0:0:0:
497,70,269576,1,2,1:2:0:0:
272,221,269743,1,8,0:0:0:0:
497,70,269909,2,0,P|443:62|379:38,1,99.0000030212403,2|10,1:2|0:0,0:0:0:0:
272,221,270243,1,2,1:2:0:0:
228,199,270326,1,2,1:2:0:0:
200,159,270409,1,10,0:2:0:0:
196,110,270492,1,2,1:2:0:0:
216,65,270576,1,2,1:2:0:0:
381,21,270743,1,10,0:0:0:0:
370,243,270909,5,10,0:0:0:0:
314,240,270992,1,8,0:0:0:0:
259,244,271075,1,10,0:0:0:0:
205,255,271158,1,8,0:0:0:0:
154,274,271243,2,0,P|114:285|89:294,1,49.5000015106202,10|8,0:3|0:3,0:0:0:0:
8,143,271409,2,0,P|31:150|55:157,1,49.5000015106202,6|4,0:3|0:3,0:0:0:0:
204,40,271576,5,6,1:2:0:0:
123,199,271743,1,8,0:0:0:0:
291,330,271909,2,0,P|318:266|301:216,1,99.0000030212403,2|10,1:2|0:0,0:0:0:0:
147,107,272243,5,2,1:2:0:0:
400,22,272409,1,8,0:0:0:0:
231,266,272576,2,0,P|166:282|114:305,1,99.0000030212403,2|10,1:2|0:0,0:0:0:0:
118,84,272909,5,2,1:2:0:0:
231,266,273076,1,8,0:0:0:0:
413,153,273243,1,2,1:2:0:0:
155,195,273409,1,10,0:0:0:0:
366,375,273576,2,0,P|382:310|405:258,1,99.0000030212403,2|8,1:2|0:0,0:0:0:0:
279,57,273909,1,2,1:2:0:0:
312,231,274076,1,8,0:0:0:0:
483,78,274243,6,0,P|499:143|522:195,1,99.0000030212403,2|8,1:2|0:0,0:0:0:0:
361,98,274576,1,2,1:2:0:0:
312,231,274743,1,10,0:0:0:0:
133,41,274909,5,2,1:2:0:0:
238,273,275076,1,8,0:0:0:0:
5,227,275243,5,2,1:2:0:0:
5,227,275409,1,10,0:0:0:0:
156,160,275576,5,2,1:2:0:0:
145,195,275659,1,2,1:2:0:0:
137,230,275742,1,10,0:2:0:0:
132,267,275825,1,2,1:2:0:0:
128,303,275909,1,2,1:2:0:0:
67,123,276076,1,10,0:0:0:0:
259,299,276243,5,10,0:0:0:0:
322,289,276326,1,8,0:0:0:0:
370,247,276409,1,10,0:0:0:0:
389,186,276492,1,8,0:0:0:0:
372,124,276576,2,0,P|365:88|366:59,1,49.5000015106202,10|8,0:3|0:3,0:0:0:0:
152,14,276743,2,0,P|145:50|146:79,1,49.5000015106202,6|4,0:3|0:3,0:0:0:0:
298,211,276909,5,6,1:2:0:0:
485,312,277243,1,0,1:0:0:0:
462,316,277326,1,0,1:0:0:0:
440,319,277409,1,0,1:0:0:0:
417,322,277492,1,0,1:0:0:0:
395,326,277576,1,8,0:0:0:0:
205,222,277909,5,0,1:2:0:0:
408,110,278409,1,0,1:2:0:0:
240,12,278743,1,0,1:2:0:0:
242,33,278826,1,0,1:2:0:0:
245,54,278909,1,8,0:2:0:0:
125,193,279159,5,0,1:0:0:0:
321,108,279409,5,0,1:0:0:0:
159,45,279576,5,6,1:2:0:0:
105,276,279909,1,0,1:0:0:0:
73,265,279992,1,0,1:0:0:0:
49,243,280075,1,0,1:0:0:0:
36,212,280158,1,0,1:0:0:0:
37,179,280242,1,8,0:0:0:0:
245,54,280576,5,0,1:2:0:0:
185,258,281076,1,0,1:2:0:0:
325,345,281409,1,0,1:2:0:0:
319,324,281492,1,0,1:2:0:0:
315,302,281575,1,8,0:2:0:0:
371,195,281743,1,0,1:2:0:0:
221,133,282076,1,0,1:2:0:0:
401,308,282243,6,0,P|447:296|501:293,1,90,6|0,1:2|0:0,0:0:0:0:
429,115,282576,1,0,1:0:0:0:
411,135,282659,1,0,1:0:0:0:
399,160,282742,1,0,1:0:0:0:
395,187,282825,1,0,1:0:0:0:
397,214,282909,1,8,0:0:0:0:
264,44,283243,5,0,1:2:0:0:
485,187,283743,1,0,1:2:0:0:
334,285,284076,1,0,1:2:0:0:
328,266,284159,1,0,1:2:0:0:
322,247,284243,1,8,0:2:0:0:
411,135,284493,5,0,1:2:0:0:
242,222,284743,5,0,1:2:0:0:
137,148,284909,5,6,1:2:0:0:
35,321,285243,1,0,1:0:0:0:
37,302,285326,1,0,1:0:0:0:
39,283,285409,1,0,1:0:0:0:
41,264,285492,1,0,1:0:0:0:
43,245,285576,1,8,0:0:0:0:
223,140,285909,5,0,1:2:0:0:
119,291,286409,1,0,1:2:0:0:
296,249,286743,1,0,1:2:0:0:
275,245,286826,1,0,1:2:0:0:
254,242,286909,2,0,L|187:231,1,45,2|0,1:2|1:2,1:2:0:0:
147,123,287076,2,0,L|191:115,1,45,2|0,1:2|1:2,1:2:0:0:
347,16,287243,2,0,L|339:60,1,45,2|0,1:2|1:2,1:2:0:0:
293,168,287409,5,10,0:0:0:0:
293,168,287493,1,8,0:0:0:0:
293,168,287576,1,8,0:0:0:0:
