osu file format v14

[General]
AudioFilename: audio.mp3
AudioLeadIn: 0
PreviewTime: 153217
Countdown: 0
SampleSet: Soft
StackLeniency: 0.7
Mode: 0
LetterboxInBreaks: 0
WidescreenStoryboard: 1

[Editor]
Bookmarks: 480,12480,26597,39146,40479,51145,61812,72478,83145,93812,104478,109812,120478,131145,132860,139717,151717,153431,167145,180860,191526,202193,212859,223526,234193,244859,255526,266193,276859,287526
DistanceSpacing: 1.2
BeatDivisor: 4
GridSize: 32
TimelineZoom: 2.3

[Metadata]
Title:Psychological Mental Health
TitleUnicode:Psychological Mental Health
Artist:Kitamura Eri
ArtistUnicode:喜多村英梨
Creator:Mordred
Version:Oriental's Hard
Source:
Tags:kowari gazimal yogurtt oriental illusion dream dystopia record kitaeri 南悠翔 minami yuto yuuto corsace open co2021 ro16 tb japanese rock
BeatmapID:3211723
BeatmapSetID:1557347

[Difficulty]
HPDrainRate:5
CircleSize:3.2
OverallDifficulty:7.2
ApproachRate:8
SliderMultiplier:1.5
SliderTickRate:1

[Events]
//Background and Video events
0,0,"46073811_p0 x.jpg",0,0
//Break Periods
//Storyboard Layer 0 (Background)
//Storyboard Layer 1 (Fail)
//Storyboard Layer 2 (Pass)
//Storyboard Layer 3 (Foreground)
//Storyboard Layer 4 (Overlay)
//Storyboard Sound Samples

[TimingPoints]
530,375,4,2,1,50,1,0
12530,392.156862745098,4,2,1,50,1,0
12530,-111.111111111111,4,2,1,50,0,0
26549,-111.111111111111,4,2,1,50,0,0
26647,-100,4,2,1,60,0,0
39196,333.333333333333,4,2,1,70,1,0
39196,-166.666666666667,4,2,1,70,0,0
40529,333.333333333333,4,2,1,50,1,0
45862,-100,4,2,1,60,0,0
51195,-83.3333333333333,4,2,1,70,0,1
61862,-100,4,2,1,50,0,0
67195,-100,4,2,1,60,0,0
72112,-100,4,2,1,60,0,0
72195,-100,4,2,1,50,0,0
72445,-100,4,2,1,50,0,0
72528,-100,4,2,1,60,0,0
104528,-100,4,2,1,60,0,0
109195,-125,4,2,1,60,0,0
109778,-125,4,2,1,5,0,0
109862,-100,4,2,1,60,0,0
120445,-100,4,2,1,60,0,0
120528,-100,4,2,1,60,0,0
131196,428.571428571429,4,2,1,60,1,0
131196,-125,4,2,1,60,0,0
132910,428.571428571429,4,2,1,50,1,0
132910,-100,4,2,1,50,0,0
136231,-100,4,2,1,50,0,0
136338,-100,4,2,1,50,0,0
138052,-100,4,2,1,60,0,0
139767,-83.3333333333333,4,2,1,80,0,1
151767,-100,4,2,1,70,0,0
153052,-100,4,2,1,80,0,0
153481,-83.3333333333333,4,2,1,80,0,1
180910,333.333333333333,4,2,1,80,1,0
180993,-100,4,2,1,5,0,0
182243,-100,4,2,1,10,0,0
182910,-100,4,2,1,15,0,0
183576,-100,4,2,1,20,0,0
184243,-100,4,2,1,25,0,0
184910,-100,4,2,1,30,0,0
185243,-100,4,2,1,35,0,0
185576,-100,4,2,1,40,0,0
185910,-100,4,2,1,45,0,0
186160,-100,4,2,1,5,0,0
186243,-100,4,2,1,50,0,0
190243,-100,4,2,1,60,0,0
191576,-100,4,2,1,50,0,0
196909,-100,4,2,1,60,0,0
202243,-83.3333333333333,4,2,1,70,0,1
212909,-100,4,2,1,60,0,0
223576,-100,4,2,1,60,0,0
266243,-83.3333333333333,4,2,1,70,0,1
276909,-100,4,2,1,70,0,0

[Colours]
Combo1 : 230,215,236
Combo2 : 250,182,199
Combo3 : 253,209,190
Combo4 : 230,170,170

[HitObjects]
67,260,12530,6,0,P|126:267|206:285,1,134.999995880127,6|0,1:1|1:2,0:0:0:0:
263,343,13118,1,0,1:2:0:0:
394,320,13314,2,0,P|448:292|460:216,1,134.999995880127,10|0,0:2|0:0,0:0:0:0:
431,141,13902,1,0,1:2:0:0:
480,68,14098,6,0,P|402:89|330:92,1,134.999995880127,2|0,0:0|1:2,0:0:0:0:
265,63,14686,1,0,0:0:0:0:
191,111,14882,2,0,P|188:144|203:173,1,67.4999979400635,10|0,0:2|1:2,0:0:0:0:
274,226,15275,2,0,P|272:270|268:310,1,67.4999979400635,2|0,0:0|1:2,0:0:0:0:
202,349,15667,6,0,P|135:330|63:320,1,134.999995880127,6|0,1:1|1:2,0:0:0:0:
39,238,16255,1,0,1:2:0:0:
85,114,16451,2,0,P|130:77|213:97,1,134.999995880127,10|0,0:2|0:0,0:0:0:0:
273,138,17039,1,0,1:2:0:0:
234,216,17235,6,0,P|228:290|224:376,1,134.999995880127,2|0,0:0|1:2,0:0:0:0:
354,328,17824,1,0,0:0:0:0:
353,328,18020,2,0,P|376:303|383:270,1,67.4999979400635,10|0,0:2|0:0,0:0:0:0:
341,193,18412,2,0,P|324:162|326:122,1,67.4999979400635,2|0,0:0|1:2,0:0:0:0:
351,47,18804,6,0,P|385:14|473:47,1,134.999995880127,6|0,1:1|1:2,0:0:0:0:
494,115,19392,1,0,1:2:0:0:
444,231,19588,2,0,P|377:219|310:210,1,134.999995880127,10|0,0:2|0:0,0:0:0:0:
228,241,20177,1,0,1:2:0:0:
150,199,20373,6,0,P|146:132|138:62,1,134.999995880127,2|0,0:0|1:2,0:0:0:0:
60,25,20961,1,0,0:0:0:0:
9,96,21157,2,0,P|1:128|8:160,1,67.4999979400635,10|0,0:2|1:2,0:0:0:0:
69,223,21549,2,0,P|64:257|61:291,1,67.4999979400635,2|0,0:0|1:2,0:0:0:0:
6,360,21941,6,0,P|72:343|139:338,1,134.999995880127,4|0,1:1|1:2,0:0:0:0:
223,364,22530,1,0,1:2:0:0:
335,318,22726,2,0,P|364:259|335:200,1,134.999995880127,10|0,0:2|0:0,0:0:0:0:
262,152,23314,1,0,1:2:0:0:
280,66,23510,6,0,P|307:43|409:46,1,134.999995880127,2|0,0:0|1:2,0:0:0:0:
489,137,24098,1,0,0:0:0:0:
489,137,24294,2,0,P|484:179|480:234,1,67.4999979400635,10|0,0:2|1:2,0:0:0:0:
423,270,24686,2,0,P|393:283|360:280,1,67.4999979400635,2|0,1:2|1:2,0:0:0:0:
282,239,25079,5,2,1:2:0:0:
282,239,26255,2,0,P|286:187|293:137,1,101.249996910095,10|0,0:2|0:0,0:0:0:0:
298,129,26647,6,0,B|221:147|232:81|151:98,1,150,6|8,1:1|0:2,0:0:0:0:
59,195,27235,1,2,0:2:0:0:
59,195,27431,2,0,P|95:189|144:186,1,75,2|2,1:2|0:2,0:0:0:0:
243,281,27824,2,0,P|206:285|174:267,1,75,10|2,0:2|0:2,0:0:0:0:
308,209,28216,6,0,P|298:283|291:358,1,150,2|8,1:2|0:2,0:0:0:0:
422,343,28804,1,2,0:2:0:0:
421,343,29000,2,0,P|441:305|434:269,1,75,2|2,1:2|1:2,0:0:0:0:
401,191,29392,2,0,P|381:152|388:116,1,75,10|2,0:2|1:2,0:0:0:0:
439,49,29784,6,0,P|375:86|304:71,1,150,2|8,1:2|0:2,0:0:0:0:
189,22,30373,1,2,0:2:0:0:
189,22,30569,2,0,P|209:74|202:110,1,75,2|2,1:2|0:2,0:0:0:0:
101,180,30961,2,0,P|94:141|119:109,1,75,10|2,0:2|0:2,0:0:0:0:
198,186,31353,6,0,P|218:238|211:274,1,75,2|0,1:2|0:0,0:0:0:0:
117,351,31745,2,0,L|203:343,1,75,10|0,0:2|0:2,0:0:0:0:
201,353,32039,2,0,L|287:344,1,75,2|0,0:2|0:2,0:0:0:0:
285,354,32333,1,2,1:2:0:0:
366,315,32530,2,0,P|386:284|382:247,1,75,10|2,0:2|1:2,0:0:0:0:
308,143,32922,6,0,P|371:184|444:180,1,150,6|8,1:2|0:2,0:0:0:0:
474,54,33510,1,2,0:2:0:0:
474,54,33706,2,0,P|441:27|395:30,1,75,2|2,1:2|0:2,0:0:0:0:
291,73,34098,2,0,P|294:107|299:167,1,75,10|2,0:2|0:2,0:0:0:0:
242,218,34490,6,0,P|169:199|94:193,1,150,2|8,1:2|0:2,0:0:0:0:
34,311,35079,1,2,0:2:0:0:
34,311,35275,2,0,P|67:351|101:350,1,75,2|2,1:2|1:2,0:0:0:0:
171,322,35667,2,0,P|209:317|255:317,1,75,10|2,0:2|1:2,0:0:0:0:
325,358,36059,6,0,P|400:307|396:254,1,150,2|8,1:2|0:2,0:0:0:0:
299,175,36647,1,2,0:2:0:0:
299,175,36843,2,0,P|304:221|306:259,1,75,2|2,1:2|0:2,0:0:0:0:
466,194,37235,2,0,P|391:166|377:174,1,75,10|2,0:2|1:2,0:0:0:0:
415,69,37628,6,0,P|375:65|344:85,1,75,2|0,1:2|0:0,0:0:0:0:
288,182,38020,2,0,L|189:168,1,75,10|0,0:2|0:2,0:0:0:0:
203,180,38314,2,0,L|104:166,1,75,2|0,0:2|0:2,0:0:0:0:
118,178,38608,1,2,1:2:0:0:
46,232,38804,2,0,P|37:278|56:308,1,75,10|2,0:2|1:2,0:0:0:0:
126,356,39196,6,0,P|282:334|440:333,1,314.999990386963,6|2,1:1|0:2,0:0:0:0:
479,252,40529,6,0,P|463:218|429:205,1,75,6|10,1:2|0:2,0:0:0:0:
316,242,40862,1,2,1:2:0:0:
316,242,41029,2,0,P|345:165|362:76,1,150,10|10,0:2|0:2,0:0:0:0:
269,99,41529,2,0,P|251:132|225:160,1,75,0|10,1:2|0:2,0:0:0:0:
150,208,41862,5,2,1:2:0:0:
150,208,42029,2,0,P|74:197|64:198,1,75,10|2,0:2|1:2,0:0:0:0:
28,272,42362,2,0,P|102:296|180:295,1,150,10|8,0:2|0:2,0:0:0:0:
187,290,42779,1,8,0:2:0:0:
199,283,42862,2,0,P|196:309|193:344,3,37.5,8|8|4|4,0:3|0:3|0:3|0:3,0:0:0:0:
282,346,43195,6,0,P|285:308|288:272,1,75,6|10,1:2|0:2,0:0:0:0:
242,192,43529,1,2,1:2:0:0:
241,192,43695,2,0,P|215:167|211:113,1,75,10|0,0:2|1:2,0:0:0:0:
269,64,44029,2,0,B|357:78|324:14|429:28,1,150,10|10,0:2|0:2,0:0:0:0:
503,122,44528,6,0,P|502:158|479:192,1,75,2|8,1:2|0:2,0:0:0:0:
403,238,44862,2,0,P|365:236|328:241,1,75,2|8,1:2|0:2,0:0:0:0:
256,295,45195,2,0,P|201:282|155:276,1,75,10|8,0:2|0:2,0:0:0:0:
171,285,45445,1,8,0:2:0:0:
160,291,45528,2,0,P|162:309|164:328,3,37.5,10|8|10|8,0:2|0:2|0:2|0:2,0:0:0:0:
89,363,45862,6,0,P|53:356|32:326,1,75,6|10,1:2|0:2,0:0:0:0:
64,241,46195,1,2,1:2:0:0:
64,241,46362,2,0,P|90:145|104:70,1,150,10|10,0:2|0:2,0:0:0:0:
186,121,46862,2,0,P|205:153|209:189,1,75,0|10,1:2|0:2,0:0:0:0:
247,271,47195,5,2,1:2:0:0:
247,271,47362,2,0,P|289:234|295:201,1,75,10|2,0:2|1:2,0:0:0:0:
324,132,47695,2,0,P|333:206|367:272,1,150,10|10,0:2|0:2,0:0:0:0:
453,297,48195,2,0,P|495:260|501:227,1,75,0|10,1:2|0:2,0:0:0:0:
432,183,48528,6,0,P|422:149|418:109,1,75,2|10,1:2|1:2,0:0:0:0:
439,21,48862,1,2,1:2:0:0:
439,21,49028,2,0,P|379:24|362:40,1,75,10|0,1:2|1:2,0:0:0:0:
308,97,49362,2,0,P|241:129|170:111,1,150,10|10,1:2|1:2,0:0:0:0:
53,23,49862,6,0,P|74:55|81:91,1,75,2|8,1:2|1:2,0:0:0:0:
150,204,50195,2,0,P|142:240|122:271,1,75,2|8,1:2|1:2,0:0:0:0:
42,363,50528,2,0,P|36:323|25:273,1,75,10|4,0:3|0:3,0:0:0:0:
64,175,50862,1,10,1:2:0:0:
64,175,51195,6,0,P|152:190|242:192,1,179.999994506836,6|2,1:2|1:2,0:0:0:0:
327,141,51695,1,10,0:2:0:0:
455,191,51862,2,0,P|480:275|421:342,1,179.999994506836,2|2,1:2|1:2,0:0:0:0:
328,362,52362,1,10,0:2:0:0:
202,308,52528,6,0,P|212:218|221:129,1,179.999994506836,2|2,1:2|1:2,0:0:0:0:
179,38,53028,1,10,0:2:0:0:
81,20,53195,2,0,P|40:38|20:77,1,89.9999972534181,2|8,1:2|0:2,0:0:0:0:
73,161,53528,2,0,P|97:205|95:247,1,89.9999972534181,2|8,1:2|0:2,0:0:0:0:
17,349,53862,6,0,P|102:334|197:324,1,179.999994506836,2|2,1:2|1:2,0:0:0:0:
288,358,54362,1,10,0:2:0:0:
402,315,54528,2,0,P|468:258|459:172,1,179.999994506836,2|2,1:2|1:2,0:0:0:0:
385,106,55028,1,10,0:2:0:0:
281,189,55195,6,0,P|196:172|103:164,1,179.999994506836,2|2,1:2|1:2,0:0:0:0:
43,33,55695,1,10,0:2:0:0:
135,69,55862,1,10,0:2:0:0:
146,67,55945,1,8,0:2:0:0:
157,66,56028,1,10,0:2:0:0:
168,65,56112,1,8,0:2:0:0:
179,63,56195,2,0,P|187:38|192:1,3,44.999998626709,10|8|6|4,0:3|0:3|0:3|0:3,0:0:0:0:
278,0,56528,6,0,P|286:89|303:177,1,179.999994506836,6|2,1:2|1:2,0:0:0:0:
389,227,57028,1,10,0:2:0:0:
365,353,57195,2,0,P|241:332|167:327,1,179.999994506836,2|2,1:2|1:2,0:0:0:0:
64,378,57695,1,10,0:0:0:0:
14,292,57862,6,0,P|20:223|136:188,1,179.999994506836,2|2,1:2|1:2,0:0:0:0:
199,225,58362,1,10,0:0:0:0:
287,181,58528,2,0,P|295:136|302:92,1,89.9999972534181,2|8,1:2|0:0,0:0:0:0:
400,111,58862,2,0,P|391:155|384:199,1,89.9999972534181,2|8,1:2|0:0,0:0:0:0:
316,272,59195,6,0,P|402:248|491:234,1,179.999994506836,2|2,1:2|1:2,0:0:0:0:
477,332,59695,1,10,0:0:0:0:
357,375,59862,2,0,P|252:355|174:348,1,179.999994506836,2|2,1:2|1:2,0:0:0:0:
117,270,60362,1,10,0:0:0:0:
139,130,60528,6,0,P|211:83|293:113,1,179.999994506836,2|2,1:2|1:2,0:0:0:0:
373,218,61028,1,10,0:2:0:0:
465,183,61195,1,10,0:0:0:0:
466,172,61278,1,8,0:0:0:0:
467,161,61361,1,10,0:0:0:0:
468,149,61445,1,8,0:0:0:0:
469,138,61528,2,0,L|474:61,3,44.999998626709,10|8|10|8,0:0|0:0|0:0|0:0,0:0:0:0:
406,28,61862,6,0,P|374:12|337:18,1,75,6|8,1:2|0:0,0:0:0:0:
273,81,62195,1,2,1:2:0:0:
273,81,62362,2,0,P|198:69|123:65,1,150,10|8,0:0|0:0,0:0:0:0:
42,104,62862,2,0,P|25:137|31:174,1,75,0|10,1:0|0:2,0:0:0:0:
93,237,63195,5,2,1:2:0:0:
93,237,63362,2,0,P|149:226|197:235,1,75,10|2,0:0|1:2,0:0:0:0:
240,278,63695,2,0,P|291:323|378:293,1,150,10|8,0:2|0:0,0:0:0:0:
396,221,64195,2,0,P|389:181|386:142,1,75,0|10,1:0|0:0,0:0:0:0:
325,39,64528,6,0,P|294:18|257:21,1,75,6|8,1:2|0:0,0:0:0:0:
182,72,64862,1,2,1:2:0:0:
182,71,65028,2,0,P|196:145|197:180,1,75,10|0,0:0|1:0,0:0:0:0:
277,185,65362,2,0,B|291:273|227:240|241:345,1,150,10|10,0:0|0:0,0:0:0:0:
138,374,65862,6,0,P|102:363|84:332,1,75,6|8,1:2|0:3,0:0:0:0:
88,321,66112,1,8,0:3:0:0:
92,309,66195,2,0,P|86:230|81:158,2,150,6|6|8,0:3|0:3|0:3,0:0:0:0:
158,369,67028,1,4,0:3:0:0:
252,300,67195,6,0,P|291:285|324:294,1,75,6|10,1:2|0:0,0:0:0:0:
427,348,67528,1,2,1:2:0:0:
427,348,67695,2,0,P|385:301|372:206,1,150,10|10,0:0|0:0,0:0:0:0:
413,137,68195,2,0,P|431:104|423:63,1,75,2|10,1:2|0:0,0:0:0:0:
346,25,68528,5,2,1:2:0:0:
346,25,68695,2,0,P|310:35|272:36,1,75,10|2,0:0|1:2,0:0:0:0:
208,99,69028,2,0,P|224:172|236:246,1,150,10|10,0:0|0:0,0:0:0:0:
185,320,69528,2,0,P|153:339|117:335,1,75,2|10,1:2|0:0,0:0:0:0:
21,267,69862,6,0,P|37:234|46:196,1,75,2|10,1:2|1:2,0:0:0:0:
16,113,70195,1,2,1:2:0:0:
16,113,70362,2,0,P|32:79|40:41,1,75,10|0,1:2|1:2,0:0:0:0:
126,15,70695,2,0,P|140:114|160:175,1,150,10|8,1:2|1:2,0:0:0:0:
245,254,71195,6,0,P|281:268|318:261,1,75,2|8,1:0|1:2,0:0:0:0:
381,200,71528,2,0,P|386:162|392:125,1,75,2|8,1:0|1:2,0:0:0:0:
483,124,71862,2,0,P|474:179|467:237,1,112.5,10|4,0:3|0:3,0:0:0:0:
476,249,72195,2,0,P|469:314|418:310,1,112.5,14|0,0:2|0:0,0:0:0:0:
420,328,72528,6,0,P|330:311|321:312,1,75,14|0,1:2|1:2,0:0:0:0:
280,371,72862,1,0,1:2:0:0:
280,371,73028,2,0,P|287:295|300:205,1,150,10|0,1:2|1:2,0:0:0:0:
210,196,73528,2,0,P|199:270|192:344,1,150,10|8,1:2|1:2,0:0:0:0:
104,317,74028,2,0,P|111:243|122:169,1,150,2|8,1:2|1:2,0:0:0:0:
19,105,74528,6,0,L|56:99,3,37.5,2|0|0|0,1:2|1:2|1:2|1:2,0:0:0:0:
118,44,74862,2,0,B|146:21|146:21|192:51,1,75,14|0,1:2|0:0,0:0:0:0:
211,126,75195,6,0,P|247:189|318:204,1,150,14|0,1:2|1:2,0:0:0:0:
300,290,75695,2,0,P|371:275|407:212,1,150,10|0,1:2|1:2,0:0:0:0:
484,259,76195,2,0,P|491:186|443:132,1,150,10|8,1:2|1:2,0:0:0:0:
511,74,76695,2,0,P|444:44|377:73,1,150,2|8,1:2|1:2,0:0:0:0:
318,204,77195,6,0,L|280:199,3,37.5,2|0|0|0,1:2|1:2|1:2|1:2,0:0:0:0:
202,156,77528,2,0,B|181:120|181:120|189:86,1,75,14|0,1:2|0:0,0:0:0:0:
109,43,77862,6,0,P|94:114|70:218,1,150,14|0,1:2|1:2,0:0:0:0:
23,261,78362,2,0,P|68:337|146:323,1,150,10|0,1:2|1:2,0:0:0:0:
192,282,78862,2,0,P|247:235|324:252,1,150,10|8,1:2|1:2,0:0:0:0:
378,315,79362,2,0,P|370:240|367:165,1,150,2|8,1:2|1:2,0:0:0:0:
480,106,79862,6,0,L|415:98,3,37.5,2|0|0|0,1:2|1:2|1:2|1:2,0:0:0:0:
368,53,80195,2,0,B|347:24|347:24|312:42,1,75,14|0,1:2|0:0,0:0:0:0:
233,88,80528,6,0,P|159:96|84:103,1,150,14|0,1:2|1:2,0:0:0:0:
42,182,81028,2,0,P|71:253|144:249,1,150,10|0,1:2|1:2,0:0:0:0:
223,229,81528,2,0,P|297:237|359:243,1,112.5,10|0,1:2|1:2,0:0:0:0:
348,235,81862,5,2,1:2:0:0:
431,267,82028,1,0,1:0:0:0:
442,276,82112,2,0,B|466:303|466:303|444:348,1,75,2|0,1:2|1:0,0:0:0:0:
458,348,82362,2,0,P|421:350|384:353,1,75,2|10,1:2|1:2,0:0:0:0:
384,354,83195,6,0,P|391:281|400:204,1,150,6|2,1:2|1:2,0:0:0:0:
462,140,83695,2,0,P|480:108|476:72,1,75,10|0,0:0|1:0,0:0:0:0:
397,22,84028,2,0,P|360:27|323:30,1,75,10|0,0:0|1:0,0:0:0:0:
254,90,84362,6,0,P|180:76|105:69,1,150,10|10,0:0|0:0,0:0:0:0:
6,132,84862,1,2,1:2:0:0:
25,219,85028,2,0,P|82:262|153:245,1,150,10|10,0:0|1:2,0:0:0:0:
228,194,85528,1,2,1:2:0:0:
228,194,85695,1,10,1:2:0:0:
361,230,85862,6,0,P|354:285|346:382,1,150,6|2,1:2|1:2,0:0:0:0:
435,365,86362,2,0,P|459:325|458:298,1,75,10|0,0:2|1:0,0:0:0:0:
426,213,86695,2,0,P|389:219|352:221,1,75,10|0,0:2|1:0,0:0:0:0:
256,291,87028,6,0,P|173:273|105:268,1,150,10|10,0:2|0:0,0:0:0:0:
47,201,87528,1,2,1:2:0:0:
68,113,87695,2,0,P|117:59|188:69,1,150,10|8,0:2|0:3,0:0:0:0:
266,115,88195,1,10,0:3:0:0:
350,84,88362,1,6,0:3:0:0:
473,134,88528,6,0,P|460:213|456:275,1,112.5,6|2,1:2|0:2,0:0:0:0:
460,258,88862,1,0,1:0:0:0:
394,319,89028,1,10,0:0:0:0:
307,288,89195,2,0,B|230:280|258:338|167:327,1,150,2|0,1:2|0:0,0:0:0:0:
92,278,89695,1,10,0:0:0:0:
156,173,89862,6,0,P|210:185|282:193,2,112.5,2|2|10,1:2|0:0|0:0,0:0:0:0:
79,126,90528,2,0,P|60:57|137:28,1,150,2|8,1:2|0:2,0:0:0:0:
132,25,90945,1,8,0:0:0:0:
145,29,91028,1,10,0:2:0:0:
241,96,91195,6,0,P|315:85|390:84,1,150,6|10,1:2|0:0,0:0:0:0:
465,134,91695,2,0,P|493:195|445:253,1,150,2|2,1:2|1:2,0:0:0:0:
331,178,92195,1,2,1:2:0:0:
252,221,92362,6,0,P|160:206|89:204,1,150,6|0,1:2|1:2,0:0:0:0:
94,213,92778,1,0,1:0:0:0:
85,221,92862,1,8,0:0:0:0:
27,289,93028,1,0,1:2:0:0:
29,300,93112,1,0,1:0:0:0:
31,312,93195,2,0,L|97:304,3,37.5,0|8|10|8,1:2|0:0|0:0|0:0,0:0:0:0:
121,326,93528,2,0,L|187:318,3,37.5,10|8|10|8,0:0|0:0|0:0|0:0,0:0:0:0:
238,284,93862,6,0,P|259:254|260:217,1,75,6|8,1:2|0:0,0:0:0:0:
204,146,94195,1,2,1:2:0:0:
204,146,94362,2,0,P|199:104|195:41,1,75,10|0,0:2|1:0,0:0:0:0:
286,58,94695,2,0,P|290:99|295:163,1,75,10|0,0:0|0:0,0:0:0:0:
352,199,95028,6,0,P|426:182|500:173,1,150,10|10,0:2|0:0,0:0:0:0:
479,300,95528,1,2,1:2:0:0:
405,352,95695,2,0,P|366:354|331:334,1,75,10|0,0:0|1:2,0:0:0:0:
266,278,96028,1,10,1:2:0:0:
266,278,96195,2,0,P|228:274|191:270,1,75,2|10,1:2|1:2,0:0:0:0:
140,366,96528,6,0,P|132:291|122:217,1,150,6|2,1:2|1:2,0:0:0:0:
60,152,97028,2,0,P|44:118|52:82,1,75,10|0,0:2|1:0,0:0:0:0:
128,33,97362,2,0,P|165:37|202:39,1,75,10|0,0:2|1:0,0:0:0:0:
321,106,97695,6,0,B|313:168|313:168|323:194|323:194|315:257,1,150,10|10,0:0|0:0,0:0:0:0:
253,319,98195,2,0,P|220:336|183:333,1,75,2|10,1:2|0:0,0:0:0:0:
117,270,98528,1,0,1:0:0:0:
138,182,98695,1,10,0:0:0:0:
141,171,98778,1,8,0:0:0:0:
144,160,98862,2,0,L|201:168,3,37.5,10|8|10|8,0:0|0:0|0:0|0:0,0:0:0:0:
266,143,99195,6,0,P|294:78|276:34,1,112.5,6|2,1:2|0:2,0:0:0:0:
269,35,99528,2,0,P|233:47|196:48,1,75,0|10,1:0|0:0,0:0:0:0:
110,17,99862,1,0,1:0:0:0:
35,67,100028,2,0,P|46:104|51:141,1,75,10|2,0:0|1:2,0:0:0:0:
110,210,100362,1,10,0:0:0:0:
35,328,100528,6,0,P|91:309|146:306,1,112.5,6|0,1:2|0:0,0:0:0:0:
158,313,100862,2,0,P|186:336|223:339,1,75,2|8,1:2|0:0,0:0:0:0:
342,297,101195,2,0,L|351:197,1,75,10|0,0:2|1:0,0:0:0:0:
361,213,101445,1,0,1:0:0:0:
374,207,101528,2,0,P|409:196|470:228,1,75,8|0,0:0|1:0,0:0:0:0:
498,110,101862,6,0,P|436:68|362:67,1,150,6|8,1:2|0:0,0:0:0:0:
298,130,102362,1,2,1:2:0:0:
198,36,102528,1,10,0:0:0:0:
198,36,102695,2,0,P|199:73|202:110,1,75,10|6,0:3|0:3,0:0:0:0:
232,233,103028,6,0,P|188:290|117:282,1,150,6|2,1:2|1:2,0:0:0:0:
108,272,103445,1,0,1:0:0:0:
101,262,103528,2,0,P|107:224|111:179,1,75,10|0,0:0|1:2,0:0:0:0:
196,103,103862,2,0,L|237:99,3,37.5,10|8|10|8,0:0|0:0|0:0|0:0,0:0:0:0:
303,149,104195,2,0,P|339:161|377:146,1,75,10|10,0:0|0:0,0:0:0:0:
434,47,104528,5,6,1:1:0:0:
256,192,104612,12,0,108528,1:0:0:0:
404,61,109195,6,0,P|382:185|368:285,1,210,2|0,1:2|0:0,0:0:0:0:
377,277,109862,6,0,P|317:318|245:307,1,150,6|0,1:1|1:2,0:0:0:0:
180,244,110362,1,0,1:2:0:0:
221,114,110528,2,0,P|146:108|71:98,1,150,10|0,0:2|1:2,0:0:0:0:
4,159,111028,1,0,0:0:0:0:
19,296,111195,6,0,P|67:352|140:359,1,150,2|0,0:0|0:0,0:0:0:0:
222,323,111695,1,0,1:2:0:0:
223,309,111778,1,0,1:2:0:0:
224,295,111862,2,0,B|227:247|227:247|222:231|222:231|225:184,2,112.5,10|0|0,0:2|1:2|1:2,0:0:0:0:
314,368,112528,6,0,P|395:355|472:346,1,150,6|0,1:1|1:2,0:0:0:0:
495,263,113028,1,0,1:2:0:0:
458,141,113195,2,0,P|412:101|322:105,1,150,10|0,0:2|1:2,0:0:0:0:
262,165,113695,1,0,0:0:0:0:
305,273,113862,6,0,P|216:250|151:242,1,150,2|0,0:0|0:0,0:0:0:0:
83,124,114362,1,0,1:2:0:0:
73,128,114445,1,0,1:2:0:0:
64,134,114528,2,0,P|61:200|87:221,1,75,10|0,0:2|1:2,0:0:0:0:
19,327,114862,2,0,P|80:300|86:274,1,75,2|0,0:0|1:2,0:0:0:0:
158,242,115195,6,0,P|232:226|307:226,1,150,6|0,1:1|1:2,0:0:0:0:
377,280,115695,1,0,1:2:0:0:
485,223,115862,2,0,P|495:151|444:100,1,150,10|0,0:2|1:2,0:0:0:0:
355,86,116362,1,0,0:0:0:0:
242,142,116528,6,0,P|259:214|269:289,1,150,2|0,0:0|0:0,0:0:0:0:
198,344,117028,1,0,1:2:0:0:
188,336,117112,1,0,1:2:0:0:
176,332,117195,2,0,B|140:307|80:315|80:315|91:324,2,112.5,10|0|0,0:2|1:2|1:2,0:0:0:0:
306,370,117862,6,0,P|355:315|346:243,1,150,6|0,1:1|1:2,0:0:0:0:
290,172,118362,1,0,1:2:0:0:
157,164,118528,2,0,P|84:183|10:190,1,150,10|0,0:2|1:2,0:0:0:0:
21,100,119028,1,0,0:0:0:0:
136,40,119195,6,0,P|210:51|281:74,1,150,2|0,0:0|0:0,0:0:0:0:
326,168,119695,1,0,1:2:0:0:
327,180,119778,1,0,1:2:0:0:
328,193,119862,2,0,P|291:121|406:152,1,262.5,10|0,0:2|1:2,0:0:0:0:
417,149,120528,6,0,P|411:187|400:305,1,150,6|0,1:1|1:0,0:0:0:0:
320,340,121028,1,0,1:0:0:0:
228,255,121194,2,0,P|170:211|99:228,1,150,10|0,0:0|1:2,0:0:0:0:
42,298,121694,1,0,0:0:0:0:
162,361,121861,6,0,P|237:353|312:348,1,150,2|0,0:0|0:0,0:0:0:0:
391,306,122361,1,0,1:2:0:0:
393,294,122444,1,0,1:2:0:0:
395,283,122528,2,0,B|394:246|356:227|328:237|328:237|321:254,2,112.5,10|0|0,0:2|1:2|1:2,0:0:0:0:
461,371,123194,6,0,P|490:297|478:224,1,150,6|0,1:1|1:0,0:0:0:0:
424,158,123694,1,0,1:0:0:0:
501,56,123861,2,0,P|426:68|352:75,1,150,10|0,0:0|1:0,0:0:0:0:
280,130,124361,1,0,0:0:0:0:
175,68,124528,6,0,P|108:72|81:148,1,150,2|0,0:0|0:0,0:0:0:0:
140,287,125028,1,0,1:2:0:0:
150,279,125112,1,0,1:2:0:0:
158,270,125195,2,0,P|168:231|149:195,1,75,10|0,0:2|0:0,0:0:0:0:
36,246,125528,2,0,P|43:282|48:319,1,75,2|0,0:0|1:0,0:0:0:0:
161,373,125861,6,0,P|235:357|310:355,1,150,6|0,1:1|1:0,0:0:0:0:
377,296,126361,1,0,1:0:0:0:
489,354,126528,2,0,P|499:283|448:232,1,150,10|0,0:0|1:2,0:0:0:0:
362,203,127028,1,0,0:0:0:0:
422,98,127194,6,0,P|347:88|274:70,1,150,2|0,0:0|0:0,0:0:0:0:
184,80,127694,1,0,1:2:0:0:
176,90,127778,1,0,1:2:0:0:
170,100,127862,2,0,B|182:195|182:195|190:180,2,112.5,10|0|0,0:2|1:2|1:2,0:0:0:0:
84,25,128528,6,0,P|22:63|24:139,1,150,6|0,1:1|1:0,0:0:0:0:
87,196,129028,1,0,1:0:0:0:
29,300,129194,2,0,P|101:281|176:273,1,150,10|0,0:0|1:2,0:0:0:0:
256,313,129694,1,0,0:0:0:0:
374,282,129861,6,0,P|417:223|389:157,1,150,2|0,0:0|0:0,0:0:0:0:
303,83,130362,1,0,1:2:0:0:
294,90,130445,1,0,1:2:0:0:
286,98,130528,2,0,P|282:139|279:183,1,75,10|0,0:2|1:2,0:0:0:0:
196,85,130862,2,0,P|192:126|189:170,1,75,2|0,0:0|1:2,0:0:0:0:
87,215,131196,6,0,B|249:200|426:187|426:187|386:198|359:229,1,420,2|0,1:2|0:0,0:0:0:0:
297,294,132910,6,0,P|299:331|303:368,1,75,6|0,1:1|0:0,0:0:0:0:
213,376,133338,2,0,P|210:338|206:301,1,75,0|0,1:2|0:0,0:0:0:0:
138,242,133767,2,0,P|100:244|63:248,1,75,0|0,1:2|0:0,0:0:0:0:
56,158,134195,2,0,P|93:155|130:151,1,75,0|0,1:2|0:0,0:0:0:0:
196,90,134624,6,0,P|193:52|189:15,1,75,0|0,1:2|0:0,0:0:0:0:
280,8,135052,2,0,P|282:45|286:82,1,75,0|0,1:0|0:0,0:0:0:0:
356,139,135481,2,0,L|405:134,2,37.5,0|0|0,1:0|3:0|0:0,0:0:0:0:
327,224,135910,2,0,P|383:219|451:215,1,112.5,0|0,1:0|0:0,0:0:0:0:
449,226,136338,5,0,1:2:0:0:
313,344,136767,1,0,1:2:0:0:
157,253,137195,2,0,L|166:156,1,75,0|0,1:2|0:0,0:0:0:0:
177,171,137517,2,0,L|186:74,1,75,0|0,0:0|0:0,0:0:0:0:
177,85,137838,1,0,0:0:0:0:
74,12,138052,6,0,P|46:78|62:105,1,75,2|0,1:2|1:2,0:0:0:0:
53,88,138374,1,0,1:2:0:0:
62,101,138481,2,0,P|67:151|69:198,1,75,2|0,1:2|1:2,0:0:0:0:
42,311,138910,1,2,1:2:0:0:
48,318,139017,1,0,1:2:0:0:
55,324,139124,1,0,1:0:0:0:
62,331,139231,1,0,1:2:0:0:
69,337,139338,2,0,P|105:330|156:326,1,75,14|0,0:0|0:0,0:0:0:0:
271,351,139767,5,6,1:0:0:0:
282,344,139874,2,0,P|286:299|292:254,1,89.9999972534181,2|2,0:0|0:0,0:0:0:0:
228,195,140195,1,10,0:0:0:0:
218,187,140302,2,0,P|192:148|200:107,1,89.9999972534181,2|2,0:0|0:0,0:0:0:0:
212,98,140624,2,0,P|255:108|300:112,1,89.9999972534181,2|2,1:2|0:0,0:0:0:0:
314,107,140945,1,2,0:0:0:0:
391,60,141160,1,2,0:0:0:0:
463,113,141374,1,2,0:0:0:0:
471,124,141481,6,0,P|455:202|452:234,1,89.9999972534181,2|0,1:2|0:0,0:0:0:0:
461,224,141802,1,0,0:0:0:0:
467,237,141910,2,0,P|440:271|397:279,1,89.9999972534181,10|0,0:0|0:0,0:0:0:0:
300,361,142338,2,0,P|256:354|227:321,1,89.9999972534181,2|0,1:2|0:0,0:0:0:0:
108,277,142767,2,0,P|91:235|106:194,1,89.9999972534181,10|2,0:0|0:0,0:0:0:0:
118,186,143088,1,2,0:0:0:0:
131,180,143195,6,0,P|175:187|219:194,1,89.9999972534181,2|2,1:2|0:0,0:0:0:0:
337,151,143624,1,10,0:0:0:0:
349,143,143731,2,0,P|364:102|356:58,1,89.9999972534181,2|2,0:0|0:0,0:0:0:0:
350,47,144052,2,0,P|317:21|271:31,1,89.9999972534181,2|2,1:2|0:0,0:0:0:0:
261,41,144374,1,2,0:2:0:0:
181,83,144588,1,2,0:0:0:0:
99,44,144802,1,2,0:0:0:0:
87,50,144910,6,0,P|82:95|75:140,1,89.9999972534181,2|2,1:2|0:0,0:0:0:0:
65,150,145231,1,2,0:0:0:0:
55,161,145338,2,0,P|79:198|121:212,1,89.9999972534181,10|0,0:0|0:0,0:0:0:0:
167,326,145767,2,0,P|211:324|243:295,1,89.9999972534181,2|0,1:2|0:0,0:0:0:0:
247,172,146195,2,0,L|202:164,3,44.999998626709,10|8|8|8,0:0|0:0|0:0|0:0,0:0:0:0:
156,93,146624,5,6,1:2:0:0:
151,80,146731,2,0,P|178:45|222:45,1,89.9999972534181,2|2,0:0|0:2,0:0:0:0:
299,89,147052,1,10,0:2:0:0:
309,97,147160,2,0,P|355:93|404:89,1,89.9999972534181,2|2,0:0|0:2,0:0:0:0:
412,96,147481,2,0,P|437:131|426:174,1,89.9999972534181,2|2,1:2|0:2,0:0:0:0:
412,182,147802,1,2,0:2:0:0:
356,253,148017,1,2,0:0:0:0:
373,341,148231,1,2,0:0:0:0:
362,349,148338,6,0,P|284:333|252:330,1,89.9999972534181,2|0,1:2|0:0,0:0:0:0:
263,339,148659,1,0,0:0:0:0:
250,345,148767,2,0,P|204:310|203:274,1,89.9999972534181,10|0,0:0|0:0,0:0:0:0:
284,125,149195,2,0,P|285:169|254:200,1,89.9999972534181,2|0,1:2|0:0,0:0:0:0:
78,205,149624,2,0,P|116:182|158:194,1,89.9999972534181,10|2,0:0|0:0,0:0:0:0:
166,206,149945,1,2,0:0:0:0:
173,218,150052,6,0,P|167:262|162:307,1,89.9999972534181,2|2,1:2|0:0,0:0:0:0:
271,360,150481,1,10,0:0:0:0:
282,352,150588,2,0,P|313:322|313:278,1,89.9999972534181,2|2,0:0|0:0,0:0:0:0:
304,269,150909,2,0,P|300:224|296:179,1,89.9999972534181,2|2,1:2|0:0,0:0:0:0:
305,169,151231,1,2,0:0:0:0:
380,119,151445,1,2,0:0:0:0:
459,161,151659,1,2,0:0:0:0:
458,176,151767,6,0,L|454:213,3,37.5,0|0|0|0,1:2|1:0|1:2|1:2,0:0:0:0:
414,286,152195,2,0,B|379:302|379:302|315:276,1,75,0|0,1:2|1:2,0:0:0:0:
277,226,152624,1,0,1:2:0:0:
267,228,152731,1,2,1:2:0:0:
258,229,152838,1,2,1:0:0:0:
249,230,152945,1,2,1:2:0:0:
239,231,153052,2,0,P|242:287|247:343,1,112.5,14|0,0:0|0:0,0:0:0:0:
237,351,153481,6,0,B|149:371|173:284|73:302,1,179.999994506836,6|8,1:1|0:0,0:0:0:0:
21,164,154124,1,2,0:0:0:0:
68,77,154338,2,0,P|136:25|223:49,1,179.999994506836,2|8,1:2|0:0,0:0:0:0:
286,122,154981,1,2,0:0:0:0:
233,206,155195,6,0,P|221:248|238:289,1,89.9999972534181,2|0,1:2|0:0,0:0:0:0:
233,302,155517,2,0,P|277:300|322:298,1,89.9999972534181,2|0,0:0|0:0,0:0:0:0:
335,306,155838,1,2,0:0:0:0:
428,274,156052,1,2,1:2:0:0:
440,265,156160,2,0,P|456:224|444:181,1,89.9999972534181,0|0,3:0|3:0,0:0:0:0:
433,172,156481,1,8,0:0:0:0:
351,116,156695,1,2,0:0:0:0:
353,102,156802,1,2,0:0:0:0:
355,88,156910,6,0,P|310:91|265:94,1,89.9999972534181,2|0,1:2|0:0,0:0:0:0:
258,107,157231,2,0,P|213:110|168:113,1,89.9999972534181,2|0,0:0|0:0,0:0:0:0:
159,103,157552,1,2,0:0:0:0:
75,157,157767,1,2,1:2:0:0:
75,157,157981,2,0,P|74:209|125:239,1,89.9999972534181,2|8,0:0|0:0,0:0:0:0:
225,255,158410,1,2,0:0:0:0:
231,243,158517,1,2,0:0:0:0:
238,232,158624,6,0,B|241:297|241:297|251:311|251:311|254:363,2,134.999995880127,2|2|2,1:2|0:0|0:0,0:0:0:0:
366,175,159481,2,0,P|377:201|344:257,1,89.9999972534181,2|0,1:2|0:0,0:0:0:0:
276,148,159910,1,8,0:0:0:0:
275,136,160017,1,8,0:0:0:0:
274,125,160124,1,8,0:0:0:0:
273,114,160231,1,8,0:0:0:0:
272,102,160338,6,0,P|301:70|350:69,1,89.9999972534181,6|0,1:2|0:0,0:0:0:0:
487,102,160767,2,0,P|457:134|413:137,1,89.9999972534181,10|0,0:0|0:0,0:0:0:0:
353,60,161195,2,0,P|375:147|387:236,1,179.999994506836,2|8,1:2|0:0,0:0:0:0:
456,308,161838,1,2,0:2:0:0:
451,320,161945,1,0,0:0:0:0:
445,332,162052,6,0,P|410:358|366:356,1,89.9999972534181,2|0,1:2|0:0,0:0:0:0:
356,346,162374,2,0,P|320:319|276:321,1,89.9999972534181,0|0,0:0|0:0,0:0:0:0:
265,330,162695,1,0,0:0:0:0:
155,365,162910,1,2,1:2:0:0:
164,353,163017,2,0,P|181:312|186:268,1,89.9999972534181,0|0,3:0|0:0,0:0:0:0:
178,258,163338,1,8,0:0:0:0:
142,138,163552,1,2,0:0:0:0:
55,188,163767,6,0,P|52:231|83:261,1,89.9999972534181,2|0,1:2|0:0,0:0:0:0:
225,178,164195,2,0,P|237:134|245:90,1,89.9999972534181,10|0,0:2|0:0,0:0:0:0:
330,40,164624,2,0,P|377:36|415:67,1,89.9999972534181,2|0,1:2|0:0,0:0:0:0:
422,56,164945,2,0,P|448:91|446:135,1,89.9999972534181,2|0,3:2|0:0,0:0:0:0:
437,145,165267,1,2,0:0:0:0:
330,226,165481,6,0,P|417:204|507:201,1,179.999994506836,2|0,1:2|0:0,0:0:0:0:
485,317,166124,2,0,P|452:346|408:345,1,89.9999972534181,2|0,0:0|1:2,0:0:0:0:
402,334,166445,2,0,P|359:319|315:312,1,89.9999972534181,2|0,0:0|0:0,0:0:0:0:
304,318,166767,2,0,P|297:343|294:368,3,44.999998626709,10|8|8|8,0:0|0:0|0:0|0:0,0:0:0:0:
210,376,167195,6,0,P|198:287|179:199,1,179.999994506836,6|8,1:1|0:0,0:0:0:0:
51,72,167838,1,2,0:0:0:0:
32,161,168052,2,0,B|120:176|109:98|198:112,1,179.999994506836,2|8,1:2|0:0,0:0:0:0:
287,154,168695,1,2,0:0:0:0:
376,112,168909,6,0,P|386:59|390:17,1,89.9999972534181,2|0,1:2|0:0,0:0:0:0:
400,14,169231,2,0,P|444:6|479:32,1,89.9999972534181,2|0,0:0|0:0,0:0:0:0:
483,47,169552,1,2,0:0:0:0:
464,144,169766,1,2,1:2:0:0:
456,154,169874,2,0,P|459:198|461:247,1,89.9999972534181,0|0,3:2|3:2,0:0:0:0:
471,251,170195,1,8,0:2:0:0:
426,339,170409,1,2,0:2:0:0:
419,349,170516,1,2,0:2:0:0:
413,359,170624,6,0,P|368:356|323:353,1,89.9999972534181,2|0,1:2|0:0,0:0:0:0:
316,340,170945,2,0,P|271:337|226:334,1,89.9999972534181,2|0,0:0|0:0,0:0:0:0:
217,344,171266,1,2,0:0:0:0:
137,284,171481,1,2,1:2:0:0:
137,284,171695,2,0,P|121:243|140:196,1,89.9999972534181,2|8,0:2|0:0,0:0:0:0:
199,90,172124,1,2,0:0:0:0:
196,77,172231,1,2,0:0:0:0:
193,64,172338,6,0,B|141:67|141:67|127:77|127:77|62:80,2,134.999995880127,2|2|2,1:2|0:0|0:0,0:0:0:0:
314,135,173195,2,0,P|279:160|235:154,1,89.9999972534181,2|0,1:2|0:0,0:0:0:0:
308,38,173624,1,8,0:0:0:0:
320,37,173731,1,8,0:0:0:0:
331,36,173838,1,8,0:0:0:0:
342,35,173945,1,8,0:0:0:0:
354,34,174052,6,0,P|399:31|474:21,1,89.9999972534181,6|0,1:2|0:0,0:0:0:0:
476,158,174481,2,0,P|444:188|394:188,1,89.9999972534181,10|0,0:0|0:0,0:0:0:0:
304,128,174909,2,0,P|393:133|482:149,1,179.999994506836,2|8,1:2|0:0,0:0:0:0:
507,245,175552,1,2,0:2:0:0:
503,257,175659,1,0,0:0:0:0:
499,268,175766,6,0,P|471:304|424:313,1,89.9999972534181,2|0,1:2|0:0,0:0:0:0:
419,305,176088,2,0,P|384:279|340:280,1,89.9999972534181
329,289,176409,1,0,0:0:0:0:
240,334,176624,1,2,1:2:0:0:
228,342,176731,2,0,B|189:362|189:362|153:316,1,89.9999972534181,0|0,3:0|0:0,0:0:0:0:
152,313,177052,1,8,0:0:0:0:
118,220,177266,1,2,0:0:0:0:
177,140,177481,6,0,P|220:140|289:131,1,89.9999972534181,2|0,1:2|0:0,0:0:0:0:
391,184,177909,2,0,P|430:164|439:122,1,89.9999972534181,10|0,0:0|0:0,0:0:0:0:
354,9,178338,2,0,P|309:6|274:32,1,89.9999972534181,2|0,1:2|0:0,0:0:0:0:
278,44,178659,2,0,P|253:80|258:124,1,89.9999972534181,2|0,3:0|0:0,0:0:0:0:
266,135,178981,1,2,0:0:0:0:
338,194,179195,6,0,B|340:231|340:231|350:242|350:242|352:280,1,89.9999972534181,2|0,1:2|1:2,0:0:0:0:
345,292,179517,1,0,1:2:0:0:
337,304,179624,1,0,1:2:0:0:
248,349,179838,1,0,1:2:0:0:
170,289,180052,2,0,P|125:290|80:298,1,89.9999972534181,0|2,1:2|1:2,0:0:0:0:
72,306,180374,1,2,1:2:0:0:
62,315,180481,2,0,P|18:286|47:196,1,134.999995880127,14|0,0:0|0:0,0:0:0:0:
36,204,180910,5,6,1:1:0:0:
256,192,180993,12,6,186243,1:2:0:0:
176,77,186576,5,0,1:2:0:0:
167,170,186910,1,0,1:2:0:0:
158,263,187243,1,0,1:2:0:0:
214,341,187576,5,0,1:2:0:0:
305,352,187910,1,0,1:2:0:0:
387,311,188243,1,0,1:2:0:0:
432,230,188576,1,0,1:2:0:0:
423,138,188910,5,0,1:2:0:0:
410,141,189243,1,0,1:2:0:0:
396,143,189576,1,0,1:2:0:0:
382,145,189910,1,0,1:2:0:0:
310,199,190243,6,0,L|314:240,2,37.5,0|0|0,1:2|1:2|1:2,0:0:0:0:
248,133,190576,1,0,1:2:0:0:
176,187,190743,2,0,L|180:228,2,37.5,0|0|0,1:2|1:2|1:2,0:0:0:0:
114,121,191076,1,0,1:2:0:0:
42,175,191243,1,8,0:0:0:0:
42,184,191326,1,8,0:0:0:0:
43,193,191409,1,10,0:0:0:0:
44,202,191493,1,8,0:0:0:0:
45,212,191576,6,0,P|50:253|56:306,1,75,6|10,1:2|0:0,0:0:0:0:
165,356,191910,1,2,1:2:0:0:
165,356,192077,2,0,P|241:358|294:309,1,150,10|8,0:0|0:0,0:0:0:0:
250,231,192577,2,0,P|246:190|241:150,1,75,0|10,1:0|0:0,0:0:0:0:
307,94,192910,5,2,1:2:0:0:
307,94,193077,2,0,P|346:76|400:102,1,75,10|2,0:0|1:2,0:0:0:0:
446,138,193410,2,0,P|430:217|421:288,1,150,10|12,0:0|1:2,0:0:0:0:
429,297,193827,1,0,1:2:0:0:
437,309,193910,2,0,P|411:306|376:303,3,37.5,0|0|14|0,1:2|1:2|1:2|1:2,0:0:0:0:
328,349,194243,6,0,P|293:363|256:360,1,75,6|10,1:2|0:0,0:0:0:0:
179,312,194577,1,2,1:2:0:0:
178,312,194743,2,0,P|182:277|184:232,1,75,10|0,0:0|1:2,0:0:0:0:
246,169,195077,2,0,B|333:156|300:226|383:209,1,150,10|10,0:0|0:0,0:0:0:0:
469,127,195576,6,0,P|472:89|445:57,1,75,2|8,1:2|0:0,0:0:0:0:
364,33,195910,2,0,P|324:39|289:41,1,75,2|8,1:2|0:0,0:0:0:0:
208,80,196243,2,0,P|153:67|107:61,1,75,10|8,0:0|0:0,0:0:0:0:
121,71,196493,1,8,0:0:0:0:
108,79,196576,2,0,P|110:97|112:116,3,37.5,10|8|10|8,0:0|0:0|0:0|0:0,0:0:0:0:
64,187,196910,6,0,P|76:233|115:248,1,75,6|10,1:2|0:0,0:0:0:0:
186,260,197243,1,2,1:2:0:0:
186,260,197410,2,0,P|282:234|357:220,1,150,10|8,0:0|0:0,0:0:0:0:
420,240,197910,2,0,P|444:269|438:315,1,75,0|10,1:2|0:0,0:0:0:0:
371,359,198243,5,2,1:2:0:0:
371,359,198410,2,0,P|330:354|292:352,1,75,10|2,0:2|1:2,0:0:0:0:
208,370,198743,2,0,B|131:375|155:308|74:319,1,150,10|8,0:0|0:0,0:0:0:0:
5,260,199243,2,0,P|9:225|46:196,1,75,0|10,1:0|0:0,0:0:0:0:
125,216,199576,6,0,P|161:225|198:228,1,75,2|8,1:2|1:2,0:0:0:0:
270,173,199910,1,2,1:2:0:0:
270,173,200076,2,0,P|264:126|261:90,1,75,10|0,1:2|1:2,0:0:0:0:
343,57,200410,2,0,P|352:132|364:206,1,150,10|10,1:2|1:2,0:0:0:0:
483,306,200910,6,0,P|452:285|415:287,1,75,2|8,1:2|1:2,0:0:0:0:
282,352,201243,2,0,P|310:321|315:285,1,75,2|8,1:2|1:2,0:0:0:0:
242,191,201576,2,0,P|229:156|191:132,1,75,10|4,0:3|0:3,0:0:0:0:
69,186,201910,1,14,0:0:0:0:
69,186,202243,6,0,P|158:187|247:202,1,179.999994506836,6|2,1:2|1:2,0:0:0:0:
340,168,202743,1,10,0:0:0:0:
474,213,202910,2,0,P|507:104|470:60,1,179.999994506836,2|2,1:2|1:2,0:0:0:0:
379,22,203410,1,10,0:0:0:0:
265,89,203576,6,0,P|175:79|86:70,1,179.999994506836,2|2,1:2|1:2,0:0:0:0:
25,148,204076,1,10,0:0:0:0:
83,228,204243,2,0,P|128:219|181:219,1,89.9999972534181,2|8,1:2|0:0,0:0:0:0:
263,255,204576,2,0,P|308:246|361:246,1,89.9999972534181,2|8,1:2|0:0,0:0:0:0:
391,363,204910,6,0,P|301:349|212:341,1,179.999994506836,2|2,1:2|1:2,0:0:0:0:
119,374,205409,1,8,0:0:0:0:
17,307,205576,2,0,B|-2:213|75:244|52:139,1,179.999994506836,2|2,1:2|1:2,0:0:0:0:
114,61,206076,1,10,0:0:0:0:
215,141,206243,6,0,P|300:124|393:116,1,179.999994506836,2|2,1:2|1:2,0:0:0:0:
453,223,206743,1,10,0:0:0:0:
361,259,206910,1,10,0:2:0:0:
350,257,206993,1,8,0:2:0:0:
339,256,207076,1,10,0:2:0:0:
328,255,207160,1,8,0:2:0:0:
316,252,207243,2,0,P|309:231|305:209,3,44.999998626709,10|8|6|4,0:3|0:3|0:3|0:3,0:0:0:0:
223,153,207576,6,0,P|211:254|194:348,1,179.999994506836,6|2,1:2|1:2,0:0:0:0:
279,384,208076,1,10,0:0:0:0:
409,359,208243,2,0,P|471:297|459:211,1,179.999994506836,2|2,1:2|1:2,0:0:0:0:
378,154,208743,1,10,0:0:0:0:
487,73,208910,6,0,P|397:66|308:55,1,179.999994506836,2|2,1:2|1:2,0:0:0:0:
229,115,209410,1,10,0:0:0:0:
147,60,209576,2,0,P|99:55|39:43,1,89.9999972534181,2|8,1:2|0:2,0:0:0:0:
44,146,209909,2,0,P|91:150|151:162,1,89.9999972534181,2|8,1:2|0:2,0:0:0:0:
209,221,210243,6,0,P|295:197|384:183,1,179.999994506836,2|2,1:2|1:2,0:0:0:0:
461,245,210743,1,10,0:0:0:0:
418,363,210910,2,0,B|319:370|353:307|249:316,1,179.999994506836,2|2,1:2|1:2,0:0:0:0:
159,357,211410,1,10,0:0:0:0:
37,298,211576,6,0,P|6:217|69:149,1,179.999994506836,2|2,1:2|1:2,0:0:0:0:
190,181,212076,1,10,0:2:0:0:
276,133,212243,1,10,0:0:0:0:
275,122,212326,1,8,0:0:0:0:
274,111,212409,1,10,0:0:0:0:
273,99,212493,1,8,0:0:0:0:
272,88,212576,2,0,L|267:11,3,44.999998626709,8|8|10|8,0:0|0:0|0:0|0:0,0:0:0:0:
348,10,212910,6,0,P|384:17|421:22,1,75,6|8,1:2|0:0,0:0:0:0:
476,93,213243,1,2,1:2:0:0:
415,160,213410,2,0,P|403:235|399:310,1,150,10|8,0:0|0:0,0:0:0:0:
326,361,213910,2,0,P|293:378|256:372,1,75,0|10,1:0|0:0,0:0:0:0:
185,317,214243,5,2,1:2:0:0:
185,317,214410,2,0,P|178:269|166:216,1,75,10|2,0:0|1:2,0:0:0:0:
139,159,214743,2,0,P|190:204|277:174,1,150,10|8,0:0|0:0,0:0:0:0:
256,97,215243,2,0,P|205:78|164:90,1,75,0|10,1:0|0:0,0:0:0:0:
54,112,215576,6,0,P|48:152|41:187,1,75,6|8,1:2|0:0,0:0:0:0:
52,275,215910,1,2,1:2:0:0:
52,275,216076,2,0,P|80:297|117:298,1,75,10|0,0:0|1:2,0:0:0:0:
188,240,216410,2,0,B|276:226|243:290|348:276,1,150,10|10,0:0|0:0,0:0:0:0:
430,337,216910,6,0,P|466:326|484:295,1,75,6|8,1:2|0:3,0:0:0:0:
480,284,217160,1,8,0:3:0:0:
476,272,217243,2,0,P|482:193|487:121,2,150,4|6|8,0:3|0:3|0:3,0:0:0:0:
415,338,218076,1,4,0:3:0:0:
320,270,218243,6,0,P|281:255|248:264,1,75,6|10,1:2|0:2,0:0:0:0:
170,360,218576,1,2,1:2:0:0:
170,360,218743,2,0,P|163:284|156:201,1,150,10|10,0:2|0:2,0:0:0:0:
113,131,219243,2,0,P|76:146|34:144,1,75,2|10,1:2|0:2,0:0:0:0:
28,56,219576,5,2,1:2:0:0:
28,56,219743,2,0,P|62:41|99:41,1,75,10|2,0:2|1:2,0:0:0:0:
184,72,220076,2,0,P|257:88|331:100,1,150,10|10,0:2|0:2,0:0:0:0:
404,152,220576,2,0,P|419:192|397:239,1,75,2|10,1:2|0:2,0:0:0:0:
305,284,220909,6,0,P|263:285|213:294,1,75,2|10,1:2|1:2,0:0:0:0:
147,253,221243,1,2,1:2:0:0:
147,253,221410,2,0,P|131:219|139:182,1,75,10|0,1:2|1:2,0:0:0:0:
200,117,221743,2,0,P|127:137|53:145,1,150,10|10,1:2|1:2,0:0:0:0:
79,22,222243,6,0,P|128:37|153:34,1,75,2|8,1:2|1:2,0:0:0:0:
240,25,222576,2,0,P|289:40|314:37,1,75,2|8,1:2|1:2,0:0:0:0:
396,70,222910,2,0,P|421:118|408:172,1,112.5,10|4,0:3|0:3,0:0:0:0:
396,180,223243,2,0,P|377:181|359:185,3,37.5,10|8|8|8,0:0|0:0|0:0|0:0,0:0:0:0:
286,234,223576,6,0,P|249:224|212:219,1,75,6|8,1:2|0:0,0:0:0:0:
127,248,223909,1,0,1:0:0:0:
59,146,224076,2,0,P|54:216|117:250,1,150,8|8,0:0|0:0,0:0:0:0:
197,210,224576,2,0,P|201:172|208:135,1,75,2|8,1:2|0:0,0:0:0:0:
291,101,224909,6,0,B|316:111|336:133|336:133|360:116|388:111,2,112.5,2|2|10,1:2|0:2|0:2,0:0:0:0:
317,14,225576,2,0,P|354:10|395:26,1,75,2|8,1:2|0:0,0:0:0:0:
472,130,225909,2,0,P|464:170|457:204,1,75,0|8,1:0|0:0,0:0:0:0:
384,258,226243,5,2,1:2:0:0:
384,258,226409,2,0,P|395:295|399:334,1,75,10|2,0:0|1:2,0:0:0:0:
311,358,226743,2,0,P|307:320|297:284,1,75,10|0,0:2|1:2,0:0:0:0:
214,245,227076,2,0,P|178:251|140:253,1,75,10|0,0:2|1:2,0:0:0:0:
68,307,227409,1,10,0:0:0:0:
91,169,227576,6,0,P|234:155|262:149,1,150,2|2,1:2|1:2,0:0:0:0:
307,93,228076,1,8,0:2:0:0:
392,121,228243,1,10,0:0:0:0:
391,130,228326,1,8,0:0:0:0:
390,139,228409,1,8,0:0:0:0:
389,149,228493,1,8,0:0:0:0:
389,158,228576,1,8,0:3:0:0:
472,317,228909,6,0,P|397:323|323:335,1,150,6|0,1:2|0:0,0:0:0:0:
242,294,229409,1,8,0:0:0:0:
113,344,229576,2,0,P|139:304|141:232,2,112.5,2|2|10,1:2|0:2|0:2,0:0:0:0:
29,307,230243,6,0,P|15:247|32:215,1,75,2|8,1:2|0:0,0:0:0:0:
12,224,230493,2,0,P|48:174|84:167,1,75,2|0,0:2|0:0,0:0:0:0:
74,169,230743,1,10,0:2:0:0:
156,204,230909,2,0,P|192:197|331:188,1,150,2|0,1:2|1:0,0:0:0:0:
383,232,231409,1,8,0:0:0:0:
479,142,231576,6,0,P|476:105|448:82,1,75,2|8,1:2|0:0,0:0:0:0:
439,72,231826,2,0,P|398:76|364:78,1,75,2|0,0:2|0:0,0:0:0:0:
355,90,232076,1,10,0:2:0:0:
268,116,232243,2,0,B|271:73|271:73|262:56|262:56|267:6,2,112.5,2|2|10,1:2|0:2|0:2,0:0:0:0:
190,160,232909,6,0,B|185:210|185:210|194:227|194:227|190:269,2,112.5,2|2|10,1:2|0:0|0:2,0:0:0:0:
119,103,233576,2,0,L|67:108,3,37.5,10|8|8|8,0:0|0:0|0:0|0:0,0:0:0:0:
46,135,233909,2,0,L|-6:140,3,37.5,8|8|8|8,0:2|0:0|0:2|0:0,0:0:0:0:
8,224,234243,6,0,P|70:231|93:241,1,75,14|0,1:2|1:2,0:0:0:0:
152,290,234576,1,0,1:2:0:0:
152,290,234742,2,0,P|228:283|318:270,1,150,10|0,1:2|1:2,0:0:0:0:
314,183,235242,2,0,P|240:194|166:201,1,150,10|8,1:2|1:2,0:0:0:0:
179,112,235743,2,0,P|253:104|327:93,1,150,2|8,1:2|1:2,0:0:0:0:
399,8,236242,6,0,L|405:45,3,37.5,0|0|0|0,1:2|1:2|1:2|1:2,0:0:0:0:
460,107,236576,2,0,B|484:137|484:137|453:181,1,75,14|0,1:2|0:0,0:0:0:0:
383,208,236909,6,0,B|346:225|339:265|339:265|376:290|376:327,1,150,14|0,1:2|1:2,0:0:0:0:
288,345,237409,2,0,B|260:315|219:321|219:321|207:363|172:376,1,150,10|0,1:2|1:2,0:0:0:0:
128,297,237909,2,0,B|147:261|128:224|128:224|85:226|62:196,1,150,10|8,1:2|1:2,0:0:0:0:
124,131,238409,2,0,B|163:138|192:109|192:109|177:68|199:37,1,150,2|8,1:2|1:2,0:0:0:0:
309,3,238909,6,0,L|347:8,3,37.5,2|0|0|0,1:2|1:2|1:2|1:2,0:0:0:0:
352,90,239242,2,0,B|259:76,1,75,14|0,1:2|0:0,0:0:0:0:
212,25,239576,6,0,P|221:99|230:173,1,150,14|0,1:2|1:2,0:0:0:0:
197,257,240076,2,0,P|159:319|88:334,1,150,10|0,1:2|1:2,0:0:0:0:
35,260,240576,2,0,P|72:197|143:182,1,150,10|8,1:2|1:2,0:0:0:0:
230,173,241076,2,0,P|305:181|380:184,1,150,2|8,1:2|1:2,0:0:0:0:
500,137,241576,6,0,L|495:174,3,37.5,2|0|0|0,1:2|1:2|1:2|1:2,0:0:0:0:
472,255,241909,2,0,B|448:286|448:286|416:266,1,75,14|0,1:2|0:0,0:0:0:0:
370,194,242242,6,0,P|296:202|221:209,1,150,14|0,1:2|1:2,0:0:0:0:
141,252,242742,2,0,P|70:246|47:179,1,150,10|0,1:2|1:2,0:0:0:0:
95,103,243242,2,0,P|169:111|231:117,1,112.5,10|0,1:2|1:2,0:0:0:0:
220,108,243576,5,2,1:2:0:0:
300,69,243742,1,0,1:2:0:0:
309,58,243826,2,0,B|335:34|335:34|381:56,1,75,2|0,1:2|1:2,0:0:0:0:
382,55,244076,2,0,P|420:50|457:48,1,75,2|10,1:2|1:2,0:0:0:0:
457,48,244909,6,0,P|448:122|441:197,1,150,6|2,1:2|1:2,0:0:0:0:
392,273,245409,2,0,P|360:291|324:287,1,75,10|0,0:0|1:2,0:0:0:0:
246,238,245742,2,0,P|209:243|172:246,1,75,10|0,0:0|1:2,0:0:0:0:
127,325,246076,6,0,P|119:250|106:176,1,150,10|10,0:2|0:0,0:0:0:0:
48,107,246576,1,0,1:2:0:0:
103,36,246742,2,0,P|188:19|246:82,1,150,10|10,0:0|1:2,0:0:0:0:
226,144,247242,1,2,1:2:0:0:
226,144,247409,1,10,1:2:0:0:
363,126,247576,6,0,P|418:119|515:111,1,150,6|2,1:2|1:2,0:0:0:0:
496,200,248076,2,0,P|450:211|417:211,1,75,10|0,0:2|1:0,0:0:0:0:
357,274,248409,2,0,P|311:285|278:285,1,75,10|0,0:2|1:0,0:0:0:0:
198,369,248742,6,0,P|191:294|175:221,1,150,10|10,0:0|0:0,0:0:0:0:
233,152,249242,1,2,1:2:0:0:
179,79,249409,2,0,P|107:69|59:123,1,150,10|8,0:2|0:3,0:0:0:0:
87,208,249909,1,10,0:3:0:0:
52,291,250076,1,6,0:3:0:0:
152,363,250243,6,0,P|231:350|296:345,1,112.5,6|2,1:2|0:2,0:0:0:0:
271,337,250576,1,0,0:0:0:0:
305,253,250743,1,10,0:0:0:0:
235,195,250909,2,0,B|243:118|185:146|196:55,1,150,2|0,1:2|0:0,0:0:0:0:
272,8,251409,1,10,0:0:0:0:
353,46,251576,6,0,P|407:34|479:26,2,112.5,2|2|10,1:2|0:0|0:0,0:0:0:0:
320,129,252242,2,0,P|339:197|420:183,1,150,2|0,1:2|0:0,0:0:0:0:
417,189,252659,1,8,0:0:0:0:
424,180,252742,1,10,0:2:0:0:
421,289,252909,6,0,P|383:298|271:256,1,150,6|10,1:2|0:0,0:0:0:0:
229,190,253409,2,0,P|175:142|110:170,1,150,2|2,1:2|1:2,0:0:0:0:
17,255,253909,1,2,1:2:0:0:
61,333,254076,6,0,P|153:318|224:316,1,150,6|0,1:2|1:2,0:0:0:0:
293,282,254576,1,8,0:0:0:0:
374,322,254742,1,0,1:2:0:0:
385,320,254826,1,0,1:0:0:0:
397,318,254909,2,0,L|389:252,3,37.5,0|8|10|8,1:2|0:0|0:0|0:0,0:0:0:0:
411,228,255242,2,0,L|403:162,3,37.5,10|8|10|8,0:0|0:0|0:0|0:0,0:0:0:0:
466,129,255576,6,0,P|436:108|399:107,1,75,6|8,1:2|0:0,0:0:0:0:
320,151,255909,1,2,1:2:0:0:
320,151,256076,2,0,P|278:156|215:160,1,75,10|0,0:2|1:2,0:0:0:0:
164,119,256409,2,0,P|123:123|59:128,1,75,10|0,0:2|1:2,0:0:0:0:
31,194,256742,6,0,P|31:272|94:308,1,150,10|10,0:0|0:0,0:0:0:0:
165,262,257242,1,2,1:2:0:0:
243,307,257409,2,0,P|281:302|332:301,1,75,10|0,0:0|1:2,0:0:0:0:
398,261,257742,1,10,1:2:0:0:
398,261,257909,2,0,P|415:225|406:186,1,75,2|10,1:2|1:2,0:0:0:0:
327,153,258242,6,0,P|252:163|178:170,1,150,6|2,1:2|1:2,0:0:0:0:
117,237,258742,2,0,P|121:279|102:317,1,75,10|0,0:0|1:0,0:0:0:0:
18,299,259076,2,0,P|13:256|32:218,1,75,10|0,0:0|1:0,0:0:0:0:
81,157,259409,6,0,B|78:94|78:94|92:69|92:69|88:8,1,150,10|10,0:2|0:0,0:0:0:0:
177,22,259909,2,0,P|209:60|198:108,1,75,2|10,1:2|0:2,0:0:0:0:
169,164,260242,1,0,1:0:0:0:
216,240,260409,1,10,0:0:0:0:
224,250,260492,1,8,0:0:0:0:
232,260,260576,2,0,L|289:252,3,37.5,10|8|10|8,0:0|0:0|0:0|0:0,0:0:0:0:
354,232,260909,6,0,P|382:167|364:123,1,112.5,6|2,1:2|0:2,0:0:0:0:
362,118,261243,2,0,P|348:83|355:47,1,75,0|10,1:0|0:2,0:0:0:0:
437,8,261576,1,0,1:0:0:0:
511,58,261742,2,0,P|506:97|504:140,1,75,10|2,0:0|1:2,0:0:0:0:
469,216,262076,1,10,0:0:0:0:
512,323,262243,6,0,P|456:304|401:301,1,112.5,6|0,1:2|0:0,0:0:0:0:
389,308,262576,2,0,P|361:331|324:334,1,75,2|8,1:2|0:0,0:0:0:0:
219,270,262909,2,0,L|119:279,1,75,10|0,0:2|1:0,0:0:0:0:
135,289,263159,1,0,1:0:0:0:
126,300,263242,2,0,P|122:335|158:353,1,75,8|0,0:0|1:0,0:0:0:0:
30,352,263576,6,0,P|36:278|77:216,1,150,6|8,1:2|0:0,0:0:0:0:
164,193,264076,1,2,1:2:0:0:
67,110,264242,1,10,0:0:0:0:
67,110,264409,2,0,P|111:98|141:106,1,75,2|2,1:2|1:2,0:0:0:0:
255,148,264742,6,0,P|329:139|404:133,1,150,6|2,1:2|1:2,0:0:0:0:
479,181,265242,2,0,P|486:218|470:252,1,75,10|0,0:0|1:0,0:0:0:0:
379,323,265576,2,0,P|334:313|330:313,3,37.5,10|8|10|8,0:2|0:2|0:2|0:2,0:0:0:0:
266,348,265909,2,0,P|232:362|195:357,1,75,10|10,0:2|0:2,0:0:0:0:
78,310,266243,6,0,P|62:221|40:134,1,179.999994506836,6|2,1:2|1:2,0:0:0:0:
104,57,266743,1,10,0:0:0:0:
199,137,266910,2,0,P|284:158|364:115,1,179.999994506836,0|2,1:2|1:2,0:0:0:0:
435,50,267410,1,10,0:0:0:0:
512,163,267576,6,0,P|502:253|493:342,1,179.999994506836,2|2,1:2|1:2,0:0:0:0:
403,383,268076,1,10,0:0:0:0:
323,323,268243,2,0,P|321:277|309:225,1,89.9999972534181,2|8,1:2|0:0,0:0:0:0:
257,154,268576,2,0,P|255:108|243:56,1,89.9999972534181,2|8,1:2|0:0,0:0:0:0:
141,8,268910,6,0,P|149:97|162:186,1,179.999994506836,2|2,1:2|1:2,0:0:0:0:
116,273,269409,1,10,0:0:0:0:
252,329,269576,2,0,B|158:310|189:387|84:364,1,179.999994506836,2|2,1:2|1:2,0:0:0:0:
22,285,270076,1,10,0:0:0:0:
75,151,270243,6,0,P|160:168|253:176,1,179.999994506836,2|2,1:2|1:2,0:0:0:0:
360,83,270743,1,10,0:0:0:0:
455,107,270910,1,10,0:0:0:0:
464,112,270993,1,8,0:0:0:0:
475,116,271076,1,10,0:0:0:0:
485,120,271160,1,8,0:0:0:0:
495,127,271243,2,0,L|490:171,3,44.999998626709,10|8|6|4,0:3|0:3|0:3|0:3,0:0:0:0:
443,248,271576,6,0,P|342:260|248:277,1,179.999994506836,6|2,1:2|1:2,0:0:0:0:
180,326,272076,1,10,0:0:0:0:
53,274,272243,2,0,P|2:205|34:125,1,179.999994506836,2|2,1:2|1:2,0:0:0:0:
121,77,272743,1,10,0:0:0:0:
258,106,272910,6,0,P|264:195|276:285,1,179.999994506836,2|2,1:2|1:2,0:0:0:0:
366,326,273410,1,10,0:0:0:0:
451,277,273576,2,0,P|456:229|468:169,1,89.9999972534181,2|8,1:2|0:0,0:0:0:0:
433,93,273909,2,0,P|386:67|337:81,1,89.9999972534181,2|8,1:2|0:0,0:0:0:0:
229,136,274243,6,0,P|136:156|41:166,1,179.999994506836,2|2,1:2|1:2,0:0:0:0:
11,256,274743,1,10,0:0:0:0:
105,346,274909,2,0,P|194:356|282:375,1,179.999994506836,2|2,1:2|1:2,0:0:0:0:
373,335,275410,1,10,0:0:0:0:
264,246,275576,6,0,P|214:179|247:80,1,179.999994506836,2|2,1:2|1:2,0:0:0:0:
364,31,276076,1,10,0:0:0:0:
447,84,276243,1,10,0:0:0:0:
446,95,276326,1,8,0:0:0:0:
445,106,276409,1,10,0:0:0:0:
444,118,276493,1,8,0:0:0:0:
443,129,276576,2,0,L|438:206,3,44.999998626709,10|8|6|4,0:3|0:3|0:3|0:3,0:0:0:0:
476,254,276909,6,0,P|416:295|342:280,1,150,6|0,1:2|1:0,0:0:0:0:
270,228,277409,1,0,1:0:0:0:
222,107,277575,2,0,P|147:101|72:91,1,150,10|0,0:0|1:2,0:0:0:0:
12,157,278075,1,0,0:0:0:0:
24,266,278242,6,0,P|69:324|145:329,1,150,2|0,0:0|0:0,0:0:0:0:
211,274,278742,1,0,1:2:0:0:
225,275,278825,1,0,1:2:0:0:
239,276,278909,2,0,B|287:279|287:279|303:274|303:274|350:277,2,112.5,10|0|0,0:2|1:0|1:0,0:0:0:0:
141,211,279575,6,0,P|124:151|183:85,1,150,6|0,1:2|1:0,0:0:0:0:
263,68,280075,1,0,1:0:0:0:
391,120,280242,2,0,P|376:193|367:268,1,150,10|0,0:0|1:2,0:0:0:0:
426,336,280742,1,0,0:0:0:0:
298,363,280909,6,0,P|230:335|201:267,1,150,2|0,0:0|0:0,0:0:0:0:
323,141,281409,1,0,1:2:0:0:
324,153,281492,1,0,1:2:0:0:
328,165,281576,2,0,P|311:198|277:213,1,75,10|0,0:2|1:2,0:0:0:0:
128,144,281909,2,0,P|164:144|193:168,1,75,2|0,0:0|1:2,0:0:0:0:
200,268,282242,6,0,P|124:274|47:290,1,150,6|0,1:2|1:0,0:0:0:0:
3,213,282742,1,0,1:0:0:0:
48,84,282909,2,0,P|111:46|185:45,1,150,10|0,0:0|1:2,0:0:0:0:
261,94,283409,1,0,0:0:0:0:
381,31,283575,6,0,P|363:103|353:178,1,150,2|0,0:0|0:0,0:0:0:0:
280,231,284075,1,0,1:2:0:0:
270,223,284159,1,0,1:2:0:0:
258,219,284243,2,0,B|222:194|162:202|162:202|175:210,2,112.5,10|0|0,0:2|1:2|1:2,0:0:0:0:
368,315,284909,6,0,P|293:323|220:340,1,150,6|0,1:2|1:0,0:0:0:0:
133,366,285409,1,0,1:0:0:0:
18,312,285575,2,0,P|4:238|68:181,1,150,10|0,0:0|1:2,0:0:0:0:
137,161,286075,1,0,0:0:0:0:
257,203,286242,6,0,P|332:216|409:218,1,150,2|0,0:0|0:0,0:0:0:0:
480,98,286742,1,0,1:2:0:0:
479,86,286825,1,0,1:2:0:0:
477,73,286909,1,2,1:2:0:0:
414,7,287076,1,2,1:2:0:0:
331,46,287243,1,2,1:2:0:0:
342,136,287409,2,0,L|336:187,1,37.5,10|8,0:0|0:0,0:0:0:0:
