osu file format v14

[General]
AudioFilename: audio.mp3
AudioLeadIn: 0
PreviewTime: 153217
Countdown: 0
SampleSet: Soft
StackLeniency: 0.7
Mode: 0
LetterboxInBreaks: 0
WidescreenStoryboard: 0

[Editor]
DistanceSpacing: 1
BeatDivisor: 4
GridSize: 32
TimelineZoom: 1.3

[Metadata]
Title:Psychological Mental Health
TitleUnicode:Psychological Mental Health
Artist:Kitamura Eri
ArtistUnicode:喜多村英梨
Creator:Mordred
Version:Normal
Source:
Tags:kowari gazimal yogurtt oriental illusion dream dystopia record kitaeri 南悠翔 minami yuto yuuto corsace open co2021 ro16 tb japanese rock
BeatmapID:3229549
BeatmapSetID:1557347

[Difficulty]
HPDrainRate:4
CircleSize:3
OverallDifficulty:4
ApproachRate:6
SliderMultiplier:1.1
SliderTickRate:1

[Events]
//Background and Video events
0,0,"46073811_p0 x.jpg",0,0
//Break Periods
2,181110,185193
//Storyboard Layer 0 (Background)
//Storyboard Layer 1 (Fail)
//Storyboard Layer 2 (Pass)
//Storyboard Layer 3 (Foreground)
//Storyboard Layer 4 (Overlay)
//Storyboard Sound Samples

[TimingPoints]
530,375,4,2,1,50,1,0
12530,392.156862745098,4,2,1,50,1,0
26647,-100,4,2,1,60,0,0
31745,-100,4,2,1,60,0,0
32039,-100,4,2,1,60,0,0
32333,-100,4,2,1,60,0,0
38020,-100,4,2,1,60,0,0
38314,-100,4,2,1,60,0,0
39196,333.333333333333,4,2,1,70,1,0
39196,-100,4,2,1,70,0,0
40529,333.333333333333,4,2,1,50,1,0
40529,-100,4,2,1,50,0,0
45862,-100,4,2,1,60,0,0
51195,-100,4,2,1,70,0,1
61862,-100,4,2,1,50,0,0
67195,-100,4,2,1,60,0,0
72195,-100,4,2,1,50,0,0
72528,-100,4,2,1,60,0,0
74862,-100,4,2,1,60,0,0
75195,-100,4,2,1,60,0,0
77528,-100,4,2,1,60,0,0
77862,-100,4,2,1,60,0,0
80195,-100,4,2,1,60,0,0
80528,-100,4,2,1,60,0,0
83195,-100,4,2,1,60,0,0
104528,-100,4,2,1,60,0,0
109195,-100,4,2,1,60,0,0
109862,-100,4,2,1,60,0,0
131196,428.571428571429,4,2,1,60,1,0
132910,428.571428571429,4,2,1,50,1,0
138052,-100,4,2,1,60,0,0
139338,-100,4,2,1,60,0,0
139767,-100,4,2,1,80,0,1
151767,-100,4,2,1,70,0,0
153052,-100,4,2,1,80,0,0
153481,-100,4,2,1,80,0,1
180481,-100,4,2,1,80,0,1
180910,333.333333333333,4,2,1,80,1,0
180993,-100,4,2,1,5,0,0
182243,-100,4,2,1,10,0,0
182910,-100,4,2,1,15,0,0
183576,-100,4,2,1,20,0,0
184243,-100,4,2,1,25,0,0
184910,-100,4,2,1,30,0,0
185243,-100,4,2,1,35,0,0
185576,-100,4,2,1,40,0,0
185910,-100,4,2,1,45,0,0
186160,-100,4,2,1,5,0,0
186243,-100,4,2,1,50,0,0
190243,-100,4,2,1,60,0,0
191576,-100,4,2,1,50,0,0
196909,-100,4,2,1,60,0,0
201909,-100,4,2,1,60,0,0
202243,-100,4,2,1,70,0,1
212909,-100,4,2,1,60,0,0
218243,-100,4,2,1,60,0,0
223576,-100,4,2,1,60,0,0
228909,-100,4,2,1,60,0,0
229576,-100,4,2,1,60,0,0
236576,-100,4,2,1,60,0,0
236909,-100,4,2,1,60,0,0
239243,-100,4,2,1,60,0,0
239576,-100,4,2,1,60,0,0
241909,-100,4,2,1,60,0,0
242243,-100,4,2,1,60,0,0
244909,-100,4,2,1,60,0,0
266243,-100,4,2,1,70,0,1
276909,-100,4,2,1,70,0,0

[Colours]
Combo1 : 230,215,236
Combo2 : 250,182,199
Combo3 : 253,209,190
Combo4 : 230,170,170

[HitObjects]
46,338,12530,6,0,P|36:292|47:211,1,110,6|0,1:1|1:2,0:0:0:0:
82,193,13118,1,0,1:2:0:0:
82,193,13314,1,8,0:2:0:0:
188,166,13706,2,0,P|214:171|240:180,1,55,0|0,0:0|1:2,0:0:0:0:
270,226,14098,2,0,L|277:350,1,110,2|0,0:0|1:2,0:0:0:0:
320,377,14686,1,0,0:0:0:0:
320,377,14882,1,8,0:2:0:0:
429,366,15275,1,0,0:0:0:0:
494,277,15667,6,0,L|504:167,1,110,6|0,1:1|1:2,0:0:0:0:
494,118,16255,1,0,1:2:0:0:
494,118,16451,1,8,0:2:0:0:
385,133,16843,2,0,L|330:127,1,55,0|0,0:0|1:2,0:0:0:0:
295,170,17235,1,2,0:0:0:0:
317,277,17628,1,0,1:2:0:0:
234,349,18020,2,0,L|179:343,1,55,8|0,0:2|0:0,0:0:0:0:
130,368,18412,2,0,L|75:362,1,55,0|0,0:0|1:2,0:0:0:0:
22,381,18804,6,0,P|34:327|37:272,1,110,6|0,1:1|1:2,0:0:0:0:
21,225,19392,1,0,1:2:0:0:
21,225,19588,1,8,0:2:0:0:
43,116,19980,2,0,P|70:122|98:125,1,55,0|0,0:0|1:2,0:0:0:0:
133,165,20373,2,0,P|188:156|241:144,1,110,2|0,0:0|1:2,0:0:0:0:
270,99,20961,1,0,0:0:0:0:
270,99,21157,1,8,0:2:0:0:
376,69,21549,1,0,0:0:0:0:
480,103,21941,6,0,L|493:212,1,110,6|0,1:1|1:2,0:0:0:0:
476,267,22530,1,0,1:2:0:0:
476,267,22726,1,8,0:2:0:0:
389,335,23118,2,0,L|328:331,1,55,0|0,0:0|1:2,0:0:0:0:
285,358,23510,2,0,P|302:305|311:251,1,110,2|0,0:0|1:2,0:0:0:0:
283,145,24294,2,0,P|258:131|232:122,1,55,8|0,0:2|1:2,0:0:0:0:
210,72,24686,2,0,P|182:69|155:71,1,55,0|0,1:2|1:2,0:0:0:0:
108,100,25079,1,2,1:2:0:0:
64,320,26647,6,0,P|116:307|177:306,1,110,6|8,1:1|0:2,0:0:0:0:
222,339,27235,1,2,0:2:0:0:
221,339,27431,2,0,P|249:342|276:344,1,55,2|2,1:2|0:2,0:0:0:0:
326,369,27824,2,0,P|353:366|380:363,1,55,10|2,0:2|0:2,0:0:0:0:
426,335,28216,2,0,P|442:282|451:227,1,110,2|8,1:2|0:2,0:0:0:0:
496,196,28804,1,2,0:2:0:0:
496,196,29000,1,2,1:2:0:0:
446,97,29392,2,0,P|418:92|391:90,1,55,10|2,0:2|1:2,0:0:0:0:
350,53,29784,6,0,P|345:107|335:161,1,110,2|8,1:2|0:2,0:0:0:0:
297,202,30373,1,2,0:2:0:0:
297,202,30569,2,0,L|242:206,1,55,2|2,1:2|0:2,0:0:0:0:
201,243,30961,2,0,L|146:238,1,55,10|2,0:2|0:2,0:0:0:0:
111,195,31353,1,2,1:2:0:0:
164,99,31745,2,0,P|205:96|245:88,2,82.5,10|2|2,0:2|0:2|1:2,0:0:0:0:
118,67,32530,2,0,P|90:62|63:59,1,55,10|2,0:2|1:2,0:0:0:0:
17,88,32922,6,0,B|4:129|4:129|14:203,1,110,6|8,1:2|0:2,0:0:0:0:
55,238,33510,1,2,0:2:0:0:
55,238,33706,2,0,P|81:246|108:250,1,55,2|2,1:2|0:2,0:0:0:0:
148,288,34098,2,0,P|175:284|201:275,1,55,10|2,0:2|0:2,0:0:0:0:
236,233,34490,2,0,L|247:114,1,110,2|8,1:2|0:2,0:0:0:0:
224,78,35079,1,2,0:2:0:0:
224,78,35275,1,2,1:2:0:0:
315,16,35667,2,0,L|376:12,1,55,10|2,0:2|1:2,0:0:0:0:
409,50,36059,6,0,L|419:159,1,110,2|8,1:2|0:2,0:0:0:0:
459,204,36647,1,2,0:2:0:0:
459,204,36843,2,0,L|453:258,1,55,2|2,1:2|0:2,0:0:0:0:
445,313,37235,2,0,L|390:318,1,55,10|2,0:2|1:2,0:0:0:0:
341,291,37628,1,2,1:2:0:0:
237,328,38020,2,0,P|202:349|151:365,2,82.5,10|2|2,0:2|0:2|1:2,0:0:0:0:
253,275,38804,2,0,P|250:247|246:220,1,55,10|2,0:2|1:2,0:0:0:0:
210,183,39196,1,6,1:1:0:0:
446,48,40362,5,2,0:2:0:0:
446,48,40529,2,0,L|456:114,1,55,6|10,1:2|0:2,0:0:0:0:
491,150,40862,1,2,1:2:0:0:
491,150,41029,2,0,L|478:263,1,110,10|10,0:2|0:2,0:0:0:0:
405,341,41695,1,10,0:2:0:0:
405,341,41862,2,0,L|348:344,1,55,2|10,1:2|0:2,0:0:0:0:
299,322,42195,1,2,1:2:0:0:
299,322,42362,2,0,B|285:284|285:284|347:185|347:185|336:109,1,220,10|4,0:2|0:3,0:0:0:0:
305,78,43195,6,0,L|245:72,1,55,6|10,1:2|0:2,0:0:0:0:
203,98,43529,1,2,1:2:0:0:
203,98,43695,1,10,0:2:0:0:
110,38,44029,1,10,0:2:0:0:
16,94,44362,1,10,0:2:0:0:
16,93,44528,2,0,P|6:148|1:202,1,110,2|2,1:2|1:2,0:0:0:0:
30,309,45195,2,0,P|84:318|138:323,1,110,10|10,0:2|0:2,0:0:0:0:
188,297,45695,1,10,0:2:0:0:
188,297,45862,6,0,P|192:269|195:242,1,55,6|10,1:2|0:2,0:0:0:0:
164,204,46195,1,2,1:2:0:0:
164,204,46362,1,10,0:2:0:0:
142,96,46695,1,10,0:2:0:0:
226,26,47028,1,10,0:2:0:0:
226,26,47195,2,0,L|280:20,1,55,2|10,1:2|0:2,0:0:0:0:
334,48,47528,1,2,1:2:0:0:
334,48,47695,1,10,0:2:0:0:
436,7,48028,1,10,0:2:0:0:
505,92,48362,1,10,0:2:0:0:
505,92,48528,6,0,L|499:148,1,55,2|10,1:2|1:2,0:0:0:0:
469,194,48862,1,2,1:2:0:0:
469,194,49028,2,0,L|475:250,1,55,10|0,1:2|1:2,0:0:0:0:
504,295,49362,2,0,P|451:311|400:332,1,110,10|10,1:2|1:2,0:0:0:0:
374,381,49862,1,2,1:2:0:0:
268,351,50195,1,2,1:2:0:0:
264,241,50528,1,10,0:3:0:0:
368,204,50862,1,10,1:2:0:0:
364,94,51195,6,0,P|309:85|254:81,1,110,6|2,1:2|1:2,0:0:0:0:
207,52,51695,1,10,0:2:0:0:
207,52,51862,2,0,P|152:56|97:64,1,110,2|2,1:2|1:2,0:0:0:0:
49,50,52362,1,10,0:2:0:0:
49,50,52528,1,2,1:2:0:0:
4,150,52862,2,0,L|-1:204,1,55,2|10,1:2|0:2,0:0:0:0:
18,256,53195,1,2,1:2:0:0:
126,241,53528,1,2,1:2:0:0:
163,343,53862,6,0,P|215:362|270:367,1,110,2|2,1:2|1:2,0:0:0:0:
324,348,54362,1,10,0:2:0:0:
324,348,54528,1,2,1:2:0:0:
283,245,54862,2,0,P|279:217|279:190,1,55,2|10,1:2|0:2,0:0:0:0:
250,143,55195,2,0,B|318:153|318:153|334:175|334:175|410:186,1,165,2|10,1:2|0:2,0:0:0:0:
454,166,55862,2,0,L|462:112,1,55,10|10,0:2|0:2,0:0:0:0:
445,58,56195,2,0,L|391:50,1,55,10|6,0:3|0:3,0:0:0:0:
348,14,56528,5,6,1:2:0:0:
241,44,56862,2,0,L|187:36,1,55,2|10,1:2|0:2,0:0:0:0:
140,5,57195,2,0,P|144:60|147:115,1,110,2|2,1:2|1:2,0:0:0:0:
115,161,57695,1,10,0:0:0:0:
115,161,57862,2,0,P|118:215|122:270,1,110,2|2,1:2|1:2,0:0:0:0:
174,301,58362,1,10,0:0:0:0:
174,301,58528,1,2,1:2:0:0:
257,228,58862,1,2,1:2:0:0:
363,253,59195,6,0,B|384:302|384:302|360:353,1,110,2|2,1:2|1:2,0:0:0:0:
313,378,59695,1,10,0:0:0:0:
313,378,59862,2,0,L|203:380,1,110,2|2,1:2|1:2,0:0:0:0:
151,359,60362,1,10,0:0:0:0:
151,359,60528,2,0,B|92:357|92:357|69:253,1,165,2|10,1:2|0:2,0:0:0:0:
29,215,61195,2,0,L|37:160,1,55,10|10,0:0|0:0,0:0:0:0:
18,109,61528,2,0,L|26:54,1,55,10|10,0:0|0:0,0:0:0:0:
74,27,61862,5,6,1:2:0:0:
179,59,62195,1,2,1:2:0:0:
178,59,62362,2,0,P|233:52|287:40,2,110,10|8|10,0:0|0:0|0:2,0:0:0:0:
138,95,63195,2,0,P|135:123|132:150,1,55,2|10,1:2|0:0,0:0:0:0:
155,206,63528,1,2,1:2:0:0:
155,206,63695,1,10,0:2:0:0:
122,311,64028,1,8,0:0:0:0:
215,379,64362,1,10,0:0:0:0:
215,379,64528,6,0,L|324:373,1,110,6|2,1:2|1:2,0:0:0:0:
365,336,65028,1,10,0:0:0:0:
333,230,65362,1,10,0:0:0:0:
402,145,65695,1,10,0:0:0:0:
402,145,65862,2,0,L|511:139,2,110,6|6|6,1:2|0:3|0:3,0:0:0:0:
308,85,66862,1,8,0:3:0:0:
388,9,67195,6,0,L|442:6,1,55,6|10,1:2|0:0,0:0:0:0:
493,39,67528,1,2,1:2:0:0:
493,39,67695,2,0,L|498:148,1,110,10|10,0:0|0:0,0:0:0:0:
447,248,68362,1,10,0:0:0:0:
447,248,68528,2,0,L|449:302,1,55,2|10,1:2|0:0,0:0:0:0:
487,351,68862,1,2,1:2:0:0:
487,351,69028,2,0,L|377:345,1,110,10|10,0:0|0:0,0:0:0:0:
272,366,69695,1,10,0:0:0:0:
272,366,69862,6,0,P|266:338|262:311,1,55,2|10,1:2|1:2,0:0:0:0:
305,276,70195,1,2,1:2:0:0:
305,276,70362,2,0,P|312:224|313:157,1,110,10|10,1:2|1:2,0:0:0:0:
285,65,71028,1,8,1:2:0:0:
285,65,71195,1,2,1:0:0:0:
186,113,71528,1,2,1:0:0:0:
89,60,71862,1,10,0:3:0:0:
9,136,72195,1,14,0:2:0:0:
57,236,72528,6,0,L|183:252,1,110,14|0,1:2|1:2,0:0:0:0:
209,215,73028,2,0,L|225:89,1,110,10|0,1:2|1:2,0:0:0:0:
266,72,73528,2,0,L|392:88,1,110,10|8,1:2|1:2,0:0:0:0:
405,132,74028,2,0,L|391:241,1,110,2|8,1:2|1:2,0:0:0:0:
353,280,74528,1,2,1:2:0:0:
421,366,74862,1,14,1:2:0:0:
499,288,75195,6,0,L|512:178,1,110,14|0,1:2|1:2,0:0:0:0:
478,135,75695,2,0,L|368:121,1,110,10|0,1:2|1:2,0:0:0:0:
329,160,76195,2,0,L|315:269,1,110,10|8,1:2|1:2,0:0:0:0:
340,317,76695,2,0,L|230:330,1,110,2|8,1:2|1:2,0:0:0:0:
203,378,77195,1,2,1:2:0:0:
94,361,77528,1,14,1:2:0:0:
20,278,77862,6,0,P|13:223|16:168,1,110,14|0,1:2|1:2,0:0:0:0:
55,129,78362,2,0,P|109:122|164:125,1,110,10|0,1:2|1:2,0:0:0:0:
205,162,78862,2,0,P|211:216|208:271,1,110,10|8,1:2|1:2,0:0:0:0:
234,320,79362,2,0,P|287:330|342:333,1,110,2|8,1:2|1:2,0:0:0:0:
392,308,79862,1,2,1:2:0:0:
368,200,80195,1,14,1:2:0:0:
439,117,80528,6,0,P|444:63|408:23,1,110,14|0,1:2|1:2,0:0:0:0:
353,17,81028,2,0,P|298:23|243:30,1,110,10|0,1:2|1:2,0:0:0:0:
190,15,81528,1,10,1:2:0:0:
108,88,81862,2,0,P|103:129|101:171,2,82.5,2|2|2,1:2|1:2|1:2,0:0:0:0:
69,50,82528,1,10,1:2:0:0:
10,262,83195,6,0,B|41:291|41:291|107:281,1,110,6|2,1:2|1:2,0:0:0:0:
153,249,83695,1,10,0:0:0:0:
228,328,84028,1,10,0:0:0:0:
319,266,84362,2,0,P|327:211|330:156,1,110,10|10,0:0|0:0,0:0:0:0:
312,110,84862,1,2,1:2:0:0:
312,110,85028,1,10,0:0:0:0:
406,53,85362,2,0,L|414:-1,2,55,10|2|10,1:2|1:2|1:2,0:0:0:0:
449,87,85862,6,0,B|479:114|479:114|485:183,1,110,6|2,1:2|1:2,0:0:0:0:
458,231,86362,1,10,0:2:0:0:
484,337,86695,1,10,0:2:0:0:
378,367,87028,2,0,P|323:371|268:373,1,110,10|10,0:2|0:0,0:0:0:0:
223,351,87528,1,2,1:2:0:0:
223,351,87695,2,0,L|217:241,1,110,10|8,0:2|0:3,0:0:0:0:
184,196,88195,2,0,L|129:198,1,55,10|6,0:3|0:3,0:0:0:0:
80,225,88528,6,0,P|71:264|66:306,2,82.5,6|2|10,1:2|0:2|0:0,0:0:0:0:
41,194,89195,1,2,1:2:0:0:
41,194,89362,1,8,0:0:0:0:
92,98,89695,1,10,0:0:0:0:
92,98,89862,2,0,P|83:59|78:16,2,82.5,2|2|10,1:2|0:2|0:2,0:0:0:0:
142,123,90528,2,0,P|182:128|255:134,1,110,2|8,1:2|0:2,0:0:0:0:
300,170,91028,1,10,0:2:0:0:
300,170,91195,5,6,1:2:0:0:
395,112,91528,1,10,0:0:0:0:
395,112,91695,1,2,1:2:0:0:
479,182,92028,2,0,L|490:243,1,55,2|2,1:2|1:2,0:0:0:0:
508,288,92362,2,0,B|461:279|461:279|392:312,1,110,6|0,1:2|1:2,0:0:0:0:
369,348,92862,2,0,P|357:294|337:243,1,110,8|0,0:0|1:2,0:0:0:0:
295,206,93362,2,0,P|268:214|241:220,2,55,10|10|10,0:0|0:0|0:0,0:0:0:0:
319,157,93862,6,0,B|333:103|333:103|308:54,1,110,6|2,1:2|1:2,0:0:0:0:
260,26,94362,1,10,0:2:0:0:
164,78,94695,1,10,0:0:0:0:
57,50,95028,1,10,0:2:0:0:
8,148,95362,2,0,P|9:175|13:202,1,55,10|2,0:0|1:2,0:0:0:0:
35,252,95695,1,10,0:0:0:0:
10,359,96028,2,0,B|51:351|51:351|69:360|69:360|121:351,1,110,10|10,1:2|1:2,0:0:0:0:
170,363,96528,6,0,P|183:309|185:254,1,110,6|2,1:2|1:2,0:0:0:0:
152,211,97028,1,10,0:2:0:0:
145,100,97362,1,10,0:2:0:0:
249,60,97695,1,10,0:0:0:0:
319,146,98028,2,0,P|347:149|374:150,1,55,10|2,0:0|1:2,0:0:0:0:
424,124,98362,1,10,0:0:0:0:
509,193,98695,2,0,B|493:233|493:233|495:255|495:255|481:301,1,110,10|10,0:0|0:0,0:0:0:0:
440,333,99195,6,0,P|476:349|502:381,2,82.5,6|2|10,1:2|0:2|0:0,0:0:0:0:
334,342,100028,1,10,0:0:0:0:
334,342,100195,2,0,P|306:345|279:347,1,55,2|10,1:2|0:0,0:0:0:0:
238,310,100528,2,0,P|232:255|230:200,2,110,6|2|10,1:2|1:2|0:2,0:0:0:0:
148,373,101528,1,8,0:0:0:0:
45,332,101862,6,0,B|19:304|19:304|32:233,1,110,6|8,1:2|0:0,0:0:0:0:
78,201,102362,1,2,1:2:0:0:
78,201,102528,2,0,L|132:197,1,55,10|10,0:0|0:3,0:0:0:0:
183,218,102862,1,6,0:3:0:0:
183,218,103028,2,0,P|165:166|184:116,1,110,6|2,1:2|1:2,0:0:0:0:
230,86,103528,1,10,0:0:0:0:
325,138,103862,2,0,P|332:165|337:192,1,55,10|10,0:0|0:0,0:0:0:0:
313,242,104195,2,0,P|317:269|324:295,1,55,10|10,0:0|0:0,0:0:0:0:
363,331,104528,6,0,P|417:342|472:343,2,110,6|0|0,1:1|1:2|1:2,0:0:0:0:
258,365,105528,2,0,P|181:373|132:373,1,110,0|0,1:2|1:2,0:0:0:0:
100,346,106028,1,2,0:0:0:0:
100,346,106195,2,0,B|73:297|73:297|110:255|110:255|87:205|87:205|125:161|125:161|106:114,1,275,2|2,1:2|1:2,0:0:0:0:
66,74,107195,2,0,P|121:67|175:58,1,110,6|0,1:1|1:0,0:0:0:0:
277,15,107862,2,0,P|331:21|385:30,1,110,0|0,1:0|1:0,0:0:0:0:
467,104,108528,1,0,1:0:0:0:
432,320,109195,6,0,P|337:357|288:269,1,220,2|6,1:2|1:1,0:0:0:0:
351,180,110195,2,0,P|356:153|358:125,1,55,0|0,1:2|1:2,0:0:0:0:
344,72,110528,1,8,0:2:0:0:
241,29,110862,2,0,P|168:65|87:63,1,165,0|0,1:2|1:2,0:0:0:0:
0,129,111695,1,0,1:2:0:0:
0,129,111862,2,0,P|-7:88|-21:49,2,82.5,8|0|0,0:2|1:2|1:2,0:0:0:0:
43,163,112528,5,6,1:1:0:0:
8,266,112862,2,0,P|12:294|23:319,1,55,0|0,1:2|1:2,0:0:0:0:
64,355,113195,1,8,0:2:0:0:
166,315,113528,2,0,P|247:307|326:328,1,165,0|0,1:2|1:2,0:0:0:0:
437,303,114362,1,0,1:2:0:0:
437,303,114528,2,0,P|442:362|458:408,2,82.5,8|0|0,0:2|1:2|1:2,0:0:0:0:
472,260,115195,5,6,1:1:0:0:
405,172,115528,2,0,P|398:145|396:117,1,55,0|0,1:2|1:2,0:0:0:0:
427,71,115862,1,8,0:2:0:0:
333,13,116195,2,0,P|250:12|170:30,1,165,0|0,1:2|1:2,0:0:0:0:
141,136,117028,1,0,1:2:0:0:
140,136,117195,2,0,P|100:144|59:144,2,82.5,8|0|0,0:2|1:2|1:2,0:0:0:0:
189,162,117862,5,6,1:1:0:0:
294,134,118195,2,0,P|322:135|349:139,1,55,0|0,1:2|1:2,0:0:0:0:
395,169,118528,1,8,0:2:0:0:
403,278,118862,2,0,P|352:287|240:315,1,165,0|0,1:2|1:2,0:0:0:0:
155,381,119695,1,0,1:2:0:0:
155,381,119862,1,8,0:2:0:0:
7,217,120528,6,0,P|-2:163|14:111,1,110,6|0,1:1|1:0,0:0:0:0:
60,80,121028,1,0,1:0:0:0:
60,80,121195,1,8,0:0:0:0:
159,126,121528,2,0,P|236:151|316:137,1,165,0|0,1:2|1:0,0:0:0:0:
412,80,122362,1,0,1:2:0:0:
412,80,122528,2,0,L|424:-4,2,82.5,8|0|0,0:2|1:2|1:2,0:0:0:0:
450,119,123195,6,0,P|466:171|478:225,1,110,6|0,1:1|1:0,0:0:0:0:
472,283,123695,1,0,1:0:0:0:
472,283,123862,1,8,0:0:0:0:
381,347,124195,2,0,P|304:358|264:292,1,165,0|0,1:0|1:2,0:0:0:0:
303,192,125028,1,0,1:2:0:0:
303,192,125195,2,0,P|343:185|384:177,2,82.5,8|0|0,0:2|1:0|1:0,0:0:0:0:
259,158,125862,6,0,P|206:141|152:133,1,110,6|0,1:1|1:0,0:0:0:0:
102,147,126362,1,0,1:0:0:0:
102,147,126528,1,8,0:0:0:0:
26,227,126862,2,0,P|31:305|101:342,1,165,0|0,1:2|1:0,0:0:0:0:
207,303,127695,1,0,1:2:0:0:
207,303,127862,2,0,P|210:344|220:384,2,82.5,8|0|0,0:2|1:2|1:2,0:0:0:0:
238,256,128528,6,0,P|251:203|259:149,1,110,6|0,1:1|1:0,0:0:0:0:
232,108,129028,1,0,1:0:0:0:
232,108,129195,1,8,0:0:0:0:
303,25,129528,2,0,P|385:18|459:52,1,165,0|0,1:2|1:2,0:0:0:0:
508,151,130362,1,0,1:2:0:0:
508,151,130528,2,0,L|496:204,1,55,8|0,0:2|1:2,0:0:0:0:
457,244,130862,2,0,L|468:297,1,55,0|0,0:0|1:2,0:0:0:0:
457,347,131196,1,2,1:2:0:0:
128,288,132910,6,0,L|115:178,1,110,6|0,1:1|1:2,0:0:0:0:
160,64,133767,2,0,L|269:51,1,110,0|0,1:2|1:2,0:0:0:0:
384,96,134624,2,0,L|396:205,1,110,0|0,1:2|1:0,0:0:0:0:
352,320,135481,2,0,L|242:332,1,110,0|0,1:0|1:0,0:0:0:0:
128,288,136338,5,0,1:2:0:0:
225,206,136767,1,0,1:2:0:0:
106,163,137195,1,0,1:2:0:0:
9,245,137624,1,0,1:2:0:0:
128,288,138052,2,0,L|182:283,1,55,2|0,1:2|1:2,0:0:0:0:
239,317,138481,2,0,L|293:312,1,55,2|0,1:2|1:2,0:0:0:0:
353,339,138910,2,0,L|362:229,1,110,2|14,1:2|0:0,0:0:0:0:
491,203,139767,6,0,L|482:93,1,110,6|10,1:0|0:0,0:0:0:0:
362,35,140624,2,0,P|308:46|260:74,1,110,2|8,1:2|0:0,0:0:0:0:
230,202,141481,1,2,1:2:0:0:
326,292,141910,1,10,0:0:0:0:
200,330,142338,1,2,1:2:0:0:
104,240,142767,1,10,0:0:0:0:
133,112,143195,6,0,P|188:101|242:96,1,110,2|10,1:2|0:0,0:0:0:0:
344,12,144052,2,0,P|398:22|452:27,1,110,2|8,1:2|0:0,0:0:0:0:
503,149,144910,1,2,1:2:0:0:
425,255,145338,1,10,0:0:0:0:
316,179,145767,1,2,1:2:0:0:
238,285,146195,2,0,L|246:340,1,55,10|8,0:0|0:0,0:0:0:0:
301,372,146624,6,0,P|355:368|394:330,1,110,6|10,1:2|0:2,0:0:0:0:
422,201,147481,2,0,L|410:91,1,110,2|8,1:2|0:0,0:0:0:0:
305,11,148338,1,2,1:2:0:0:
197,87,148767,1,10,0:0:0:0:
236,214,149195,1,2,1:2:0:0:
368,216,149624,1,10,0:0:0:0:
407,342,150052,6,0,L|277:356,1,110,2|10,1:2|0:0,0:0:0:0:
195,268,150910,2,0,L|184:148,1,110,2|8,1:2|0:0,0:0:0:0:
230,34,151767,2,0,L|175:28,1,55,0|0,1:2|1:2,0:0:0:0:
123,69,152195,2,0,L|68:63,1,55,0|0,1:2|1:2,0:0:0:0:
11,98,152624,2,0,L|5:152,1,55,0|2,1:2|1:0,0:0:0:0:
36,211,153052,1,14,0:0:0:0:
7,340,153481,6,0,B|32:361|32:361|108:350,1,110,6|8,1:1|0:0,0:0:0:0:
159,307,154124,1,2,0:0:0:0:
159,307,154338,2,0,L|170:197,1,110,2|8,1:2|0:0,0:0:0:0:
147,140,154981,1,2,0:0:0:0:
147,140,155195,2,0,L|64:131,2,82.5,2|2|2,1:2|0:0|0:0,0:0:0:0:
200,101,156052,2,0,L|310:112,1,110,2|8,1:2|0:0,0:0:0:0:
374,141,156695,1,2,0:0:0:0:
374,141,156910,6,0,L|382:58,2,82.5,2|2|2,1:2|0:0|0:0,0:0:0:0:
342,200,157767,1,2,1:2:0:0:
342,200,157981,1,2,0:0:0:0:
461,255,158410,1,2,0:0:0:0:
461,255,158624,2,0,P|484:222|518:196,2,82.5,2|2|2,1:2|0:0|0:0,0:0:0:0:
449,321,159481,1,2,1:2:0:0:
323,361,159910,2,0,P|268:367|213:368,1,110,8|6,0:0|1:2,0:0:0:0:
131,265,160767,5,10,0:0:0:0:
249,208,161195,2,0,P|276:160|272:106,1,110,2|8,1:2|0:0,0:0:0:0:
222,72,161838,1,2,0:2:0:0:
222,72,162052,2,0,L|100:63,1,110,2|10,1:2|0:2,0:0:0:0:
13,151,162910,2,0,L|4:273,1,110,2|8,1:2|0:0,0:0:0:0:
35,325,163552,1,2,0:0:0:0:
35,325,163767,5,2,1:2:0:0:
150,261,164195,1,10,0:2:0:0:
274,304,164624,2,0,P|293:379|295:397,2,82.5,2|2|2,1:2|3:2|0:0,0:0:0:0:
307,245,165481,2,0,P|316:205|319:164,1,82.5,2|2,1:2|0:0,0:0:0:0:
360,92,166124,2,0,P|400:82|441:79,1,82.5,2|2,0:0|0:0,0:0:0:0:
498,161,166767,2,0,L|502:218,1,55,10|8,0:0|0:0,0:0:0:0:
482,278,167195,6,0,B|453:291|453:291|372:270,1,110,6|8,1:1|0:0,0:0:0:0:
340,327,167838,1,2,0:0:0:0:
340,327,168052,2,0,L|222:339,1,110,2|8,1:2|0:0,0:0:0:0:
180,303,168695,1,2,0:0:0:0:
180,303,168910,2,0,P|171:343|158:382,2,82.5,2|2|2,1:2|0:0|0:0,0:0:0:0:
116,285,169767,2,0,P|66:263|46:213,1,110,2|8,1:2|0:2,0:0:0:0:
81,159,170410,1,2,0:2:0:0:
81,159,170624,6,0,L|-4:145,2,82.5,2|2|2,1:2|0:0|0:0,0:0:0:0:
136,120,171481,1,2,1:2:0:0:
136,120,171695,1,2,0:2:0:0:
237,204,172124,1,2,0:0:0:0:
237,204,172338,2,0,P|232:244|226:285,2,82.5,2|2|2,1:2|0:0|0:0,0:0:0:0:
295,172,173195,1,2,1:2:0:0:
408,236,173624,2,0,P|462:236|497:196,1,110,8|6,0:0|1:2,0:0:0:0:
486,64,174481,5,10,0:0:0:0:
361,19,174910,2,0,L|251:33,1,110,2|8,1:2|0:0,0:0:0:0:
219,92,175552,1,2,0:2:0:0:
219,92,175767,2,0,L|233:201,1,110,2|10,1:2|0:0,0:0:0:0:
165,314,176624,2,0,L|55:328,1,110,2|8,1:2|0:0,0:0:0:0:
9,289,177267,1,2,0:0:0:0:
9,289,177481,5,2,1:2:0:0:
89,184,177910,1,10,0:0:0:0:
74,52,178338,2,0,L|-17:38,2,82.5,2|2|2,1:2|3:0|0:0,0:0:0:0:
135,28,179195,6,0,L|189:36,1,55,2|0,1:2|1:2,0:0:0:0:
233,86,179624,2,0,L|287:77,1,55,0|0,1:2|1:2,0:0:0:0:
334,31,180052,2,0,B|387:41|387:41|400:52|400:52|438:63,1,110,0|14,1:2|0:0,0:0:0:0:
512,160,180910,1,6,1:1:0:0:
133,283,186243,6,0,L|125:173,1,110,6|0,1:2|1:2,0:0:0:0:
165,69,186910,2,0,L|274:61,1,110,0|0,1:2|1:2,0:0:0:0:
379,101,187576,2,0,L|386:210,1,110,0|0,1:2|1:2,0:0:0:0:
347,315,188243,2,0,L|237:322,1,110,0|0,1:2|1:2,0:0:0:0:
133,283,188910,1,0,1:2:0:0:
138,173,189243,1,0,1:2:0:0:
245,144,189576,1,0,1:2:0:0:
306,237,189910,1,0,1:2:0:0:
413,208,190243,5,0,1:2:0:0:
60,53,191410,1,10,0:0:0:0:
60,53,191576,2,0,P|52:95|50:114,1,55,6|10,1:2|0:0,0:0:0:0:
77,161,191910,1,2,1:2:0:0:
77,161,192076,1,10,0:0:0:0:
173,107,192410,1,8,0:0:0:0:
271,166,192743,1,10,0:0:0:0:
271,166,192910,2,0,L|274:229,1,55,2|10,1:2|0:0,0:0:0:0:
253,272,193243,1,2,1:2:0:0:
253,272,193410,2,0,B|323:286|323:286|344:336|344:336|446:359,1,220,10|14,0:0|1:2,0:0:0:0:
487,335,194243,6,0,P|492:307|496:280,1,55,6|10,1:2|0:0,0:0:0:0:
471,238,194576,1,2,1:2:0:0:
471,238,194743,1,10,0:0:0:0:
498,131,195076,1,10,0:0:0:0:
434,41,195409,1,10,0:0:0:0:
434,41,195576,2,0,L|324:35,1,110,2|2,1:2|1:2,0:0:0:0:
228,90,196243,2,0,L|118:84,1,110,10|10,0:0|0:0,0:0:0:0:
72,112,196743,1,10,0:0:0:0:
72,112,196909,6,0,L|67:190,1,55,6|10,1:2|0:0,0:0:0:0:
31,208,197243,1,2,1:2:0:0:
31,208,197409,2,0,L|38:317,1,110,10|8,0:0|0:0,0:0:0:0:
134,383,198076,1,10,0:0:0:0:
134,383,198243,2,0,L|198:375,1,55,2|10,1:2|0:2,0:0:0:0:
226,336,198576,2,0,P|281:345|336:349,2,110,2|0|0,1:2|1:0|1:0,0:0:0:0:
195,298,199409,1,10,0:0:0:0:
195,298,199576,6,0,L|192:235,1,55,2|8,1:2|1:2,0:0:0:0:
155,201,199909,1,2,1:2:0:0:
155,201,200076,2,0,L|169:91,1,110,10|10,1:2|1:2,0:0:0:0:
258,26,200743,1,10,1:2:0:0:
258,26,200909,1,2,1:2:0:0:
356,76,201243,1,2,1:2:0:0:
454,27,201576,1,10,0:3:0:0:
509,121,201909,1,14,0:0:0:0:
478,226,202243,6,0,P|423:235|368:239,1,110,6|2,1:2|1:2,0:0:0:0:
321,268,202743,1,10,0:0:0:0:
321,268,202910,2,0,P|266:264|211:256,1,110,2|2,1:2|1:2,0:0:0:0:
163,270,203410,1,10,0:0:0:0:
163,270,203576,1,2,1:2:0:0:
83,193,203910,2,0,L|78:139,1,55,2|10,1:2|0:0,0:0:0:0:
97,87,204243,1,2,1:2:0:0:
197,132,204576,1,2,1:2:0:0:
282,62,204910,6,0,P|336:67|388:86,1,110,2|2,1:2|1:2,0:0:0:0:
415,140,205410,1,8,0:0:0:0:
415,140,205576,1,2,1:2:0:0:
350,229,205910,2,0,P|346:257|346:284,1,55,2|10,1:2|0:0,0:0:0:0:
371,332,206243,2,0,B|302:341|302:341|286:363|286:363|218:373,1,165,2|10,1:2|0:0,0:0:0:0:
167,354,206910,2,0,L|159:300,1,55,10|10,0:2|0:0,0:0:0:0:
176,246,207243,2,0,L|230:238,1,55,10|6,0:3|0:3,0:0:0:0:
273,202,207576,5,6,1:2:0:0:
262,92,207910,2,0,L|208:84,1,55,2|10,1:2|0:0,0:0:0:0:
161,53,208243,2,0,L|43:67,1,110,2|2,1:2|1:2,0:0:0:0:
22,114,208743,1,10,0:0:0:0:
22,114,208910,2,0,P|25:168|29:223,1,110,2|2,1:2|1:2,0:0:0:0:
9,277,209410,1,10,0:0:0:0:
9,277,209576,1,2,1:2:0:0:
88,353,209910,1,2,1:2:0:0:
181,295,210243,6,0,B|230:274|230:274|281:298,1,110,2|2,1:2|1:2,0:0:0:0:
309,351,210743,1,10,0:0:0:0:
309,351,210910,2,0,L|419:349,1,110,2|2,1:2|1:2,0:0:0:0:
476,366,211410,1,10,0:0:0:0:
476,366,211576,2,0,B|528:339|528:339|505:235,1,165,2|10,1:2|0:2,0:0:0:0:
464,198,212243,2,0,L|409:205,1,55,10|10,0:0|0:0,0:0:0:0:
358,187,212576,2,0,L|303:195,1,55,8|10,0:0|0:0,0:0:0:0:
260,229,212910,5,6,1:2:0:0:
151,213,213243,1,2,1:2:0:0:
151,213,213409,2,0,B|126:164|126:164|143:111,1,110,10|8,0:0|0:0,0:0:0:0:
237,52,214076,1,10,0:0:0:0:
237,52,214243,2,0,L|291:60,1,55,2|10,1:2|0:0,0:0:0:0:
333,103,214576,1,2,1:2:0:0:
333,103,214743,1,10,0:0:0:0:
434,59,215076,1,8,0:0:0:0:
500,146,215409,1,10,0:0:0:0:
500,146,215576,6,0,L|505:200,1,55,6|8,1:2|0:0,0:0:0:0:
489,256,215909,1,2,1:2:0:0:
489,256,216076,1,10,0:0:0:0:
502,365,216409,2,0,P|447:373|392:375,1,110,10|10,0:0|0:0,0:0:0:0:
350,340,216909,1,6,1:2:0:0:
243,369,217243,1,4,0:3:0:0:
142,325,217576,1,6,0:3:0:0:
41,368,217909,2,0,P|27:344|20:317,1,55,8|4,0:3|0:3,0:0:0:0:
27,262,218243,6,0,L|43:153,1,110,6|2,1:2|1:2,0:0:0:0:
24,101,218743,1,10,0:2:0:0:
108,30,219076,1,10,0:2:0:0:
207,75,219409,1,10,0:2:0:0:
207,75,219576,2,0,L|215:129,1,55,2|10,1:2|0:2,0:0:0:0:
189,178,219909,1,2,1:2:0:0:
189,178,220076,2,0,L|172:286,1,110,10|10,0:2|0:2,0:0:0:0:
242,378,220743,1,10,0:2:0:0:
242,378,220909,6,0,L|298:383,1,55,2|10,1:2|1:2,0:0:0:0:
344,352,221243,1,2,1:2:0:0:
344,352,221409,1,10,1:2:0:0:
458,365,221743,1,10,1:2:0:0:
506,261,222076,1,10,1:2:0:0:
506,261,222243,1,2,1:2:0:0:
422,184,222576,1,2,1:2:0:0:
323,241,222909,1,10,0:3:0:0:
239,164,223243,2,0,L|232:108,1,55,10|8,0:0|0:0,0:0:0:0:
262,65,223576,5,6,1:2:0:0:
262,65,223743,2,0,P|228:68|146:73,2,110,8|8|8,0:0|0:0|0:0,0:0:0:0:
299,24,224576,1,2,1:2:0:0:
412,34,224909,1,2,1:2:0:0:
412,34,225076,2,0,P|434:89|444:138,1,110,8|10,0:0|0:2,0:0:0:0:
485,174,225576,2,0,L|470:292,1,110,2|0,1:2|1:0,0:0:0:0:
371,330,226243,6,0,P|377:363|379:384,2,55,2|10|2,1:2|0:0|1:2,0:0:0:0:
324,299,226743,2,0,P|270:289|216:282,1,110,10|10,0:2|0:2,0:0:0:0:
114,325,227409,1,10,0:0:0:0:
114,325,227576,1,2,1:2:0:0:
22,263,227909,1,2,1:2:0:0:
23,152,228243,2,0,P|33:105|143:48,1,165,10|4,0:0|0:3,0:0:0:0:
179,63,228909,6,0,B|213:100|213:100|194:220,1,165,6|8,1:2|0:0,0:0:0:0:
220,261,229576,2,0,P|186:285|155:312,2,82.5,2|2|10,1:2|0:2|0:2,0:0:0:0:
273,277,230243,2,0,P|296:310|323:341,2,82.5,2|2|10,1:2|0:2|0:2,0:0:0:0:
288,224,230909,2,0,P|332:192|374:156,1,110,2|0,1:2|1:0,0:0:0:0:
404,49,231576,6,0,B|364:36|364:36|316:55,1,82.5,2|2,1:2|0:2,0:0:0:0:
266,107,232076,1,10,0:2:0:0:
266,107,232243,2,0,B|226:120|226:120|178:101,1,82.5,2|2,1:2|0:2,0:0:0:0:
125,60,232743,1,10,0:2:0:0:
125,60,232910,2,0,B|85:47|85:47|37:66,1,82.5,2|2,1:2|0:0,0:0:0:0:
1,130,233409,1,10,0:2:0:0:
1,130,233576,2,0,B|12:189|12:189|1:240|1:240|15:290,1,165,10|8,0:0|0:2,0:0:0:0:
57,326,234243,6,0,L|169:316,1,110,14|0,1:2|1:2,0:0:0:0:
201,273,234743,2,0,L|191:161,1,110,10|0,1:2|1:2,0:0:0:0:
227,121,235243,2,0,L|339:111,1,110,10|8,1:2|1:2,0:0:0:0:
374,71,235743,2,0,L|486:81,1,110,2|8,1:2|1:2,0:0:0:0:
509,129,236243,1,0,1:2:0:0:
461,228,236576,1,14,1:2:0:0:
494,331,236909,6,0,P|448:361|394:361,1,110,14|0,1:2|1:2,0:0:0:0:
359,318,237409,2,0,L|346:208,1,110,10|0,1:2|1:2,0:0:0:0:
310,166,237909,2,0,P|255:161|208:186,1,110,10|8,1:2|1:2,0:0:0:0:
187,237,238409,2,0,P|139:262|85:257,1,110,2|8,1:2|1:2,0:0:0:0:
36,232,238909,1,2,1:2:0:0:
16,123,239243,1,14,1:2:0:0:
80,33,239576,6,0,L|188:50,1,110,14|0,1:2|1:2,0:0:0:0:
211,100,240076,2,0,L|319:82,1,110,10|0,1:2|1:2,0:0:0:0:
357,42,240576,2,0,L|465:59,1,110,10|8,1:2|1:2,0:0:0:0:
499,102,241076,2,0,L|481:210,1,110,2|8,1:2|1:2,0:0:0:0:
501,262,241576,1,2,1:2:0:0:
423,339,241909,1,14,1:2:0:0:
348,258,242243,6,0,L|238:251,1,110,14|0,1:2|1:2,0:0:0:0:
204,207,242743,2,0,L|210:97,1,110,10|0,1:2|1:2,0:0:0:0:
177,53,243243,1,10,1:2:0:0:
73,92,243576,2,0,P|32:88|-6:78,2,82.5,2|2|2,1:2|1:2|1:2,0:0:0:0:
104,138,244243,1,10,1:2:0:0:
0,338,244909,6,0,B|31:367|31:367|97:357,1,110,6|2,1:2|1:2,0:0:0:0:
142,325,245409,1,10,0:0:0:0:
248,353,245742,1,10,0:0:0:0:
338,290,246076,2,0,P|346:235|349:180,1,110,10|10,0:2|0:0,0:0:0:0:
318,141,246576,1,0,1:2:0:0:
318,141,246742,1,10,0:0:0:0:
395,62,247076,2,0,L|449:70,2,55,10|2|10,1:2|1:2|1:2,0:0:0:0:
356,28,247576,6,0,L|230:38,1,110,6|2,1:2|1:2,0:0:0:0:
213,80,248076,1,10,0:2:0:0:
113,33,248409,1,10,0:2:0:0:
22,96,248742,2,0,P|18:150|16:205,1,110,10|10,0:0|0:0,0:0:0:0:
43,259,249242,1,2,1:2:0:0:
43,259,249409,2,0,L|153:265,1,110,10|8,0:2|0:3,0:0:0:0:
192,302,249909,2,0,L|247:300,1,55,10|6,0:3|0:3,0:0:0:0:
301,303,250243,6,0,P|292:342|287:384,2,82.5,6|2|10,1:2|0:2|0:0,0:0:0:0:
355,284,250909,1,2,1:2:0:0:
355,284,251076,1,8,0:0:0:0:
431,205,251409,1,10,0:0:0:0:
431,205,251576,2,0,P|470:214|513:219,2,82.5,2|2|10,1:2|0:2|0:2,0:0:0:0:
397,167,252242,2,0,P|357:172|284:178,1,110,2|8,1:2|0:0,0:0:0:0:
243,155,252742,1,10,0:2:0:0:
243,155,252909,5,6,1:2:0:0:
149,210,253242,1,10,0:0:0:0:
149,210,253409,1,2,1:2:0:0:
48,166,253742,2,0,L|38:111,1,55,2|2,1:2|1:2,0:0:0:0:
70,66,254076,2,0,B|113:45|113:45|188:59,1,110,6|0,1:2|1:2,0:0:0:0:
215,93,254576,2,0,P|270:90|323:79,1,110,8|0,0:0|1:2,0:0:0:0:
372,53,255076,2,0,P|380:26|386:-1,2,55,10|10|10,0:0|0:0|0:0,0:0:0:0:
412,89,255576,6,0,B|426:143|426:143|401:192,1,110,6|2,1:2|1:2,0:0:0:0:
357,224,256076,1,10,0:2:0:0:
413,318,256409,1,10,0:2:0:0:
324,383,256742,1,10,0:0:0:0:
241,309,257076,2,0,P|214:309|187:314,1,55,10|2,0:0|1:2,0:0:0:0:
137,336,257409,1,10,0:0:0:0:
32,303,257742,2,0,B|24:262|24:262|33:244|33:244|24:192,1,110,10|10,1:2|1:2,0:0:0:0:
9,143,258242,6,0,P|63:156|118:158,1,110,6|2,1:2|1:2,0:0:0:0:
161,191,258742,1,10,0:0:0:0:
154,302,259076,1,10,0:0:0:0:
258,342,259409,1,10,0:2:0:0:
328,256,259742,2,0,P|356:253|383:252,1,55,10|2,0:0|1:2,0:0:0:0:
433,278,260076,1,10,0:2:0:0:
511,200,260409,2,0,B|495:160|495:160|497:138|497:138|483:92,1,110,10|10,0:0|0:0,0:0:0:0:
442,60,260909,6,0,P|478:44|504:12,2,82.5,6|2|10,1:2|0:2|0:2,0:0:0:0:
344,105,261742,1,10,0:0:0:0:
344,105,261909,2,0,P|316:108|289:110,1,55,2|10,1:2|0:0,0:0:0:0:
239,86,262242,2,0,P|233:141|231:196,2,110,6|2|10,1:2|1:2|0:2,0:0:0:0:
142,32,263242,1,8,0:0:0:0:
39,73,263576,6,0,B|13:101|13:101|26:172,1,110,6|8,1:2|0:0,0:0:0:0:
72,204,264076,1,2,1:2:0:0:
72,204,264242,2,0,L|126:208,1,55,10|2,0:0|1:2,0:0:0:0:
177,187,264576,1,2,1:2:0:0:
177,187,264742,2,0,P|159:239|178:289,1,110,6|2,1:2|1:2,0:0:0:0:
224,319,265242,1,10,0:0:0:0:
319,267,265576,2,0,P|326:240|331:213,1,55,10|10,0:2|0:2,0:0:0:0:
307,163,265909,2,0,P|311:136|318:110,1,55,10|10,0:2|0:2,0:0:0:0:
358,71,266243,6,0,L|467:62,1,110,6|2,1:2|1:2,0:0:0:0:
512,102,266743,1,10,0:0:0:0:
512,102,266909,2,0,L|520:210,1,110,0|2,1:2|1:2,0:0:0:0:
496,261,267409,1,10,0:0:0:0:
496,261,267576,1,2,1:2:0:0:
396,213,267909,2,0,L|326:218,1,55,2|10,1:2|0:0,0:0:0:0:
294,187,268243,1,2,1:2:0:0:
200,244,268576,1,2,1:2:0:0:
144,149,268909,6,0,P|91:133|38:144,1,110,2|2,1:2|1:2,0:0:0:0:
6,189,269409,1,10,0:0:0:0:
6,189,269576,1,2,1:2:0:0:
11,298,269909,2,0,L|18:357,1,55,2|10,1:2|0:0,0:0:0:0:
68,374,270243,2,0,B|128:361|128:361|160:369|160:369|236:354,1,165,2|10,1:2|0:0,0:0:0:0:
265,314,270909,2,0,L|272:259,1,55,10|10,0:0|0:0,0:0:0:0:
243,212,271243,2,0,L|250:157,1,55,10|6,0:3|0:3,0:0:0:0:
233,105,271576,6,0,L|342:94,1,110,6|2,1:2|1:2,0:0:0:0:
385,59,272076,1,10,0:0:0:0:
385,59,272243,1,2,1:2:0:0:
485,103,272576,2,0,P|497:139|499:158,1,55,2|10,1:2|0:0,0:0:0:0:
497,210,272909,2,0,L|486:331,1,110,2|2,1:2|1:2,0:0:0:0:
455,365,273409,1,10,0:0:0:0:
455,365,273576,1,2,1:2:0:0:
356,316,273909,1,2,1:2:0:0:
385,210,274243,6,0,P|389:155|368:105,1,110,2|2,1:2|1:2,0:0:0:0:
329,75,274743,1,10,0:0:0:0:
329,75,274909,2,0,L|215:67,1,110,2|2,1:2|1:2,0:0:0:0:
181,35,275409,1,10,0:0:0:0:
181,35,275576,2,0,B|117:44|117:44|93:73|93:73|30:80,1,165,2|10,1:2|0:0,0:0:0:0:
1,128,276243,2,0,L|8:182,1,55,10|10,0:0|0:0,0:0:0:0:
41,226,276576,2,0,L|48:280,1,55,10|6,0:3|0:3,0:0:0:0:
30,332,276909,5,6,1:2:0:0:
128,380,277243,2,0,L|182:373,1,55,0|0,1:0|1:0,0:0:0:0:
237,378,277576,1,8,0:0:0:0:
322,309,277909,2,0,P|343:230|308:158,1,165,0|0,1:2|1:2,0:0:0:0:
210,119,278743,1,0,1:2:0:0:
210,119,278909,2,0,P|169:126|128:129,2,82.5,8|0|0,0:2|1:0|1:0,0:0:0:0:
239,72,279576,5,6,1:2:0:0:
347,57,279909,2,0,L|400:67,1,55,0|0,1:0|1:0,0:0:0:0:
454,52,280243,1,8,0:0:0:0:
507,148,280576,2,0,P|515:229|498:310,1,165,0|0,1:2|1:2,0:0:0:0:
395,346,281409,1,0,1:2:0:0:
395,346,281576,2,0,L|340:349,1,55,8|0,0:2|1:2,0:0:0:0:
289,370,281909,2,0,L|234:366,1,55,0|0,0:0|1:2,0:0:0:0:
190,331,282243,5,6,1:2:0:0:
250,239,282576,2,0,L|253:184,1,55,0|0,1:0|1:0,0:0:0:0:
218,140,282909,1,8,0:0:0:0:
136,213,283243,2,0,P|54:204|34:124,1,165,0|0,1:2|1:2,0:0:0:0:
122,71,284076,1,0,1:2:0:0:
122,71,284243,2,0,L|213:65,2,82.5,8|0|0,0:2|1:2|1:2,0:0:0:0:
77,38,284909,5,6,1:2:0:0:
18,131,285243,2,0,L|15:192,1,55,0|0,1:0|1:0,0:0:0:0:
30,238,285576,1,8,0:0:0:0:
134,208,285909,2,0,P|217:199|299:201,1,165,0|0,1:2|1:2,0:0:0:0:
380,275,286743,1,0,1:2:0:0:
379,274,286909,2,0,P|407:278|434:275,1,55,2|2,1:2|1:2,0:0:0:0:
477,240,287243,2,0,P|480:212|477:185,1,55,2|10,1:2|0:0,0:0:0:0:
450,137,287576,1,8,0:0:0:0:
