osu file format v14

[General]
AudioFilename: audio.mp3
AudioLeadIn: 0
PreviewTime: 153217
Countdown: 0
SampleSet: Soft
StackLeniency: 0.8
Mode: 0
LetterboxInBreaks: 0
WidescreenStoryboard: 1

[Editor]
DistanceSpacing: 0.7
BeatDivisor: 4
GridSize: 32
TimelineZoom: 2.3

[Metadata]
Title:Psychological Mental Health
TitleUnicode:Psychological Mental Health
Artist:Kitamura Eri
ArtistUnicode:喜多村英梨
Creator:Mordred
Version:Kowari's Insane
Source:
Tags:kowari gazimal yogurtt oriental illusion dream dystopia record kitaeri 南悠翔 minami yuto yuuto corsace open co2021 ro16 tb japanese rock
BeatmapID:3298660
BeatmapSetID:1557347

[Difficulty]
HPDrainRate:6
CircleSize:4
OverallDifficulty:8
ApproachRate:9
SliderMultiplier:1.7
SliderTickRate:1

[Events]
//Background and Video events
0,0,"46073811_p0 x.jpg",0,0
//Break Periods
2,181110,185643
//Storyboard Layer 0 (Background)
//Storyboard Layer 1 (Fail)
//Storyboard Layer 2 (Pass)
//Storyboard Layer 3 (Foreground)
//Storyboard Layer 4 (Overlay)
//Storyboard Sound Samples

[TimingPoints]
530,375,4,2,1,50,1,0
12530,392.156862745098,4,2,1,50,1,0
24294,-58.8235294117647,4,2,1,50,0,0
26647,-100,4,2,1,60,0,0
31745,-100,4,2,1,60,0,0
32039,-100,4,2,1,60,0,0
32333,-100,4,2,1,60,0,0
38020,-100,4,2,1,60,0,0
38314,-100,4,2,1,60,0,0
39196,333.333333333333,4,2,1,70,1,0
39196,-166.666666666667,4,2,1,70,0,0
40196,-166.666666666667,4,2,1,30,0,0
40529,333.333333333333,4,2,1,50,1,0
40529,-100,4,2,1,50,0,0
45862,-100,4,2,1,60,0,0
51195,-100,4,2,1,70,0,1
61862,-125,4,2,1,50,0,0
67195,-100,4,2,1,60,0,0
72195,-100,4,2,1,50,0,0
72528,-100,4,2,1,60,0,0
74862,-100,4,2,1,60,0,0
75195,-100,4,2,1,60,0,0
77528,-100,4,2,1,60,0,0
77862,-100,4,2,1,60,0,0
80195,-100,4,2,1,60,0,0
80528,-100,4,2,1,60,0,0
83195,-90.9090909090909,4,2,1,60,0,0
104528,-100,4,2,1,60,0,0
109195,-100,4,2,1,60,0,0
109778,-100,4,2,1,5,0,0
109862,-100,4,2,1,60,0,0
120028,-71.4285714285714,4,2,1,60,0,0
120528,-100,4,2,1,60,0,0
131196,428.571428571429,4,2,1,60,1,0
132910,428.571428571429,4,2,1,50,1,0
132910,-83.3333333333333,4,2,1,50,0,0
138052,-83.3333333333333,4,2,1,60,0,0
139338,-58.8235294117647,4,2,1,60,0,0
139767,-62.5,4,2,1,80,0,1
151767,-100,4,2,1,70,0,0
152195,-76.9230769230769,4,2,1,70,0,0
153052,-55.5555555555556,4,2,1,80,0,0
153481,-66.6666666666667,4,2,1,80,0,1
180481,-100,4,2,1,80,0,1
180910,333.333333333333,4,2,1,80,1,0
180993,-100,4,2,1,5,0,0
182243,-100,4,2,1,10,0,0
182910,-100,4,2,1,15,0,0
183576,-100,4,2,1,20,0,0
184243,-100,4,2,1,25,0,0
184910,-100,4,2,1,30,0,0
185243,-100,4,2,1,35,0,0
185576,-100,4,2,1,40,0,0
185910,-100,4,2,1,45,0,0
186160,-100,4,2,1,5,0,0
186243,-100,4,2,1,50,0,0
190243,-100,4,2,1,60,0,0
191576,-100,4,2,1,50,0,0
196909,-100,4,2,1,60,0,0
201909,-100,4,2,1,60,0,0
202243,-100,4,2,1,70,0,1
212909,-125,4,2,1,60,0,0
218243,-100,4,2,1,60,0,0
223576,-100,4,2,1,60,0,0
228909,-100,4,2,1,60,0,0
229576,-100,4,2,1,60,0,0
236576,-100,4,2,1,60,0,0
236909,-100,4,2,1,60,0,0
239243,-100,4,2,1,60,0,0
239576,-100,4,2,1,60,0,0
241909,-100,4,2,1,60,0,0
242243,-100,4,2,1,60,0,0
244909,-90.9090909090909,4,2,1,60,0,0
266243,-100,4,2,1,70,0,1
276909,-100,4,2,1,70,0,0

[Colours]
Combo1 : 230,215,236
Combo2 : 250,182,199
Combo3 : 253,209,190
Combo4 : 230,170,170

[HitObjects]
23,363,12530,5,6,1:1:0:0:
23,363,12628,1,0,1:2:0:0:
220,308,12922,1,0,1:2:0:0:
220,308,13020,1,0,1:2:0:0:
68,286,13314,5,8,0:2:0:0:
163,368,13510,1,0,1:2:0:0:
163,368,13608,1,0,1:2:0:0:
68,286,13804,1,0,1:2:0:0:
68,286,13902,1,0,1:2:0:0:
154,323,14294,5,0,1:2:0:0:
119,332,14392,1,0,1:2:0:0:
85,341,14490,1,0,1:2:0:0:
57,316,14882,5,8,0:2:0:0:
98,328,14980,1,0,1:2:0:0:
136,337,15079,1,0,1:2:0:0:
174,346,15177,1,0,1:2:0:0:
257,262,15373,1,0,1:2:0:0:
257,262,15471,1,0,1:2:0:0:
486,361,15667,5,6,1:1:0:0:
298,287,15863,1,0,1:2:0:0:
298,287,15961,1,0,1:2:0:0:
298,287,16059,1,0,1:2:0:0:
506,274,16255,5,0,1:2:0:0:
506,274,16353,1,0,1:2:0:0:
506,274,16451,1,8,0:2:0:0:
468,286,16549,1,0,1:2:0:0:
435,299,16647,1,0,1:2:0:0:
399,315,16745,1,0,1:2:0:0:
295,370,16941,1,0,1:2:0:0:
295,370,17039,1,0,1:2:0:0:
437,342,17431,5,0,1:2:0:0:
389,326,17530,1,0,1:2:0:0:
343,312,17628,1,0,1:2:0:0:
500,241,18020,5,8,0:2:0:0:
500,241,18118,1,0,1:2:0:0:
306,179,18314,1,0,1:2:0:0:
126,113,18510,1,0,1:2:0:0:
126,113,18608,1,0,1:2:0:0:
220,47,18804,5,6,1:1:0:0:
207,99,18902,1,0,1:2:0:0:
18,163,19196,1,0,1:2:0:0:
5,215,19294,1,0,1:2:0:0:
173,317,19588,5,8,0:2:0:0:
44,204,19784,1,0,1:2:0:0:
44,204,19882,1,0,1:2:0:0:
208,140,20079,1,0,1:2:0:0:
208,140,20177,1,0,1:2:0:0:
89,352,20569,5,0,1:2:0:0:
99,303,20667,1,0,1:2:0:0:
109,253,20765,1,0,1:2:0:0:
118,379,21157,5,8,0:2:0:0:
108,328,21255,1,0,1:2:0:0:
94,279,21353,1,0,1:2:0:0:
79,226,21451,1,0,1:2:0:0:
258,148,21647,1,0,1:2:0:0:
258,148,21745,1,0,1:2:0:0:
449,63,21941,5,6,1:1:0:0:
355,47,22137,1,0,1:2:0:0:
320,43,22235,1,0,1:2:0:0:
279,38,22333,1,0,1:2:0:0:
78,168,22530,5,0,1:2:0:0:
78,168,22628,1,0,1:2:0:0:
78,168,22726,1,8,0:2:0:0:
134,159,22824,1,0,1:2:0:0:
184,150,22922,1,0,1:2:0:0:
233,142,23020,1,0,1:2:0:0:
331,248,23216,5,0,1:2:0:0:
280,239,23314,1,0,1:2:0:0:
135,351,23706,5,0,1:2:0:0:
190,341,23804,1,0,1:2:0:0:
240,330,23902,1,0,1:2:0:0:
173,320,24294,6,0,P|163:284|153:236,1,72.2500013780594,8|0,0:2|1:2,0:0:0:0:
317,214,24490,2,0,P|309:178|299:143,1,72.2500013780594,0|0,1:2|1:2,0:0:0:0:
220,80,24686,6,0,P|209:133|203:174,1,72.2500013780594,0|0,1:2|1:2,0:0:0:0:
404,202,24882,2,0,P|397:237|390:272,1,72.2500013780594,0|0,1:2|1:2,0:0:0:0:
488,160,25079,5,2,1:2:0:0:
404,202,25471,1,2,0:2:0:0:
310,108,25863,1,2,0:2:0:0:
320,73,25961,1,2,0:2:0:0:
330,42,26059,1,2,0:2:0:0:
239,265,26255,1,10,0:2:0:0:
139,85,26451,1,2,0:2:0:0:
27,191,26647,6,0,B|104:166|130:228|214:200,1,170,6|8,1:1|0:2,0:2:0:0:
319,131,27235,1,2,0:2:0:0:
319,131,27333,1,0,0:2:0:0:
319,131,27431,1,2,1:2:0:0:
394,249,27628,1,2,0:2:0:0:
275,320,27824,1,10,0:2:0:0:
193,205,28020,1,2,0:2:0:0:
207,109,28216,5,2,1:2:0:0:
207,109,28314,1,0,0:0:0:0:
330,33,28510,1,0,0:2:0:0:
330,33,28608,1,8,0:0:0:0:
432,168,28804,1,2,0:2:0:0:
500,84,29000,1,2,1:2:0:0:
500,84,29098,1,0,1:2:0:0:
500,84,29196,1,2,1:2:0:0:
500,84,29294,1,0,1:2:0:0:
500,84,29392,2,0,P|425:94|394:99,1,85,10|2,0:2|1:2,0:2:0:0:
274,15,29784,5,2,1:2:0:0:
274,15,29882,1,0,0:0:0:0:
369,211,30079,1,0,0:2:0:0:
369,211,30177,1,10,0:2:0:0:
245,136,30373,1,0,0:0:0:0:
315,303,30569,5,2,1:2:0:0:
168,230,30765,1,2,0:2:0:0:
315,303,30961,1,10,0:2:0:0:
145,375,31157,1,2,0:2:0:0:
145,375,31353,2,0,P|91:374|30:356,1,85,2|0,1:2|0:0,0:2:0:0:
1,208,31745,2,0,L|107:192,1,85,10|0,0:2|0:2,0:2:0:0:
138,99,32039,2,0,L|32:115,1,85,2|0,0:2|0:2,0:2:0:0:
53,111,32333,1,2,1:2:0:0:
53,111,32431,1,0,1:2:0:0:
53,111,32530,1,10,0:2:0:0:
53,111,32628,1,0,1:2:0:0:
53,111,32726,1,2,1:2:0:0:
210,1,32922,6,0,B|263:71|228:173,1,170,6|8,1:2|0:2,0:2:0:0:
154,241,33510,1,2,0:2:0:0:
154,241,33608,1,0,0:2:0:0:
154,241,33706,1,2,1:2:0:0:
293,317,33902,1,2,0:2:0:0:
231,162,34098,1,10,0:2:0:0:
313,215,34294,1,2,0:2:0:0:
195,334,34490,6,0,L|334:316,1,127.5,2|0,1:2|0:2,0:2:0:0:
360,315,34882,1,10,0:2:0:0:
471,299,35079,1,0,0:0:0:0:
509,193,35275,1,2,1:2:0:0:
509,193,35373,1,0,1:2:0:0:
509,193,35471,1,2,1:2:0:0:
509,193,35569,1,0,1:2:0:0:
509,193,35667,2,0,P|460:182|417:184,1,85,10|2,0:2|1:2,0:2:0:0:
207,65,36059,6,0,B|291:106|384:48,1,170,2|8,1:2|0:2,0:2:0:0:
244,173,36647,1,2,0:2:0:0:
348,216,36843,1,2,1:2:0:0:
187,266,37039,1,2,0:2:0:0:
187,266,37137,1,0,0:2:0:0:
187,266,37235,2,0,L|84:278,1,85,10|2,0:2|1:2,0:2:0:0:
28,204,37628,5,2,1:2:0:0:
172,117,37824,1,0,0:0:0:0:
47,33,38020,5,10,0:2:0:0:
47,33,38118,2,0,L|56:95,1,42.5,0|0,0:0|0:2,0:0:0:0:
102,138,38314,1,2,0:2:0:0:
102,138,38412,2,0,L|111:200,1,42.5,0|0,1:2|0:2,0:0:0:0:
151,366,38608,1,2,1:2:0:0:
151,366,38706,1,0,1:2:0:0:
151,366,38804,1,10,0:2:0:0:
151,366,38902,1,0,1:2:0:0:
151,366,39000,1,2,1:2:0:0:
0,285,39196,6,0,B|147:226|152:324|315:253,1,305.999990661621,6|12,1:1|0:3,0:2:0:0:
429,48,40529,5,6,1:2:0:0:
477,109,40695,1,10,0:2:0:0:
413,149,40862,1,2,1:2:0:0:
413,149,40945,1,0,1:0:0:0:
413,149,41029,1,10,0:2:0:0:
356,100,41195,1,0,1:2:0:0:
356,100,41362,2,0,P|348:51|347:7,1,85,10|0,0:2|1:2,0:2:0:0:
213,170,41695,6,0,P|221:121|222:77,1,85,10|2,0:2|1:2,0:0:0:0:
149,36,42029,1,10,0:2:0:0:
59,134,42195,1,2,1:2:0:0:
0,27,42362,1,10,0:2:0:0:
135,122,42529,5,8,0:2:0:0:
139,153,42612,1,8,0:2:0:0:
138,185,42695,1,8,0:2:0:0:
132,216,42779,1,8,0:2:0:0:
122,246,42862,2,0,P|101:243|63:232,3,42.5,8|8|4|4,0:3|0:3|0:3|0:3,0:0:0:0:
21,299,43195,5,6,1:2:0:0:
88,362,43362,1,10,0:2:0:0:
176,318,43529,1,2,1:2:0:0:
176,318,43695,2,0,P|232:307|277:303,1,85,10|0,0:2|1:2,0:2:0:0:
372,164,44029,2,0,P|316:175|271:179,1,85,10|0,0:2|1:2,0:2:0:0:
195,92,44362,1,10,0:2:0:0:
375,0,44528,6,0,P|392:26|399:94,1,85,2|8,1:2|0:2,0:0:0:0:
512,175,44862,2,0,P|495:201|488:269,1,85,2|8,1:2|0:2,0:0:0:0:
409,384,45195,6,0,B|393:293,1,85,10|8,0:2|0:2,0:0:0:0:
371,277,45445,1,8,0:2:0:0:
341,261,45528,1,10,0:2:0:0:
307,254,45611,1,8,0:2:0:0:
274,258,45695,1,10,0:2:0:0:
242,271,45778,1,8,0:2:0:0:
216,292,45861,5,6,1:2:0:0:
151,368,46028,1,10,0:2:0:0:
64,323,46195,1,2,1:2:0:0:
137,258,46362,1,10,0:2:0:0:
22,178,46528,2,0,P|9:127|11:86,1,85,0|10,1:2|0:2,0:0:0:0:
212,187,46862,1,0,1:2:0:0:
273,120,47028,5,10,0:2:0:0:
273,120,47195,2,0,P|284:70|284:21,1,85,2|10,1:2|0:2,0:0:0:0:
186,73,47528,1,2,1:2:0:0:
347,182,47695,2,0,P|420:178|444:78,2,170,10|10|10,0:2|0:2|0:2,0:2:0:0:
232,251,48528,5,2,1:2:0:0:
218,279,48611,1,0,1:2:0:0:
212,311,48694,1,10,1:2:0:0:
214,342,48778,1,0,1:2:0:0:
224,373,48861,1,2,1:2:0:0:
356,309,49028,2,0,L|310:304,3,42.5,10|0|0|0,1:2|1:2|1:2|1:2,0:0:0:0:
438,350,49362,2,0,L|484:355,3,42.5,10|0|0|0,1:2|1:2|1:2|1:2,0:0:0:0:
426,246,49695,2,0,L|436:187,1,42.5,10|0,1:2|1:2,0:2:0:0:
503,67,49862,6,0,B|412:46|426:104|314:69,1,170,2|2,1:2|1:2,0:0:0:0:
199,0,50362,1,8,1:2:0:0:
199,0,50445,1,0,1:2:0:0:
199,0,50528,2,0,L|209:98,1,85,10|4,0:3|0:3,0:0:0:0:
63,201,50862,1,10,1:2:0:0:
63,201,50945,2,0,L|75:302,1,85,0|0,1:0|0:2,0:0:0:0:
51,316,51195,5,6,1:2:0:0:
140,369,51362,1,8,0:2:0:0:
232,265,51528,1,2,1:2:0:0:
232,265,51612,1,0,1:0:0:0:
232,265,51695,1,10,0:2:0:0:
362,365,51862,2,0,P|379:294|354:194,1,170,2|2,1:2|1:2,0:0:0:0:
357,200,52362,1,10,0:2:0:0:
252,73,52528,5,2,1:2:0:0:
329,16,52695,1,8,0:2:0:0:
403,82,52862,1,2,1:2:0:0:
323,123,53028,1,10,0:2:0:0:
162,84,53195,2,0,P|153:38|153:-20,1,85,2|8,1:2|0:2,0:0:0:0:
78,216,53528,2,0,P|87:262|87:320,1,85,2|8,1:2|0:2,0:0:0:0:
31,135,53862,5,2,1:2:0:0:
162,185,54028,1,8,0:2:0:0:
272,104,54195,1,2,1:2:0:0:
272,104,54278,1,0,1:0:0:0:
272,104,54362,1,10,0:2:0:0:
411,201,54528,2,0,P|497:174|510:103,1,170,2|2,1:2|1:2,0:0:0:0:
400,6,55028,1,10,0:2:0:0:
317,172,55195,6,0,P|317:228|327:285,1,85,2|10,1:2|0:2,0:0:0:0:
180,375,55528,2,0,P|180:319|170:262,1,85,2|10,1:2|0:2,0:0:0:0:
129,169,55862,1,10,0:2:0:0:
97,163,55945,1,8,0:2:0:0:
66,165,56028,1,10,0:2:0:0:
35,175,56112,1,8,0:2:0:0:
7,190,56195,2,0,L|1:240,3,42.5,10|8|6|4,0:3|0:3|0:3|0:3,0:0:0:0:
74,285,56528,5,6,1:2:0:0:
200,236,56695,1,8,0:2:0:0:
301,333,56862,1,2,1:2:0:0:
301,333,56945,1,0,1:0:0:0:
301,333,57028,1,10,0:2:0:0:
426,217,57195,2,0,B|452:171|447:108|447:108|416:74|379:67,1,170,2|2,1:2|1:2,0:0:0:0:
287,150,57695,1,10,0:0:0:0:
173,47,57862,6,0,L|73:32,1,85,2|8,1:2|0:0,0:0:0:0:
0,145,58195,1,2,1:2:0:0:
97,223,58362,1,10,0:0:0:0:
11,344,58528,2,0,P|-1:300|-5:252,1,85,2|8,1:2|0:0,0:0:0:0:
190,383,58862,2,0,P|202:339|206:291,1,85,2|8,1:2|0:0,0:0:0:0:
97,223,59195,5,2,1:2:0:0:
147,99,59362,1,8,0:0:0:0:
278,102,59528,1,2,1:2:0:0:
278,102,59612,1,0,1:0:0:0:
278,102,59695,1,10,0:0:0:0:
348,219,59862,2,0,P|368:292|353:389,1,170,2|2,1:2|1:2,0:0:0:0:
240,238,60362,1,10,0:0:0:0:
379,105,60528,6,0,L|477:87,1,85,2|10,1:2|0:2,0:0:0:0:
200,252,60862,2,0,L|102:270,1,85,2|10,1:2|0:2,0:0:0:0:
25,161,61195,1,10,0:0:0:0:
16,130,61278,1,8,0:0:0:0:
12,98,61361,1,10,0:0:0:0:
12,66,61445,1,8,0:0:0:0:
16,35,61528,2,0,L|77:27,3,42.5,10|8|10|8,0:0|0:0|0:0|0:0,0:0:0:0:
134,4,61862,6,0,P|155:48|162:78,1,68,6|8,1:2|0:0,0:0:0:0:
144,159,62195,1,2,1:2:0:0:
274,42,62362,2,0,P|241:104|234:175,2,136,10|8|10,0:0|0:0|0:2,0:0:0:0:
363,16,63195,1,2,1:2:0:0:
416,88,63362,1,10,0:0:0:0:
489,38,63528,1,2,1:2:0:0:
512,177,63695,6,0,L|433:165,1,68,10|0,0:2|1:0,0:0:0:0:
388,277,64028,2,0,L|467:289,1,68,8|0,0:0|1:0,0:0:0:0:
506,378,64362,1,10,0:0:0:0:
304,341,64528,6,0,B|234:331|239:367|157:353,1,136,6|2,1:2|1:2,0:0:0:0:
71,247,65028,2,0,P|63:292|62:330,1,68,10|0,0:0|1:0,0:0:0:0:
177,179,65362,2,0,P|185:224|186:262,1,68,10|0,0:0|1:0,0:0:0:0:
76,134,65695,1,10,0:0:0:0:
143,49,65862,6,0,L|223:57,1,68,6|8,1:2|0:3,0:0:0:0:
210,55,66112,1,8,0:3:0:0:
210,55,66195,1,6,0:3:0:0:
265,153,66362,1,4,0:3:0:0:
388,106,66528,2,0,B|397:70|397:70|390:30,1,68,6|8,0:3|0:3,0:0:0:0:
381,30,66778,1,8,0:3:0:0:
370,24,66862,1,8,0:3:0:0:
359,20,66945,1,4,0:3:0:0:
346,17,67028,1,4,0:3:0:0:
404,209,67195,6,0,P|458:216|504:211,1,85,6|10,1:2|0:0,0:0:0:0:
332,357,67528,1,2,1:2:0:0:
249,291,67695,2,0,P|193:258|214:145,2,170,10|10|10,0:0|0:0|0:0,0:0:0:0:
312,220,68528,6,0,L|323:128,1,85,2|10,1:2|0:0,0:0:0:0:
255,10,68862,1,2,1:2:0:0:
173,61,69028,2,0,B|86:42|92:84|-3:58,1,170,10|10,0:0|0:0,0:0:0:0:
74,243,69528,2,0,P|87:192|90:153,1,85,2|10,1:2|0:0,0:0:0:0:
0,333,69862,5,2,1:2:0:0:
30,341,69945,1,0,1:2:0:0:
62,344,70028,1,10,1:2:0:0:
94,342,70111,1,0,1:2:0:0:
125,334,70195,1,2,1:2:0:0:
189,216,70362,2,0,L|196:267,3,42.5,10|0|0|0,1:2|1:2|1:2|1:2,0:0:0:0:
269,364,70695,2,0,L|262:313,3,42.5,10|0|0|0,1:2|1:2|1:2|1:2,0:0:0:0:
325,250,71028,2,0,L|371:239,1,42.5,8|0,1:2|1:0,0:0:0:0:
477,220,71195,5,2,1:0:0:0:
477,220,71278,1,0,1:0:0:0:
477,220,71362,1,8,1:2:0:0:
477,220,71445,1,0,1:0:0:0:
477,220,71528,2,0,P|488:163|485:128,1,85,2|8,1:0|1:2,0:0:0:0:
319,147,71862,1,10,0:3:0:0:
319,147,71945,2,0,P|308:90|311:55,1,85,8|4,0:3|0:3,0:0:0:0:
356,0,72195,5,14,0:2:0:0:
499,341,72528,5,14,1:2:0:0:
495,349,72612,1,0,1:2:0:0:
491,357,72695,2,0,L|443:351,3,42.5,0|0|0|0,1:2|1:2|1:2|1:2,0:0:0:0:
431,232,73028,1,10,1:2:0:0:
439,231,73112,1,0,1:2:0:0:
448,230,73195,2,0,L|466:274,3,42.5,0|0|0|0,1:2|1:2|1:2|1:2,0:0:0:0:
357,356,73528,1,10,1:2:0:0:
352,349,73612,1,0,1:2:0:0:
346,342,73695,2,0,L|375:303,1,42.5,0|0,1:2|1:2,0:0:0:0:
497,147,73862,5,8,1:2:0:0:
497,147,73945,1,0,1:2:0:0:
497,147,74028,2,0,P|462:141|431:146,3,42.5,2|0|0|0,1:2|1:2|1:2|1:2,0:0:0:0:
335,175,74362,1,8,1:2:0:0:
335,175,74445,1,0,1:2:0:0:
335,175,74528,2,0,P|357:147|368:118,3,42.5,2|0|0|0,1:2|1:2|1:2|1:2,0:0:0:0:
370,2,74862,2,0,P|385:43|426:74,1,85,14|0,1:2|0:0,1:2:0:0:
266,79,75195,5,14,1:2:0:0:
266,79,75278,1,0,1:2:0:0:
266,79,75362,2,0,L|215:70,3,42.5,0|0|0|0,1:2|1:2|1:2|1:2,0:0:0:0:
121,0,75695,1,10,1:2:0:0:
121,0,75778,1,0,1:2:0:0:
121,0,75862,2,0,L|138:48,3,42.5,0|0|0|0,1:2|1:2|1:2|1:2,0:0:0:0:
120,163,76195,1,10,1:2:0:0:
120,163,76278,1,0,1:2:0:0:
120,163,76362,2,0,L|153:123,1,42.5,0|0,1:2|1:2,0:0:0:0:
13,199,76528,5,8,1:2:0:0:
13,199,76612,1,0,1:2:0:0:
13,199,76695,2,0,P|40:215|75:224,3,42.5,2|0|0|0,1:2|1:2|1:2|1:2,0:0:0:0:
159,258,77028,1,8,1:2:0:0:
159,258,77112,1,0,1:2:0:0:
159,258,77195,2,0,P|131:273|106:299,3,42.5,2|0|0|0,1:2|1:2|1:2|1:2,0:0:0:0:
17,382,77528,2,0,P|40:329|37:278,1,85,14|0,1:2|0:0,1:2:0:0:
10,108,77862,5,14,1:2:0:0:
10,108,77945,1,0,1:2:0:0:
10,108,78028,2,0,P|41:94|77:91,3,42.5,0|0|0|0,1:2|1:2|1:2|1:2,0:0:0:0:
114,33,78362,1,10,1:2:0:0:
114,33,78445,1,0,1:2:0:0:
114,33,78528,2,0,P|145:45|173:68,3,42.5,0|0|0|0,1:2|1:2|1:2|1:2,0:0:0:0:
249,32,78862,1,10,1:2:0:0:
249,32,78945,1,0,1:2:0:0:
249,32,79028,2,0,P|265:69|272:91,1,42.5,0|0,1:2|1:2,0:0:0:0:
302,229,79195,5,8,1:2:0:0:
302,229,79278,1,0,1:2:0:0:
302,229,79362,2,0,L|352:211,3,42.5,2|0|0|0,1:2|1:2|1:2|1:2,0:0:0:0:
406,280,79695,1,8,1:2:0:0:
406,280,79778,1,0,1:2:0:0:
406,280,79862,2,0,L|428:231,3,42.5,2|0|0|0,1:2|1:2|1:2|1:2,0:0:0:0:
512,268,80195,2,0,L|498:173,1,85,14|0,1:2|0:0,1:2:0:0:
417,135,80528,5,14,1:2:0:0:
417,135,80612,1,0,1:2:0:0:
417,135,80695,2,0,P|395:117|370:104,3,42.5,0|0|0|0,1:2|1:2|1:2|1:2,0:0:0:0:
318,230,81028,1,10,1:2:0:0:
318,230,81112,1,0,1:2:0:0:
318,230,81195,2,0,P|296:248|271:261,3,42.5,0|0|0|0,1:2|1:2|1:2|1:2,0:0:0:0:
214,102,81528,1,10,1:2:0:0:
214,102,81612,1,0,1:2:0:0:
214,102,81695,2,0,P|187:89|162:83,1,42.5,0|0,1:2|1:2,0:0:0:0:
4,182,81862,6,0,L|106:172,1,85,2|0,1:2|1:0,0:0:0:0:
172,241,82112,2,0,L|263:249,1,85,2|0,1:2|1:0,0:0:0:0:
324,168,82362,2,0,L|398:158,1,42.5,2|0,1:2|1:0,0:0:0:0:
483,193,82529,1,10,1:2:0:0:
483,193,83195,6,0,B|535:100|465:2,1,187.000005706787,6|2,1:2|1:2,0:0:0:0:
378,203,83695,2,0,P|389:279|397:321,1,93.5000028533936,10|0,0:0|1:0,0:0:0:0:
297,137,84028,2,0,P|290:90|283:44,1,93.5000028533936,10|0,0:0|1:0,0:0:0:0:
176,242,84362,6,0,B|75:314|-14:220,1,187.000005706787,10|10,0:0|0:0,0:0:0:0:
17,129,84862,1,2,1:2:0:0:
100,178,85028,1,10,0:0:0:0:
213,62,85195,1,0,1:2:0:0:
213,62,85278,1,0,1:2:0:0:
213,62,85362,1,10,1:2:0:0:
213,62,85445,1,0,1:2:0:0:
213,62,85528,2,0,L|269:57,1,46.7500014266968,2|0,1:2|1:2,0:0:0:0:
311,118,85695,2,0,L|357:113,1,46.7500014266968,10|0,1:2|1:2,0:0:0:0:
474,16,85862,6,0,B|535:100|483:193,1,187.000005706787,6|2,1:2|1:2,0:0:0:0:
381,298,86362,2,0,P|369:228|364:186,1,93.5000028533936,10|0,0:2|1:0,0:0:0:0:
326,379,86695,2,0,P|395:384|442:376,1,93.5000028533936,10|0,0:2|1:0,0:0:0:0:
209,302,87028,6,0,B|297:231|392:306,1,187.000005706787,10|10,0:2|0:0,0:0:0:0:
418,381,87528,1,2,1:2:0:0:
499,322,87695,1,10,0:2:0:0:
401,193,87862,1,0,1:0:0:0:
483,135,88028,1,8,0:3:0:0:
482,111,88111,1,8,0:3:0:0:
480,88,88195,1,10,0:3:0:0:
476,65,88278,1,4,0:3:0:0:
470,42,88361,1,6,0:3:0:0:
380,105,88528,6,0,B|286:93|286:137|179:126,1,187.000005706787,6|0,1:2|1:0,0:0:0:0:
80,20,89028,1,10,0:0:0:0:
8,83,89195,2,0,L|-3:182,1,93.5000028533936,2|8,1:2|0:0,0:0:0:0:
68,302,89528,1,0,0:0:0:0:
153,242,89695,1,10,0:0:0:0:
85,161,89862,5,2,1:2:0:0:
164,346,90028,1,8,0:0:0:0:
164,346,90112,1,2,0:0:0:0:
293,206,90279,1,0,0:0:0:0:
293,206,90362,1,10,0:0:0:0:
376,268,90528,1,2,1:2:0:0:
398,273,90611,1,0,1:2:0:0:
421,276,90694,1,0,1:2:0:0:
445,279,90777,1,0,1:2:0:0:
473,281,90862,2,0,P|504:275|532:272,2,46.7500014266968,8|8|10,0:2|0:0|0:2,0:0:0:0:
256,378,91195,5,6,1:2:0:0:
216,255,91362,1,8,0:0:0:0:
336,215,91528,1,10,0:0:0:0:
171,339,91695,5,2,1:2:0:0:
118,199,91862,1,8,0:0:0:0:
263,144,92028,1,2,1:2:0:0:
216,255,92195,5,2,1:2:0:0:
178,49,92362,2,0,B|86:-7|-14:72,1,187.000005706787,6|0,1:2|1:2,0:0:0:0:
2,59,92778,1,0,1:0:0:0:
2,59,92862,1,8,0:0:0:0:
67,145,93028,2,0,L|60:208,1,46.7500014266968,0|0,1:2|1:0,0:0:0:0:
21,269,93195,1,0,1:2:0:0:
19,280,93278,1,8,0:0:0:0:
18,292,93361,1,10,0:0:0:0:
16,303,93444,1,8,0:0:0:0:
17,314,93528,2,0,L|78:321,3,46.7500014266968,10|8|10|8,0:0|0:0|0:0|0:0,0:0:0:0:
121,384,93862,6,0,B|176:270|112:184,1,187.000005706787,6|2,1:2|1:2,0:0:0:0:
246,114,94362,2,0,P|236:180|231:221,1,93.5000028533936,10|0,0:2|1:0,0:0:0:0:
27,239,94695,2,0,P|33:192|40:146,1,93.5000028533936,10|0,0:0|0:0,0:0:0:0:
131,38,95028,1,10,0:2:0:0:
246,114,95195,5,0,1:2:0:0:
361,42,95362,1,10,0:0:0:0:
445,157,95528,1,2,1:2:0:0:
445,157,95695,1,10,0:0:0:0:
507,79,95862,5,0,1:2:0:0:
339,159,96028,1,10,1:2:0:0:
341,182,96111,1,0,1:2:0:0:
344,205,96194,1,2,1:2:0:0:
347,228,96277,1,0,1:2:0:0:
350,251,96361,1,10,1:2:0:0:
501,344,96528,6,0,B|411:407|316:332,1,187.000005706787,6|2,1:2|1:2,0:0:0:0:
204,239,97028,2,0,P|130:246|98:249,1,93.5000028533936,10|0,0:2|1:0,0:0:0:0:
61,348,97362,2,0,P|135:341|167:338,1,93.5000028533936,10|0,0:2|1:0,0:0:0:0:
287,222,97695,5,10,0:0:0:0:
191,131,97862,1,0,0:0:0:0:
110,247,98028,1,10,0:0:0:0:
293,133,98195,5,2,1:2:0:0:
193,43,98362,1,10,0:0:0:0:
109,151,98528,1,0,1:0:0:0:
56,82,98695,1,10,0:0:0:0:
45,76,98778,1,8,0:0:0:0:
35,71,98861,1,10,0:0:0:0:
24,66,98944,1,8,0:0:0:0:
13,62,99028,1,10,0:0:0:0:
220,119,99195,6,0,P|330:104|383:95,1,140.25000428009,6|2,1:2|0:2,0:0:0:0:
358,99,99528,2,0,P|416:88|453:84,1,93.5000028533936,0|10,0:0|0:0,0:0:0:0:
321,201,99862,1,0,1:0:0:0:
268,278,100028,2,0,P|251:339|247:377,1,93.5000028533936,10|2,0:0|1:2,0:0:0:0:
348,338,100362,1,10,0:0:0:0:
233,196,100528,5,6,1:2:0:0:
145,359,100695,1,8,0:0:0:0:
145,359,100778,1,0,0:0:0:0:
41,206,100945,1,0,0:0:0:0:
41,206,101028,1,8,0:0:0:0:
0,306,101195,5,10,0:2:0:0:
172,277,101362,1,0,1:0:0:0:
212,271,101445,1,0,1:0:0:0:
252,264,101528,1,8,0:0:0:0:
415,246,101695,5,0,1:0:0:0:
415,246,101778,1,0,1:0:0:0:
415,246,101862,1,6,1:2:0:0:
326,119,102028,1,8,0:0:0:0:
326,119,102195,1,8,0:0:0:0:
210,179,102362,1,2,1:2:0:0:
422,131,102528,5,10,0:0:0:0:
338,11,102695,1,10,0:3:0:0:
227,80,102862,1,6,0:3:0:0:
100,1,103028,6,0,B|44:104|125:202,1,187.000005706787,6|2,1:2|1:2,0:0:0:0:
107,178,103445,1,0,1:0:0:0:
107,178,103528,1,10,0:0:0:0:
254,232,103695,2,0,L|248:293,1,46.7500014266968,0|0,1:2|1:2,0:0:0:0:
248,379,103862,1,10,0:0:0:0:
248,379,103945,1,8,0:0:0:0:
248,379,104028,1,10,0:0:0:0:
248,379,104112,1,8,0:0:0:0:
248,379,104195,1,10,0:0:0:0:
248,379,104278,1,8,0:0:0:0:
248,379,104529,5,6,1:1:0:0:
264,286,104862,1,0,1:2:0:0:
240,186,105195,1,0,1:2:0:0:
282,100,105529,1,0,1:2:0:0:
254,8,105861,1,0,1:2:0:0:
254,8,106028,5,2,0:0:0:0:
282,100,106195,1,2,1:2:0:0:
282,100,106362,1,2,0:0:0:0:
240,186,106528,1,2,1:2:0:0:
240,186,106695,1,2,1:2:0:0:
264,286,106862,1,2,1:2:0:0:
264,286,107028,1,2,1:2:0:0:
248,379,107195,5,6,1:1:0:0:
182,278,107528,1,0,1:0:0:0:
317,190,107862,1,0,1:0:0:0:
196,110,108195,1,0,1:0:0:0:
254,8,108529,1,0,1:0:0:0:
255,376,109195,6,0,B|214:236|311:211|262:57,1,297.5,2|0,1:2|0:0,0:0:0:0:
254,8,109862,5,6,1:1:0:0:
254,8,110195,1,0,1:2:0:0:
222,12,110278,1,0,1:2:0:0:
190,16,110361,1,0,1:2:0:0:
159,21,110444,1,0,1:2:0:0:
127,25,110528,1,8,0:2:0:0:
19,132,110861,1,0,1:2:0:0:
241,217,111362,1,0,1:2:0:0:
149,339,111695,5,0,1:2:0:0:
111,333,111778,1,0,1:2:0:0:
76,326,111861,1,8,0:2:0:0:
241,217,112112,1,0,1:2:0:0:
19,132,112362,1,0,1:2:0:0:
127,25,112528,5,6,1:1:0:0:
127,25,112862,1,0,1:2:0:0:
139,54,112945,1,0,1:2:0:0:
144,85,113028,1,0,1:2:0:0:
141,117,113111,1,0,1:2:0:0:
131,147,113195,1,8,0:2:0:0:
51,218,113528,1,0,1:2:0:0:
255,331,114028,1,0,1:2:0:0:
434,218,114362,5,0,1:2:0:0:
425,176,114445,1,0,1:2:0:0:
429,134,114528,1,8,0:2:0:0:
506,75,114695,1,0,1:2:0:0:
506,75,114778,1,0,1:2:0:0:
450,305,115028,1,0,1:2:0:0:
325,193,115195,5,6,1:1:0:0:
325,193,115528,1,0,1:2:0:0:
293,190,115611,1,0,1:2:0:0:
261,188,115694,1,0,1:2:0:0:
229,186,115777,1,0,1:2:0:0:
197,184,115861,1,8,0:2:0:0:
107,87,116195,1,0,1:2:0:0:
231,29,116695,1,0,1:2:0:0:
220,196,117028,5,0,1:2:0:0:
261,188,117111,1,0,1:2:0:0:
303,180,117195,1,8,0:2:0:0:
403,281,117362,1,0,1:2:0:0:
403,281,117445,1,0,1:2:0:0:
295,369,117695,1,0,1:2:0:0:
211,316,117862,5,6,1:1:0:0:
211,316,118195,1,0,1:2:0:0:
182,300,118278,1,0,1:2:0:0:
152,292,118361,1,0,1:2:0:0:
120,290,118444,1,0,1:2:0:0:
89,294,118528,1,8,0:2:0:0:
7,361,118862,1,0,1:2:0:0:
197,194,119362,1,0,1:2:0:0:
49,53,119695,1,0,1:2:0:0:
89,46,119778,1,0,1:2:0:0:
131,53,119862,2,0,P|173:58|201:62,1,42.5,8|0,0:2|0:0,0:0:0:0:
216,0,120028,6,0,B|229:60|229:60|195:170|195:170|212:238,1,237.999992736817,2|0,0:0|1:2,0:0:0:0:
108,353,120528,6,0,B|179:369|202:364|287:320,1,170,6|0,1:1|1:0,0:0:0:0:
270,328,120945,1,0,1:0:0:0:
270,328,121028,1,0,1:0:0:0:
270,328,121112,1,0,1:0:0:0:
270,328,121195,2,0,P|329:341|387:354,1,85,8|0,0:0|0:0,0:0:0:0:
509,266,121528,2,0,P|396:242|323:219,1,170,0|0,1:2|0:0,0:0:0:0:
275,113,122028,6,0,P|281:47|293:20,1,85,0|0,1:0|0:0,0:0:0:0:
407,5,122362,1,0,1:2:0:0:
407,5,122445,1,0,1:2:0:0:
407,5,122528,2,0,L|383:141,1,127.5,8|0,0:2|1:2,0:0:0:0:
384,130,122862,1,0,0:0:0:0:
255,226,123029,1,0,1:2:0:0:
159,113,123195,6,0,B|71:80|-9:144,1,170,6|0,1:1|1:0,0:0:0:0:
3,167,123612,1,0,1:0:0:0:
8,194,123695,1,0,1:0:0:0:
12,219,123778,1,0,1:0:0:0:
17,246,123862,2,0,L|35:343,1,85,8|0,0:0|0:0,0:0:0:0:
160,384,124195,6,0,B|185:289|119:213,1,170,0|0,1:0|0:0,0:0:0:0:
275,313,124695,2,0,L|257:216,1,85,0|0,1:2|0:0,0:0:0:0:
334,167,125028,1,0,1:2:0:0:
334,167,125112,1,0,1:2:0:0:
334,167,125195,1,8,0:2:0:0:
415,333,125445,1,0,1:0:0:0:
512,184,125695,1,0,1:0:0:0:
437,104,125862,6,0,B|355:50|263:98,1,170,6|0,1:1|1:0,0:0:0:0:
240,123,126278,1,0,1:0:0:0:
198,132,126361,1,0,1:0:0:0:
156,128,126444,1,0,1:0:0:0:
117,112,126528,2,0,L|115:8,1,85,8|0,0:0|0:0,0:0:0:0:
11,248,126862,6,0,B|-46:174|21:73,1,170,0|0,1:2|0:0,0:0:0:0:
113,239,127362,2,0,L|115:343,1,85,0|0,1:0|0:0,0:0:0:0:
194,180,127695,1,0,1:2:0:0:
244,167,127778,1,0,1:2:0:0:
292,183,127862,1,8,0:2:0:0:
405,311,128028,1,0,1:0:0:0:
405,311,128111,1,0,1:2:0:0:
197,384,128362,1,0,1:2:0:0:
238,286,128528,6,0,B|327:278|325:324|432:308,1,170,6|0,1:1|1:0,0:0:0:0:
451,346,128945,1,0,1:0:0:0:
431,308,129028,1,0,1:0:0:0:
425,266,129111,1,0,1:0:0:0:
434,225,129195,2,0,P|497:212|535:211,1,85,8|0,0:0|0:0,0:0:0:0:
281,123,129528,6,0,B|372:157|450:83,1,170,0|0,1:2|0:0,0:0:0:0:
285,15,130028,2,0,P|229:17|189:23,1,85,0|0,1:2|0:0,0:0:0:0:
80,6,130362,1,0,1:2:0:0:
84,48,130445,1,0,1:2:0:0:
89,90,130528,1,8,0:2:0:0:
222,170,130695,1,0,1:2:0:0:
222,170,130778,1,0,1:2:0:0:
22,262,130945,1,0,1:2:0:0:
22,262,131028,1,0,1:2:0:0:
101,344,131195,5,2,3:2:0:0:
101,344,131303,1,0,3:0:0:0:
101,344,131410,1,2,0:0:0:0:
180,331,131624,1,2,0:0:0:0:
257,314,131838,1,2,0:0:0:0:
334,298,132053,1,2,0:0:0:0:
411,283,132267,1,0,3:0:0:0:
411,283,132374,1,2,0:0:0:0:
489,265,132589,1,2,0:0:0:0:
489,265,132696,2,0,L|475:222,1,42.5,2|0,3:0|0:0,0:0:0:0:
512,90,132910,6,0,B|413:71|413:144|296:113,1,203.999993774414,6|0,1:1|1:2,0:0:0:0:
106,35,133552,2,0,L|217:25,1,101.999996887207,0|0,0:0|1:2,0:0:0:0:
207,25,133874,1,0,0:0:0:0:
207,25,133981,2,0,P|217:71|222:103,1,50.9999984436036
227,179,134195,2,0,L|111:191,1,101.999996887207,0|0,1:2|0:0,0:0:0:0:
9,152,134624,5,0,1:2:0:0:
15,188,134731,1,0,0:0:0:0:
23,225,134838,1,0,0:0:0:0:
148,367,135052,1,0,1:0:0:0:
154,331,135159,1,0,0:0:0:0:
162,294,135266,1,0,0:0:0:0:
260,223,135481,1,0,1:0:0:0:
260,223,135588,2,0,L|319:230,1,50.9999984436036,0|0,3:0|0:0,0:0:0:0:
371,183,135802,1,0,3:0:0:0:
371,183,135909,2,0,L|430:190,1,50.9999984436036,0|0,1:0|0:0,0:0:0:0:
505,235,136124,1,0,3:0:0:0:
505,235,136338,5,0,1:2:0:0:
505,235,136767,1,0,1:2:0:0:
505,235,137195,1,0,1:2:0:0:
421,189,137517,1,0,0:0:0:0:
421,189,137624,2,0,L|359:182,1,50.9999984436036,0|0,1:2|0:0,0:0:0:0:
310,229,137838,2,0,L|260:223,1,50.9999984436036
168,172,138052,5,2,1:2:0:0:
32,270,138267,1,0,1:2:0:0:
18,309,138374,1,0,1:2:0:0:
20,351,138481,2,0,L|95:357,1,50.9999984436036,2|0,1:2|0:0,0:0:0:0:
189,251,138695,2,0,L|239:255,1,50.9999984436036,0|0,1:2|1:2,0:0:0:0:
345,339,138910,2,0,L|340:377,2,25.4999992218018,2|0|0,1:2|1:2|1:2,0:0:0:0:
320,313,139124,5,0,1:0:0:0:
400,324,139231,1,0,1:2:0:0:
478,333,139338,2,0,B|506:226|434:216|470:88,1,216.750004134178,14|0,0:0|0:0,0:0:0:0:
504,32,139767,5,6,1:0:0:0:
504,32,139874,2,0,P|462:24|426:21,1,68,2|2,0:0|0:0,0:0:0:0:
357,93,140088,2,0,P|269:80|214:70,1,136,2|2,0:0|0:0,0:0:0:0:
146,12,140410,2,0,P|106:1|64:0,1,68,0|2,0:0|0:0,0:0:0:0:
162,146,140624,6,0,B|120:212|151:291,1,136,2|2,1:2|0:0,0:0:0:0:
145,276,140945,2,0,L|229:261,1,68,2|8,0:0|0:0,0:0:0:0:
268,341,141159,2,0,L|352:326,1,68,2|0,0:0|0:0,0:0:0:0:
482,218,141374,5,2,0:0:0:0:
482,218,141481,2,0,B|412:191|324:240,1,136,2|0,1:2|0:0,0:0:0:0:
268,341,141909,1,8,0:0:0:0:
98,334,142124,1,0,0:0:0:0:
65,306,142231,1,0,0:0:0:0:
48,263,142338,1,2,1:2:0:0:
50,212,142445,1,0,0:0:0:0:
70,167,142552,1,0,0:0:0:0:
70,167,142660,2,0,L|163:177,1,68,0|10,0:0|0:0,0:0:0:0:
252,171,142874,1,2,0:0:0:0:
274,124,142981,1,2,0:0:0:0:
271,71,143088,1,2,0:0:0:0:
241,35,143195,5,2,1:2:0:0:
241,35,143302,2,0,L|157:25,1,68,2|2,0:0|0:0,0:0:0:0:
37,2,143517,2,0,B|-8:72|42:162,1,136,2|2,0:0|0:0,0:0:0:0:
118,192,143838,2,0,L|131:120,1,68,0|2,0:0|0:0,0:0:0:0:
0,272,144052,6,0,B|61:261|79:310|152:290,1,136,2|2,1:2|0:0,0:0:0:0:
132,293,144374,2,0,P|131:338|124:376,1,68,2|8,0:2|0:0,0:0:0:0:
224,317,144588,2,0,P|225:272|232:234,1,68,2|0,0:0|0:0,0:0:0:0:
193,99,144802,5,2,0:0:0:0:
193,99,144910,2,0,B|273:66|351:143,1,136,2|2,1:2|0:0,0:0:0:0:
344,191,145231,2,0,L|426:185,1,68,2|10,0:0|0:0,0:0:0:0:
441,97,145445,2,0,P|449:170|449:238,1,136
491,306,145767,5,2,1:2:0:0:
449,286,145874,1,0,0:0:0:0:
400,284,145981,1,0,0:0:0:0:
357,305,146088,1,0,0:0:0:0:
323,345,146195,5,10,0:0:0:0:
260,338,146302,1,8,0:0:0:0:
197,329,146410,1,8,0:0:0:0:
136,320,146517,1,8,0:0:0:0:
78,313,146624,5,6,1:2:0:0:
78,313,146731,2,0,P|67:241|80:169,1,136,2|2,0:0|0:2,0:0:0:0:
76,179,147052,2,0,L|150:167,1,68,10|2,0:2|0:0,0:0:0:0:
186,65,147267,2,0,L|112:77,1,68,0|2,0:0|0:2,0:0:0:0:
235,0,147481,6,0,P|232:65|259:153,1,136,2|2,1:2|0:2,0:0:0:0:
321,39,147802,2,0,L|403:23,1,68,2|8,0:2|0:0,0:0:0:0:
512,122,148017,2,0,B|431:157|366:118,1,136,2|2,0:0|0:0,0:0:0:0:
380,125,148338,6,0,L|402:272,1,136,2|0,1:2|0:0,0:0:0:0:
364,333,148660,2,0,P|311:349|276:349,1,68,0|10,0:0|0:0,0:0:0:0:
147,233,148874,2,0,B|208:191|305:213,1,136
277,207,149195,1,2,1:2:0:0:
287,258,149302,1,0,0:0:0:0:
293,304,149410,1,0,0:0:0:0:
298,349,149517,1,0,0:0:0:0:
298,349,149624,2,0,L|217:360,1,68,10|2,0:0|0:0,0:0:0:0:
66,378,149838,5,2,0:0:0:0:
48,326,149945,1,2,0:0:0:0:
68,275,150052,1,2,1:2:0:0:
68,275,150160,2,0,L|55:194,1,68,2|2,0:0|0:0,0:0:0:0:
133,52,150374,2,0,L|154:196,1,136,2|2,0:0|0:0,0:0:0:0:
243,134,150695,2,0,P|254:170|254:209,1,68,0|2,0:0|0:0,0:0:0:0:
354,14,150910,6,0,B|288:65|207:31,1,136,2|2,1:2|0:0,0:0:0:0:
225,37,151231,1,2,0:0:0:0:
428,147,151445,1,2,0:0:0:0:
237,299,151660,5,2,0:0:0:0:
237,299,151767,2,0,L|313:308,1,42.5,0|0,1:2|0:0,0:0:0:0:
339,350,151981,2,0,L|415:359,1,42.5,0|0,1:2|1:2,0:0:0:0:
237,221,152195,6,0,L|323:231,1,82.8749962062838,0|0,1:2|0:0,0:0:0:0:
355,263,152410,2,0,L|441:273,1,82.8749962062838,0|0,1:2|0:0,0:0:0:0:
483,248,152624,2,0,L|478:295,2,27.6249987354279,0|0|2,1:2|1:2|1:2,0:0:0:0:
508,206,152838,5,2,1:0:0:0:
411,190,152945,1,2,1:2:0:0:
319,170,153052,2,0,B|214:135|202:203|74:148,1,229.499992996216,14|0,0:0|0:0,0:0:0:0:
22,20,153481,6,0,L|3:177,1,127.500004863739,6|0,1:1|0:0,0:0:0:0:
6,146,153802,1,0,0:0:0:0:
6,146,153910,1,8,0:0:0:0:
126,269,154124,1,2,0:0:0:0:
233,161,154338,1,2,1:2:0:0:
233,161,154445,2,0,B|305:135|367:186,1,127.500004863739,0|0,3:0|3:0,0:0:0:0:
354,176,154767,2,0,L|348:249,1,63.7500024318696,8|0,0:0|0:0,0:0:0:0:
345,328,154981,1,2,0:0:0:0:
465,88,155195,6,0,B|486:153|450:223,1,127.500004863739,2|0,1:2|0:0,0:0:0:0:
455,212,155517,1,2,0:0:0:0:
455,212,155624,1,8,0:0:0:0:
257,288,155838,2,0,L|191:276,1,63.7500024318696,2|0,0:0|0:0,0:0:0:0:
123,242,156052,1,2,1:2:0:0:
84,250,156160,1,0,3:0:0:0:
48,258,156267,1,0,0:0:0:0:
0,358,156481,2,0,B|-21:293|15:223,1,127.500004863739,8|2,0:0|0:0,0:0:0:0:
62,177,156802,1,2,0:0:0:0:
133,142,156910,6,0,L|285:161,1,127.500004863739,2|0,1:2|0:0,0:0:0:0:
259,157,157231,2,0,P|273:94|272:77,1,63.7500024318696,2|8,0:0|0:0,0:0:0:0:
427,2,157552,2,0,P|413:65|414:82,1,63.7500024318696,2|0,0:0|0:0,0:0:0:0:
478,124,157767,1,2,1:2:0:0:
478,124,157874,1,0,0:0:0:0:
478,124,157981,2,0,L|458:265,1,127.500004863739,2|8,0:0|0:0,0:0:0:0:
254,371,158410,1,2,0:0:0:0:
189,357,158517,1,2,0:0:0:0:
128,348,158624,6,0,B|81:253|150:157,1,191.250007295609,2|2,1:2|0:0,0:0:0:0:
143,166,159052,2,0,L|280:189,1,127.500004863739,8|2,0:0|0:0,0:0:0:0:
37,51,159481,1,2,1:2:0:0:
37,51,159588,2,0,P|117:38|184:58,1,127.500004863739,0|0,3:0|3:0,0:0:0:0:
217,103,159910,1,8,0:0:0:0:
281,144,160017,1,8,0:0:0:0:
354,130,160124,1,8,0:0:0:0:
419,82,160231,1,8,0:0:0:0:
455,12,160338,6,0,L|437:185,1,127.500004863739,6|0,1:2|0:0,0:0:0:0:
496,293,160767,2,0,B|404:210|293:290,1,191.250007295609,10|0,0:0|0:0,0:0:0:0:
266,343,161195,2,0,L|132:325,1,127.500004863739,2|0,1:2|0:0,0:0:0:0:
139,326,161517,1,0,0:0:0:0:
139,326,161624,1,8,0:0:0:0:
3,187,161838,2,0,L|95:196,1,63.7500024318696,2|0,0:2|0:0,0:0:0:0:
97,245,162052,6,0,P|123:174|104:50,1,191.250007295609,2|0,1:2|0:0,0:0:0:0:
43,16,162481,2,0,L|28:89,1,63.7500024318696,10|0,0:2|0:0,0:0:0:0:
226,74,162695,2,0,L|211:147,1,63.7500024318696
195,212,162910,1,2,1:2:0:0:
195,212,163017,2,0,B|259:264|341:232,1,127.500004863739,0|0,3:0|0:0,0:0:0:0:
376,202,163338,1,8,0:0:0:0:
486,70,163552,2,0,P|453:62|411:64,1,63.7500024318696,2|0,0:0|0:0,0:0:0:0:
382,0,163767,6,0,L|376:157,1,127.500004863739,2|0,1:2|0:0,0:0:0:0:
209,298,164195,2,0,B|160:205|230:96,1,191.250007295609,10|0,0:2|0:0,0:0:0:0:
218,115,164624,1,2,1:2:0:0:
218,115,164731,1,0,3:0:0:0:
86,22,164945,1,2,3:2:0:0:
86,22,165052,2,0,L|92:93,1,63.7500024318696,8|0,0:0|0:0,0:0:0:0:
21,136,165267,2,0,L|26:199,1,63.7500024318696,2|0,0:0|0:0,0:0:0:0:
4,317,165481,6,0,B|77:340|162:265,1,127.500004863739,2|0,1:2|0:0,0:0:0:0:
187,166,165802,2,0,B|257:143|305:190,1,127.500004863739,2|0,0:0|0:0,0:0:0:0:
230,382,166124,2,0,L|206:252,1,127.500004863739,2|0,0:0|1:2,0:0:0:0:
83,80,166445,2,0,L|107:210,1,127.500004863739,2|0,0:0|0:0,0:0:0:0:
206,256,166767,5,10,0:0:0:0:
286,242,166874,1,8,0:0:0:0:
361,230,166981,1,8,0:0:0:0:
436,217,167088,1,8,0:0:0:0:
509,202,167195,6,0,B|523:112|473:49,1,127.500004863739,6|0,1:1|0:0,0:0:0:0:
491,77,167517,1,0,0:0:0:0:
491,77,167624,1,8,0:0:0:0:
351,13,167838,1,2,0:0:0:0:
241,116,168052,1,2,1:2:0:0:
241,116,168159,2,0,P|150:105|97:99,1,127.500004863739,0|0,3:0|3:0,0:0:0:0:
114,100,168481,2,0,P|53:108|25:109,1,63.7500024318696,8|0,0:0|0:0,0:0:0:0:
0,51,168695,1,2,0:0:0:0:
136,192,168910,6,0,B|168:251|141:331,1,127.500004863739,2|0,1:2|0:0,0:0:0:0:
67,384,169231,2,0,B|35:325|62:245,1,127.500004863739,2|0,0:0|0:0,0:0:0:0:
145,315,169552,2,0,L|228:323,1,63.7500024318696,2|0,0:0|0:0,0:0:0:0:
295,364,169767,1,2,1:2:0:0:
295,364,169874,1,0,3:2:0:0:
295,364,169981,1,0,3:0:0:0:
295,364,170088,2,0,L|431:353,1,127.500004863739,0|0,3:2|0:0,0:0:0:0:
422,353,170410,2,0,P|426:309|412:268,1,63.7500024318696,2|2,0:2|0:2,0:0:0:0:
509,181,170624,6,0,B|430:144|360:203,1,127.500004863739,2|0,1:2|0:0,0:0:0:0:
386,184,170945,2,0,L|309:176,1,63.7500024318696,2|8,0:0|0:0,0:0:0:0:
158,60,171267,2,0,L|237:72,1,63.7500024318696,2|0,0:0|0:0,0:0:0:0:
249,28,171481,2,0,P|260:99|232:158,1,127.500004863739,2|2,1:2|0:2,0:0:0:0:
239,148,171802,2,0,L|226:250,1,63.7500024318696,0|8,0:0|0:0,0:0:0:0:
25,367,172124,1,2,0:0:0:0:
32,317,172231,1,2,0:0:0:0:
41,264,172338,6,0,B|113:246|181:296,1,127.500004863739,2|0,1:2|0:0,0:0:0:0:
232,352,172660,2,0,B|302:369|353:331,1,127.500004863739,2|0,0:0|0:0,0:0:0:0:
424,272,172981,2,0,L|516:283,1,63.7500024318696,2|0,0:0|0:0,0:0:0:0:
360,98,173195,1,2,1:2:0:0:
360,98,173302,2,0,P|338:166|342:238,1,127.500004863739,0|0,3:0|3:0,0:0:0:0:
416,313,173624,5,8,0:0:0:0:
433,235,173731,1,8,0:0:0:0:
446,158,173838,1,8,0:0:0:0:
461,81,173945,1,8,0:0:0:0:
476,7,174052,6,0,B|382:-11|381:48|248:18,1,191.250007295609,6|0,1:2|0:0,0:0:0:0:
287,24,174481,2,0,L|144:14,1,127.500004863739,10|0,0:0|0:0,0:0:0:0:
20,151,174910,1,2,1:2:0:0:
20,151,175017,2,0,L|163:161,1,127.500004863739
147,160,175338,1,8,0:0:0:0:
50,384,175552,2,0,L|45:311,1,63.7500024318696,2|0,0:2|0:0,0:0:0:0:
0,308,175767,6,0,P|67:287|138:301,1,127.500004863739,2|0,1:2|0:0,0:0:0:0:
180,350,176088,2,0,L|267:341,1,63.7500024318696,0|10,0:0|0:0,0:0:0:0:
359,246,176410,2,0,L|446:237,1,63.7500024318696
479,143,176624,1,2,1:2:0:0:
479,143,176731,2,0,P|374:156|271:169,1,191.250007295609,0|8,3:0|0:0,0:0:0:0:
103,197,177267,2,0,L|96:125,1,63.7500024318696,2|0,0:0|0:0,0:0:0:0:
29,268,177481,6,0,B|-47:186|29:49,1,191.250007295609,2|0,1:2|0:0,0:0:0:0:
101,27,177910,2,0,B|198:12|207:62|320:36,1,191.250007295609,10|0,0:0|0:0,0:0:0:0:
417,2,178338,6,0,L|427:138,1,127.500004863739,2|0,1:2|0:0,0:0:0:0:
328,254,178660,2,0,L|318:118,1,127.500004863739,2|0,3:0|0:0,0:0:0:0:
431,250,178981,2,0,P|435:291|432:341,1,63.7500024318696,2|0,0:0|0:0,0:0:0:0:
344,364,179195,6,0,L|270:371,1,63.7500024318696,2|0,1:2|0:0,0:0:0:0:
187,312,179410,1,0,1:2:0:0:
142,317,179517,1,0,1:2:0:0:
94,324,179624,2,0,L|24:330,1,63.7500024318696,0|0,1:2|0:0,0:0:0:0:
143,224,179838,2,0,L|213:218,1,63.7500024318696,0|0,1:2|0:0,0:0:0:0:
41,182,180052,2,0,L|2:184,2,31.8750012159348,0|0|2,1:2|1:2|1:2,0:0:0:0:
62,162,180267,5,2,1:2:0:0:
44,84,180374,1,2,1:2:0:0:
75,10,180481,2,0,P|127:5|162:12,1,85,14|0,0:0|3:0,0:0:0:0:
198,80,180802,1,0,3:0:0:0:
184,156,180910,1,6,1:1:0:0:
200,192,186243,5,6,1:2:0:0:
254,246,186576,1,0,1:2:0:0:
307,191,186909,1,0,1:2:0:0:
252,132,187243,1,0,1:2:0:0:
176,270,187576,5,0,1:2:0:0:
331,263,187910,1,0,1:2:0:0:
330,113,188243,1,0,1:2:0:0:
177,117,188576,1,0,1:2:0:0:
256,329,188910,5,0,1:2:0:0:
397,193,189243,1,0,1:2:0:0:
256,48,189576,1,0,1:2:0:0:
116,197,189910,1,0,1:2:0:0:
35,137,190243,5,0,1:2:0:0:
35,137,190326,1,0,1:2:0:0:
35,137,190410,1,0,1:2:0:0:
203,223,190576,1,0,1:2:0:0:
59,345,190743,1,0,1:2:0:0:
59,345,190826,1,0,1:2:0:0:
59,345,190910,1,0,1:2:0:0:
100,240,191076,1,0,1:2:0:0:
261,359,191243,5,8,0:0:0:0:
261,359,191326,1,8,0:0:0:0:
261,359,191410,1,10,0:0:0:0:
261,359,191493,1,8,0:0:0:0:
261,359,191576,1,6,1:2:0:0:
337,375,191743,1,10,0:0:0:0:
385,312,191910,1,2,1:2:0:0:
310,294,192076,1,10,0:0:0:0:
238,228,192243,1,0,1:0:0:0:
238,228,192410,2,0,P|234:171|243:117,1,85,8|0,0:0|1:0,0:0:0:0:
261,54,192743,1,10,0:0:0:0:
339,182,192910,6,0,L|434:171,1,85,2|10,1:2|0:0,0:0:0:0:
512,160,193243,1,2,1:2:0:0:
385,42,193410,2,0,B|324:14|261:44,1,127.5,10|0,0:0|1:2,0:0:0:0:
235,67,193743,1,12,1:2:0:0:
205,77,193826,1,0,1:2:0:0:
173,77,193909,1,0,1:2:0:0:
143,68,193993,1,0,1:2:0:0:
117,49,194076,2,0,L|126:-2,1,42.5,12|0,1:2|1:0,0:0:0:0:
36,6,194243,5,6,1:2:0:0:
25,83,194410,1,10,0:0:0:0:
15,159,194576,1,2,1:2:0:0:
3,237,194743,2,0,P|60:248|99:245,1,85,10|0,0:0|1:2,0:0:0:0:
232,367,195076,2,0,B|154:326|63:366,1,170,10|10,0:0|0:0,0:0:0:0:
175,259,195576,6,0,L|182:155,1,85,2|8,1:2|0:0,0:0:0:0:
325,295,195909,2,0,L|318:399,1,85,2|8,1:2|0:0,0:0:0:0:
401,238,196243,2,0,P|456:231|504:243,1,85,10|8,0:0|0:0,0:0:0:0:
484,236,196493,1,8,0:0:0:0:
484,236,196576,1,10,0:0:0:0:
484,236,196659,1,8,0:0:0:0:
484,236,196743,1,10,0:0:0:0:
420,149,196909,5,6,1:2:0:0:
420,149,197076,2,0,L|427:45,1,85,10|2,0:0|1:2,0:0:0:0:
299,198,197409,2,0,B|222:253|118:203,2,170,10|8|10,0:0|0:0|0:0,0:0:0:0:
338,107,198243,5,2,1:2:0:0:
259,63,198409,1,10,0:2:0:0:
217,143,198576,1,2,1:2:0:0:
91,102,198743,2,0,L|104:6,1,85,10|0,0:0|1:0,0:0:0:0:
0,181,199076,2,0,L|13:85,1,85,8|0,0:0|1:0,0:0:0:0:
137,211,199409,1,10,0:0:0:0:
35,317,199576,6,0,L|30:372,3,42.5,2|0|8|0,1:2|1:2|1:2|1:2,0:0:0:0:
133,253,199909,2,0,L|138:198,3,42.5,2|0|10|0,1:2|1:2|1:2|1:2,0:0:0:0:
214,313,200243,1,0,1:2:0:0:
214,313,200326,1,0,1:2:0:0:
214,313,200409,2,0,L|275:320,1,42.5,10|0,1:2|1:2,0:0:0:0:
321,273,200576,2,0,L|382:280,1,42.5,0|0,1:2|1:2,0:0:0:0:
417,337,200743,1,10,1:2:0:0:
502,218,200909,5,2,1:2:0:0:
508,186,200992,1,0,1:0:0:0:
508,154,201075,1,8,1:2:0:0:
504,123,201159,1,0,1:0:0:0:
492,96,201243,2,0,P|485:39|489:0,1,85,2|8,1:2|1:2,0:0:0:0:
413,169,201576,1,10,0:3:0:0:
413,169,201659,2,0,L|293:162,1,85,8|4,0:3|0:3,0:0:0:0:
328,164,201909,2,0,L|208:157,1,85,14|0,0:0|0:0,0:0:0:0:
63,24,202243,5,6,1:2:0:0:
150,87,202409,1,8,0:0:0:0:
46,179,202576,1,2,1:2:0:0:
46,179,202659,1,0,1:0:0:0:
46,179,202743,1,10,0:0:0:0:
145,219,202909,2,0,B|176:310|130:399,1,170,2|2,1:2|1:2,0:0:0:0:
48,338,203409,1,10,0:0:0:0:
245,307,203576,6,0,L|350:297,1,85,2|8,1:2|0:0,0:0:0:0:
414,232,203909,1,2,1:2:0:0:
301,167,204076,1,10,0:0:0:0:
382,101,204243,2,0,P|438:93|474:101,1,85,2|8,1:2|0:0,0:0:0:0:
278,17,204576,2,0,B|214:57|141:17,1,127.5,2|0,1:2|0:0,0:0:0:0:
156,24,204909,5,2,1:2:0:0:
174,146,205076,1,8,0:0:0:0:
192,258,205243,1,2,1:2:0:0:
192,258,205326,1,0,1:0:0:0:
192,258,205409,1,8,0:0:0:0:
212,376,205576,2,0,B|303:409|385:355,1,170,2|2,1:2|1:2,0:0:0:0:
441,276,206076,1,10,0:0:0:0:
372,196,206243,6,0,L|276:205,1,85,2|10,1:2|0:2,0:0:0:0:
224,287,206576,2,0,L|128:296,1,85,2|10,1:2|0:0,0:0:0:0:
32,210,206909,1,10,0:2:0:0:
14,171,206992,1,8,0:2:0:0:
11,129,207075,1,10,0:2:0:0:
22,88,207159,1,8,0:2:0:0:
46,53,207243,2,0,L|104:61,1,42.5,10|8,0:3|0:3,0:0:0:0:
142,112,207410,2,0,L|199:119,1,42.5,6|4,0:3|0:3,0:0:0:0:
278,133,207576,5,6,1:2:0:0:
396,65,207743,1,8,0:2:0:0:
478,180,207909,1,2,1:2:0:0:
478,180,207993,1,0,1:0:0:0:
478,180,208076,1,10,0:0:0:0:
374,327,208243,2,0,B|316:247|377:165,1,170,2|2,1:2|1:2,0:0:0:0:
450,280,208743,1,10,0:0:0:0:
277,340,208909,6,0,P|218:354|182:365,1,85,2|8,1:2|0:2,0:2:0:0:
83,284,209243,1,2,1:2:0:0:
185,203,209409,1,10,0:0:0:0:
101,138,209576,2,0,L|91:37,1,85,2|8,1:2|0:2,0:0:0:0:
294,197,209909,2,0,L|284:96,1,85,2|8,1:2|0:2,0:0:0:0:
24,233,210243,5,2,1:2:0:0:
163,256,210409,1,8,0:0:0:0:
300,285,210576,1,2,1:2:0:0:
300,285,210659,1,0,1:0:0:0:
300,285,210743,1,10,0:0:0:0:
404,242,210909,2,0,B|445:157|398:53,1,170,2|2,1:2|1:2,0:0:0:0:
410,81,211409,1,10,0:0:0:0:
311,10,211576,6,0,P|297:65|291:122,1,85,2|10,1:2|0:2,0:0:0:0:
184,245,211909,2,0,P|198:190|204:133,1,85,2|10,1:2|0:2,0:0:0:0:
134,86,212243,1,10,0:0:0:0:
104,74,212326,1,8,0:0:0:0:
73,68,212409,1,10,0:0:0:0:
41,67,212493,1,8,0:0:0:0:
9,73,212576,2,0,L|4:124,3,42.5,8|8|10|8,0:0|0:0|0:0|0:0,0:0:0:0:
12,195,212909,6,0,P|60:189|96:182,1,68,6|8,1:2|0:0,0:0:0:0:
160,156,213242,1,2,1:2:0:0:
38,287,213409,2,0,P|105:277|172:256,2,136,10|8|10,0:0|0:0|0:0,0:0:0:0:
13,376,214242,1,2,1:2:0:0:
115,369,214409,1,10,0:0:0:0:
209,348,214575,1,2,1:2:0:0:
305,335,214742,6,0,L|372:345,1,68,10|0,0:0|1:0,0:0:0:0:
404,249,215076,2,0,L|490:262,1,68,8|0,0:0|1:0,0:0:0:0:
346,161,215409,1,10,0:0:0:0:
455,29,215576,6,0,B|486:108|444:171,1,136,6|2,1:2|1:2,0:0:0:0:
367,43,216076,2,0,L|284:34,1,68,10|0,0:0|1:2,0:0:0:0:
234,123,216409,2,0,L|317:132,1,68,10|0,0:0|1:2,0:0:0:0:
206,32,216742,1,10,0:0:0:0:
113,205,216909,6,0,L|121:125,1,68,6|8,1:2|0:3,0:0:0:0:
119,137,217159,1,8,0:3:0:0:
119,137,217242,1,4,0:3:0:0:
69,70,217409,1,8,0:3:0:0:
10,299,217576,2,0,P|46:308|87:309,1,68,6|8,0:3|0:3,0:0:0:0:
76,310,217825,1,8,0:3:0:0:
76,310,217909,1,8,0:3:0:0:
76,310,217992,1,4,0:3:0:0:
76,310,218075,1,4,0:3:0:0:
221,146,218243,6,0,P|275:139|321:144,1,85,6|10,1:2|0:2,0:0:0:0:
391,286,218575,1,2,1:2:0:0:
289,384,218743,2,0,B|242:308|285:204,2,170,10|10|10,0:2|0:2|0:2,0:0:0:0:
474,352,219576,6,0,L|485:260,1,85,2|10,1:2|0:2,0:0:0:0:
512,96,219909,1,2,1:2:0:0:
399,152,220076,2,0,B|305:173|232:114,1,170,10|10,0:2|0:2,0:0:0:0:
121,22,220576,2,0,P|78:26|37:37,1,85,2|10,1:2|0:2,0:0:0:0:
129,246,220909,5,2,1:2:0:0:
137,216,220992,1,0,1:2:0:0:
140,184,221075,1,10,1:2:0:0:
138,152,221158,1,0,1:2:0:0:
130,121,221242,1,2,1:2:0:0:
0,196,221409,2,0,L|51:189,3,42.5,10|0|0|0,1:2|1:2|1:2|1:2,0:0:0:0:
118,270,221743,2,0,L|169:263,3,42.5,10|0|0|0,1:2|1:2|1:2|1:2,0:0:0:0:
220,185,222075,2,0,L|209:139,1,42.5,10|0,1:2|1:2,0:0:0:0:
148,43,222242,5,2,1:2:0:0:
148,43,222325,1,0,1:2:0:0:
148,43,222409,1,8,1:2:0:0:
148,43,222492,1,0,1:2:0:0:
148,43,222576,2,0,P|205:32|240:35,1,85,2|8,1:2|1:2,0:0:0:0:
325,216,222909,1,10,0:3:0:0:
325,216,222992,2,0,L|337:314,1,85,8|4,0:3|0:3,0:0:0:0:
335,300,223243,2,0,L|391:288,1,42.5,10|8,0:0|0:0,0:0:0:0:
456,352,223410,2,0,L|400:364,1,42.5,8|8,0:0|0:0,0:0:0:0:
239,303,223576,5,6,1:2:0:0:
136,384,223743,2,0,B|109:297|179:216,1,170,8|8,0:0|0:0,0:0:0:0:
261,170,224243,1,0,1:0:0:0:
306,85,224409,1,8,0:0:0:0:
238,5,224576,1,2,1:2:0:0:
184,90,224743,1,8,0:0:0:0:
360,166,224909,5,2,1:2:0:0:
457,131,225076,1,8,0:0:0:0:
457,131,225159,2,0,L|474:-18,1,127.5,2|10,0:2|0:2,0:0:0:0:
306,85,225576,1,2,1:2:0:0:
306,85,225659,1,0,0:0:0:0:
306,85,225743,1,8,0:0:0:0:
329,185,225910,1,0,1:0:0:0:
350,277,226076,1,8,0:0:0:0:
425,331,226243,5,2,1:2:0:0:
276,381,226409,1,10,0:0:0:0:
201,265,226576,1,2,1:2:0:0:
107,301,226743,2,0,B|90:349|97:391,1,85,10|0,0:2|1:2,0:0:0:0:
0,215,227076,2,0,B|52:128|12:26,1,170,10|10,0:2|0:0,0:0:0:0:
119,136,227576,5,2,1:2:0:0:
196,147,227743,1,8,0:2:0:0:
272,157,227909,2,0,L|369:167,1,85,2|8,1:2|0:2,0:0:0:0:
512,64,228243,1,10,0:0:0:0:
476,40,228326,1,8,0:0:0:0:
436,27,228409,1,8,0:0:0:0:
394,27,228493,1,8,0:0:0:0:
353,38,228576,2,0,L|294:33,3,42.5,8|8|4|4,0:3|0:3|0:3|0:3,0:0:0:0:
258,33,228909,5,6,1:2:0:0:
166,151,229076,2,0,B|72:188|1:108,1,170,8|8,0:0|0:0,0:0:0:0:
132,28,229576,2,0,L|138:87,1,42.5,2|0,1:2|0:0,0:0:0:0:
166,151,229743,1,8,0:0:0:0:
166,151,229826,2,0,L|178:263,1,85,2|0,0:2|0:0,0:0:0:0:
134,309,230076,2,0,P|109:318|76:318,1,42.5,10|0,0:2|0:0,0:0:0:0:
206,360,230243,6,0,B|246:339|298:349,1,85,2|8,1:2|0:0,0:0:0:0:
355,282,230493,2,0,B|397:290|437:269,1,85,2|0,0:2|0:0,0:0:0:0:
470,342,230743,2,0,L|520:336,1,42.5,10|0,0:2|0:0,0:0:0:0:
384,196,230909,2,0,L|372:99,1,85,2|8,1:2|0:0,0:0:0:0:
243,294,231243,2,0,L|231:197,1,85,0|8,1:0|0:0,0:0:0:0:
29,93,231576,6,0,B|-10:161|35:233,1,127.5,2|2,1:2|0:2,0:0:0:0:
25,215,231909,2,0,L|122:199,1,85,0|10,0:0|0:2,0:0:0:0:
202,71,232243,2,0,L|302:56,1,85,2|8,1:2|0:0,0:0:0:0:
353,115,232493,2,0,B|410:120|448:92,1,85,2|0,0:2|0:0,0:0:0:0:
496,41,232743,2,0,L|484:-20,1,42.5,10|0,0:2|0:0,0:0:0:0:
421,192,232909,5,2,1:2:0:0:
498,254,233076,1,8,0:0:0:0:
498,254,233159,2,0,P|511:304|511:393,1,127.5,2|10,0:0|0:2,0:0:0:0:
365,279,233576,1,10,0:0:0:0:
322,273,233659,1,8,0:0:0:0:
280,268,233742,1,8,0:0:0:0:
238,262,233826,1,8,0:0:0:0:
208,277,233910,1,8,0:2:0:0:
165,271,233993,1,8,0:0:0:0:
123,266,234076,1,8,0:2:0:0:
81,260,234160,1,8,0:0:0:0:
38,255,234243,5,14,1:2:0:0:
38,255,234326,1,0,1:2:0:0:
38,255,234409,2,0,L|28:200,3,42.5,0|0|0|0,1:2|1:2|1:2|1:2,0:0:0:0:
92,139,234743,1,10,1:2:0:0:
92,139,234826,1,0,1:2:0:0:
92,139,234909,2,0,L|82:84,3,42.5,0|0|0|0,1:2|1:2|1:2|1:2,0:0:0:0:
12,46,235243,1,10,1:2:0:0:
12,46,235326,1,0,1:2:0:0:
12,46,235409,2,0,L|0:-10,1,42.5,0|0,1:2|1:2,0:0:0:0:
161,47,235576,5,8,1:2:0:0:
161,47,235659,1,0,1:2:0:0:
161,47,235743,2,0,P|193:37|220:36,3,42.5,2|0|0|0,1:2|1:2|1:2|1:2,0:0:0:0:
262,154,236076,1,8,1:2:0:0:
262,154,236159,1,0,1:2:0:0:
262,154,236243,2,0,P|294:164|321:165,3,42.5,0|0|0|0,1:2|1:2|1:2|1:2,0:0:0:0:
316,73,236576,2,0,L|456:62,1,127.5,14|0,1:2|0:0,0:0:0:0:
480,59,236909,5,14,1:2:0:0:
480,59,236993,1,0,1:2:0:0:
480,59,237076,2,0,L|489:120,3,42.5,0|0|0|0,1:2|1:2|1:2|1:2,0:0:0:0:
421,188,237409,1,10,1:2:0:0:
421,188,237493,1,0,1:2:0:0:
421,188,237576,2,0,L|430:249,3,42.5,0|0|0|0,1:2|1:2|1:2|1:2,0:0:0:0:
493,297,237909,1,10,1:2:0:0:
493,297,237993,1,0,1:2:0:0:
493,297,238076,2,0,L|502:358,1,42.5,0|0,1:2|1:2,0:0:0:0:
358,272,238243,5,8,1:2:0:0:
358,272,238326,1,0,1:2:0:0:
358,272,238409,2,0,P|338:266|290:276,3,42.5,2|0|0|0,1:2|1:2|1:2|1:2,0:0:0:0:
229,329,238743,1,8,1:2:0:0:
229,329,238826,1,0,1:2:0:0:
229,329,238909,2,0,P|209:335|161:325,3,42.5,2|0|0|0,1:2|1:2|1:2|1:2,0:0:0:0:
114,384,239243,2,0,B|148:318|120:249,1,127.5,14|0,1:2|0:0,0:0:0:0:
86,230,239576,5,14,1:2:0:0:
86,230,239659,1,0,1:2:0:0:
86,230,239743,2,0,L|38:233,3,42.5,0|0|0|0,1:2|1:2|1:2|1:2,0:0:0:0:
166,154,240076,1,10,1:2:0:0:
166,154,240159,1,0,1:2:0:0:
166,154,240243,2,0,L|214:151,3,42.5,0|0|0|0,1:2|1:2|1:2|1:2,0:0:0:0:
100,68,240576,1,10,1:2:0:0:
100,68,240659,1,0,1:2:0:0:
100,68,240742,2,0,L|52:71,1,42.5,0|0,1:2|1:2,0:0:0:0:
190,9,240909,5,8,1:2:0:0:
190,9,240993,1,0,1:2:0:0:
190,9,241076,2,0,P|199:31|201:69,3,42.5,2|0|0|0,1:2|1:2|1:2|1:2,0:0:0:0:
294,131,241409,1,8,1:2:0:0:
294,131,241493,1,0,1:2:0:0:
294,131,241576,2,0,P|303:109|305:71,3,42.5,2|0|0|0,1:2|1:2|1:2|1:2,0:0:0:0:
375,0,241909,2,0,P|396:23|410:121,1,127.5,14|0,1:2|0:0,0:0:0:0:
411,114,242243,5,14,1:2:0:0:
411,114,242326,1,0,1:2:0:0:
411,114,242409,2,0,L|402:177,3,42.5,0|0|0|0,1:2|1:2|1:2|1:2,0:0:0:0:
331,276,242743,1,10,1:2:0:0:
331,276,242826,1,0,1:2:0:0:
331,276,242909,2,0,L|321:213,3,42.5,0|0|0|0,1:2|1:2|1:2|1:2,0:0:0:0:
243,138,243243,1,10,1:2:0:0:
243,138,243326,1,0,1:2:0:0:
243,138,243409,2,0,L|236:191,1,42.5,0|0,1:2|1:2,0:0:0:0:
145,290,243576,6,0,P|86:308|45:300,1,85,2|0,1:2|1:2,0:0:0:0:
0,203,243826,2,0,P|59:185|100:193,1,85,2|0,1:2|1:2,0:0:0:0:
160,143,244076,2,0,L|171:205,1,42.5,2|0,1:2|0:0,0:0:0:0:
200,366,244243,1,10,1:2:0:0:
502,147,244909,6,0,B|409:95|311:165,1,187.000005706787,6|2,1:2|1:2,0:0:0:0:
382,320,245409,2,0,P|389:273|395:227,1,93.5000028533936,10|0,0:0|1:2,0:0:0:0:
253,95,245742,2,0,P|246:142|239:188,1,93.5000028533936,10|0,0:0|1:2,0:0:0:0:
83,356,246076,6,0,B|11:255|105:166,1,187.000005706787,10|10,0:2|0:0,0:0:0:0:
162,129,246576,1,0,1:2:0:0:
33,83,246742,1,10,0:0:0:0:
155,283,246909,1,0,1:2:0:0:
155,283,246992,1,0,1:2:0:0:
155,283,247076,1,10,1:2:0:0:
155,283,247159,1,0,1:2:0:0:
155,283,247242,2,0,L|211:278,1,46.7500014266968,2|0,1:2|1:2,0:0:0:0:
292,339,247409,2,0,L|338:334,1,46.7500014266968,10|0,1:2|1:2,0:0:0:0:
441,384,247576,6,0,P|440:347|426:167,1,187.000005706787,6|2,1:2|1:2,0:0:0:0:
472,54,248076,2,0,L|360:71,1,93.5000028533936,10|0,0:2|1:0,0:0:0:0:
239,172,248409,2,0,L|353:164,1,93.5000028533936,10|0,0:2|1:0,0:0:0:0:
153,255,248742,6,0,B|82:167|157:72,1,187.000005706787,10|10,0:0|0:0,0:0:0:0:
241,25,249242,1,2,1:2:0:0:
236,129,249409,1,10,0:2:0:0:
233,233,249576,1,0,1:0:0:0:
231,352,249742,1,8,0:3:0:0:
231,352,249825,1,8,0:3:0:0:
231,352,249909,1,10,0:3:0:0:
231,352,249992,1,4,0:3:0:0:
231,352,250075,1,6,0:3:0:0:
135,335,250242,6,0,B|325:302,1,187.000005706787,6|0,1:2|1:0,0:0:0:0:
456,375,250742,1,10,0:0:0:0:
512,307,250909,2,0,P|513:260|501:208,1,93.5000028533936,2|8,1:2|0:0,0:0:0:0:
427,145,251242,1,0,1:0:0:0:
336,204,251409,1,10,0:0:0:0:
232,85,251576,5,2,1:2:0:0:
114,250,251742,1,8,0:0:0:0:
114,250,251826,1,2,0:0:0:0:
275,345,251993,1,0,0:0:0:0:
275,345,252076,1,10,0:0:0:0:
423,199,252242,1,2,1:2:0:0:
423,199,252325,1,0,1:2:0:0:
423,199,252408,1,0,1:2:0:0:
423,199,252493,1,0,1:2:0:0:
423,199,252576,2,0,P|417:168|414:140,2,46.7500014266968,8|8|10,0:2|0:0|0:2,0:0:0:0:
470,55,252909,5,6,1:2:0:0:
329,141,253076,1,8,0:0:0:0:
221,44,253242,1,10,0:0:0:0:
327,23,253409,5,2,1:2:0:0:
246,209,253576,1,8,0:0:0:0:
121,128,253742,1,2,1:2:0:0:
281,232,253909,5,2,1:2:0:0:
154,368,254076,2,0,B|98:276|177:176,1,187.000005706787,6|0,1:2|1:2,0:0:0:0:
164,192,254492,1,0,1:0:0:0:
164,192,254576,1,8,0:0:0:0:
301,98,254742,2,0,L|254:92,1,46.7500014266968,0|0,1:2|1:0,0:0:0:0:
166,33,254909,1,0,1:2:0:0:
155,31,254992,1,8,0:0:0:0:
143,30,255075,1,10,0:0:0:0:
132,28,255158,1,8,0:0:0:0:
111,2,255243,1,10,0:0:0:0:
89,40,255326,1,8,0:0:0:0:
82,86,255409,1,10,0:0:0:0:
94,135,255493,1,8,0:0:0:0:
118,175,255576,6,0,B|327:196,1,187.000005706787,6|2,1:2|1:2,0:0:0:0:
150,290,256076,2,0,P|216:300|257:305,1,93.5000028533936,10|0,0:2|1:2,0:0:0:0:
285,91,256409,2,0,P|332:97|378:104,1,93.5000028533936,10|0,0:2|1:2,0:0:0:0:
466,46,256742,1,10,0:0:0:0:
512,198,256909,5,0,0:0:0:0:
353,262,257076,1,10,0:0:0:0:
353,262,257242,1,2,1:2:0:0:
496,381,257409,1,10,0:0:0:0:
452,291,257576,5,0,1:2:0:0:
301,370,257742,1,10,1:2:0:0:
278,372,257825,1,0,1:2:0:0:
255,375,257908,1,2,1:2:0:0:
232,378,257993,1,0,1:2:0:0:
209,381,258075,1,10,1:2:0:0:
86,286,258242,6,0,B|169:207|264:257,1,187.000005706787,6|2,1:2|1:2,0:0:0:0:
8,354,258742,2,0,P|1:280|-2:248,1,93.5000028533936,10|0,0:0|1:0,0:0:0:0:
152,165,259076,2,0,P|145:91|142:59,1,93.5000028533936,10|0,0:0|1:0,0:0:0:0:
65,0,259409,5,10,0:2:0:0:
4,127,259576,1,0,0:0:0:0:
104,243,259742,1,10,0:0:0:0:
152,165,259909,5,2,1:2:0:0:
17,255,260076,1,10,0:2:0:0:
162,315,260242,1,0,1:0:0:0:
91,384,260409,1,10,0:0:0:0:
91,384,260492,1,8,0:0:0:0:
91,384,260575,1,10,0:0:0:0:
91,384,260658,1,8,0:0:0:0:
91,384,260742,1,10,0:0:0:0:
246,269,260909,6,0,B|273:205|254:113,1,140.25000428009,6|2,1:2|0:2,0:0:0:0:
257,131,261242,2,0,L|162:116,1,93.5000028533936,0|10,0:0|0:2,0:0:0:0:
295,37,261576,1,0,1:0:0:0:
385,176,261742,2,0,P|402:115|406:77,1,93.5000028533936,10|2,0:0|1:2,0:0:0:0:
498,227,262076,1,10,0:0:0:0:
385,176,262242,5,6,1:2:0:0:
289,340,262409,1,8,0:0:0:0:
289,340,262492,1,0,0:0:0:0:
148,235,262659,1,0,0:0:0:0:
148,235,262742,1,8,0:0:0:0:
222,173,262909,5,10,0:2:0:0:
191,323,263076,1,0,1:0:0:0:
142,337,263159,1,0,1:0:0:0:
97,320,263242,1,8,0:0:0:0:
74,185,263409,5,0,1:0:0:0:
74,185,263492,1,0,1:0:0:0:
74,185,263576,1,6,1:2:0:0:
169,221,263742,1,8,0:0:0:0:
270,257,263909,1,8,0:0:0:0:
367,288,264076,1,2,1:2:0:0:
151,120,264242,5,10,0:0:0:0:
260,167,264409,1,2,1:2:0:0:
370,203,264576,1,2,1:2:0:0:
176,384,264742,6,0,B|120:281|201:183,1,187.000005706787,6|2,1:2|1:2,0:0:0:0:
183,207,265159,1,0,1:0:0:0:
183,207,265242,1,10,0:0:0:0:
347,67,265409,2,0,L|341:128,1,46.7500014266968,0|0,1:0|1:0,0:0:0:0:
331,203,265576,1,10,0:2:0:0:
358,217,265659,1,8,0:2:0:0:
388,226,265742,1,10,0:2:0:0:
419,228,265825,1,8,0:2:0:0:
450,224,265909,1,10,0:2:0:0:
479,213,265992,1,8,0:2:0:0:
505,197,266075,1,10,0:2:0:0:
505,197,266243,5,6,1:2:0:0:
492,95,266409,1,8,0:2:0:0:
353,26,266576,1,2,1:2:0:0:
353,26,266659,1,0,1:0:0:0:
353,26,266743,1,10,0:0:0:0:
343,132,266909,2,0,B|247:177|173:100,1,170,0|2,1:2|1:2,0:0:0:0:
132,30,267409,1,10,0:0:0:0:
9,152,267576,6,0,P|0:207|-5:257,1,85,2|8,1:2|0:0,0:0:0:0:
61,322,267909,1,2,1:2:0:0:
165,236,268076,1,10,0:0:0:0:
258,352,268243,2,0,L|396:369,1,127.5,2|0,1:2|0:0,0:0:0:0:
384,367,268576,2,0,P|395:318|385:268,1,85,2|8,1:2|0:0,0:0:0:0:
282,204,268909,5,2,1:2:0:0:
174,273,269076,1,8,0:0:0:0:
73,189,269243,1,2,1:2:0:0:
73,189,269326,1,0,1:0:0:0:
73,189,269409,1,10,0:0:0:0:
57,88,269576,2,0,B|147:37|231:94,1,170,2|2,1:2|1:2,0:0:0:0:
282,204,270076,1,10,0:0:0:0:
376,149,270243,2,0,L|388:54,1,85,2|10,1:2|0:2,0:0:0:0:
496,273,270576,2,0,L|508:178,1,85,2|10,1:2|0:0,0:0:0:0:
273,287,270909,1,10,0:0:0:0:
300,270,270992,1,8,0:0:0:0:
330,261,271075,1,10,0:0:0:0:
362,261,271158,1,8,0:0:0:0:
392,271,271243,2,0,L|391:320,2,42.5,10|8|6,0:3|0:3|0:3,0:0:0:0:
279,371,271576,5,6,1:2:0:0:
176,346,271743,1,8,0:0:0:0:
82,326,271909,1,2,1:2:0:0:
82,326,271993,1,0,1:0:0:0:
82,326,272076,1,10,0:0:0:0:
243,253,272243,2,0,B|295:180|259:73,1,170,2|2,1:2|1:2,0:0:0:0:
164,205,272743,1,10,0:0:0:0:
83,184,272909,6,0,L|-5:167,1,85,2|8,1:2|0:0,0:0:0:0:
66,33,273243,1,2,1:2:0:0:
182,67,273409,1,10,0:0:0:0:
302,92,273576,2,0,P|319:42|321:-8,1,85,2|8,1:2|0:0,0:0:0:0:
199,264,273909,2,0,P|182:314|180:364,1,85,2|8,1:2|0:0,0:0:0:0:
301,195,274243,5,2,1:2:0:0:
378,263,274409,1,8,0:0:0:0:
456,198,274576,1,2,1:2:0:0:
456,198,274659,1,0,1:0:0:0:
456,198,274743,1,10,0:0:0:0:
382,123,274909,2,0,B|291:97|195:152,1,170,2|2,1:2|1:2,0:0:0:0:
107,284,275409,1,10,0:0:0:0:
29,216,275576,6,0,L|12:129,1,85,2|10,1:2|0:2,0:0:0:0:
210,325,275909,2,0,L|193:238,1,85,2|10,1:2|0:0,0:0:0:0:
141,49,276243,1,10,0:0:0:0:
141,49,276326,1,8,0:0:0:0:
141,49,276409,1,10,0:0:0:0:
141,49,276493,1,8,0:0:0:0:
141,49,276576,2,0,L|125:2,3,42.5,10|8|6|4,0:3|0:3|0:3|0:3,0:0:0:0:
167,141,276909,5,6,1:2:0:0:
167,141,277242,1,0,1:0:0:0:
198,135,277326,1,0,1:0:0:0:
229,128,277409,1,0,1:0:0:0:
261,122,277492,1,0,1:0:0:0:
292,115,277576,1,8,0:0:0:0:
437,235,277909,1,0,1:2:0:0:
109,314,278409,1,0,1:2:0:0:
262,375,278742,5,0,1:2:0:0:
256,326,278826,1,0,1:2:0:0:
250,278,278909,1,8,0:2:0:0:
239,180,279159,1,0,1:0:0:0:
227,85,279410,1,0,1:0:0:0:
216,5,279576,5,6,1:2:0:0:
216,5,279909,1,0,1:0:0:0:
184,2,279992,1,0,1:0:0:0:
152,6,280075,1,0,1:0:0:0:
122,17,280158,1,0,1:0:0:0:
94,32,280242,1,8,0:0:0:0:
76,123,280576,1,0,1:2:0:0:
58,218,281076,1,0,1:2:0:0:
44,311,281409,5,0,1:2:0:0:
92,339,281492,1,0,1:2:0:0:
143,339,281576,1,8,0:2:0:0:
230,268,281743,1,0,1:2:0:0:
238,228,281826,1,0,1:2:0:0:
256,132,282076,1,0,1:2:0:0:
274,26,282243,5,6,1:2:0:0:
274,26,282576,1,0,1:0:0:0:
316,33,282659,1,0,1:0:0:0:
358,41,282742,1,0,1:0:0:0:
400,48,282825,1,0,1:0:0:0:
442,55,282909,1,8,0:0:0:0:
479,148,283242,1,0,1:2:0:0:
401,220,283742,1,0,1:2:0:0:
473,300,284076,5,0,1:2:0:0:
467,342,284159,1,0,1:2:0:0:
461,384,284242,1,8,0:2:0:0:
319,372,284492,1,0,1:2:0:0:
186,360,284743,1,0,1:2:0:0:
52,343,284910,5,6,1:2:0:0:
52,343,285243,1,0,1:0:0:0:
35,303,285326,1,0,1:0:0:0:
28,262,285409,1,0,1:0:0:0:
32,219,285492,1,0,1:0:0:0:
45,179,285576,1,8,0:0:0:0:
138,80,285909,1,0,1:2:0:0:
211,287,286409,1,0,1:2:0:0:
330,95,286743,5,0,1:2:0:0:
337,53,286826,1,0,1:2:0:0:
334,11,286910,1,2,1:2:0:0:
387,242,287076,1,2,1:2:0:0:
394,283,287159,1,0,1:0:0:0:
502,184,287409,1,10,0:0:0:0:
502,184,287492,1,8,0:0:0:0:
