osu file format v14

[General]
AudioFilename: audio.mp3
AudioLeadIn: 0
PreviewTime: 467
Countdown: 0
SampleSet: Soft
StackLeniency: 0.7
Mode: 0
LetterboxInBreaks: 0
WidescreenStoryboard: 0

[Editor]
DistanceSpacing: 0.5
BeatDivisor: 4
GridSize: 32
TimelineZoom: 2.3

[Metadata]
Title:Dependency
TitleUnicode:Depéndəncy
Artist:Kitamura Eri
ArtistUnicode:喜多村英梨
Creator:Mordred
Version:Normal
Source:
Tags:illusion dream dystopia record wood village japanese lasse rock air lmt
BeatmapID:2226497
BeatmapSetID:1053406

[Difficulty]
HPDrainRate:4
CircleSize:3
OverallDifficulty:4
ApproachRate:6
SliderMultiplier:1.1
SliderTickRate:1

[Events]
//Background and Video events
0,0,"290049.jpg",0,0
//Break Periods
2,73707,80566
2,167762,172998
//Storyboard Layer 0 (Background)
//Storyboard Layer 1 (Fail)
//Storyboard Layer 2 (Pass)
//Storyboard Layer 3 (Foreground)
//Storyboard Layer 4 (Overlay)
//Storyboard Sound Samples

[TimingPoints]
535,270.27027027027,3,2,1,50,1,0
535,-100,3,2,1,50,0,0
7021,-100,3,2,1,70,0,0
7224,-100,3,2,1,5,0,0
7291,-100,3,2,1,70,0,0
12426,-100,3,2,1,70,0,0
12697,-100,3,2,1,70,0,0
13778,-100,3,2,1,70,0,0
14048,-100,3,2,1,70,0,0
14318,-100,3,2,1,75,0,0
14589,-100,3,2,1,80,0,0
14859,-100,3,2,1,85,0,0
16480,-100,3,2,1,50,0,0
16751,-100,3,2,1,50,0,0
16953,-100,3,2,1,5,0,0
17021,-100,3,2,1,50,0,0
17224,-100,3,2,1,5,0,0
17292,-100,3,2,1,50,0,0
17764,-100,3,2,1,5,0,0
17832,-100,3,2,1,50,0,0
18034,-100,3,2,1,5,0,0
18102,-100,3,2,1,50,0,0
18305,-100,3,2,1,5,0,0
18373,-100,3,2,1,50,0,0
18575,-100,3,2,1,5,0,0
18643,-100,3,2,1,50,0,0
18845,-100,3,2,1,5,0,0
18913,-100,3,2,1,50,0,0
19656,-100,3,2,1,5,0,0
19724,-100,3,2,1,50,0,0
20197,-100,3,2,1,5,0,0
20265,-100,3,2,1,50,0,0
20467,-100,3,2,1,5,0,0
20535,-100,3,2,1,50,0,0
21007,-100,3,2,1,5,0,0
21075,-100,3,2,1,50,0,0
21278,-100,3,2,1,5,0,0
21346,-100,3,2,1,50,0,0
21818,-100,3,2,1,5,0,0
21886,-100,3,2,1,50,0,0
22089,-100,3,2,1,5,0,0
22157,-100,3,2,1,50,0,0
23440,-100,3,2,1,5,0,0
23508,-100,3,2,1,50,0,0
23710,-100,3,2,1,5,0,0
23778,-100,3,2,1,50,0,0
24251,-100,3,2,1,5,0,0
24319,-100,3,2,1,50,0,0
24521,-100,3,2,1,5,0,0
24589,-100,3,2,1,50,0,0
24791,-100,3,2,1,5,0,0
24859,-100,3,2,1,50,0,0
25062,-100,3,2,1,5,0,0
25130,-100,3,2,1,50,0,0
25332,-100,3,2,1,5,0,0
25400,-100,3,2,1,50,0,0
26143,-100,3,2,1,5,0,0
26211,-100,3,2,1,50,0,0
26683,-100,3,2,1,5,0,0
26751,-100,3,2,1,50,0,0
26953,-100,3,2,1,5,0,0
27021,-100,3,2,1,50,0,0
28305,-100,3,2,1,5,0,0
28373,-100,3,2,1,50,0,0
28575,-100,3,2,1,5,0,0
28643,-100,3,2,1,50,0,0
28845,-100,3,2,1,5,0,0
28913,-100,3,2,1,50,0,0
29724,-100,3,2,1,60,0,0
36210,-111.111111111111,3,2,1,50,0,0
39656,-100,3,2,1,5,0,0
39724,-111.111111111111,3,2,1,50,0,0
41075,-100,3,2,1,70,0,0
44318,-100,3,2,1,70,0,1
48372,-100,3,2,1,70,0,1
49183,-100,3,2,1,70,0,1
50805,-100,3,2,1,70,0,1
54859,-100,3,2,1,70,0,1
55670,-100,3,2,1,70,0,1
57291,-100,3,2,1,70,0,1
61345,-100,3,2,1,70,0,1
62156,-100,3,2,1,70,0,1
63778,-100,3,2,1,70,0,1
70264,-100,3,2,1,70,0,1
73507,-100,3,2,1,50,0,0
76683,-100,3,2,1,5,0,0
76751,-100,3,2,1,50,0,0
79116,-100,3,2,1,5,0,0
79183,-100,3,2,1,50,0,0
81616,-111.111111111111,3,2,1,50,0,0
88034,-100,3,2,1,5,0,0
88102,-100,3,2,1,50,0,0
94589,-100,3,2,1,60,0,0
101075,-111.111111111111,3,2,1,50,0,0
104521,-111.111111111111,3,2,1,5,0,0
104589,-111.111111111111,3,2,1,50,0,0
105940,-100,3,2,1,70,0,0
109183,-100,3,2,1,70,0,1
113237,-100,3,2,1,70,0,1
114048,-100,3,2,1,70,0,1
115670,-100,3,2,1,70,0,1
119724,-100,3,2,1,70,0,1
120534,-100,3,2,1,70,0,1
122156,-100,3,2,1,70,0,1
126210,-100,3,2,1,70,0,1
127021,-100,3,2,1,70,0,1
128643,-100,3,2,1,70,0,1
135129,-100,3,2,1,70,0,1
138372,-100,3,2,1,60,0,0
152967,-100,3,2,1,60,0,0
159453,-111.111111111111,3,2,1,50,0,0
162899,-111.111111111111,3,2,1,5,0,0
162967,-111.111111111111,3,2,1,50,0,0
164318,-100,3,2,1,70,0,0
174048,-100,3,2,1,70,0,1
178102,-100,3,2,1,70,0,1
178913,-100,3,2,1,70,0,1
180534,-100,3,2,1,70,0,1
184589,-100,3,2,1,70,0,1
185399,-100,3,2,1,70,0,1
187021,-100,3,2,1,70,0,1
193507,-100,3,2,1,70,0,1
196751,-111.111111111111,3,2,1,50,0,0
202426,-100,3,2,1,50,0,0
203237,-100,3,2,1,70,0,0
203440,-100,3,2,1,5,0,0
203507,-100,3,2,1,70,0,0
208643,-100,3,2,1,70,0,0
209318,-100,3,2,1,70,0,0
209994,-100,3,2,1,70,0,0
210264,-100,3,2,1,70,0,0
210534,-100,3,2,1,75,0,0
210805,-100,3,2,1,80,0,0
211075,-100,3,2,1,85,0,0
212967,-100,3,2,1,40,0,0
216751,-100,3,2,99,5,0,0

[Colours]
Combo1 : 250,180,240
Combo2 : 110,190,225
Combo3 : 255,230,130
Combo4 : 150,230,140

[HitObjects]
64,352,6751,5,10,0:2:0:0:
22,250,7021,2,0,P|14:198|39:128,1,110,6|2,1:2|0:2,0:0:0:0:
74,112,7426,1,10,0:2:0:0:
74,112,7562,1,2,1:2:0:0:
156,184,7832,1,10,0:2:0:0:
258,143,8102,1,2,1:2:0:0:
299,245,8372,1,10,0:2:0:0:
197,286,8643,6,0,L|83:272,2,110,2|0|0,1:2|0:2|1:2,0:0:0:0:
261,374,9453,1,10,0:2:0:0:
358,322,9724,1,2,0:2:0:0:
455,373,9994,1,10,0:2:0:0:
510,278,10264,2,0,L|481:104,1,165,6|2,1:2|1:2,0:0:0:0:
501,63,10805,2,0,L|434:54,1,55,10|2,0:2|0:2,0:0:0:0:
396,79,11075,6,0,P|385:133|372:186,2,110,10|0|8,0:2|1:2|0:2,0:0:0:0:
300,23,11886,1,10,0:2:0:0:
300,23,12021,1,2,0:2:0:0:
300,23,12156,1,2,1:2:0:0:
256,238,12697,1,10,0:2:0:0:
256,238,12832,1,2,0:2:0:0:
256,238,12967,1,2,1:2:0:0:
67,367,13507,5,14,0:2:0:0:
3,275,13778,1,14,0:2:0:0:
89,207,14048,1,14,0:2:0:0:
19,122,14318,1,14,0:2:0:0:
71,24,14589,2,0,L|143:14,1,55,14|8,0:2|0:2,0:0:0:0:
168,50,14859,2,0,L|235:40,1,55,14|8,0:2|0:2,0:0:0:0:
267,10,15129,1,14,0:2:0:0:
479,323,16480,1,8,0:3:0:0:
479,323,16751,6,0,P|427:341|373:352,2,110,2|2|2,1:2|1:2|1:2,0:0:0:0:
510,217,17562,1,2,1:2:0:0:
434,138,17832,1,2,1:2:0:0:
328,165,18102,1,2,1:2:0:0:
298,270,18372,1,2,1:2:0:0:
193,297,18643,1,2,1:2:0:0:
118,220,18913,1,2,1:2:0:0:
148,117,19183,2,0,P|138:68|117:7,1,110,2|0,1:2|1:2,0:0:0:0:
11,36,19724,2,0,L|-1:109,1,55,10|2,0:2|0:2,0:0:0:0:
19,142,19994,6,0,L|1:250,2,110,2|2|2,1:2|1:2|1:2,0:0:0:0:
118,94,20805,1,2,1:2:0:0:
196,171,21075,1,2,1:2:0:0:
148,270,21345,1,2,1:2:0:0:
200,367,21616,2,0,L|320:380,2,110,2|2|2,1:2|1:2|1:2,0:0:0:0:
91,381,22426,1,2,1:2:0:0:
56,276,22697,1,10,0:2:0:0:
21,171,22967,1,10,0:2:0:0:
121,128,23237,6,0,P|138:75|142:20,2,110,2|2|2,1:2|1:2|1:2,0:0:0:0:
161,231,24048,1,2,1:2:0:0:
271,248,24318,1,2,1:2:0:0:
341,162,24589,1,2,1:2:0:0:
451,179,24859,1,2,1:2:0:0:
491,282,25129,1,2,1:2:0:0:
421,368,25399,1,2,1:2:0:0:
311,351,25670,2,0,L|293:222,1,110,2|2,1:2|1:2,0:0:0:0:
374,165,26210,2,0,L|382:100,1,55,10|2,0:2|0:2,0:0:0:0:
409,63,26480,6,0,P|354:69|299:71,1,110,2|2,1:2|1:2,0:0:0:0:
201,20,27021,1,2,1:2:0:0:
177,127,27291,2,0,P|175:181|168:236,2,110,2|0|0,1:2|1:2|1:2,0:0:0:0:
91,57,28102,1,2,1:2:0:0:
2,122,28372,1,2,1:2:0:0:
35,226,28643,1,2,1:2:0:0:
4,331,28913,2,0,L|120:344,1,110,2|8,1:2|0:2,0:0:0:0:
208,287,29453,1,8,0:2:0:0:
208,287,29589,1,8,0:2:0:0:
207,286,29724,6,0,P|264:342|342:328,1,165,6|2,1:2|1:2,0:0:0:0:
375,284,30264,1,10,0:2:0:0:
481,312,30534,2,0,L|509:149,1,165,2|2,1:2|0:2,0:0:0:0:
493,96,31075,1,2,1:2:0:0:
417,16,31345,2,0,P|356:30|250:45,1,165,0|0,1:2|1:2,0:0:0:0:
202,25,31886,1,8,0:2:0:0:
178,132,32156,1,2,1:2:0:0:
275,183,32426,1,10,0:2:0:0:
372,234,32697,1,10,0:2:0:0:
348,341,32967,6,0,B|293:373|293:373|192:347,1,165,6|2,1:2|1:2,0:0:0:0:
144,368,33507,1,10,0:2:0:0:
35,347,33778,2,0,P|19:265|0:185,1,165,2|2,1:2|0:2,0:0:0:0:
15,132,34318,1,2,1:2:0:0:
114,180,34589,2,0,P|167:167|221:156,1,110,2|0,1:2|1:2,0:0:0:0:
273,172,34994,2,0,L|254:248,2,55,0|8|8,1:2|0:2|0:2,0:0:0:0:
324,151,35399,1,8,0:2:0:0:
430,179,35670,1,8,0:3:0:0:
474,279,35940,1,4,0:3:0:0:
407,366,36210,6,0,P|328:324|229:361,1,197.99999395752,6|2,1:2|1:2,0:0:0:0:
134,381,37021,1,2,1:2:0:0:
37,357,37291,1,2,0:2:0:0:
1,264,37562,1,10,0:2:0:0:
51,179,37832,2,0,P|140:214|226:171,1,197.99999395752,2|2,1:2|1:2,0:0:0:0:
204,75,38643,2,0,L|103:61,2,98.9999969787599,2|2|10,1:2|1:2|0:2,0:0:0:0:
285,19,39453,5,2,1:2:0:0:
356,88,39724,1,2,0:2:0:0:
437,31,39994,1,2,1:2:0:0:
501,105,40264,2,0,L|492:215,1,98.9999969787599,2|2,1:2|0:2,0:0:0:0:
512,311,40805,1,10,0:2:0:0:
512,311,40940,1,0,1:2:0:0:
512,311,41075,5,14,1:2:0:0:
404,332,41345,1,6,1:2:0:0:
295,354,41616,1,6,1:2:0:0:
186,376,41886,5,14,1:2:0:0:
221,271,42156,1,6,1:2:0:0:
257,166,42427,1,6,1:2:0:0:
292,60,42696,5,14,1:2:0:0:
365,143,42966,1,6,1:2:0:0:
438,227,43237,2,0,L|447:295,1,55,6|8,1:2|0:2,0:0:0:0:
429,334,43507,1,14,1:2:0:0:
345,377,43778,2,0,L|285:369,1,55,10|8,0:2|0:2,0:0:0:0:
235,376,44048,2,0,L|175:368,1,55,10|8,0:2|0:2,0:0:0:0:
149,323,44318,6,0,L|183:205,2,110,6|8|0,1:2|0:2|1:2,0:0:0:0:
41,348,45129,2,0,L|10:242,1,110,2|8,1:2|0:2,0:0:0:0:
21,132,45670,1,10,0:2:0:0:
78,38,45940,2,0,P|134:57|189:52,1,110,2|10,1:2|0:2,0:0:0:0:
285,10,46480,2,0,L|343:4,1,55,2|8,1:2|0:2,0:0:0:0:
379,42,46751,2,0,P|367:95|358:150,2,110,2|8|8,1:2|0:2|0:2,0:0:0:0:
481,1,47562,5,6,1:2:0:0:
491,110,47832,1,2,0:2:0:0:
501,219,48102,1,2,0:2:0:0:
433,305,48372,2,0,L|526:368,2,110,6|10|10,1:2|0:2|0:2,0:0:0:0:
339,362,49183,1,6,1:2:0:0:
229,354,49453,1,2,0:2:0:0:
118,347,49724,1,2,0:2:0:0:
14,383,49994,2,0,L|0:155,1,220,10|2,0:3|1:2,0:0:0:0:
106,131,50805,6,0,P|157:148|212:157,2,110,6|8|0,1:2|0:2|1:2,0:0:0:0:
34,46,51616,2,0,P|85:28|140:19,1,110,2|8,1:2|0:2,0:0:0:0:
241,60,52156,1,10,0:2:0:0:
201,162,52426,2,0,P|209:216|228:268,1,110,2|10,1:2|0:2,0:0:0:0:
330,308,52967,2,0,L|396:311,1,55,2|8,1:2|0:2,0:0:0:0:
429,277,53237,2,0,L|458:384,2,110,2|8|8,1:2|0:2|0:2,0:0:0:0:
490,185,54048,6,0,P|434:155|432:59,1,165,6|8,1:2|0:2,0:0:0:0:
408,11,54589,2,0,L|353:3,1,55,2|8,1:2|0:2,0:0:0:0:
309,35,54859,2,0,L|143:59,1,165,6|0,1:2|1:2,0:0:0:0:
92,45,55399,1,10,0:2:0:0:
14,122,55670,1,6,1:2:0:0:
82,208,55940,1,2,0:2:0:0:
20,299,56210,1,10,1:3:0:0:
106,367,56480,2,0,L|329:356,1,220,10|0,0:3|1:2,0:0:0:0:
399,274,57291,6,0,L|448:376,2,110,6|8|0,1:2|0:2|1:2,0:0:0:0:
467,187,58102,2,0,L|499:80,1,110,2|8,1:2|0:2,0:0:0:0:
421,3,58643,1,10,0:2:0:0:
338,75,58913,2,0,P|294:91|207:84,1,110,2|10,1:2|0:2,0:0:0:0:
189,192,59453,2,0,L|178:253,1,55,2|8,1:2|0:2,0:0:0:0:
195,298,59724,2,0,L|305:284,2,110,2|8|8,1:2|0:2|0:2,0:0:0:0:
112,370,60534,5,6,1:2:0:0:
6,336,60805,1,2,0:2:0:0:
7,226,61075,1,2,0:2:0:0:
91,156,61345,2,0,P|79:103|78:38,2,110,6|10|10,1:2|0:2|0:2,0:0:0:0:
191,200,62156,1,6,1:2:0:0:
187,309,62426,1,2,0:2:0:0:
285,358,62697,1,2,0:2:0:0:
392,335,62967,2,0,L|430:116,1,220,10|2,0:3|1:2,0:0:0:0:
369,25,63778,6,0,L|478:12,2,110,6|8|0,1:2|0:2|1:2,0:0:0:0:
302,113,64589,2,0,L|192:100,1,110,2|8,1:2|0:2,0:0:0:0:
108,30,65129,1,10,0:2:0:0:
33,110,65399,2,0,P|16:166|10:217,1,110,2|10,1:2|0:2,0:3:0:0:
55,318,65940,2,0,L|122:310,1,55,2|8,1:2|0:2,0:0:0:0:
143,268,66210,2,0,L|131:388,2,110,2|8|8,1:2|0:2|0:2,0:0:0:0:
206,177,67021,6,0,B|255:186|255:186|285:317,1,165,6|8,1:2|0:2,0:0:0:0:
310,344,67562,1,2,1:2:0:0:
412,383,67832,2,0,B|461:374|461:374|491:243,1,165,6|8,1:2|0:2,0:0:0:0:
459,213,68372,1,2,1:2:0:0:
503,111,68643,2,0,L|334:78,1,165,6|10,1:2|0:2,0:0:0:0:
296,47,69183,1,2,1:2:0:0:
216,122,69453,1,10,0:2:0:0:
286,206,69724,1,10,0:3:0:0:
252,310,69994,1,6,0:3:0:0:
151,355,70264,6,0,L|41:344,2,110,14|6|6,1:2|1:2|1:2,0:0:0:0:
252,310,71075,2,0,L|361:299,2,110,14|6|6,1:2|1:2|1:2,0:0:0:0:
149,268,71886,5,14,1:2:0:0:
101,168,72156,1,6,1:2:0:0:
53,68,72426,1,6,1:2:0:0:
147,11,72697,5,14,1:2:0:0:
258,19,72967,1,6,1:2:0:0:
368,28,73237,1,6,1:2:0:0:
441,109,73507,5,6,1:2:0:0:
203,171,81616,6,0,L|187:59,2,98.9999969787599,6|2|2,1:2|0:2|0:2,0:0:0:0:
264,248,82426,2,0,L|175:318,2,98.9999969787599,10|2|2,0:2|0:2|1:2,0:0:0:0:
300,156,83237,2,0,L|405:198,2,98.9999969787599,2|2|2,1:2|0:2|1:2,0:0:0:0:
203,171,84048,1,10,0:2:0:0:
77,324,84589,2,0,L|65:266,1,49.4999984893799,2|2,1:2|0:2,0:0:0:0:
26,247,84859,5,2,1:2:0:0:
47,150,85129,1,2,0:2:0:0:
69,53,85399,1,2,0:2:0:0:
165,30,85670,2,0,P|221:24|278:31,1,98.9999969787599,10|2,0:2|0:2,0:0:0:0:
340,89,86210,1,2,1:2:0:0:
438,87,86480,2,0,L|503:1,2,98.9999969787599,2|2|2,1:2|0:2|1:2,0:0:0:0:
488,172,87291,2,0,P|464:220|408:359,1,197.99999395752,10|2,0:2|1:2,0:0:0:0:
302,375,88102,6,0,L|185:385,2,110,2|2|2,1:2|0:2|0:2,0:0:0:0:
351,276,88913,2,0,P|359:244|378:156,1,110,10|2,0:2|0:2,0:3:0:0:
448,86,89453,1,2,1:2:0:0:
356,24,89724,2,0,P|308:16|232:12,1,110,2|2,1:2|0:2,0:0:0:0:
153,70,90264,1,2,1:2:0:0:
47,40,90534,1,10,0:2:0:0:
18,258,91075,2,0,L|80:277,1,55,2|2,1:2|0:2,0:0:0:0:
121,252,91345,6,0,P|112:321|111:374,2,110,2|2|2,1:2|0:2|0:2,0:0:0:0:
194,169,92156,2,0,L|434:147,1,220,10|0,0:2|1:2,0:0:0:0:
502,212,92967,1,2,1:2:0:0:
469,317,93237,1,2,0:2:0:0:
359,319,93507,1,2,1:2:0:0:
323,215,93778,1,10,0:2:0:0:
27,361,94589,6,0,B|66:309|66:309|38:203,1,165,6|2,1:2|1:2,0:0:0:0:
66,164,95129,1,10,0:2:0:0:
31,59,95399,2,0,P|111:36|192:20,1,165,2|2,1:2|0:2,0:0:0:0:
245,36,95940,1,2,1:2:0:0:
219,142,96210,2,0,P|208:191|188:311,1,165,2|0,1:2|1:2,0:0:0:0:
211,354,96751,1,8,0:2:0:0:
319,374,97021,1,2,1:2:0:0:
347,267,97291,1,10,0:2:0:0:
376,160,97562,1,10,0:2:0:0:
482,131,97832,6,0,L|508:313,1,165,6|2,1:2|1:2,0:0:0:0:
485,345,98372,1,10,0:2:0:0:
384,299,98643,2,0,P|307:289|241:361,1,165,2|2,1:2|0:2,0:0:0:0:
199,374,99183,1,2,1:2:0:0:
93,344,99453,2,0,L|73:235,1,110,2|0,1:2|1:2,0:0:0:0:
41,190,99859,2,0,L|-18:174,2,55,0|8|8,1:2|0:2|0:2,0:0:0:0:
71,143,100264,1,8,0:2:0:0:
148,64,100534,1,8,0:3:0:0:
241,122,100805,1,4,0:3:0:0:
330,58,101075,6,0,P|388:39|516:110,1,197.99999395752,6|2,1:2|1:2,0:0:0:0:
509,193,101886,1,2,1:2:0:0:
480,287,102156,1,2,0:2:0:0:
408,355,102426,1,8,0:2:0:0:
308,357,102697,2,0,P|289:259|266:163,1,197.99999395752,2|2,1:2|1:2,0:0:0:0:
208,82,103507,2,0,P|255:65|298:40,2,98.9999969787599,2|2|10,1:2|1:2|0:2,0:0:0:0:
113,55,104318,5,2,1:2:0:0:
51,133,104589,1,2,0:2:0:0:
85,225,104859,1,2,1:2:0:0:
67,322,105129,2,0,L|182:348,1,98.9999969787599,2|2,1:2|0:2,0:0:0:0:
269,327,105670,1,10,0:2:0:0:
269,327,105805,1,2,1:2:0:0:
269,327,105940,5,14,1:2:0:0:
377,346,106210,1,6,1:2:0:0:
484,366,106480,1,6,1:2:0:0:
447,263,106751,5,14,1:2:0:0:
411,161,107021,1,6,1:2:0:0:
375,59,107291,1,6,1:2:0:0:
304,142,107562,5,14,1:2:0:0:
233,224,107832,1,6,1:2:0:0:
163,306,108102,2,0,L|95:315,1,55,6|8,1:2|0:2,0:0:0:0:
63,345,108372,1,14,0:2:0:0:
3,252,108643,2,0,L|10:189,1,55,8|8,0:2|0:2,0:0:0:0:
53,164,108913,2,0,L|60:101,1,55,8|8,0:2|0:2,0:0:0:0:
103,76,109183,6,0,L|6:10,2,110,6|8|0,1:2|0:2|1:2,0:0:0:0:
212,92,109994,2,0,L|325:73,1,110,2|8,1:2|0:2,0:0:0:0:
409,9,110534,1,10,0:2:0:0:
490,81,110805,2,0,P|505:135|504:189,1,110,2|10,1:2|0:2,0:0:0:0:
461,291,111345,2,0,L|402:307,1,55,2|8,1:2|0:2,0:0:0:0:
364,271,111616,2,0,L|354:389,2,110,2|8|8,1:2|0:2|0:2,0:0:0:0:
294,185,112426,5,6,1:2:0:0:
193,230,112697,1,2,0:2:0:0:
192,339,112967,1,2,0:2:0:0:
85,364,113237,2,0,L|-30:340,2,110,6|10|10,1:2|0:2|0:2,0:0:0:0:
192,339,114048,1,6,1:2:0:0:
298,364,114318,1,2,0:2:0:0:
399,319,114589,1,2,0:2:0:0:
499,364,114859,2,0,L|517:138,1,220,10|2,0:3|1:2,0:0:0:0:
426,80,115670,6,0,L|508:-10,2,110,6|8|0,1:2|0:2|1:2,0:0:0:0:
330,25,116480,2,0,L|213:7,1,110,2|8,1:2|0:2,0:0:0:0:
133,75,117021,1,10,0:2:0:0:
213,150,117291,2,0,P|234:200|221:260,1,110,2|10,1:2|0:2,0:0:0:0:
158,341,117832,2,0,L|92:327,1,55,2|8,1:2|0:2,0:0:0:0:
77,281,118102,2,0,L|32:399,2,110,2|8|8,1:2|0:2|0:2,0:0:0:0:
11,191,118913,6,0,B|-4:139|-4:139|33:34,1,165,6|8,1:2|0:2,0:0:0:0:
86,17,119453,2,0,L|166:12,1,55,2|8,1:2|0:2,0:0:0:0:
181,51,119724,2,0,L|345:61,1,165,6|0,1:2|1:2,0:0:0:0:
394,36,120264,1,10,0:2:0:0:
489,90,120534,1,6,1:2:0:0:
438,188,120805,1,2,0:2:0:0:
495,281,121075,1,10,1:3:0:0:
431,370,121345,2,0,L|211:358,1,220,10|0,0:3|1:2,0:0:0:0:
129,284,122156,6,0,L|79:392,2,110,6|8|0,1:2|0:2|1:2,0:0:0:0:
27,239,122967,2,0,L|5:119,1,110,2|8,1:2|0:2,0:0:0:0:
45,27,123507,1,10,0:2:0:0:
135,89,123778,2,0,P|179:100|254:79,1,110,2|10,1:2|0:2,0:0:0:0:
315,167,124318,2,0,L|302:235,1,55,2|8,1:2|0:2,0:0:0:0:
272,266,124589,2,0,L|158:287,2,110,2|8|8,1:2|0:2|0:2,0:0:0:0:
344,348,125399,5,6,1:2:0:0:
453,332,125670,1,2,0:2:0:0:
426,225,125940,1,2,0:2:0:0:
478,128,126210,2,0,L|505:22,2,110,6|10|10,1:2|0:2|0:2,0:0:0:0:
367,132,127021,1,6,1:2:0:0:
277,68,127291,1,2,0:2:0:0:
171,99,127562,1,2,0:2:0:0:
74,45,127832,2,0,L|35:280,1,220,10|2,0:3|1:2,0:0:0:0:
105,349,128643,6,0,L|-24:393,2,110,6|8|0,1:2|0:2|1:2,0:0:0:0:
209,381,129453,2,0,L|234:265,1,110,2|8,1:2|0:2,0:0:0:0:
161,188,129994,1,10,0:2:0:0:
194,83,130264,2,0,P|245:62|300:63,1,110,2|10,1:2|0:2,0:0:0:0:
397,115,130805,2,0,L|463:103,1,55,2|8,1:2|0:2,0:0:0:0:
487,146,131075,2,0,L|507:24,2,110,2|8|8,1:2|0:2|0:2,0:0:0:0:
506,254,131886,6,0,B|456:276|456:276|348:255,1,165,6|10,1:2|0:2,0:0:0:0:
312,212,132426,2,0,L|250:223,1,55,2|8,1:2|0:2,0:0:0:0:
214,256,132697,1,2,1:2:0:0:
163,353,132967,1,2,0:2:0:0:
55,335,133237,1,2,1:2:0:0:
39,227,133507,6,0,B|28:174|28:174|65:69,1,165,6|10,1:2|0:2,0:0:0:0:
114,43,134048,1,2,0:2:0:0:
208,99,134318,1,10,0:2:0:0:
161,199,134589,1,10,0:3:0:0:
236,278,134859,1,6,0:3:0:0:
329,219,135129,6,0,L|438:207,2,110,14|6|6,1:2|1:2|1:2,0:0:0:0:
236,278,135940,2,0,L|126:289,2,110,14|6|6,1:2|1:2|1:2,0:0:0:0:
293,371,136751,1,14,1:2:0:0:
375,298,137021,1,6,1:2:0:0:
458,369,137291,1,6,1:2:0:0:
510,272,137562,2,0,B|480:228|497:174|497:174|448:134|448:134|473:79|432:15,1,275,14|10,1:2|0:2,0:0:0:0:
389,8,138372,6,0,P|343:74|264:71,1,165,6|0,1:2|1:2,0:0:0:0:
227,30,138913,1,10,0:2:0:0:
120,2,139183,1,2,1:2:0:0:
27,61,139453,1,10,0:2:0:0:
89,152,139724,1,2,1:2:0:0:
21,238,139994,2,0,P|19:309|106:361,1,165,2|2,1:2|1:2,0:0:0:0:
141,342,140534,2,0,L|250:335,1,110,10|2,0:2|1:2,0:0:0:0:
321,250,141075,1,10,0:2:0:0:
238,177,141345,1,8,0:2:0:0:
255,68,141616,6,0,P|334:43|414:26,1,165,2|2,1:2|1:2,0:0:0:0:
466,43,142156,1,10,0:2:0:0:
506,144,142426,2,0,L|494:263,1,110,2|10,1:2|0:2,0:0:0:0:
510,362,142967,1,2,1:2:0:0:
403,333,143237,2,0,L|236:348,1,165,2|10,1:2|0:2,0:0:0:0:
185,363,143778,1,2,1:2:0:0:
185,363,143913,1,10,0:2:0:0:
185,363,144048,2,0,B|211:316|189:264|189:264|234:220|234:220|205:167|240:100,1,275,8|4,0:2|0:3,0:0:0:0:
275,79,144859,6,0,P|191:66|109:41,1,165,6|2,1:2|1:2,0:0:0:0:
61,59,145399,1,10,0:2:0:0:
1,152,145670,2,0,L|8:279,1,110,0|10,1:2|0:2,0:0:0:0:
116,267,146210,1,2,1:2:0:0:
154,370,146480,2,0,P|235:358|318:353,1,165,2|2,1:2|1:2,0:0:0:0:
369,372,147021,1,10,0:2:0:0:
470,328,147291,1,2,1:2:0:0:
399,243,147562,1,10,0:2:0:0:
460,151,147832,1,10,0:2:0:0:
410,52,148102,6,0,P|329:73|248:86,1,165,2|2,1:2|1:2,0:0:0:0:
221,134,148643,1,10,0:2:0:0:
302,207,148913,2,0,P|310:261|315:316,1,110,2|10,1:2|0:2,0:0:0:0:
227,381,149453,1,2,1:2:0:0:
116,374,149724,6,0,P|59:360|86:181,1,275,6|8,1:2|0:2,0:0:0:0:
120,210,150534,2,0,P|175:243|319:115,1,275,6|8,1:2|0:2,0:0:0:0:
281,93,151345,2,0,L|241:370,1,275,6|4,1:2|0:3,0:0:0:0:
296,374,152156,2,0,B|366:358|366:358|411:373|411:373|502:358|502:358|511:295,1,275,8|4,0:2|0:3,0:0:0:0:
490,244,152967,6,0,P|444:224|422:115,1,165,6|2,1:2|1:2,0:0:0:0:
462,86,153507,1,10,0:2:0:0:
389,2,153778,2,0,L|206:29,1,165,2|2,1:2|0:2,0:0:0:0:
200,74,154318,1,2,1:2:0:0:
261,165,154589,2,0,P|279:244|288:326,1,165,2|0,1:2|1:2,0:0:0:0:
263,376,155129,1,8,0:2:0:0:
165,324,155399,1,2,1:2:0:0:
68,376,155670,1,10,0:2:0:0:
16,279,155940,1,10,0:2:0:0:
113,227,156210,6,0,P|166:173|148:80,1,165,6|2,1:2|1:2,0:0:0:0:
111,55,156751,1,10,0:2:0:0:
210,9,157021,2,0,L|381:28,1,165,2|2,1:2|0:2,0:0:0:0:
424,4,157562,1,0,1:2:0:0:
500,82,157832,2,0,L|513:203,1,110,2|0,1:2|1:2,0:0:0:0:
469,226,158237,2,0,L|405:211,2,55,0|8|8,1:2|0:2|0:2,0:0:0:0:
491,276,158643,1,8,0:2:0:0:
417,357,158913,1,8,0:3:0:0:
308,376,159183,1,4,0:3:0:0:
198,365,159453,6,0,L|232:161,1,197.99999395752,6|2,1:2|1:2,0:0:0:0:
299,98,160264,1,2,1:2:0:0:
228,29,160534,1,2,0:2:0:0:
159,100,160805,1,10,0:2:0:0:
69,58,161075,2,0,L|36:253,1,197.99999395752,2|2,1:2|1:2,0:0:0:0:
96,332,161886,2,0,L|11:384,2,98.9999969787599,2|2|10,1:2|0:2|0:2,0:0:0:0:
187,370,162697,5,2,1:2:0:0:
262,306,162967,1,2,0:2:0:0:
206,224,163237,1,2,1:2:0:0:
251,136,163507,2,0,P|300:124|349:116,1,98.9999969787599,2|2,1:2|0:2,0:0:0:0:
456,122,164048,1,2,1:2:0:0:
456,122,164183,1,8,0:2:0:0:
456,122,164318,5,14,1:2:0:0:
474,230,164589,1,6,1:2:0:0:
492,338,164859,1,6,1:2:0:0:
389,298,165129,5,14,1:2:0:0:
371,190,165399,1,6,1:2:0:0:
353,82,165670,1,6,1:2:0:0:
248,48,165940,5,14,1:2:0:0:
266,156,166211,1,6,1:2:0:0:
284,264,166480,2,0,L|271:326,1,55,6|8,1:2|0:2,0:0:0:0:
240,363,166751,1,14,1:2:0:0:
130,373,167021,2,0,L|118:319,1,55,8|8,0:2|0:2,0:0:0:0:
73,288,167291,2,0,L|61:234,1,55,8|8,0:2|0:2,0:0:0:0:
18,199,167562,5,2,0:2:0:0:
106,253,174048,6,0,P|157:236|212:227,2,110,6|8|0,1:2|0:2|1:2,0:0:0:0:
34,338,174859,2,0,P|85:356|140:365,1,110,2|8,1:2|0:2,0:0:0:0:
241,324,175399,1,10,0:2:0:0:
201,222,175669,2,0,P|209:168|228:116,1,110,2|10,1:2|0:2,0:0:0:0:
330,76,176210,2,0,L|396:73,1,55,2|8,1:2|0:2,0:0:0:0:
429,107,176480,2,0,L|458:0,2,110,2|8|8,1:2|0:2|0:2,0:0:0:0:
490,199,177291,6,0,P|434:229|432:325,1,165,6|10,1:2|0:2,0:0:0:0:
408,373,177832,2,0,L|353:381,1,55,2|8,1:2|0:2,0:0:0:0:
309,349,178102,2,0,L|143:325,1,165,6|2,1:2|1:2,0:0:0:0:
92,339,178642,1,10,0:2:0:0:
14,262,178913,1,6,1:2:0:0:
82,176,179183,1,2,0:2:0:0:
20,85,179453,1,10,1:3:0:0:
106,17,179723,2,0,L|329:28,1,220,10|0,0:3|1:2,0:0:0:0:
399,110,180534,6,0,L|448:8,2,110,6|8|0,1:2|0:2|1:2,0:0:0:0:
467,197,181345,2,0,L|499:304,1,110,2|8,1:2|0:2,0:0:0:0:
421,381,181886,1,10,0:2:0:0:
338,309,182156,2,0,P|294:293|207:300,1,110,2|10,1:2|0:2,0:0:0:0:
189,192,182696,2,0,L|178:131,1,55,2|8,1:2|0:2,0:0:0:0:
195,86,182967,2,0,L|305:100,2,110,2|8|8,1:2|0:2|0:2,0:0:0:0:
107,18,183778,6,0,P|35:28|4:119,1,165,6|10,1:2|0:2,0:0:0:0:
14,159,184318,1,2,1:2:0:0:
94,234,184588,2,0,P|82:287|81:352,2,110,6|10|10,1:2|0:2|0:2,0:0:0:0:
191,184,185399,1,6,1:2:0:0:
187,75,185669,1,2,0:2:0:0:
285,26,185940,1,2,1:2:0:0:
392,49,186210,2,0,L|430:268,1,220,10|0,0:3|1:2,0:0:0:0:
369,359,187021,6,0,L|478:372,2,110,6|8|0,1:2|0:2|1:2,0:0:0:0:
302,271,187832,2,0,L|192:284,1,110,2|8,1:2|0:2,0:0:0:0:
108,354,188372,1,10,0:2:0:0:
33,274,188642,2,0,P|16:218|10:167,1,110,2|10,1:2|0:2,0:3:0:0:
55,66,189183,2,0,L|122:74,1,55,2|8,1:2|0:2,0:0:0:0:
143,116,189453,2,0,L|131:-4,2,110,2|8|8,1:2|0:2|0:2,0:0:0:0:
206,207,190264,6,0,P|263:170|285:67,1,165,6|10,1:2|0:2,0:0:0:0:
313,31,190805,1,2,1:2:0:0:
420,6,191075,2,0,P|472:69|499:146,1,165,6|8,1:2|0:2,0:0:0:0:
462,187,191615,1,2,1:2:0:0:
505,288,191886,2,0,P|436:296|336:321,1,165,6|10,1:2|0:2,0:0:0:0:
294,344,192426,1,0,1:2:0:0:
216,262,192696,1,6,1:2:0:0:
286,178,192967,1,10,0:3:0:0:
252,74,193237,1,6,0:3:0:0:
151,29,193507,6,0,L|41:40,2,110,14|6|6,1:2|1:2|1:2,0:0:0:0:
252,74,194318,2,0,L|361:85,2,110,14|6|6,1:2|1:2|1:2,0:0:0:0:
149,116,195129,5,14,1:2:0:0:
101,216,195399,1,6,1:2:0:0:
53,316,195669,1,6,1:2:0:0:
147,373,195940,5,14,1:2:0:0:
258,365,196210,1,14,1:2:0:0:
368,356,196480,1,10,0:2:0:0:
441,275,196751,6,0,L|469:79,1,197.99999395752,6|0,1:2|1:2,0:0:0:0:
392,14,197562,2,0,P|303:55|208:36,1,197.99999395752,10|0,0:2|1:2,0:0:0:0:
136,104,198372,2,0,P|178:193|201:289,1,197.99999395752,2|0,1:2|1:2,0:0:0:0:
124,351,199183,2,0,P|51:343|16:279,1,148.49999546814,10|8,0:2|0:2,0:0:0:0:
29,234,199724,1,0,1:2:0:0:
125,257,199994,6,0,L|328:234,1,197.99999395752,6|0,1:2|1:2,0:0:0:0:
412,274,200805,2,0,L|447:79,1,197.99999395752,10|0,0:2|1:2,0:0:0:0:
380,5,201616,2,0,L|183:27,1,197.99999395752,2|0,1:2|1:2,0:0:0:0:
74,10,202426,2,0,L|54:118,1,110,10|0,0:2|1:2,0:0:0:0:
11,153,202832,1,8,1:2:0:0:
11,153,202967,1,8,0:2:0:0:
19,262,203237,6,0,P|67:283|141:277,1,110,6|2,1:2|0:2,0:0:0:0:
164,245,203642,1,10,0:2:0:0:
164,245,203778,1,2,1:2:0:0:
239,325,204048,1,10,0:2:0:0:
330,264,204318,1,2,1:2:0:0:
413,334,204588,1,10,0:2:0:0:
488,253,204859,6,0,L|502:139,2,110,2|0|0,1:2|0:2|1:2,0:0:0:0:
413,334,205669,1,10,0:2:0:0:
330,264,205940,1,2,0:2:0:0:
239,325,206210,1,10,0:2:0:0:
164,245,206480,2,0,L|135:71,1,165,6|2,1:2|1:2,0:0:0:0:
179,46,207021,2,0,L|233:53,1,55,10|2,0:2|0:2,0:0:0:0:
279,83,207291,6,0,P|333:72|386:59,2,110,10|0|8,0:2|1:2|0:2,0:0:0:0:
247,194,208102,1,10,0:2:0:0:
247,194,208237,1,2,0:2:0:0:
247,194,208372,1,6,1:2:0:0:
425,341,208913,1,10,0:2:0:0:
425,341,209048,1,2,0:2:0:0:
425,341,209183,1,6,1:2:0:0:
206,359,209723,5,14,0:2:0:0:
142,283,209994,1,14,0:2:0:0:
228,215,210264,1,14,0:2:0:0:
158,130,210534,1,14,0:2:0:0:
187,23,210805,2,0,L|132:30,1,55,14|8,0:2|0:2,0:0:0:0:
87,61,211075,2,0,L|32:69,1,55,14|8,0:2|0:2,0:0:0:0:
6,117,211345,1,14,0:2:0:0:
6,117,212967,5,2,0:2:0:0:
256,192,213102,12,0,216751,0:0:0:0:
