osu file format v14

[General]
AudioFilename: audio.mp3
AudioLeadIn: 0
PreviewTime: 467
Countdown: 0
SampleSet: Soft
StackLeniency: 0.7
Mode: 0
LetterboxInBreaks: 0
WidescreenStoryboard: 0

[Editor]
DistanceSpacing: 0.5
BeatDivisor: 4
GridSize: 32
TimelineZoom: 2

[Metadata]
Title:Dependency
TitleUnicode:Depéndəncy
Artist:Kitamura Eri
ArtistUnicode:喜多村英梨
Creator:Mordred
Version:Lasse's Expert
Source:
Tags:illusion dream dystopia record wood village japanese lasse rock air lmt
BeatmapID:2205660
BeatmapSetID:1053406

[Difficulty]
HPDrainRate:6
CircleSize:4
OverallDifficulty:8.6
ApproachRate:9.3
SliderMultiplier:1.76
SliderTickRate:1

[Events]
//Background and Video events
0,0,"290049.jpg",0,0
//Break Periods
2,167762,173494
//Storyboard Layer 0 (Background)
//Storyboard Layer 1 (Fail)
//Storyboard Layer 2 (Pass)
//Storyboard Layer 3 (Foreground)
//Storyboard Layer 4 (Overlay)
//Storyboard Sound Samples

[TimingPoints]
535,270.27027027027,3,2,1,50,1,0
535,-200,3,2,1,50,0,0
3778,-166.666666666667,3,2,1,50,0,0
6210,-142.857142857143,3,2,1,50,0,0
6751,-200,3,2,1,50,0,0
7021,-100,3,2,1,70,0,0
7224,-100,3,2,1,5,0,0
7291,-100,3,2,1,70,0,0
12426,-125,3,2,1,70,0,0
12697,-100,3,2,1,70,0,0
13507,-83.3333333333333,3,2,1,70,0,0
13778,-71.4285714285714,3,2,1,70,0,0
14048,-62.5,3,2,1,70,0,0
14318,-62.5,3,2,1,75,0,0
14589,-62.5,3,2,1,80,0,0
14859,-62.5,3,2,1,85,0,0
16480,-62.5,3,2,1,50,0,0
16751,-125,3,2,1,50,0,0
16953,-125,3,2,1,5,0,0
17021,-125,3,2,1,50,0,0
17224,-125,3,2,1,5,0,0
17292,-125,3,2,1,50,0,0
17764,-125,3,2,1,5,0,0
17832,-125,3,2,1,50,0,0
18034,-125,3,2,1,5,0,0
18102,-125,3,2,1,50,0,0
18305,-125,3,2,1,5,0,0
18373,-125,3,2,1,50,0,0
18575,-125,3,2,1,5,0,0
18643,-125,3,2,1,50,0,0
18845,-125,3,2,1,5,0,0
18913,-125,3,2,1,50,0,0
19656,-125,3,2,1,5,0,0
19724,-125,3,2,1,50,0,0
20197,-125,3,2,1,5,0,0
20265,-125,3,2,1,50,0,0
20467,-125,3,2,1,5,0,0
20535,-125,3,2,1,50,0,0
21007,-125,3,2,1,5,0,0
21075,-125,3,2,1,50,0,0
21278,-125,3,2,1,5,0,0
21346,-125,3,2,1,50,0,0
21818,-125,3,2,1,5,0,0
21886,-125,3,2,1,50,0,0
22089,-125,3,2,1,5,0,0
22157,-125,3,2,1,50,0,0
23440,-125,3,2,1,5,0,0
23508,-125,3,2,1,50,0,0
23710,-125,3,2,1,5,0,0
23778,-125,3,2,1,50,0,0
24251,-125,3,2,1,5,0,0
24319,-125,3,2,1,50,0,0
24521,-125,3,2,1,5,0,0
24589,-125,3,2,1,50,0,0
24791,-125,3,2,1,5,0,0
24859,-125,3,2,1,50,0,0
25062,-125,3,2,1,5,0,0
25130,-125,3,2,1,50,0,0
25332,-125,3,2,1,5,0,0
25400,-125,3,2,1,50,0,0
26143,-125,3,2,1,5,0,0
26211,-125,3,2,1,50,0,0
26683,-125,3,2,1,5,0,0
26751,-125,3,2,1,50,0,0
26953,-125,3,2,1,5,0,0
27021,-125,3,2,1,50,0,0
28305,-125,3,2,1,5,0,0
28373,-125,3,2,1,50,0,0
28575,-125,3,2,1,5,0,0
28643,-125,3,2,1,50,0,0
28845,-125,3,2,1,5,0,0
28913,-125,3,2,1,50,0,0
29724,-100,3,2,1,60,0,0
30264,-133.333333333333,3,2,1,60,0,0
30534,-100,3,2,1,60,0,0
31075,-133.333333333333,3,2,1,60,0,0
31345,-111.111111111111,3,2,1,60,0,0
31751,-90.9090909090908,3,2,1,60,0,0
32156,-111.111111111111,3,2,1,60,0,0
32562,-90.9090909090908,3,2,1,60,0,0
32967,-100,3,2,1,60,0,0
33507,-133.333333333333,3,2,1,60,0,0
33778,-100,3,2,1,60,0,0
33980,-100,3,2,1,5,0,0
34048,-133.333333333333,3,2,1,60,0,0
34318,-133.333333333333,3,2,1,60,0,0
34589,-100,3,2,1,60,0,0
35670,-117.647058823529,3,2,1,60,0,0
36210,-125,3,2,1,50,0,0
39656,-125,3,2,1,5,0,0
39724,-125,3,2,1,50,0,0
41075,-83.3333333333333,3,2,1,70,0,0
41886,-76.9230769230769,3,2,1,70,0,0
42697,-71.4285714285714,3,2,1,70,0,0
44318,-83.3333333333333,3,2,1,70,0,1
45332,-83.3333333333333,3,2,1,20,0,1
45399,-83.3333333333333,3,2,1,70,0,1
48372,-71.4285714285714,3,2,1,70,0,1
49183,-62.5,3,2,1,70,0,1
49589,-71.4285714285714,3,2,1,70,0,1
50805,-83.3333333333333,3,2,1,70,0,1
51818,-83.3333333333333,3,2,1,20,0,1
51885,-83.3333333333333,3,2,1,70,0,1
52629,-83.3333333333333,3,2,1,20,0,1
52696,-83.3333333333333,3,2,1,70,0,1
54251,-83.3333333333333,3,2,1,20,0,1
54318,-83.3333333333333,3,2,1,70,0,1
54589,-100,3,2,1,70,0,1
54859,-71.4285714285714,3,2,1,70,0,1
55670,-62.5,3,2,1,70,0,1
55872,-62.5,3,2,1,20,0,1
55940,-62.5,3,2,1,70,0,1
57021,-83.3333333333333,3,2,1,70,0,0
57291,-83.3333333333333,3,2,1,70,0,1
58305,-83.3333333333333,3,2,1,20,0,1
58372,-83.3333333333333,3,2,1,70,0,1
61345,-71.4285714285714,3,2,1,70,0,1
62156,-62.5,3,2,1,70,0,1
62697,-71.4285714285714,3,2,1,70,0,1
63778,-83.3333333333333,3,2,1,70,0,1
64791,-83.3333333333333,3,2,1,20,0,1
64858,-83.3333333333333,3,2,1,70,0,1
65602,-83.3333333333333,3,2,1,20,0,1
65669,-83.3333333333333,3,2,1,70,0,1
67832,-76.9230769230769,3,2,1,70,0,1
68643,-71.4285714285714,3,2,1,70,0,1
70264,-76.9230769230769,3,2,1,70,0,1
71075,-71.4285714285714,3,2,1,70,0,1
71886,-66.6666666666667,3,2,1,70,0,1
72697,-62.5,3,2,1,70,0,1
73507,-166.666666666667,3,2,1,50,0,0
76683,-166.666666666667,3,2,1,5,0,0
76751,-166.666666666667,3,2,1,50,0,0
79116,-166.666666666667,3,2,1,5,0,0
79183,-166.666666666667,3,2,1,50,0,0
81616,-142.857142857143,3,2,1,50,0,0
88034,-142.857142857143,3,2,1,5,0,0
88102,-142.857142857143,3,2,1,50,0,0
94589,-100,3,2,1,60,0,0
95129,-133.333333333333,3,2,1,60,0,0
95399,-100,3,2,1,60,0,0
95940,-133.333333333333,3,2,1,60,0,0
96210,-111.111111111111,3,2,1,60,0,0
96616,-90.9090909090908,3,2,1,60,0,0
97021,-111.111111111111,3,2,1,60,0,0
97426,-90.9090909090908,3,2,1,60,0,0
97832,-100,3,2,1,60,0,0
98372,-133.333333333333,3,2,1,60,0,0
98643,-100,3,2,1,60,0,0
98845,-100,3,2,1,5,0,0
98913,-133.333333333333,3,2,1,60,0,0
99183,-133.333333333333,3,2,1,60,0,0
99453,-100,3,2,1,60,0,0
100534,-117.647058823529,3,2,1,60,0,0
101075,-125,3,2,1,50,0,0
104521,-125,3,2,1,5,0,0
104589,-125,3,2,1,50,0,0
105940,-83.3333333333333,3,2,1,70,0,0
106751,-76.9230769230769,3,2,1,70,0,0
107562,-71.4285714285714,3,2,1,70,0,0
109183,-83.3333333333333,3,2,1,70,0,1
110197,-83.3333333333333,3,2,1,20,0,1
110264,-83.3333333333333,3,2,1,70,0,1
113237,-71.4285714285714,3,2,1,70,0,1
114048,-62.5,3,2,1,70,0,1
114453,-71.4285714285714,3,2,1,70,0,1
115670,-83.3333333333333,3,2,1,70,0,1
116683,-83.3333333333333,3,2,1,20,0,1
116751,-83.3333333333333,3,2,1,70,0,1
119116,-83.3333333333333,3,2,1,20,0,1
119183,-83.3333333333333,3,2,1,70,0,1
119453,-100,3,2,1,70,0,1
119724,-71.4285714285714,3,2,1,70,0,1
120534,-62.5,3,2,1,70,0,1
120737,-62.5,3,2,1,20,0,1
120805,-62.5,3,2,1,70,0,1
121886,-83.3333333333333,3,2,1,70,0,0
122156,-83.3333333333333,3,2,1,70,0,1
123170,-83.3333333333333,3,2,1,20,0,1
123237,-83.3333333333333,3,2,1,70,0,1
126210,-71.4285714285714,3,2,1,70,0,1
127021,-66.6666666666667,3,2,1,70,0,1
127562,-71.4285714285714,3,2,1,70,0,1
128643,-83.3333333333333,3,2,1,70,0,1
129656,-83.3333333333333,3,2,1,20,0,1
129724,-83.3333333333333,3,2,1,70,0,1
130467,-83.3333333333333,3,2,1,20,0,1
130534,-83.3333333333333,3,2,1,70,0,1
132697,-76.9230769230769,3,2,1,70,0,1
133507,-71.4285714285714,3,2,1,70,0,1
135129,-76.9230769230769,3,2,1,70,0,1
135940,-71.4285714285714,3,2,1,70,0,1
136751,-66.6666666666667,3,2,1,70,0,1
137562,-62.5,3,2,1,70,0,1
138372,-111.111111111111,3,2,1,60,0,0
152967,-100,3,2,1,60,0,0
153507,-133.333333333333,3,2,1,60,0,0
153778,-100,3,2,1,60,0,0
154318,-133.333333333333,3,2,1,60,0,0
154589,-111.111111111111,3,2,1,60,0,0
156210,-100,3,2,1,60,0,0
156751,-133.333333333333,3,2,1,60,0,0
157021,-100,3,2,1,60,0,0
157562,-133.333333333333,3,2,1,60,0,0
157832,-100,3,2,1,60,0,0
158913,-117.647058823529,3,2,1,60,0,0
159453,-125,3,2,1,50,0,0
162899,-125,3,2,1,5,0,0
162967,-125,3,2,1,50,0,0
164318,-83.3333333333333,3,2,1,70,0,0
165129,-76.9230769230769,3,2,1,70,0,0
165940,-71.4285714285714,3,2,1,70,0,0
167562,-71.4285714285714,3,2,1,60,0,0
174048,-83.3333333333333,3,2,1,70,0,1
175062,-83.3333333333333,3,2,1,20,0,1
175129,-83.3333333333333,3,2,1,70,0,1
177494,-83.3333333333333,3,2,1,20,0,1
177562,-83.3333333333333,3,2,1,70,0,1
177832,-100,3,2,1,70,0,1
178102,-71.4285714285714,3,2,1,70,0,1
178913,-62.5,3,2,1,70,0,1
179116,-62.5,3,2,1,20,0,1
179183,-62.5,3,2,1,70,0,1
180264,-83.3333333333333,3,2,1,70,0,0
180534,-83.3333333333333,3,2,1,70,0,1
181548,-83.3333333333333,3,2,1,20,0,1
181616,-83.3333333333333,3,2,1,70,0,1
184589,-71.4285714285714,3,2,1,70,0,1
185399,-66.6666666666667,3,2,1,70,0,1
185602,-66.6666666666667,3,2,1,20,0,1
185670,-71.4285714285714,3,2,1,70,0,1
187021,-83.3333333333333,3,2,1,70,0,1
188034,-83.3333333333333,3,2,1,20,0,1
188102,-83.3333333333333,3,2,1,70,0,1
188845,-83.3333333333333,3,2,1,20,0,1
188913,-83.3333333333333,3,2,1,70,0,1
191075,-76.9230769230769,3,2,1,70,0,1
191886,-62.5,3,2,1,70,0,1
192291,-71.4285714285714,3,2,1,70,0,1
193507,-76.9230769230769,3,2,1,70,0,1
194318,-71.4285714285714,3,2,1,70,0,1
195129,-66.6666666666667,3,2,1,70,0,1
195940,-62.5,3,2,1,70,0,1
196751,-133.333333333333,3,2,1,50,0,0
202426,-114.942528735632,3,2,1,50,0,0
203237,-100,3,2,1,70,0,0
203440,-100,3,2,1,5,0,0
203507,-100,3,2,1,70,0,0
208642,-125,3,2,1,70,0,0
208913,-100,3,2,1,70,0,0
209723,-83.3333333333333,3,2,1,70,0,0
209994,-71.4285714285714,3,2,1,70,0,0
210264,-62.5,3,2,1,70,0,0
210534,-62.5,3,2,1,75,0,0
210805,-62.5,3,2,1,80,0,0
211075,-62.5,3,2,1,85,0,0
212967,-250,3,2,1,40,0,0
213102,-250,3,2,1,5,0,0
217021,-250,3,2,99,10,0,0

[Colours]
Combo1 : 250,180,240
Combo2 : 110,190,225
Combo3 : 255,230,130
Combo4 : 150,230,140

[HitObjects]
65,40,535,6,0,P|43:35|27:21,1,44,2|0,0:2|0:2,0:0:0:0:
102,64,805,2,0,P|87:80|66:87,1,44,0|0,0:2|0:2,0:0:0:0:
141,43,1075,2,0,P|147:63|142:85,1,44,0|0,0:2|0:2,0:0:0:0:
243,164,1345,6,0,P|264:159|280:145,1,44,2|0,0:2|0:2,0:0:0:0:
206,187,1616,2,0,P|220:202|241:209,1,44,0|0,0:2|0:2,0:0:0:0:
167,167,1886,2,0,P|160:187|166:209,1,44,0|0,0:2|0:2,0:0:0:0:
282,232,2156,6,0,L|329:224,1,44,2|0,0:2|0:2,0:0:0:0:
410,245,2426,2,0,L|366:252,1,44,0|0,0:2|0:2,0:0:0:0:
452,273,2697,2,0,L|499:265,1,44,0|0,0:2|0:2,0:0:0:0:
446,166,2967,6,0,L|463:107,1,44,2|0,0:2|0:2,0:0:0:0:
385,100,3237,2,0,L|385:56,1,44,0|0,0:2|0:2,0:0:0:0:
308,52,3507,2,0,L|297:9,1,44,0|0,0:2|0:2,0:0:0:0:
208,73,3778,6,0,P|193:94|190:132,1,52.7999983886719,2|0,0:2|0:2,0:0:0:0:
134,168,4048,2,0,P|144:191|176:213,1,52.7999983886719,0|0,0:2|0:2,0:0:0:0:
179,279,4318,2,0,P|203:281|238:265,1,52.7999983886719,0|0,0:2|0:2,0:0:0:0:
306,236,4589,6,0,P|327:221|365:218,1,52.7999983886719,2|0,0:2|0:2,0:0:0:0:
401,162,4859,2,0,P|424:172|446:204,1,52.7999983886719,0|2,0:2|0:2,0:0:0:0:
512,207,5129,1,2,0:2:0:0:
512,233,5197,1,2,0:2:0:0:
505,257,5264,1,2,0:2:0:0:
440,327,5399,6,0,L|388:336,1,52.7999983886719,2|0,0:2|0:2,0:0:0:0:
263,331,5670,2,0,L|315:322,1,52.7999983886719,0|0,0:2|0:2,0:0:0:0:
196,362,5940,2,0,L|144:371,1,52.7999983886719,0|0,0:2|0:2,0:0:0:0:
54,353,6210,6,0,P|64:323|68:293,1,61.5999981201172,2|0,0:2|0:2,0:0:0:0:
179,223,6480,2,0,P|182:253|192:282,1,61.5999981201172,2|0,0:2|0:2,0:0:0:0:
35,148,6751,6,0,P|0:174|-19:177,1,44,10|0,0:2|0:0,0:0:0:0:
91,73,7021,6,0,B|119:9|205:17|205:17|252:60,1,176,6|2,1:2|0:2,0:0:0:0:
328,223,7426,2,0,B|331:255|331:255|359:207,1,88,10|2,0:2|1:2,0:0:0:0:
359,207,7832,6,0,P|345:262|369:296,1,88,10|0,0:2|0:2,0:0:0:0:
442,144,8102,2,0,P|496:128|514:90,1,88,2|0,1:2|0:2,0:0:0:0:
347,104,8372,2,0,P|306:64|264:68,1,88,10|0,0:2|0:2,0:0:0:0:
101,109,8643,6,0,B|21:168|13:283|55:356|109:377|109:377|85:317|12:289,1,440,2|0,1:2|0:0,0:0:0:0:
224,361,9453,6,0,P|267:360|305:339,1,88,10|0,0:2|1:2,0:0:0:0:
147,182,9724,2,0,P|125:219|125:262,1,88,2|0,0:2|1:2,0:0:0:0:
340,204,9994,2,0,P|317:166|280:144,1,88,10|0,0:2|0:2,0:0:0:0:
94,83,10264,6,0,B|70:111|21:114|21:114|34:64|95:21|167:38,1,264,6|2,1:2|1:2,0:0:0:0:
280,144,10805,2,0,P|302:181|339:203,1,88,10|2,0:2|0:2,0:0:0:0:
493,160,11075,6,0,P|521:79|487:0,1,176,10|0,0:2|1:2,0:0:0:0:
487,0,11480,1,0,1:2:0:0:
401,141,11616,2,0,L|433:237,1,88,8|0,0:2|1:2,0:0:0:0:
314,27,11886,5,10,0:2:0:0:
280,144,12021,1,2,0:2:0:0:
195,56,12156,1,2,1:2:0:0:
170,162,12291,2,0,B|204:181|204:181|248:112|191:51,1,176,10|2,0:2|0:2,0:0:0:0:
23,152,12697,5,10,0:2:0:0:
155,185,12832,1,2,0:2:0:0:
13,282,12967,1,2,1:2:0:0:
135,321,13102,2,0,B|154:310|154:310|86:247|13:282,1,176,10|0,0:2|1:2,0:0:0:0:
242,378,13507,6,0,P|298:374|327:324,1,105.599996777344,14|0,0:2|1:2,0:0:0:0:
510,238,13778,6,0,P|534:187|500:131,1,123.199996240234,14|0,0:2|1:2,0:0:0:0:
304,0,14048,6,0,P|242:-5|234:76,1,140.8,14|0,0:2|1:2,0:0:0:0:
176,323,14318,5,14,0:2:0:0:
140,154,14453,1,0,1:2:0:0:
87,351,14589,5,14,0:2:0:0:
132,126,14724,1,8,0:2:0:0:
273,306,14859,5,14,0:2:0:0:
126,98,14994,1,8,0:2:0:0:
71,376,15129,5,14,0:2:0:0:
119,0,16480,1,8,0:3:0:0:
187,52,16751,6,0,L|336:34,2,140.8,2|2|2,1:2|1:2|1:2,0:0:0:0:
120,104,17426,1,2,2:2:0:0:
172,170,17562,2,0,P|207:190|252:186,1,70.4,2|0,1:2|0:0,0:0:0:0:
339,126,17832,2,0,L|354:40,1,70.4,2|0,1:2|0:0,0:0:0:0:
447,176,18102,2,0,L|459:245,1,70.4,2|0,1:2|0:0,0:0:0:0:
502,372,18372,6,0,P|460:335|400:344,1,105.6,2|0,1:2|0:2,0:0:0:0:
407,345,18643,2,0,L|320:331,1,70.4,2|0,1:2|0:0,0:0:0:0:
258,254,18913,1,2,1:2:0:0:
289,233,19003,1,0,1:0:0:0:
306,199,19093,1,0,1:0:0:0:
315,162,19183,2,0,P|318:115|271:13,1,140.8,2|0,1:2|1:2,0:0:0:0:
78,0,19724,1,10,0:2:0:0:
144,54,19859,1,2,0:2:0:0:
18,75,19994,6,0,P|-11:138|-12:208,2,140.8,2|2|2,1:2|1:2|1:2,0:0:0:0:
78,0,20670,1,2,0:2:0:0:
160,73,20805,2,0,P|190:90|251:72,1,70.4,2|0,1:2|0:0,0:0:0:0:
359,0,21075,2,0,P|329:17|313:48,1,70.4,2|0,1:2|0:0,0:0:0:0:
322,208,21345,2,0,P|321:173|302:143,1,70.4,2|0,1:2|0:2,0:0:0:0:
224,88,21616,6,0,L|105:90,1,105.6,2|0,1:2|0:2,0:0:0:0:
106,97,21886,2,0,P|95:116|90:174,1,70.4,2|0,1:2|0:0,0:0:0:0:
151,277,22156,2,0,L|230:268,1,70.4,2|0,1:2|0:2,0:0:0:0:
322,208,22426,5,2,1:2:0:0:
300,292,22562,1,2,0:2:0:0:
402,270,22697,5,10,0:2:0:0:
402,362,22832,1,2,1:2:0:0:
503,257,22967,5,10,1:2:0:0:
474,232,23057,1,0,1:0:0:0:
461,196,23147,1,0,1:0:0:0:
470,159,23237,6,0,P|498:125|502:13,2,140.8,2|2|2,1:2|1:2|1:2,0:0:0:0:
387,208,23913,1,2,0:2:0:0:
319,118,24048,2,0,P|295:91|261:73,1,70.4,2|0,1:2|0:0,0:0:0:0:
173,130,24318,2,0,L|163:223,1,70.4,2|0,1:2|0:0,0:0:0:0:
83,320,24589,2,0,L|71:250,1,70.4,2|0,1:2|0:0,0:0:0:0:
0,165,24859,6,0,P|51:165|77:122,1,105.6,2|0,1:2|0:2,0:0:0:0:
85,114,25129,2,0,L|94:20,1,70.4,2|0,1:2|0:0,0:0:0:0:
233,0,25399,1,2,1:2:0:0:
257,28,25489,1,0,1:0:0:0:
292,40,25580,1,0,1:0:0:0:
327,27,25670,2,0,P|378:11|472:49,1,140.8,2|2,1:2|1:2,0:0:0:0:
512,207,26210,1,10,0:2:0:0:
446,148,26345,1,2,0:2:0:0:
407,239,26480,6,0,P|422:285|393:349,1,105.6,2|0,1:2|0:2,0:0:0:0:
395,346,26751,2,0,L|318:335,1,70.4,2|0,1:2|0:0,0:0:0:0:
218,247,27021,2,0,L|287:237,1,70.4,2|0,1:2|0:2,0:0:0:0:
186,161,27291,2,0,P|203:91|163:19,2,140.8,2|0|0,1:2|1:2|1:2,0:0:0:0:
8,359,28102,6,0,P|-10:310|5:260,1,105.6,2|0,1:2|0:2,0:0:0:0:
12,253,28372,2,0,L|89:242,1,70.4,2|0,1:2|0:0,0:0:0:0:
186,161,28643,1,2,1:2:0:0:
153,180,28733,1,0,1:0:0:0:
116,173,28823,1,0,1:0:0:0:
96,140,28913,2,0,P|86:89|138:11,1,140.8,2|8,1:2|0:2,0:0:0:0:
378,0,29453,1,8,0:2:0:0:
320,59,29589,1,8,0:2:0:0:
415,100,29724,6,0,B|452:130|452:130|423:266,1,176,6|0,1:2|0:2,0:0:0:0:
397,378,30129,1,2,1:2:0:0:
335,311,30264,2,0,L|315:234,1,66.0000025177003,10|0,0:2|0:2,0:0:0:0:
241,147,30534,6,0,B|181:137|181:137|135:155|135:155|61:145,1,176,2|8,1:2|0:2,0:0:0:0:
195,227,30940,1,2,0:2:0:0:
114,272,31075,2,0,L|27:291,1,66.0000025177003,2|0,1:2|0:2,0:0:0:0:
195,339,31345,6,0,L|387:359,1,158.399995166016,0|0,1:2|0:2,0:0:0:0:
425,384,31751,2,0,P|443:340|428:295,1,96.8000029541017,0|8,1:2|0:2,0:0:0:0:
268,193,32156,6,0,L|110:176,1,158.399995166016,2|10,1:2|0:2,0:0:0:0:
40,193,32562,2,0,P|30:146|55:105,1,96.8000029541017,0|10,1:2|0:2,0:0:0:0:
264,9,32967,6,0,B|294:33|304:59|304:59|427:40,1,176,6|0,1:2|0:2,0:0:0:0:
498,0,33372,1,2,1:2:0:0:
512,123,33507,2,0,L|495:189,1,66.0000025177003,10|0,0:2|0:2,0:0:0:0:
448,306,33778,6,0,B|408:252|408:252|341:296,1,132,2|0,1:2|0:0,0:0:0:0:
343,295,34048,2,0,P|312:302|282:290,1,66.0000025177003,10|0,0:2|0:2,0:0:0:0:
238,179,34318,2,0,P|268:167|299:174,1,66.0000025177003,2|0,1:2|0:2,0:0:0:0:
197,275,34589,6,0,B|162:309|162:309|39:274,1,176,2|0,1:2|1:2,0:0:0:0:
72,372,34994,1,0,1:2:0:0:
126,212,35129,5,8,0:2:0:0:
39,274,35264,1,8,0:2:0:0:
28,139,35399,5,8,0:2:0:0:
31,260,35534,1,8,0:2:0:0:
122,122,35670,6,0,L|138:42,1,74.8000014266968,8|8,0:3|0:3,0:0:0:0:
230,2,35940,1,4,0:3:0:0:
259,29,36030,1,4,0:3:0:0:
298,34,36120,1,4,0:3:0:0:
336,23,36210,6,0,P|404:10|490:39,2,140.8,6|0|2,1:2|0:2|1:2,0:0:0:0:
336,23,37021,2,0,L|331:114,1,70.4,2|0,1:2|0:2,0:0:0:0:
203,125,37291,2,0,L|230:209,1,70.4,2|0,0:2|0:2,0:0:0:0:
374,251,37562,2,0,L|320:297,1,70.4,10|0,0:2|0:2,0:0:0:0:
201,376,37832,6,0,P|183:308|102:266,2,140.8,2|0|2,1:2|0:2|1:2,0:0:0:0:
201,376,38643,2,0,L|291:365,1,70.4,2|0,1:2|0:2,0:0:0:0:
372,267,38913,2,0,L|301:250,1,70.4,2|0,1:2|0:2,0:0:0:0:
150,163,39183,2,0,L|222:147,1,70.4,10|0,0:2|0:2,0:0:0:0:
376,117,39453,6,0,P|390:70|348:20,1,105.6,2|0,1:2|0:2,0:0:0:0:
352,33,39724,2,0,L|277:19,1,70.4,2|0,0:2|0:2,0:0:0:0:
382,128,39994,2,0,L|457:142,1,70.4,2|0,1:2|0:2,0:0:0:0:
274,222,40264,2,0,P|274:186|246:144,1,70.4,2|0,1:2|0:2,0:0:0:0:
162,299,40534,2,0,P|161:333|177:365,1,70.4,2|0,0:2|0:2,0:0:0:0:
132,184,40805,1,10,0:2:0:0:
76,239,40940,1,0,1:2:0:0:
36,135,41075,6,0,B|18:109|18:109|24:154|4:179,1,105.599996777344,14|0,1:2|0:2,0:0:0:0:
212,66,41345,2,0,B|243:63|243:63|201:47|189:16,1,105.599996777344,6|0,1:2|0:2,0:0:0:0:
184,252,41616,2,0,B|170:280|170:280|203:254|238:257,1,105.599996777344,6|0,1:2|0:2,0:0:0:0:
100,40,41886,6,0,B|114:9|114:9|75:39|41:34,1,114.399994763184,14|0,1:2|0:2,0:0:0:0:
261,168,42156,2,0,B|280:196|280:196|273:148|296:120,1,114.399994763184,6|0,1:2|0:2,0:0:0:0:
71,244,42426,2,0,B|36:246|36:246|79:263|95:298,1,114.399994763184,6|0,1:2|0:2,0:0:0:0:
295,375,42697,6,0,B|344:357|392:388|392:388|371:381,1,123.199996240234,14|0,1:2|2:2,0:0:0:0:
94,296,42967,2,0,B|45:314|-3:283|-3:283|17:289,1,123.199996240234,6|0,1:2|2:2,0:0:0:0:
242,116,43237,5,6,1:2:0:0:
295,274,43372,1,8,0:2:0:0:
238,91,43507,5,14,1:2:0:0:
191,281,43643,1,0,1:2:0:0:
234,66,43778,5,14,0:2:0:0:
308,294,43913,1,8,0:2:0:0:
230,41,44048,5,14,0:2:0:0:
178,302,44183,1,8,0:2:0:0:
23,188,44318,6,0,B|10:183|5:171|5:171|74:160|129:211|129:211|156:210|182:196,1,211.199993554688,6|8,1:2|0:2,0:0:0:0:
327,40,44724,1,0,1:0:0:0:
203,57,44859,1,0,1:2:0:0:
355,172,44994,1,8,0:2:0:0:
203,57,45129,6,0,B|154:51|154:51|118:70|118:70|44:67,1,158.399995166016,2|0,1:2|0:0,0:0:0:0:
10,95,45399,2,0,P|-8:166|10:193,1,105.599996777344,8|0,0:2|0:2,0:0:0:0:
147,319,45670,2,0,L|252:330,1,105.599996777344,10|0,0:2|1:2,0:0:0:0:
263,331,45872,1,0,1:0:0:0:
273,330,45940,6,0,P|292:282|276:233,1,105.599996777344,2|0,1:2|0:2,0:0:0:0:
203,57,46210,2,0,P|182:104|199:153,1,105.599996777344,10|0,0:2|0:2,0:0:0:0:
398,214,46480,1,2,1:2:0:0:
275,232,46616,1,8,0:2:0:0:
434,366,46751,6,0,P|442:263|478:147,1,211.199993554688,2|8,1:2|0:2,0:0:0:0:
405,0,47156,2,0,P|408:49|362:66,1,105.599996777344,2|8,1:2|0:2,0:0:0:0:
259,22,47426,1,0,1:0:0:0:
391,171,47562,6,0,L|497:153,1,105.599996777344,6|0,1:2|0:2,0:0:0:0:
282,308,47832,2,0,L|386:290,1,105.599996777344,2|8,0:2|0:2,0:0:0:0:
186,154,48102,2,0,L|290:137,1,105.599996777344,2|8,0:2|0:2,0:0:0:0:
301,134,48305,1,8,0:0:0:0:
308,126,48372,6,0,P|322:69|274:7,1,123.199996240234,6|0,1:2|0:2,0:0:0:0:
282,250,48643,2,0,P|324:290|402:280,1,123.199996240234,10|0,0:2|0:2,0:0:0:0:
186,154,48913,2,0,P|129:170|99:242,1,123.199996240234,10|0,0:2|0:2,0:0:0:0:
46,340,49183,6,0,P|62:206|186:154,1,281.6,6|2,1:2|0:2,0:0:0:0:
61,63,49589,1,8,0:2:0:0:
185,153,49724,2,0,P|258:166|322:143,1,123.199996240234,2|8,0:2|0:2,0:0:0:0:
454,0,49994,5,10,0:3:0:0:
367,92,50129,1,8,0:3:0:0:
264,7,50264,5,6,0:3:0:0:
304,153,50399,1,4,0:3:0:0:
185,153,50534,5,2,1:2:0:0:
328,240,50670,1,0,1:2:0:0:
146,349,50805,6,0,B|120:371|120:371|130:295|93:226|93:226|83:258,1,211.199993554688,6|8,1:2|0:2,0:0:0:0:
11,358,51210,1,0,1:0:0:0:
206,289,51345,1,0,1:2:0:0:
0,259,51480,1,8,0:2:0:0:
215,169,51616,6,0,B|167:153|167:153|135:158|135:158|38:127,1,158.399995166016,2|0,1:2|0:0,0:0:0:0:
16,121,51886,2,0,P|-8:74|5:24,1,105.599996777344,8|0,0:2|0:2,0:0:0:0:
281,11,52156,2,0,P|247:49|258:99,1,105.599996777344,10|0,0:2|1:2,0:0:0:0:
268,113,52359,1,0,1:0:0:0:
279,126,52426,6,0,B|443:111,1,158.399995166016,2|0,1:2|0:0,0:0:0:0:
476,148,52697,2,0,P|506:120|486:58,1,105.599996777344,10|0,0:2|0:2,0:0:0:0:
281,11,52967,1,2,1:2:0:0:
245,201,53102,1,8,0:2:0:0:
51,149,53237,6,0,B|20:121|20:121|68:9|68:9|89:52,1,211.199993554688,2|8,1:2|0:2,0:0:0:0:
164,290,53643,2,0,B|179:320|179:320|166:367|166:367|139:333,1,105.599996777344,2|8,1:2|0:2,0:0:0:0:
152,349,54048,6,0,B|205:331|205:331|251:350|251:350|363:364,1,211.199993554688,6|2,1:2|0:0,0:0:0:0:
511,348,54453,1,8,2:0:0:0:
405,254,54589,2,0,B|381:246|381:246|359:250|359:250|301:237,1,88,2|8,1:2|2:2,1:2:0:0:
511,348,54859,6,0,B|490:266|490:266|496:215|496:215|471:83,1,246.399992480469,6|8,1:2|0:2,0:0:0:0:
406,0,55264,1,0,1:2:0:0:
319,79,55399,2,0,L|189:88,1,123.199996240234,10|0,2:2|1:2,0:0:0:0:
106,89,55602,1,0,1:0:0:0:
113,78,55670,6,0,L|323:66,1,211.2,6|0,1:2|0:0,0:0:0:0:
394,107,55940,2,0,P|418:171|391:234,1,140.8,2|8,1:2|0:2,0:0:0:0:
153,384,56210,2,0,P|126:320|150:256,1,140.8,2|8,1:2|0:2,0:0:0:0:
323,65,56480,5,10,0:3:0:0:
389,260,56616,1,8,0:3:0:0:
394,107,56751,5,4,0:3:0:0:
320,304,56886,1,4,0:3:0:0:
205,183,57021,5,0,1:2:0:0:
183,168,57089,1,0,1:0:0:0:
161,154,57156,1,0,1:2:0:0:
138,141,57224,1,0,1:0:0:0:
116,127,57291,6,0,B|70:147|70:147|56:48|56:48|130:18,1,211.199993554688,6|8,1:2|0:2,0:0:0:0:
285,0,57697,1,0,1:0:0:0:
221,95,57832,1,0,1:2:0:0:
351,134,57967,1,8,0:2:0:0:
231,216,58102,6,0,P|204:288|238:357,1,158.399995166016,2|0,1:2|0:0,0:0:0:0:
282,384,58372,2,0,L|400:359,1,105.599996777344,8|0,0:2|0:2,0:0:0:0:
512,214,58643,2,0,P|470:185|448:125,1,105.599996777344,10|0,0:2|1:2,0:0:0:0:
446,126,58845,1,0,1:0:0:0:
447,115,58913,6,0,P|462:67|442:5,1,105.599996777344,2|0,1:2|0:2,0:0:0:0:
232,115,59183,2,0,P|217:163|237:225,1,105.599996777344,10|0,0:2|0:2,0:0:0:0:
353,289,59453,1,2,1:2:0:0:
244,347,59589,1,8,0:2:0:0:
409,384,59724,6,0,P|374:263|355:155,1,211.199993554688,2|8,1:2|0:2,0:0:0:0:
379,30,60129,2,0,B|360:46|338:64|338:64|312:55|267:35,1,105.599996777344,2|8,1:2|0:2,0:0:0:0:
170,0,60399,1,0,1:0:0:0:
29,145,60534,6,0,L|40:37,1,105.599996777344,6|0,1:2|0:2,0:0:0:0:
193,241,60805,2,0,L|203:135,1,105.599996777344,2|8,0:2|0:2,0:0:0:0:
30,344,61075,2,0,L|40:238,1,105.599996777344,2|8,0:2|0:2,0:0:0:0:
49,232,61278,1,8,0:0:0:0:
59,226,61345,6,0,B|133:212|114:251|187:251,1,123.199996240234,6|0,1:2|0:2,0:0:0:0:
363,117,61616,2,0,P|309:143|296:201,1,123.199996240234,10|0,0:2|0:2,0:0:0:0:
411,375,61886,2,0,P|464:348|477:290,1,123.199996240234,10|0,0:2|0:2,0:0:0:0:
348,91,62156,6,0,B|249:69|249:69|191:93|191:93|72:63,1,281.6,6|2,1:2|0:2,0:0:0:0:
194,191,62562,1,8,0:2:0:0:
34,244,62697,2,0,B|17:259|-4:256|-4:256|4:211|65:205,1,123.199996240234,2|8,0:2|0:2,0:0:0:0:
236,320,62967,5,10,0:3:0:0:
109,379,63102,1,8,0:3:0:0:
240,302,63237,5,6,0:3:0:0:
120,252,63372,1,4,0:3:0:0:
277,192,63507,5,2,1:2:0:0:
122,231,63643,1,0,1:2:0:0:
242,54,63778,6,0,B|188:69|188:69|103:11|103:11|42:36,1,211.199993554688,6|8,1:2|0:2,0:0:0:0:
164,152,64183,1,0,1:0:0:0:
18,194,64318,1,0,1:2:0:0:
164,152,64453,1,8,0:2:0:0:
120,252,64589,6,0,P|131:325|216:338,1,158.399995166016,2|0,1:2|0:0,0:0:0:0:
227,334,64859,2,0,L|241:225,1,105.599996777344,8|0,0:2|0:2,0:0:0:0:
300,21,65129,2,0,L|316:126,1,105.599996777344,10|0,0:2|1:2,0:0:0:0:
320,140,65332,1,0,1:0:0:0:
325,154,65399,6,0,P|372:215|466:185,1,158.399995166016,2|0,1:2|0:0,0:0:0:0:
512,248,65670,2,0,P|526:204|499:146,1,105.599996777344,10|0,0:2|0:2,0:0:0:0:
300,21,65940,1,2,1:2:0:0:
220,202,66075,1,8,0:2:0:0:
59,92,66210,6,0,B|22:68|22:68|109:13|109:13|171:34,1,211.199993554688,2|8,1:2|0:2,0:0:0:0:
328,148,66616,2,0,B|358:194|336:241|302:225|314:177,1,105.599996777344,2|8,1:2|0:2,0:0:0:0:
312,198,67021,6,0,B|365:180|365:180|435:247|526:200,1,211.199993554688,6|0,1:2|0:2,0:0:0:0:
451,108,67426,1,8,0:2:0:0:
364,278,67562,2,0,L|344:385,1,105.599996777344,2|8,1:2|0:2,0:0:0:0:
144,384,67832,6,0,B|134:341|134:341|142:294|142:294|111:145,1,228.799989526368,6|0,1:2|0:2,0:0:0:0:
7,41,68237,1,8,0:2:0:0:
114,160,68372,2,0,P|168:173|218:148,1,114.399994763184,2|8,1:2|0:2,0:0:0:0:
435,60,68643,6,0,B|466:51|466:51|369:-5|290:39|290:39|240:18,1,246.399992480469,6|0,1:2|0:2,0:0:0:0:
470,143,69048,1,10,0:2:0:0:
337,231,69183,2,0,P|299:194|318:120,1,123.199996240234,2|8,1:2|0:2,0:0:0:0:
508,287,69453,5,10,0:2:0:0:
443,376,69589,1,0,1:2:0:0:
337,342,69724,1,10,0:3:0:0:
337,231,69859,1,8,0:3:0:0:
442,196,69994,5,6,0:3:0:0:
461,172,70062,1,4,0:3:0:0:
470,143,70129,1,4,0:3:0:0:
466,113,70197,1,4,0:3:0:0:
453,86,70264,6,0,B|413:73|413:73|388:82|388:82|344:68,1,114.399994763184,14|0,1:2|0:2,0:0:0:0:
250,255,70534,2,0,B|210:242|210:242|185:251|185:251|141:237,1,114.399994763184,6|0,1:2|0:2,0:0:0:0:
116,82,70805,2,0,B|76:69|76:69|51:78|51:78|7:64,1,114.399994763184,6|0,1:2|0:2,0:0:0:0:
141,237,71075,6,0,P|129:308|175:347,1,123.199996240234,14|0,1:2|0:2,0:0:0:0:
262,136,71345,2,0,P|320:122|343:67,1,123.199996240234,6|0,1:2|0:2,0:0:0:0:
116,82,71616,2,0,P|60:36|3:56,1,123.199996240234,6|0,1:2|0:2,0:0:0:0:
231,222,71886,6,0,B|260:237|277:268|277:268|304:246|339:252,1,132.000005035401,14|0,1:2|0:2,0:0:0:0:
278,5,72156,2,0,B|250:22|215:21|215:21|220:56|197:83,1,132.000005035401,6|0,1:2|0:2,0:0:0:0:
442,154,72426,2,0,B|440:121|458:91|458:91|426:78|413:45,1,132.000005035401,6|0,1:2|0:2,0:0:0:0:
231,222,72697,6,0,L|244:364,1,140.8,14|0,1:2|0:2,0:0:0:0:
442,154,72967,2,0,L|455:296,1,140.8,6|0,1:2|0:2,0:0:0:0:
99,135,73237,2,0,L|112:277,1,140.8,6|0,1:2|0:2,0:0:0:0:
334,23,73507,6,0,P|303:114|208:96,1,211.199993554688,6|0,1:2|0:2,0:0:0:0:
74,24,74318,2,0,L|185:16,1,105.599996777344,8|0,0:2|0:2,0:0:0:0:
179,16,74859,1,0,1:2:0:0:
110,202,75129,2,0,P|93:160|126:106,1,105.599996777344,0|0,1:2|0:2,0:2:0:0:
119,109,75670,1,0,1:2:0:0:
224,297,75940,2,0,P|233:247|200:193,1,105.599996777344,8|0,0:2|0:2,0:2:0:0:
224,297,76480,1,2,1:2:0:0:
106,285,76751,6,0,L|319:260,1,211.199993554688,0|0,1:2|0:2,0:0:0:0:
495,369,77562,2,0,P|454:350|455:292,1,105.599996777344,8|0,0:2|0:2,0:0:0:0:
452,295,78102,1,0,1:2:0:0:
512,193,78372,2,0,L|389:162,1,105.599996777344,0|0,1:2|0:2,0:2:0:0:
512,193,78913,1,2,1:2:0:0:
366,91,79183,2,0,P|389:70|367:0,1,105.599996777344,8|0,0:2|0:2,0:2:0:0:
290,76,79589,1,8,0:3:0:0:
316,149,79724,1,4,0:3:0:0:
374,4,79994,1,8,0:2:0:0:
486,305,81616,6,0,L|501:170,2,123.199996240234,6|2|2,1:2|0:2|0:2,0:2:0:0:
376,363,82426,2,0,L|362:232,1,123.199996240234,10|2,2:2|0:2,0:2:0:0:
362,240,82967,1,2,1:2:0:0:
247,302,83237,2,0,L|261:171,1,123.199996240234,2|2,1:2|0:2,0:2:0:0:
261,179,83778,1,2,1:2:0:0:
124,353,84048,2,0,L|106:218,1,123.199996240234,10|2,2:2|0:2,0:2:0:0:
124,353,84589,1,2,1:2:0:0:
108,231,84859,6,0,P|56:224|-14:184,2,123.199996240234,2|2|2,1:2|0:2|0:2,0:2:0:0:
231,186,85670,2,0,P|284:155|344:146,1,123.199996240234,10|2,2:2|0:2,0:2:0:0:
344,146,86210,1,2,1:2:0:0:
205,91,86480,2,0,P|157:52|126:0,1,123.199996240234,2|2,1:2|0:2,0:2:0:0:
126,0,87021,1,2,1:2:0:0:
132,150,87291,2,0,P|89:193|36:224,1,123.199996240234,10|2,2:2|0:2,0:2:0:0:
132,150,87832,1,2,1:2:0:0:
234,319,88102,6,0,L|95:299,2,123.199996240234,6|2|2,1:2|0:2|0:2,0:2:0:0:
389,384,88913,2,0,P|373:299|394:248,1,123.199996240234,10|2,2:2|0:2,0:2:0:0:
383,265,89453,1,2,1:2:0:0:
493,204,89724,2,0,P|509:119|488:68,1,123.199996240234,2|2,1:2|0:2,0:2:0:0:
498,85,90264,1,2,1:2:0:0:
391,36,90534,2,0,L|254:16,1,123.199996240234,10|0,0:2|0:2,0:2:0:0:
391,36,91075,1,2,1:2:0:0:
213,97,91345,5,2,1:2:0:0:
307,187,91616,1,2,0:2:0:0:
187,240,91886,1,2,0:2:0:0:
294,341,92156,2,0,B|340:390|404:348|404:348|380:283|420:229,1,246.399992480469,10|0,0:2|1:2,0:2:0:0:
512,101,92967,6,0,L|388:70,1,123.199996240234,2|2,1:2|0:2,0:2:0:0:
318,94,93372,1,8,0:2:0:0:
336,19,93507,1,2,1:2:0:0:
512,101,93778,1,10,0:2:0:0:
433,182,94589,6,0,B|390:204|390:204|242:160,1,176,6|0,1:2|0:2,0:0:0:0:
167,104,94994,1,2,1:2:0:0:
259,62,95129,2,0,P|273:32|269:-1,1,66.0000025177003,10|0,0:2|0:2,0:0:0:0:
167,104,95399,6,0,B|119:112|119:112|83:250,1,176,2|8,1:2|0:2,0:0:0:0:
58,367,95805,1,2,0:2:0:0:
13,279,95940,2,0,L|-4:198,1,66.0000025177003,2|0,1:2|0:2,0:0:0:0:
144,311,96210,6,0,B|206:306|206:306|234:321|234:321|328:314,1,158.399995166016,0|0,1:2|0:2,0:0:0:0:
369,353,96616,2,0,B|390:329|390:329|372:306|372:264,1,96.8000029541017,0|8,1:2|0:2,0:0:0:0:
512,165,97021,6,0,B|450:160|450:160|422:175|422:175|328:168,1,158.399995166016,0|8,1:2|0:2,0:0:0:0:
292,202,97426,2,0,B|271:178|271:178|289:155|289:113,1,96.8000029541017,0|8,1:2|0:2,0:0:0:0:
117,0,97832,6,0,B|101:41|101:41|114:135|114:135|99:169,1,176,6|0,1:2|0:2,0:0:0:0:
9,277,98237,1,2,1:2:0:0:
100,321,98372,2,0,L|172:308,1,66.0000025177003,10|0,0:2|0:2,0:0:0:0:
332,295,98643,6,0,B|303:329|262:308|262:308|259:274|237:246,1,132,2|0,1:2|0:0,0:0:0:0:
238,255,98913,2,0,P|219:220|221:173,1,66.0000025177003,10|0,0:2|0:2,0:0:0:0:
335,190,99183,2,0,P|351:161|356:129,1,66.0000025177003,2|0,1:2|0:2,0:0:0:0:
221,67,99453,6,0,P|116:60|87:-12,1,176,2|0,1:2|1:2,0:0:0:0:
38,97,99859,1,0,1:2:0:0:
158,110,99994,5,8,0:2:0:0:
36,118,100129,1,8,0:2:0:0:
156,192,100264,5,8,0:2:0:0:
34,140,100399,1,8,0:2:0:0:
71,245,100534,6,0,P|34:247|1:264,1,74.8000014266968,8|8,0:3|0:3,0:0:0:0:
118,320,100805,1,4,0:3:0:0:
147,347,100895,1,4,0:3:0:0:
186,352,100985,1,4,0:3:0:0:
224,341,101075,6,0,P|271:302|371:313,2,140.8,6|0|2,1:2|0:2|1:2,0:0:0:0:
224,341,101886,2,0,L|219:250,1,70.4,2|0,1:2|0:2,0:0:0:0:
347,300,102156,2,0,L|329:225,1,70.4,2|0,0:2|0:2,0:0:0:0:
199,175,102426,2,0,L|224:96,1,70.4,10|0,0:2|0:2,0:0:0:0:
297,15,102697,6,0,B|375:-8|355:53|431:25,2,140.8,2|0|2,1:2|0:2|1:2,0:0:0:0:
297,15,103507,2,0,L|208:37,1,70.4,2|0,1:2|0:2,0:0:0:0:
159,146,103778,2,0,L|230:163,1,70.4,2|0,1:2|0:2,0:0:0:0:
370,250,104048,2,0,L|298:266,1,70.4,10|0,0:2|0:2,0:0:0:0:
200,363,104318,6,0,P|220:315|202:265,1,105.6,2|0,1:2|0:2,0:0:0:0:
195,254,104589,2,0,L|119:242,1,70.4,2|0,0:2|0:2,0:0:0:0:
227,142,104859,2,0,L|302:131,1,70.4,2|0,1:2|0:2,0:0:0:0:
151,68,105129,2,0,P|154:33|131:-13,1,70.4,2|0,1:2|0:2,0:0:0:0:
35,95,105399,2,0,P|29:123|43:163,1,70.4,2|0,0:2|0:2,0:0:0:0:
126,244,105670,1,10,0:2:0:0:
58,285,105805,1,0,1:2:0:0:
238,314,105940,6,0,B|270:313|307:343|307:343|293:317,1,105.599996777344,14|0,1:2|0:2,0:0:0:0:
207,152,106210,2,0,B|190:124|197:76|197:76|182:101,1,105.599996777344,6|0,1:2|0:2,0:0:0:0:
58,285,106480,2,0,B|42:312|-2:330|-2:330|26:331,1,105.599996777344,14|0,1:2|0:2,0:0:0:0:
259,297,106751,6,0,B|292:287|339:308|339:308|318:285,1,114.399994763184,14|0,1:2|0:2,0:0:0:0:
181,136,107021,2,0,B|156:112|150:60|150:60|141:90,1,114.399994763184,6|0,1:2|0:2,0:0:0:0:
62,317,107291,2,0,B|54:350|12:381|12:381|43:374,1,114.399994763184,14|0,1:2|0:2,0:0:0:0:
278,272,107562,6,0,B|326:239|371:262|371:262|360:279|352:279,1,123.199996240234,14|0,1:2|2:2,0:0:0:0:
85,194,107832,2,0,B|36:226|-8:203|-8:203|3:187|10:186,1,123.199996240234,6|0,1:2|2:2,0:0:0:0:
156,38,108102,5,6,1:2:0:0:
201,221,108237,1,8,0:2:0:0:
268,3,108372,5,14,1:2:0:0:
220,211,108507,1,0,1:2:0:0:
290,13,108643,5,14,0:2:0:0:
333,246,108778,1,8,0:2:0:0:
388,0,108913,5,14,0:2:0:0:
355,235,109048,1,8,0:2:0:0:
512,121,109183,6,0,B|529:113|529:113|470:102|470:102|425:129|425:129|342:114,1,211.199993554688,6|8,1:2|0:2,0:0:0:0:
186,34,109589,1,0,1:0:0:0:
186,34,109656,1,0,1:0:0:0:
186,34,109724,2,0,L|294:12,1,105.599996777344,0|8,1:0|0:0,0:0:0:0:
128,149,109994,6,0,P|141:217|33:283,1,211.199993554688,2|8,1:2|0:0,0:0:0:0:
34,283,110399,1,0,1:0:0:0:
171,334,110534,2,0,L|277:317,1,105.599996777344,10|0,0:2|1:2,0:0:0:0:
281,325,110737,1,0,1:0:0:0:
287,333,110805,6,0,L|406:347,1,105.599996777344,2|0,1:2|0:2,0:0:0:0:
505,231,111075,2,0,P|524:184|507:131,1,105.599996777344,10|0,0:2|0:2,0:0:0:0:
415,16,111345,1,2,1:2:0:0:
371,125,111480,1,8,0:2:0:0:
204,31,111616,6,0,L|422:15,1,211.199993554688,2|8,1:2|0:2,0:0:0:0:
276,137,112021,1,2,1:2:0:0:
276,137,112089,1,0,1:0:0:0:
276,137,112156,1,8,0:0:0:0:
204,31,112291,1,0,1:0:0:0:
105,189,112426,6,0,L|-1:178,1,105.599996777344,6|0,1:2|0:2,0:0:0:0:
245,288,112697,2,0,P|201:292|114:306,1,105.599996777344,2|8,0:2|0:2,0:0:0:0:
276,137,112967,2,0,P|225:125|174:106,1,105.599996777344,2|8,0:2|0:2,0:0:0:0:
165,101,113170,1,8,0:0:0:0:
155,93,113237,6,0,P|129:27|65:5,1,123.199996240234,6|0,1:2|0:2,0:0:0:0:
87,230,113507,2,0,P|42:285|55:351,1,123.199996240234,10|0,2:2|0:2,0:0:0:0:
240,220,113778,2,0,P|310:230|361:186,1,123.199996240234,10|0,2:2|0:2,0:0:0:0:
498,0,114048,6,0,B|455:47|441:112|454:159|487:180|487:180|492:138|442:100,1,281.6,6|2,1:2|0:2,0:0:0:0:
329,20,114453,1,8,0:2:0:0:
350,202,114589,2,0,P|381:263|449:296,1,123.199996240234,2|8,0:2|0:2,0:0:0:0:
329,20,114859,5,10,0:3:0:0:
230,141,114994,1,8,0:3:0:0:
148,68,115129,5,6,0:3:0:0:
205,238,115264,1,4,0:3:0:0:
230,141,115399,5,2,1:2:0:0:
88,258,115534,1,0,1:2:0:0:
38,59,115670,6,0,P|3:88|104:131,1,211.199993554688,6|8,1:2|0:2,0:0:0:0:
278,28,116075,1,0,1:0:0:0:
278,28,116143,1,0,1:0:0:0:
278,28,116210,2,0,L|162:16,1,105.599996777344,0|8,1:2|0:2,0:2:0:0:
316,179,116480,6,0,B|376:166|376:166|401:175|401:175|484:162,1,158.399995166016,2|0,1:2|0:0,0:0:0:0:
510,133,116751,2,0,P|521:85|481:28,1,105.599996777344,8|0,0:2|0:2,0:0:0:0:
316,179,117021,2,0,P|305:227|345:284,1,105.599996777344,8|0,0:2|0:2,0:0:0:0:
239,59,117291,6,0,P|202:34|121:44,1,105.599996777344,2|0,1:2|1:0,0:0:0:0:
130,43,117494,1,0,1:0:0:0:
119,54,117562,2,0,L|97:169,1,105.599996777344,10|0,0:2|0:2,0:0:0:0:
56,353,117832,1,2,1:2:0:0:
2,229,117967,1,8,0:2:0:0:
162,306,118102,6,0,L|377:332,1,211.199993554688,2|8,1:2|0:2,0:0:0:0:
512,221,118507,2,0,B|476:258|476:258|439:218,1,105.599996777344,2|8,1:2|0:2,0:0:0:0:
439,218,118913,6,0,P|472:126|407:24,1,211.199993554688,6|2,1:2|0:0,0:0:0:0:
285,0,119318,1,8,2:0:0:0:
250,127,119453,2,0,L|357:115,1,88,2|8,1:2|2:2,1:2:0:0:
134,4,119724,6,0,B|160:49|155:129|102:174|102:174|113:141|143:122,1,246.399992480469,6|8,1:2|0:2,0:0:0:0:
259,232,120129,1,0,1:2:0:0:
154,299,120264,2,0,P|98:313|14:289,1,123.199996240234,10|0,2:2|2:2,3:0:0:0:
354,114,120534,6,0,P|373:67|336:103,1,140.8,6|8,1:2|0:2,0:0:0:0:
297,333,120805,2,0,P|328:373|316:323,1,140.8,2|8,1:2|0:2,0:0:0:0:
135,175,121075,2,0,P|85:181|134:196,1,140.8,2|8,1:2|0:2,0:0:0:0:
354,114,121345,5,10,0:3:0:0:
207,46,121480,1,8,0:3:0:0:
231,197,121616,5,4,0:3:0:0:
64,249,121751,1,4,0:3:0:0:
0,60,121886,5,0,1:2:0:0:
25,64,121953,1,0,1:0:0:0:
50,68,122021,1,0,1:0:0:0:
75,72,122089,1,0,1:0:0:0:
100,76,122156,6,0,B|114:62|102:27|102:27|16:75|66:171,1,211.199993554688,6|8,1:2|0:2,0:0:0:0:
170,295,122562,1,0,1:0:0:0:
231,197,122697,1,0,1:2:0:0:
277,361,122832,1,8,0:2:0:0:
403,302,122967,6,0,B|416:245|416:245|412:212|412:212|430:146,1,158.399995166016,2|0,1:2|0:0,0:0:0:0:
449,135,123237,2,0,P|473:93|448:31,1,105.599996777344,8|0,0:2|0:2,0:0:0:0:
250,0,123507,2,0,P|265:49|240:94,1,105.599996777344,8|0,0:2|1:2,0:0:0:0:
229,105,123710,1,0,1:0:0:0:
213,109,123778,6,0,L|92:91,1,105.599996777344,2|0,1:2|0:2,0:0:0:0:
264,245,124048,2,0,L|385:263,1,105.599996777344,10|0,2:2|0:2,0:0:0:0:
183,357,124318,1,2,1:2:0:0:
149,244,124453,1,8,0:2:0:0:
30,377,124589,6,0,B|62:147,1,211.199993554688,2|8,1:2|0:2,0:0:0:0:
131,19,124994,1,2,1:2:0:0:
131,19,125062,1,0,1:0:0:0:
131,19,125129,2,0,P|74:27|21:-14,1,105.599996777344,0|8,1:2|0:0,0:0:0:0:
311,134,125399,6,0,L|322:21,1,105.599996777344,6|0,1:2|0:2,0:0:0:0:
157,243,125670,2,0,L|138:134,1,105.599996777344,2|8,0:2|0:2,0:0:0:0:
329,344,125940,2,0,L|355:237,1,105.599996777344,2|8,0:2|0:2,0:0:0:0:
361,227,126143,1,8,0:0:0:0:
375,215,126210,6,0,B|449:201|419:246|503:240,1,123.199996240234,6|0,1:2|0:2,0:0:0:0:
271,128,126480,2,0,P|279:55|225:-1,1,123.199996240234,10|0,0:2|0:2,0:0:0:0:
157,243,126751,2,0,P|145:302|174:355,1,123.199996240234,10|0,0:2|1:2,0:0:0:0:
198,367,126953,1,0,1:0:0:0:
224,372,127021,6,0,B|320:363|320:363|352:376|352:376|495:364,1,264.000010070801,6|2,1:2|0:2,0:0:0:0:
375,271,127426,1,8,0:2:0:0:
474,204,127562,2,0,B|508:172|508:172|475:78,1,123.199996240234,2|8,0:2|0:2,0:0:0:0:
341,11,127832,5,10,0:3:0:0:
301,173,127967,1,8,0:3:0:0:
224,11,128102,5,6,0:3:0:0:
281,158,128237,1,4,0:3:0:0:
201,21,128372,5,2,1:2:0:0:
188,204,128507,1,0,1:2:0:0:
28,81,128643,6,0,B|67:48|67:48|123:98|123:98|100:193,1,211.199993554688,6|8,1:2|0:2,0:0:0:0:
57,367,129048,1,0,1:0:0:0:
0,255,129183,1,0,1:2:0:0:
66,384,129318,1,8,0:2:0:0:
172,260,129453,6,0,P|242:226|320:235,1,158.399995166016,2|0,1:2|0:0,0:0:0:0:
356,267,129724,2,0,L|368:381,1,105.599996777344,8|0,0:2|0:2,0:0:0:0:
494,219,129994,2,0,L|506:105,1,105.599996777344,10|0,0:2|1:2,0:0:0:0:
505,98,130197,1,0,1:0:0:0:
503,82,130264,6,0,P|458:32|340:40,1,158.399995166016,2|0,1:2|0:0,0:0:0:0:
304,71,130534,2,0,P|311:112|264:174,1,105.599996777344,10|0,0:2|0:2,0:0:0:0:
117,213,130805,1,2,1:2:0:0:
152,86,130940,1,8,0:2:0:0:
280,186,131075,6,0,B|321:253|393:228|393:228|390:187|437:144,1,211.199993554688,2|8,1:2|0:2,0:0:0:0:
172,8,131480,2,0,B|153:55|104:38|104:38|101:24|91:11,1,105.599996777344,2|8,1:2|0:2,0:0:0:0:
96,18,131886,6,0,B|83:70|83:70|95:108|95:108|62:228,1,211.199993554688,6|0,1:2|0:2,0:0:0:0:
0,104,132291,1,8,0:2:0:0:
49,233,132426,2,0,L|57:343,1,105.599996777344,2|8,1:2|0:2,0:0:0:0:
279,379,132697,6,0,L|299:262,1,114.399994763184,2|0,1:2|0:2,0:2:0:0:
261,97,132967,2,0,P|186:93|160:51,1,114.399994763184,2|8,0:2|0:2,0:2:0:0:
374,163,133237,2,0,P|449:159|475:117,1,114.399994763184,2|8,1:2|0:2,0:2:0:0:
237,10,133507,6,0,P|177:49|186:229,1,246.399992480469,6|0,1:2|0:2,0:0:0:0:
28,185,133913,1,10,0:2:0:0:
182,228,134048,2,0,L|309:250,1,123.199996240234,2|8,1:2|0:2,0:0:0:0:
512,145,134318,5,10,0:2:0:0:
414,95,134453,1,0,1:2:0:0:
501,223,134589,5,10,0:3:0:0:
360,174,134724,1,8,0:3:0:0:
481,301,134859,5,6,0:3:0:0:
445,277,134926,1,4,0:3:0:0:
399,274,134994,1,4,0:3:0:0:
363,299,135062,1,4,0:3:0:0:
339,342,135129,6,0,P|290:361|229:319,1,114.399994763184,14|0,1:2|0:2,0:0:0:0:
316,82,135399,2,0,P|356:114|351:188,1,114.399994763184,6|0,1:2|0:2,0:0:0:0:
103,232,135670,2,0,P|111:180|177:148,1,114.399994763184,6|0,1:2|0:2,0:0:0:0:
359,173,135940,6,0,B|395:172|419:187|419:187|432:163|465:149,1,123.199996240234,14|0,1:2|0:2,0:0:0:0:
205,33,136210,2,0,B|241:34|265:19|265:19|278:43|311:56,1,123.199996240234,6|0,1:2|0:2,0:0:0:0:
103,232,136480,2,0,B|139:231|163:246|163:246|176:222|209:208,1,123.199996240234,6|0,1:2|0:2,0:0:0:0:
475,174,136751,6,0,B|493:313,1,132.000005035401,14|0,1:2|0:2,0:0:0:0:
103,232,137021,2,0,B|121:371,1,132.000005035401,6|0,1:2|0:2,0:0:0:0:
356,66,137291,2,0,B|374:205,1,132.000005035401,6|0,1:2|0:2,0:0:0:0:
197,1,137562,5,14,1:2:0:0:
178,184,137697,1,2,1:2:0:0:
52,61,137832,5,14,1:2:0:0:
103,232,137967,1,10,0:2:0:0:
267,88,138102,5,10,0:2:0:0:
201,319,138237,1,10,0:2:0:0:
296,289,138372,6,0,B|385:279|348:348|444:361,1,158.399995166016,6|0,1:2|0:2,0:0:0:0:
504,336,138778,2,0,L|509:256,1,79.1999975830079,0|8,1:2|0:2,0:2:0:0:
508,256,139183,5,2,1:2:0:0:
425,187,139453,1,8,0:2:0:0:
512,91,139724,1,0,1:2:0:0:
414,0,139994,1,2,1:2:0:0:
275,62,140264,6,0,L|361:72,1,79.1999975830079,2|0,0:0|1:0,0:0:0:0:
231,166,140534,2,0,L|315:152,1,79.1999975830079,10|0,0:2|0:2,0:2:0:0:
183,83,140805,2,0,P|173:26|157:-1,1,79.1999975830079,2|0,1:2|2:2,2:2:0:0:
73,103,141075,2,0,P|58:138|59:264,2,158.399995166016,10|8|0,0:2|0:2|1:2,0:2:0:0:
163,7,141751,5,2,1:2:0:0:
235,43,141886,2,0,P|280:46|325:27,1,79.1999975830079,2|0,0:0|1:0,0:0:0:0:
425,0,142156,2,0,P|399:37|393:85,1,79.1999975830079,10|0,2:2|2:0,3:0:0:0:
367,186,142426,2,0,P|347:145|308:116,1,79.1999975830079,2|0,1:2|2:0,3:0:0:0:
235,43,142697,5,10,0:2:0:0:
231,58,142832,1,2,0:2:0:0:
167,119,142967,5,2,1:2:0:0:
171,134,143102,1,2,0:2:0:0:
240,171,143237,5,2,1:2:0:0:
175,211,143372,1,2,0:2:0:0:
242,247,143507,1,2,0:2:0:0:
177,287,143643,2,0,L|80:298,1,79.1999975830079,10|2,0:2|1:2,0:2:0:0:
240,171,143913,5,10,0:2:0:0:
271,258,144048,1,8,0:2:0:0:
350,227,144183,5,8,0:3:0:0:
335,314,144318,1,10,0:3:0:0:
410,289,144453,5,4,0:3:0:0:
442,360,144589,5,4,0:3:0:0:
472,377,144724,5,0,1:3:0:0:
419,277,144859,6,0,P|347:245|270:257,1,158.399995166016,6|2,1:2|0:2,0:2:0:0:
209,330,145264,1,2,1:2:0:0:
136,269,145399,1,10,0:2:0:0:
197,196,145534,6,0,P|213:150|198:90,1,79.1999975830079,2|0,0:2|1:2,0:2:0:0:
77,219,145805,2,0,P|108:255|168:272,1,79.1999975830079,2|8,2:2|2:2,3:2:0:0:
117,103,146075,2,0,P|69:112|24:155,1,79.1999975830079,2|0,2:2|1:2,3:2:0:0:
31,144,146480,5,2,1:2:0:0:
67,14,146616,1,2,0:2:0:0:
49,24,146886,5,0,1:0:0:0:
223,76,147021,1,10,0:2:0:0:
207,89,147291,6,0,L|118:73,1,79.1999975830079,2|0,1:2|0:2,0:2:0:0:
310,14,147562,2,0,L|221:-2,1,79.1999975830079,10|0,2:2|0:2,0:2:0:0:
322,180,147832,2,0,L|233:164,1,79.1999975830079,10|0,2:2|0:2,0:2:0:0:
409,120,148102,6,0,P|415:72|531:49,1,158.399995166016,2|2,1:2|0:2,0:2:0:0:
512,169,148507,2,0,L|497:263,1,79.1999975830079,2|8,1:2|0:2,0:2:0:0:
499,247,148913,5,2,1:2:0:0:
510,271,149048,1,2,0:2:0:0:
438,305,149183,5,10,0:2:0:0:
453,321,149318,1,2,0:2:0:0:
405,379,149453,5,2,1:2:0:0:
343,232,149724,6,0,B|318:187|272:202|272:202|250:235|206:238,1,158.399995166016,6|0,1:2|0:2,0:2:0:0:
74,193,150129,1,8,0:2:0:0:
186,237,150264,1,0,1:2:0:0:
52,183,150399,1,8,0:2:0:0:
156,155,150534,6,0,P|206:95|176:12,1,158.399995166016,6|0,1:2|0:2,0:2:0:0:
54,30,150940,1,8,0:2:0:0:
168,8,151075,1,0,1:2:0:0:
34,16,151210,1,8,0:2:0:0:
187,22,151345,6,0,B|252:35|252:35|267:55|267:55|340:71,1,158.399995166016,6|8,1:2|0:2,0:2:0:0:
484,37,151751,1,4,0:3:0:0:
355,63,151886,1,4,0:3:0:0:
506,29,152021,1,4,0:3:0:0:
398,143,152156,5,8,0:2:0:0:
398,143,152224,1,8,0:2:0:0:
398,143,152291,1,8,0:2:0:0:
492,186,152426,5,4,0:3:0:0:
396,227,152562,5,4,0:3:0:0:
455,290,152697,5,4,0:3:0:0:
422,363,152832,5,4,0:3:0:0:
321,274,152967,6,0,B|257:260|257:260|216:280|216:280|144:266,1,176,6|0,1:2|0:2,0:2:0:0:
76,192,153372,1,2,1:2:0:0:
183,155,153507,2,0,P|201:123|184:76,1,66.0000025177003,10|0,0:2|0:2,0:2:0:0:
62,30,153778,6,0,P|39:113|76:192,1,176,2|8,1:2|0:2,0:2:0:0:
152,267,154183,1,2,0:2:0:0:
57,328,154318,2,0,L|-18:317,1,66.0000025177003,2|0,1:2|0:2,0:2:0:0:
170,278,154589,6,0,B|253:275|223:346|307:354,1,158.399995166016,2|0,1:2|0:2,0:2:0:0:
372,384,154994,2,0,L|388:304,1,79.1999975830079,2|8,0:2|0:2,0:2:0:0:
387,306,155399,2,0,L|384:212,1,79.1999975830079,2|0,1:2|0:2,0:2:0:0:
467,272,155670,2,0,L|464:178,1,79.1999975830079,8|0,2:2|0:2,0:2:0:0:
306,248,155940,2,0,L|303:154,1,79.1999975830079,8|0,2:2|0:2,0:2:0:0:
442,65,156210,6,0,B|407:94|407:94|269:64,1,176,6|0,1:2|0:2,0:2:0:0:
187,127,156616,1,2,1:2:0:0:
102,66,156751,2,0,P|91:38|101:-10,1,66.0000025177003,10|0,0:2|0:2,0:2:0:0:
187,127,157021,6,0,B|210:163|210:163|173:300,1,176,2|8,1:2|0:2,0:2:0:0:
105,384,157426,1,2,0:2:0:0:
19,320,157562,2,0,P|3:288|6:248,1,66.0000025177003,0|0,1:2|0:2,0:2:0:0:
112,160,157832,6,0,B|183:149|183:149|203:155|203:155|308:140,1,176,2|0,1:2|1:2,0:0:0:0:
325,48,158237,1,0,1:2:0:0:
380,169,158372,5,8,0:2:0:0:
345,39,158507,1,8,0:2:0:0:
459,113,158643,5,8,0:2:0:0:
365,30,158778,1,8,0:2:0:0:
285,143,158913,6,0,L|269:223,1,74.8000014266968,8|8,0:3|0:3,0:0:0:0:
191,296,159183,1,4,0:3:0:0:
166,263,159273,1,4,0:3:0:0:
129,251,159363,1,4,0:3:0:0:
90,254,159453,6,0,P|23:239|8:162,2,140.8,6|0|2,1:2|0:2|1:2,0:0:0:0:
90,254,160264,2,0,L|102:163,1,70.4,2|0,1:2|0:2,0:0:0:0:
215,343,160534,2,0,L|207:254,1,70.4,2|0,0:2|0:2,0:0:0:0:
326,231,160805,2,0,L|300:164,1,70.4,10|0,0:2|0:2,0:0:0:0:
390,66,161075,6,0,P|438:73|486:-16,2,140.8,2|0|2,1:2|0:2|1:2,0:0:0:0:
390,66,161886,2,0,L|303:51,1,70.4,2|0,1:2|0:2,0:0:0:0:
162,140,162156,2,0,L|234:119,1,70.4,2|0,1:2|0:2,0:0:0:0:
395,211,162426,2,0,L|318:183,1,70.4,10|0,0:2|0:2,0:0:0:0:
235,271,162697,6,0,P|251:315|204:376,1,105.6,2|0,1:2|0:2,0:0:0:0:
211,372,162967,2,0,L|136:358,1,70.4,2|0,0:2|0:2,0:0:0:0:
7,289,163237,2,0,L|82:275,1,70.4,2|0,1:2|0:2,0:0:0:0:
163,208,163507,2,0,P|170:176|158:133,1,70.4,2|0,1:2|0:2,0:0:0:0:
57,58,163778,2,0,P|50:92|58:126,1,70.4,2|0,2:2|0:2,0:0:0:0:
231,44,164048,1,10,0:2:0:0:
163,0,164183,1,0,1:2:0:0:
301,87,164318,6,0,B|339:97|353:122|353:122|344:105|344:84,1,105.599996777344,14|0,1:2|0:2,0:0:0:0:
163,208,164589,2,0,B|134:236|105:235|105:235|125:236|144:246,1,105.599996777344,6|0,1:2|0:2,0:0:0:0:
350,298,164859,2,0,B|378:326|407:325|407:325|387:326|369:337,1,105.599996777344,6|0,1:2|0:2,0:0:0:0:
144,193,165129,6,0,B|108:179|108:179|67:188|67:188|95:170,1,114.399994763184,14|0,1:2|0:2,0:0:0:0:
374,151,165399,2,0,B|410:137|410:137|451:146|451:146|422:128,1,114.399994763184,6|0,1:2|0:2,0:0:0:0:
142,43,165670,2,0,B|106:29|106:29|65:38|65:38|93:20,1,114.399994763184,6|0,1:2|0:2,0:0:0:0:
291,213,165940,6,0,P|286:265|346:292,1,123.199996240234,14|0,1:2|2:2,0:0:0:0:
512,79,166210,2,0,P|517:27|457:0,1,123.199996240234,6|0,1:2|2:2,0:0:0:0:
214,102,166480,5,6,1:2:0:0:
374,151,166616,1,8,0:2:0:0:
189,107,166751,5,14,1:2:0:0:
381,55,166886,1,0,1:2:0:0:
164,103,167021,5,14,0:2:0:0:
394,165,167156,1,8,0:2:0:0:
140,109,167291,5,14,0:2:0:0:
400,39,167426,1,8,0:2:0:0:
255,216,167562,5,2,0:0:0:0:
321,62,174048,6,0,B|311:17|311:17|256:97|256:97|316:168,1,211.199993554688,6|8,1:2|0:2,0:0:0:0:
404,252,174453,1,0,1:0:0:0:
404,252,174521,1,0,1:0:0:0:
404,252,174589,2,0,L|517:233,1,105.599996777344,0|8,1:2|0:2,0:2:0:0:
299,149,174859,6,0,B|239:137|239:137|208:152|208:152|133:141,1,158.399995166016,2|0,1:2|0:0,0:0:0:0:
92,140,175129,2,0,P|71:93|92:43,1,105.599996777344,8|0,0:2|0:2,0:0:0:0:
220,238,175399,2,0,P|238:285|217:332,1,105.599996777344,8|0,0:2|0:2,0:0:0:0:
305,130,175670,6,0,P|365:80|443:77,1,158.399995166016,2|0,1:2|0:2,0:0:0:0:
488,97,175940,2,0,L|496:213,1,105.599996777344,10|0,0:2|0:2,0:0:0:0:
510,374,176210,1,2,1:2:0:0:
427,312,176345,1,8,0:2:0:0:
217,332,176480,6,0,L|440:311,1,211.199993554688,2|8,1:2|0:2,0:0:0:0:
324,217,176886,2,0,B|287:182|287:182|334:143,1,105.599996777344,2|8,1:2|0:2,0:0:0:0:
329,147,177291,6,0,B|411:81|411:81|312:3,1,211.199993554688,6|2,1:2|0:0,0:0:0:0:
198,85,177697,1,10,2:0:0:0:
329,147,177832,2,0,L|432:133,1,88,2|8,1:2|0:2,0:2:0:0:
160,0,178102,6,0,B|166:100|99:145|99:145|61:113|71:70,1,246.399992480469,6|8,1:2|0:2,0:0:0:0:
234,203,178507,1,2,1:2:0:0:
130,244,178643,2,0,P|72:246|18:200,1,123.199996240234,10|0,2:2|2:2,3:0:0:0:
266,100,178913,6,0,B|288:80|275:33|275:33|240:67|249:95,1,140.8,6|0,1:2|0:2,0:0:0:0:
307,282,179183,2,0,B|313:311|360:323|360:323|348:275|319:269,1,140.8,2|8,2:2|0:2,0:0:0:0:
128,226,179453,2,0,B|99:216|65:251|65:251|113:265|133:242,1,140.8,10|8,2:3|0:2,0:0:0:0:
386,141,179724,5,10,0:3:0:0:
248,93,179859,1,8,0:3:0:0:
414,145,179994,5,4,0:3:0:0:
234,203,180129,1,4,0:3:0:0:
442,148,180264,5,0,1:2:0:0:
408,123,180332,1,0,1:0:0:0:
394,82,180399,1,0,1:0:0:0:
413,44,180467,1,0,1:0:0:0:
451,27,180534,6,0,P|506:71|469:231,1,211.199993554688,6|8,1:2|0:2,0:0:0:0:
396,319,180940,1,0,1:2:0:0:
396,319,181007,1,0,1:0:0:0:
396,319,181075,2,0,L|257:302,1,105.599996777344,0|8,1:2|0:2,0:2:0:0:
100,179,181345,6,0,B|299:155,1,158.399995166016,2|0,1:2|0:0,0:0:0:0:
282,126,181616,2,0,P|296:74|256:16,1,105.599996777344,8|0,0:2|0:2,0:0:0:0:
65,203,181886,2,0,P|51:255|91:313,1,105.599996777344,8|0,0:2|1:2,0:0:0:0:
85,308,182089,1,0,1:0:0:0:
99,315,182156,6,0,L|220:297,1,105.599996777344,2|0,1:2|0:2,0:0:0:0:
386,138,182426,2,0,L|267:124,1,105.599996777344,10|0,2:2|0:2,0:0:0:0:
77,95,182697,1,2,1:2:0:0:
177,0,182832,1,8,0:2:0:0:
281,125,182967,6,0,B|297:195|297:195|292:241|292:241|316:331,1,211.199993554688,2|8,1:2|0:2,0:0:0:0:
479,384,183372,1,2,1:2:0:0:
479,384,183440,1,0,1:0:0:0:
479,384,183507,2,0,L|494:269,1,105.599996777344,0|8,1:2|0:0,0:0:0:0:
369,80,183778,6,0,P|325:81|268:24,1,105.599996777344,6|0,1:2|0:2,0:0:0:0:
90,175,184048,2,0,P|132:187|202:147,1,105.599996777344,2|8,2:2|0:2,0:0:0:0:
367,327,184318,2,0,P|327:293|275:292,1,105.599996777344,2|8,2:2|1:2,0:0:0:0:
261,300,184521,1,8,0:0:0:0:
244,307,184589,6,0,P|181:325|116:282,1,123.199996240234,6|0,1:2|0:2,0:0:0:0:
369,80,184859,2,0,P|416:125|411:203,1,123.199996240234,10|0,2:2|0:2,0:0:0:0:
111,86,185129,2,0,P|126:22|196:-12,1,123.199996240234,10|0,2:2|0:2,0:0:0:0:
369,80,185399,6,0,B|404:135|477:142|508:113|508:113|486:114|460:140,1,198.000007553101,6|0,1:2|0:2,0:0:0:0:
420,180,185670,2,0,P|401:259|426:306,1,123.199996240234,2|8,0:0|0:0,0:0:0:0:
204,101,185940,2,0,P|206:40|171:-8,1,123.199996240234,2|8,0:0|0:0,0:0:0:0:
12,147,186210,5,10,0:3:0:0:
189,195,186345,1,8,0:3:0:0:
13,233,186480,5,6,0:3:0:0:
219,192,186616,1,4,0:3:0:0:
76,288,186751,5,2,1:2:0:0:
249,187,186886,1,0,1:2:0:0:
91,29,187021,6,0,B|29:4|29:4|11:147,1,211.199993554688,6|8,1:2|0:2,0:0:0:0:
84,295,187426,1,0,1:2:0:0:
84,295,187494,1,0,1:0:0:0:
84,295,187562,2,0,B|116:355|116:355|140:296,1,105.599996777344,0|8,1:2|0:2,0:2:0:0:
225,181,187832,6,0,B|234:123|234:123|230:105|230:105|244:11,1,158.399995166016,2|0,1:2|0:0,0:0:0:0:
282,15,188102,2,0,L|399:5,1,105.599996777344,8|0,0:2|0:2,0:0:0:0:
512,243,188372,2,0,L|395:233,1,105.599996777344,10|0,0:2|1:2,0:0:0:0:
390,233,188575,1,0,1:0:0:0:
374,232,188643,6,0,P|358:194|378:124,1,105.599996777344,2|0,1:2|0:0,0:0:0:0:
117,10,188913,2,0,P|134:59|119:109,1,105.599996777344,10|0,2:2|0:0,0:0:0:0:
8,212,189183,1,2,1:2:0:0:
108,128,189318,1,8,0:2:0:0:
171,270,189453,6,0,B|206:296|206:296|289:260|263:157,1,211.199993554688,2|8,1:2|0:2,0:0:0:0:
117,10,189859,2,0,B|93:52|46:46|46:46|25:15,1,105.599996777344,2|8,1:2|0:2,0:0:0:0:
34,29,190264,6,0,B|247:9,1,211.199993554688,6|0,1:2|0:2,0:0:0:0:
108,128,190670,1,8,0:2:0:0:
249,204,190805,2,0,B|274:159|274:159|242:99,1,105.599996777344,2|8,1:2|0:2,0:0:0:0:
162,41,191007,1,8,0:0:0:0:
146,48,191075,6,0,L|33:28,1,114.399994763184,2|0,1:2|0:2,0:2:0:0:
148,240,191345,2,0,L|35:220,1,114.399994763184,2|8,2:2|0:2,0:2:0:0:
361,131,191616,2,0,L|248:111,1,114.399994763184,2|8,1:2|0:2,0:2:0:0:
481,0,191886,6,0,B|450:52|462:149|517:198|517:198|505:158|473:140,1,281.6,6|8,1:2|0:2,0:0:0:0:
323,217,192291,1,10,0:2:0:0:
398,319,192426,2,0,P|458:329|526:286,1,123.199996240234,2|8,1:2|0:2,0:0:0:0:
311,195,192697,5,10,0:2:0:0:
270,361,192832,1,0,1:2:0:0:
299,173,192967,5,10,0:3:0:0:
163,252,193102,1,8,0:3:0:0:
286,151,193237,5,6,0:3:0:0:
322,118,193305,1,4,0:3:0:0:
329,68,193372,1,4,0:3:0:0:
301,26,193440,1,4,0:3:0:0:
253,14,193507,6,0,B|214:7|214:7|194:17|194:17|125:7,1,114.399994763184,14|0,1:2|0:2,0:0:0:0:
299,173,193778,2,0,B|338:180|338:180|358:170|358:170|427:180,1,114.399994763184,6|0,1:2|0:2,0:0:0:0:
141,267,194048,2,0,B|102:260|102:260|82:270|82:270|13:260,1,114.399994763184,6|0,1:2|0:2,0:0:0:0:
319,384,194318,6,0,B|357:357|357:357|364:327|364:327|403:304,1,123.199996240234,14|0,1:2|0:2,0:0:0:0:
113,153,194589,2,0,B|117:200|117:200|139:221|139:221|140:265,1,123.199996240234,6|0,1:2|0:2,0:0:0:0:
416,90,194859,2,0,B|373:69|373:69|344:78|344:78|304:57,1,123.199996240234,6|0,1:2|0:2,0:0:0:0:
46,80,195129,6,0,B|110:100|110:100|168:67,1,132.000005035401,14|0,1:2|0:2,0:0:0:0:
480,202,195399,2,0,B|416:222|416:222|357:189,1,132.000005035401,6|0,1:2|0:2,0:0:0:0:
86,342,195670,2,0,B|150:362|150:362|208:329,1,132.000005035401,6|0,1:2|0:2,0:0:0:0:
302,44,195940,5,14,1:2:0:0:
163,235,196075,1,2,1:2:0:0:
170,60,196210,5,14,1:2:0:0:
291,288,196345,1,10,0:2:0:0:
315,28,196480,5,10,0:2:0:0:
149,251,196616,1,10,0:2:0:0:
62,165,196751,6,0,L|47:32,2,132.000005035401,6|0|0,1:2|0:2|1:2,0:2:0:0:
238,214,197562,2,0,L|252:74,1,132.000005035401,10|0,0:2|0:2,0:2:0:0:
251,82,198102,1,0,1:0:0:0:
417,267,198372,2,0,L|454:130,2,132.000005035401,2|0|0,1:2|0:2|1:2,0:2:0:0:
291,347,199183,2,0,P|233:318|167:312,1,132.000005035401,10|0,0:2|0:2,0:2:0:0:
81,345,199589,1,8,0:2:0:0:
96,255,199724,1,0,1:2:0:0:
167,312,199994,6,0,P|225:341|291:347,2,132.000005035401,6|0|0,1:2|0:2|1:2,0:2:0:0:
304,181,200805,2,0,P|362:151|428:145,1,132.000005035401,10|0,0:2|0:2,0:2:0:0:
427,144,201345,1,0,1:0:0:0:
236,102,201616,2,0,P|182:64|146:8,1,132.000005035401,2|0,1:2|0:2,0:2:0:0:
146,8,202156,1,0,1:0:0:0:
236,102,202426,2,0,P|241:161|173:252,1,153.120001285034,10|0,0:2|0:2,0:2:0:0:
88,301,202832,1,8,1:2:0:0:
88,179,202967,1,8,0:2:0:0:
228,322,203237,6,0,B|256:374|329:350|329:350|326:315|340:291,1,176,6|2,1:2|0:2,0:0:0:0:
479,193,203643,2,0,B|443:209|443:209|469:167,1,88,10|2,0:2|1:2,0:0:0:0:
469,168,204048,6,0,P|499:137|500:94,1,88,10|0,0:2|0:2,0:0:0:0:
325,64,204318,2,0,P|313:22|277:0,1,88,2|0,1:2|0:2,0:0:0:0:
162,136,204589,2,0,P|120:125|82:145,1,88,10|0,2:2|0:2,0:0:0:0:
261,306,204859,6,0,B|392:340|474:259|496:177|472:114|472:114|467:165|504:218,1,440,2|0,1:2|0:0,0:0:0:0:
358,22,205670,6,0,P|320:0|276:0,1,88,10|0,0:2|1:2,0:0:0:0:
332,229,205940,2,0,P|369:206|392:169,1,88,2|0,1:2|1:2,0:0:0:0:
165,102,206210,2,0,P|165:145|186:183,1,88,10|0,2:2|1:2,0:0:0:0:
420,286,206480,6,0,B|452:302|462:341|462:341|465:283|417:232|327:228,1,264,6|2,1:2|1:2,0:0:0:0:
201,326,207021,2,0,P|172:359|116:365,1,88,10|2,0:2|0:2,0:0:0:0:
11,240,207291,6,0,P|-8:153|36:80,1,176,10|0,0:2|1:2,0:0:0:0:
34,81,207697,1,0,1:2:0:0:
198,18,207832,2,0,L|103:5,1,88,8|0,0:2|1:2,0:0:0:0:
249,143,208102,5,10,0:2:0:0:
316,27,208237,1,2,0:2:0:0:
349,191,208372,1,2,1:2:0:0:
455,92,208507,2,0,B|471:68|471:68|405:72|405:72|438:157,1,176,10|2,0:2|0:2,0:0:0:0:
512,274,208913,5,10,0:2:0:0:
445,172,209048,1,2,0:2:0:0:
396,327,209183,1,2,1:2:0:0:
349,191,209318,2,0,B|300:175|300:175|247:191|247:191|169:165,1,176,10|0,0:2|1:2,0:0:0:0:
0,42,209724,6,0,B|52:51|52:51|125:21,1,105.599996777344,14|0,0:2|1:2,0:0:0:0:
349,191,209994,6,0,B|292:211|292:211|230:187,1,123.199996240234,14|0,0:2|1:2,0:0:0:0:
0,355,210264,6,0,B|67:375|67:375|142:319,1,140.8,14|0,2:2|1:2,0:0:0:0:
292,120,210534,5,14,0:2:0:0:
85,168,210670,1,0,1:2:0:0:
349,191,210805,5,14,0:2:0:0:
50,163,210940,1,8,0:2:0:0:
324,104,211075,5,14,0:2:0:0:
15,157,211210,1,8,0:2:0:0:
381,203,211345,5,14,0:2:0:0:
86,296,212967,6,0,B|73:354|19:375|19:375|-45:270|3:49|258:80|318:210|318:210|448:278|541:148|482:-4|339:31,1,1056,2|4,0:0|0:0,0:0:0:0:
