osu file format v14

[General]
AudioFilename: audio.mp3
AudioLeadIn: 0
PreviewTime: 467
Countdown: 0
SampleSet: Soft
StackLeniency: 0.7
Mode: 0
LetterboxInBreaks: 0
WidescreenStoryboard: 0

[Editor]
DistanceSpacing: 0.5
BeatDivisor: 4
GridSize: 32
TimelineZoom: 2.3

[Metadata]
Title:Dependency
TitleUnicode:Depéndəncy
Artist:Kitamura Eri
ArtistUnicode:喜多村英梨
Creator:Mordred
Version:LMT's Hard
Source:
Tags:illusion dream dystopia record wood village japanese lasse rock air lmt
BeatmapID:2225391
BeatmapSetID:1053406

[Difficulty]
HPDrainRate:5
CircleSize:4
OverallDifficulty:6
ApproachRate:8.2
SliderMultiplier:1.2
SliderTickRate:1

[Events]
//Background and Video events
0,0,"290049.jpg",0,0
//Break Periods
2,73707,80896
2,167762,173328
//Storyboard Layer 0 (Background)
//Storyboard Layer 1 (Fail)
//Storyboard Layer 2 (Pass)
//Storyboard Layer 3 (Foreground)
//Storyboard Layer 4 (Overlay)
//Storyboard Sound Samples

[TimingPoints]
535,270.27027027027,3,2,1,50,1,0
535,-133.333333333333,3,2,1,50,0,0
7021,-100,3,2,1,70,0,0
7224,-100,3,2,1,5,0,0
7291,-100,3,2,1,70,0,0
12426,-100,3,2,1,70,0,0
12697,-100,3,2,1,70,0,0
13778,-100,3,2,1,70,0,0
14048,-100,3,2,1,70,0,0
14318,-100,3,2,1,75,0,0
14589,-100,3,2,1,80,0,0
14859,-100,3,2,1,85,0,0
16480,-100,3,2,1,50,0,0
16751,-100,3,2,1,50,0,0
16953,-100,3,2,1,5,0,0
17021,-100,3,2,1,50,0,0
17224,-100,3,2,1,5,0,0
17292,-100,3,2,1,50,0,0
17764,-100,3,2,1,5,0,0
17832,-100,3,2,1,50,0,0
18034,-100,3,2,1,5,0,0
18102,-100,3,2,1,50,0,0
18305,-100,3,2,1,5,0,0
18373,-100,3,2,1,50,0,0
18575,-100,3,2,1,5,0,0
18643,-100,3,2,1,50,0,0
18845,-100,3,2,1,5,0,0
18913,-100,3,2,1,50,0,0
19656,-100,3,2,1,5,0,0
19724,-100,3,2,1,50,0,0
20197,-100,3,2,1,5,0,0
20265,-100,3,2,1,50,0,0
20467,-100,3,2,1,5,0,0
20535,-100,3,2,1,50,0,0
21007,-100,3,2,1,5,0,0
21075,-100,3,2,1,50,0,0
21278,-100,3,2,1,5,0,0
21346,-100,3,2,1,50,0,0
21818,-100,3,2,1,5,0,0
21886,-100,3,2,1,50,0,0
22089,-100,3,2,1,5,0,0
22157,-100,3,2,1,50,0,0
23440,-100,3,2,1,5,0,0
23508,-100,3,2,1,50,0,0
23710,-100,3,2,1,5,0,0
23778,-100,3,2,1,50,0,0
24251,-100,3,2,1,5,0,0
24319,-100,3,2,1,50,0,0
24521,-100,3,2,1,5,0,0
24589,-100,3,2,1,50,0,0
24791,-100,3,2,1,5,0,0
24859,-100,3,2,1,50,0,0
25062,-100,3,2,1,5,0,0
25130,-100,3,2,1,50,0,0
25332,-100,3,2,1,5,0,0
25400,-100,3,2,1,50,0,0
26143,-100,3,2,1,5,0,0
26211,-100,3,2,1,50,0,0
26683,-100,3,2,1,5,0,0
26751,-100,3,2,1,50,0,0
26953,-100,3,2,1,5,0,0
27021,-100,3,2,1,50,0,0
28305,-100,3,2,1,5,0,0
28373,-100,3,2,1,50,0,0
28575,-100,3,2,1,5,0,0
28643,-100,3,2,1,50,0,0
28845,-100,3,2,1,5,0,0
28913,-100,3,2,1,50,0,0
29724,-100,3,2,1,60,0,0
36210,-133.333333333333,3,2,1,50,0,0
39656,-133.333333333333,3,2,1,5,0,0
39724,-100,3,2,1,50,0,0
41075,-100,3,2,1,70,0,0
44318,-83.3333333333333,3,2,1,70,0,1
48372,-83.3333333333333,3,2,1,70,0,1
49183,-83.3333333333333,3,2,1,70,0,1
50805,-83.3333333333333,3,2,1,70,0,1
54859,-83.3333333333333,3,2,1,70,0,1
55670,-83.3333333333333,3,2,1,70,0,1
57291,-83.3333333333333,3,2,1,70,0,1
61345,-83.3333333333333,3,2,1,70,0,1
62156,-83.3333333333333,3,2,1,70,0,1
63778,-83.3333333333333,3,2,1,70,0,1
70264,-83.3333333333333,3,2,1,70,0,1
73507,-100,3,2,1,50,0,0
76683,-100,3,2,1,5,0,0
76751,-100,3,2,1,50,0,0
79116,-100,3,2,1,5,0,0
79183,-100,3,2,1,50,0,0
81616,-133.333333333333,3,2,1,50,0,0
88034,-133.333333333333,3,2,1,5,0,0
88102,-133.333333333333,3,2,1,50,0,0
94589,-100,3,2,1,60,0,0
101075,-133.333333333333,3,2,1,50,0,0
104521,-133.333333333333,3,2,1,5,0,0
104589,-100,3,2,1,50,0,0
105940,-100,3,2,1,70,0,0
109183,-83.3333333333333,3,2,1,70,0,1
113237,-83.3333333333333,3,2,1,70,0,1
114048,-83.3333333333333,3,2,1,70,0,1
115670,-83.3333333333333,3,2,1,70,0,1
119724,-83.3333333333333,3,2,1,70,0,1
120534,-83.3333333333333,3,2,1,70,0,1
122156,-83.3333333333333,3,2,1,70,0,1
126210,-83.3333333333333,3,2,1,70,0,1
127021,-83.3333333333333,3,2,1,70,0,1
128643,-83.3333333333333,3,2,1,70,0,1
135129,-83.3333333333333,3,2,1,70,0,1
138372,-100,3,2,1,60,0,0
152967,-100,3,2,1,60,0,0
159453,-133.333333333333,3,2,1,50,0,0
162899,-133.333333333333,3,2,1,5,0,0
162967,-100,3,2,1,50,0,0
164318,-100,3,2,1,70,0,0
174048,-83.3333333333333,3,2,1,70,0,1
178102,-83.3333333333333,3,2,1,70,0,1
178913,-83.3333333333333,3,2,1,70,0,1
180534,-83.3333333333333,3,2,1,70,0,1
184589,-83.3333333333333,3,2,1,70,0,1
185399,-83.3333333333333,3,2,1,70,0,1
187021,-83.3333333333333,3,2,1,70,0,1
193507,-83.3333333333333,3,2,1,70,0,1
196751,-133.333333333333,3,2,1,50,0,0
202426,-133.333333333333,3,2,1,50,0,0
203237,-100,3,2,1,70,0,0
203440,-100,3,2,1,5,0,0
203507,-100,3,2,1,70,0,0
208643,-100,3,2,1,70,0,0
209318,-100,3,2,1,70,0,0
209994,-100,3,2,1,70,0,0
210264,-100,3,2,1,70,0,0
210534,-100,3,2,1,75,0,0
210805,-100,3,2,1,80,0,0
211075,-100,3,2,1,85,0,0
212967,-100,3,2,1,40,0,0
216717,-100,3,2,99,5,0,0

[Colours]
Combo1 : 250,180,240
Combo2 : 110,190,225
Combo3 : 255,230,130
Combo4 : 150,230,140

[HitObjects]
147,142,535,6,0,L|93:131,4,45.0000017166138,2|0|0|0|0,0:2|0:2|0:2|0:2|0:2,0:0:0:0:
230,92,1345,1,2,0:2:0:0:
271,184,1616,5,0,0:2:0:0:
263,216,1751,1,0,0:2:0:0:
256,246,1886,1,0,0:2:0:0:
340,291,2156,2,0,L|348:349,4,45.0000017166138,2|0|0|0|0,0:2|0:2|0:2|0:2|0:2,0:0:0:0:
411,228,2967,1,2,0:2:0:0:
491,295,3237,1,0,0:2:0:0:
483,327,3372,1,0,0:2:0:0:
476,357,3507,1,0,0:2:0:0:
503,209,3778,6,0,L|496:152,4,45.0000017166138,2|0|0|0|0,0:2|0:2|0:2|0:2|0:2,0:0:0:0:
441,87,4589,1,2,0:2:0:0:
337,129,4859,5,0,0:2:0:0:
303,128,4994,1,2,0:2:0:0:
266,114,5129,1,2,0:2:0:0:
244,86,5264,1,2,0:2:0:0:
239,56,5399,5,2,0:2:0:0:
139,91,5670,2,0,L|154:152,1,45.0000017166138,0|0,0:2|0:2,0:0:0:0:
92,185,5940,2,0,P|72:175|44:166,1,45.0000017166138,0|0,0:2|0:2,0:0:0:0:
170,212,6210,2,0,P|153:253|146:298,1,90.0000034332276,2|2,0:2|0:2,0:0:0:0:
177,331,6616,1,0,0:2:0:0:
232,343,6751,1,10,0:2:0:0:
286,321,6886,1,0,0:0:0:0:
325,281,7021,6,0,P|360:264|451:253,1,120,6|2,1:2|0:2,0:0:0:0:
456,140,7426,1,10,0:2:0:0:
487,128,7562,2,0,L|477:198,1,60,2|0,1:2|0:2,0:0:0:0:
510,56,7832,2,0,P|466:16|381:16,2,120,10|2|10,0:2|1:2|0:2,0:0:0:0:
303,43,8643,6,0,B|321:72|321:72|311:171,1,120,2|0,1:2|0:2,0:0:0:0:
219,179,9048,1,8,0:0:0:0:
237,155,9183,2,0,L|245:90,1,60,0|0,1:2|0:0,0:0:0:0:
191,42,9453,1,10,0:2:0:0:
156,52,9589,2,0,P|122:79|118:153,1,120,0|0,1:2|1:2,0:0:0:0:
96,225,9994,1,10,0:2:0:0:
107,341,10264,6,0,P|130:304|205:308,1,120,6|0,1:2|0:2,0:0:0:0:
261,342,10670,1,2,1:2:0:0:
315,348,10805,1,10,0:2:0:0:
346,331,10940,1,2,0:2:0:0:
361,303,11075,2,0,L|377:167,1,120,10|0,0:2|1:2,0:0:0:0:
321,125,11480,1,0,0:2:0:0:
325,92,11616,2,0,L|334:20,1,60,8|0,0:2|1:2,0:0:0:0:
242,144,11886,5,10,0:2:0:0:
195,151,12021,1,2,0:2:0:0:
147,134,12156,1,2,1:2:0:0:
87,187,12291,6,0,B|79:218|79:218|100:332,1,120,8|2,0:2|0:2,0:0:0:0:
135,129,12697,5,10,0:2:0:0:
196,168,12832,1,2,0:2:0:0:
264,147,12967,1,2,1:2:0:0:
313,204,13102,6,0,B|315:246|315:246|304:280|304:280|300:337,1,120,10|0,0:2|1:2,0:0:0:0:
478,226,13507,5,14,0:2:0:0:
458,179,13643,1,0,1:2:0:0:
438,135,13778,2,0,L|448:58,1,60,14|0,0:2|1:2,0:0:0:0:
355,58,14048,2,0,L|369:-12,1,60,14|0,0:2|1:2,0:0:0:0:
321,132,14318,5,14,0:2:0:0:
280,108,14453,1,0,1:2:0:0:
234,118,14589,1,14,0:2:0:0:
190,152,14724,1,8,0:2:0:0:
135,176,14859,1,14,0:2:0:0:
69,155,14994,1,8,0:2:0:0:
42,90,15129,5,14,0:2:0:0:
361,334,16480,1,8,0:3:0:0:
194,329,16751,5,2,1:2:0:0:
289,259,17021,1,2,1:2:0:0:
322,140,17291,1,2,1:2:0:0:
294,270,17562,5,2,1:2:0:0:
332,149,17832,1,2,1:2:0:0:
438,87,18102,1,2,1:2:0:0:
438,101,18372,5,2,1:2:0:0:
337,163,18643,1,2,1:2:0:0:
209,108,18913,1,2,1:2:0:0:
104,181,19183,2,0,L|87:316,1,120,2|0,1:2|1:2,0:0:0:0:
220,288,19724,5,10,0:2:0:0:
227,329,19859,1,2,0:2:0:0:
237,370,19994,1,2,1:2:0:0:
370,379,20264,1,2,1:2:0:0:
445,275,20534,1,2,1:2:0:0:
366,367,20805,5,2,1:2:0:0:
234,381,21075,1,2,1:2:0:0:
131,311,21345,1,2,1:2:0:0:
240,369,21616,5,2,1:2:0:0:
357,370,21886,1,2,1:2:0:0:
441,271,22156,1,2,1:2:0:0:
347,360,22426,6,0,L|333:215,1,120,2|10,1:2|0:2,0:0:0:0:
273,194,22832,1,2,1:2:0:0:
279,165,22967,1,10,0:2:0:0:
239,11,23237,5,2,1:2:0:0:
109,9,23507,1,2,1:2:0:0:
46,118,23778,1,2,1:2:0:0:
116,23,24048,5,2,1:2:0:0:
55,128,24318,1,2,1:2:0:0:
113,244,24589,1,2,1:2:0:0:
64,141,24859,5,2,1:2:0:0:
123,258,25129,1,2,1:2:0:0:
248,229,25399,1,2,1:2:0:0:
288,99,25670,2,0,B|305:78|305:78|419:60,1,120,2|2,1:2|1:2,0:0:0:0:
443,220,26210,5,10,0:2:0:0:
406,245,26345,1,2,0:2:0:0:
391,283,26480,1,2,1:2:0:0:
280,346,26751,1,2,1:2:0:0:
163,307,27021,1,2,1:2:0:0:
137,183,27291,2,0,P|102:155|22:144,2,120,2|0|0,1:2|1:2|1:2,0:0:0:0:
269,164,28102,5,2,1:2:0:0:
292,43,28372,1,2,1:2:0:0:
417,11,28643,1,2,1:2:0:0:
273,178,28913,6,0,L|264:309,1,120,2|8,1:2|0:2,0:0:0:0:
93,334,29453,1,8,0:2:0:0:
52,320,29589,1,8,0:2:0:0:
10,303,29724,6,0,L|8:167,1,120,6|0,1:2|0:2,0:0:0:0:
66,131,30129,1,2,1:2:0:0:
56,103,30264,1,10,0:2:0:0:
180,156,30534,2,0,L|164:234,1,60,2|0,1:2|0:0,0:0:0:0:
252,122,30805,2,0,L|387:107,1,120,8|2,0:2|1:2,0:0:0:0:
498,40,31345,5,0,1:2:0:0:
464,62,31480,2,0,L|478:202,1,120,8|0,0:2|1:2,0:0:0:0:
417,229,31886,1,8,0:2:0:0:
322,329,32156,6,0,L|242:320,1,60,2|0,1:2|0:2,0:0:0:0:
188,312,32426,2,0,L|141:308,2,30,10|0|0,0:2|0:0|0:2,0:0:0:0:
86,300,32697,2,0,L|14:291,1,60,10|0,0:2|0:2,0:0:0:0:
12,204,32967,6,0,B|36:185|36:185|136:179,1,120,6|0,1:2|0:2,0:0:0:0:
192,136,33372,1,2,1:2:0:0:
220,130,33507,1,10,0:2:0:0:
277,244,33778,2,0,L|344:237,1,60,2|0,1:2|0:0,0:0:0:0:
371,171,34048,2,0,L|507:159,1,120,8|2,0:2|1:2,0:0:0:0:
411,7,34589,6,0,P|403:68|330:72,1,120,2|0,1:2|1:2,0:0:0:0:
278,62,34994,2,0,L|276:-3,1,60,0|8,1:2|0:2,0:0:0:0:
201,83,35264,1,8,0:2:0:0:
174,110,35399,2,0,L|158:245,2,120,8|8|4,0:2|0:3|0:3,0:0:0:0:
13,283,36210,6,0,L|108:300,1,90.0000034332277,6|0,1:2|0:2,0:0:0:0:
174,364,36751,2,0,L|224:374,1,45.0000017166138,2|0,1:2|0:2,0:0:0:0:
252,344,37021,2,0,L|354:366,2,90.0000034332277,2|2|10,1:2|0:2|0:2,0:0:0:0:
408,272,37832,5,2,1:2:0:0:
315,241,38102,1,0,0:2:0:0:
225,213,38372,1,2,1:2:0:0:
334,152,38643,5,2,1:2:0:0:
209,117,38913,1,2,1:2:0:0:
84,84,39183,1,10,0:2:0:0:
6,189,39453,6,0,L|94:217,1,90.0000034332277,2|2,1:2|0:2,0:0:0:0:
151,296,39994,2,0,L|135:358,1,60,2|0,1:2|0:2,0:0:0:0:
181,266,40264,2,0,P|190:306|263:319,1,120,2|2,1:2|0:2,0:0:0:0:
357,307,40805,1,10,0:2:0:0:
405,318,40940,1,0,1:2:0:0:
452,312,41075,5,14,1:2:0:0:
408,155,41345,1,6,1:2:0:0:
251,116,41616,1,6,1:2:0:0:
414,166,41886,5,14,1:2:0:0:
237,117,42156,1,6,1:2:0:0:
109,252,42426,1,6,1:2:0:0:
227,119,42697,5,14,1:2:0:0:
408,175,42967,2,0,L|478:198,1,60,6|0,1:2|1:2,0:0:0:0:
429,95,43237,2,0,L|500:116,1,60,6|8,1:2|0:2,0:0:0:0:
373,251,43507,6,0,P|364:181|321:174,1,120,14|10,1:2|0:2,0:0:0:0:
276,189,43913,1,8,0:2:0:0:
249,218,44048,1,10,0:2:0:0:
177,234,44183,1,8,0:2:0:0:
102,189,44318,6,0,P|99:149|145:142,1,71.9999978027344,6|0,1:2|0:0,0:0:0:0:
57,86,44589,2,0,L|200:104,1,143.999995605469,8|0,0:2|1:2,0:0:0:0:
308,19,44994,1,8,0:2:0:0:
284,35,45129,6,0,L|290:126,1,71.9999978027344,2|0,1:2|0:2,0:0:0:0:
347,155,45399,2,0,B|352:192|352:192|338:245,1,71.9999978027344,8|0,0:2|0:2,0:0:0:0:
320,302,45670,2,0,L|305:375,1,71.9999978027344,10|0,0:2|0:2,0:0:0:0:
232,297,45940,6,0,P|232:254|259:235,1,71.9999978027344,2|0,1:2|0:2,0:0:0:0:
150,300,46210,2,0,L|-7:281,1,143.999995605469,10|2,0:2|1:2,0:0:0:0:
58,334,46616,1,8,0:2:0:0:
85,259,46751,2,0,P|98:177|155:175,2,143.999995605469,2|8|8,1:2|0:2|0:2,0:0:0:0:
182,61,47562,6,0,L|333:52,1,143.999995605469,6|2,1:2|0:2,0:0:0:0:
381,134,47967,2,0,L|472:129,2,71.9999978027344,8|2|8,0:2|0:2|0:2,0:0:0:0:
292,221,48372,6,0,L|217:209,1,71.9999978027344,6|0,1:2|0:2,0:0:0:0:
343,310,48643,2,0,P|358:288|418:292,1,71.9999978027344,10|0,0:2|0:2,0:0:0:0:
255,310,48913,2,0,L|179:297,1,71.9999978027344,10|0,0:2|0:2,0:0:0:0:
52,241,49183,6,0,P|124:218|127:142,1,143.999995605469,6|2,1:2|0:2,0:0:0:0:
63,80,49589,2,0,L|47:150,1,71.9999978027344,8|2,0:2|0:2,0:0:0:0:
143,75,49859,1,8,0:2:0:0:
215,117,49994,6,0,L|232:270,1,143.999995605469,10|6,0:3|0:3,0:0:0:0:
305,246,50399,1,4,0:3:0:0:
303,288,50534,1,2,1:2:0:0:
344,268,50670,1,0,1:2:0:0:
317,267,50805,6,0,P|337:219|354:178,1,71.9999978027344,6|0,1:2|0:0,0:0:0:0:
318,126,51075,2,0,P|359:103|464:80,1,143.999995605469,8|0,0:2|1:2,0:0:0:0:
494,170,51480,1,8,0:2:0:0:
481,151,51616,6,0,L|448:243,1,71.9999978027344,2|0,1:2|0:2,0:0:0:0:
451,315,51886,2,0,P|467:342|517:349,1,71.9999978027344,8|0,0:2|0:2,0:0:0:0:
346,338,52156,2,0,L|260:352,1,71.9999978027344,10|0,0:2|0:2,0:0:0:0:
191,323,52426,6,0,P|238:266|263:265,1,71.9999978027344,2|0,1:2|0:2,0:0:0:0:
224,195,52697,2,0,P|178:173|82:196,1,143.999995605469,10|2,0:2|1:2,0:0:0:0:
152,148,53102,1,8,0:2:0:0:
150,72,53237,2,0,P|112:72|20:15,2,143.999995605469,2|8|8,1:2|0:2|0:2,0:0:0:0:
293,42,54048,6,0,P|316:121|367:107,1,143.999995605469,6|0,1:2|0:2,0:0:0:0:
424,164,54453,2,0,P|438:119|459:92,1,71.9999978027344,8|2,0:2|1:2,0:0:0:0:
355,199,54724,1,8,0:2:0:0:
413,251,54859,6,0,P|333:243|300:318,1,143.999995605469,6|8,1:2|0:2,0:0:0:0:
256,194,55264,1,0,1:2:0:0:
192,258,55399,2,0,P|212:283|214:324,1,71.9999978027344,10|0,0:2|0:2,0:0:0:0:
48,244,55670,6,0,P|90:219|92:124,1,143.999995605469,6|2,1:2|0:2,0:0:0:0:
71,59,56075,2,0,L|-29:49,1,71.9999978027344,8|10,0:2|1:3,0:0:0:0:
145,69,56345,1,8,0:2:0:0:
219,79,56480,6,0,B|322:92|322:92|385:70,1,143.999995605469,10|4,0:3|0:3,0:0:0:0:
424,42,56886,1,4,0:3:0:0:
454,17,57021,1,0,1:2:0:0:
496,17,57156,1,0,1:2:0:0:
512,95,57291,6,0,L|483:164,1,71.9999978027344,6|0,1:2|0:0,0:0:0:0:
502,239,57562,2,0,P|491:199|398:191,1,143.999995605469,8|0,0:2|1:2,0:0:0:0:
367,256,57967,1,8,0:2:0:0:
389,337,58102,6,0,L|383:246,1,71.9999978027344,2|0,1:2|0:2,0:0:0:0:
282,290,58372,2,0,P|290:337|261:359,1,71.9999978027344,8|0,0:2|0:2,0:0:0:0:
190,311,58643,2,0,L|205:238,1,71.9999978027344,10|0,0:2|0:2,0:0:0:0:
148,174,58913,6,0,P|124:154|71:149,1,71.9999978027344,2|0,1:2|0:2,0:0:0:0:
205,109,59183,2,0,L|362:128,1,143.999995605469,10|2,0:2|1:2,0:0:0:0:
421,146,59589,1,8,0:2:0:0:
402,72,59724,2,0,B|376:109|376:109|362:229,2,143.999995605469,2|8|8,1:2|0:2|0:2,0:0:0:0:
454,293,60535,6,0,L|303:302,1,143.999995605469,6|2,1:2|0:2,0:0:0:0:
233,288,60940,2,0,P|229:267|275:222,1,71.9999978027344,8|2,0:2|0:2,0:0:0:0:
261,359,61210,1,8,0:2:0:0:
179,375,61345,6,0,L|101:360,1,71.9999978027344,6|0,1:2|0:2,0:0:0:0:
128,269,61616,2,0,B|81:259|81:259|48:233,1,71.9999978027344,10|0,0:2|0:2,0:0:0:0:
93,149,61886,2,0,B|81:135|81:135|8:120,1,71.9999978027344,10|0,0:2|0:2,0:0:0:0:
183,93,62156,6,0,P|197:60|298:58,1,143.999995605469,6|2,1:2|0:2,0:0:0:0:
370,94,62562,2,0,L|386:24,1,71.9999978027344,8|2,0:2|0:2,0:0:0:0:
465,23,62832,1,8,0:2:0:0:
451,103,62967,6,0,P|392:118|352:211,1,143.999995605469,10|6,0:3|0:3,0:0:0:0:
353,233,63372,1,4,0:3:0:0:
380,281,63507,1,2,1:2:0:0:
450,300,63643,1,0,1:2:0:0:
375,294,63778,6,0,P|342:301|302:335,1,71.9999978027344,6|0,1:2|0:0,0:0:0:0:
246,363,64048,2,0,L|103:342,1,143.999995605469,8|0,0:2|1:2,0:0:0:0:
46,257,64453,1,8,0:2:0:0:
59,276,64589,6,0,L|92:184,1,71.9999978027344,2|0,1:2|0:2,0:0:0:0:
176,166,64859,2,0,P|177:193|231:216,1,71.9999978027344,8|0,0:2|0:2,0:0:0:0:
91,116,65129,2,0,L|5:102,1,71.9999978027344,10|0,0:2|0:2,0:0:0:0:
161,1,65399,6,0,P|197:15|189:52,1,71.9999978027344,2|0,1:2|0:2,0:0:0:0:
94,29,65670,2,0,P|140:51|245:75,1,143.999995605469,10|2,0:2|1:2,0:0:0:0:
304,72,66075,1,8,0:2:0:0:
370,43,66210,2,0,P|419:32|519:23,2,143.999995605469,2|8|8,1:2|0:2|0:2,0:0:0:0:
328,219,67021,6,0,P|305:298|254:284,1,143.999995605469,6|0,1:2|0:2,0:0:0:0:
390,347,67426,2,0,P|404:302|425:275,1,71.9999978027344,8|2,0:2|1:2,0:0:0:0:
410,206,67697,1,8,0:2:0:0:
326,210,67832,6,0,P|283:205|288:121,1,143.999995605469,6|0,1:2|0:2,0:0:0:0:
185,222,68237,2,0,P|183:186|162:158,1,71.9999978027344,8|2,0:2|1:2,0:0:0:0:
91,134,68507,1,8,0:2:0:0:
115,60,68643,6,0,L|275:40,1,143.999995605469,6|0,1:2|0:2,0:0:0:0:
330,23,69048,1,10,0:2:0:0:
353,48,69183,1,2,1:2:0:0:
390,53,69318,1,8,0:2:0:0:
428,33,69453,6,0,L|410:137,1,71.9999978027344,10|0,0:2|1:2,0:0:0:0:
475,155,69724,1,10,0:3:0:0:
443,184,69859,1,8,0:3:0:0:
431,222,69994,1,6,0:3:0:0:
432,264,70129,1,4,0:3:0:0:
449,308,70264,6,0,L|372:286,1,71.9999978027344,14|0,1:2|0:2,0:0:0:0:
285,306,70534,2,0,L|210:287,1,71.9999978027344,6|0,1:2|0:2,0:0:0:0:
135,246,70805,2,0,P|136:213|190:204,1,71.9999978027344,6|0,1:2|0:2,0:0:0:0:
324,216,71075,6,0,L|243:192,1,71.9999978027344,14|0,1:2|0:2,0:0:0:0:
223,111,71345,2,0,L|131:90,1,71.9999978027344,6|0,1:2|0:2,0:0:0:0:
106,21,71616,2,0,P|137:5|181:21,1,71.9999978027344,6|0,1:2|0:2,0:0:0:0:
260,6,71886,5,14,1:2:0:0:
286,29,72021,1,2,0:2:0:0:
328,36,72156,1,6,1:2:0:0:
364,30,72291,1,2,0:2:0:0:
391,8,72426,2,0,P|381:33|365:89,1,71.9999978027344,6|0,1:2|0:2,0:0:0:0:
471,161,72697,5,14,1:2:0:0:
429,156,72832,1,2,0:2:0:0:
385,170,72967,1,6,1:2:0:0:
355,201,73102,1,2,0:2:0:0:
336,248,73237,2,0,P|318:212|285:173,1,71.9999978027344,6|0,1:2|0:2,0:0:0:0:
226,164,73507,5,6,1:2:0:0:
85,148,81616,5,6,1:2:0:0:
136,228,81886,1,2,0:2:0:0:
213,167,82156,1,2,0:2:0:0:
139,235,82426,5,10,0:2:0:0:
214,174,82697,1,2,0:2:0:0:
286,241,82967,1,2,1:2:0:0:
215,182,83237,5,2,1:2:0:0:
282,249,83507,1,2,0:2:0:0:
361,187,83778,1,2,1:2:0:0:
298,105,84048,1,10,0:2:0:0:
123,79,84589,5,2,1:2:0:0:
117,104,84724,1,2,0:2:0:0:
111,129,84859,1,2,1:2:0:0:
162,215,85129,1,2,0:2:0:0:
137,305,85399,1,2,0:2:0:0:
140,312,85670,5,10,0:2:0:0:
164,220,85940,1,2,0:2:0:0:
258,192,86210,1,2,1:2:0:0:
257,198,86480,5,2,1:2:0:0:
168,227,86751,1,2,0:2:0:0:
75,184,87021,1,2,1:2:0:0:
166,235,87291,2,0,L|182:125,2,90.0000034332277,10|0|2,0:2|0:2|1:2,0:0:0:0:
255,309,88102,5,2,1:2:0:0:
349,287,88372,1,2,0:2:0:0:
440,264,88643,1,2,0:2:0:0:
358,291,88913,5,10,0:2:0:0:
274,242,89183,1,2,0:2:0:0:
190,193,89453,1,2,1:2:0:0:
269,251,89724,5,2,1:2:0:0:
359,204,89994,1,2,0:2:0:0:
445,161,90264,1,2,1:2:0:0:
361,100,90534,1,10,0:2:0:0:
202,68,91075,5,2,1:2:0:0:
210,95,91210,1,2,0:2:0:0:
217,120,91345,1,2,1:2:0:0:
181,207,91616,1,2,0:2:0:0:
84,178,91886,1,2,0:2:0:0:
181,216,92156,2,0,B|214:224|214:224|284:214,2,90.0000034332277,10|0|0,0:2|0:2|1:2,0:0:0:0:
32,297,92967,6,0,B|69:297|69:297|139:320,1,90.0000034332277,2|2,1:2|0:2,0:0:0:0:
161,305,93372,2,0,L|223:323,1,45.0000017166138,8|2,0:2|1:2,0:0:0:0:
290,348,93778,1,10,0:2:0:0:
7,149,94589,6,0,B|35:129|35:129|126:123,1,120,6|0,1:2|0:2,0:0:0:0:
194,142,94994,1,2,1:2:0:0:
223,131,95129,1,10,0:2:0:0:
340,72,95399,2,0,L|356:-6,1,60,2|0,1:2|0:0,0:0:0:0:
411,107,95670,2,0,P|395:155|320:164,1,120,8|2,0:2|1:2,0:0:0:0:
239,292,96210,5,2,1:2:0:0:
250,256,96345,2,0,B|284:245|284:245|378:263,1,120,8|0,0:2|1:2,0:0:0:0:
435,234,96751,1,8,0:2:0:0:
437,369,97021,6,0,B|421:359|421:359|358:369,1,60,2|0,1:2|0:2,0:0:0:0:
306,352,97291,2,0,L|310:305,2,30,10|0|0,0:2|0:0|0:2,0:0:0:0:
231,359,97562,2,0,B|208:364|208:364|159:350,1,60,10|0,0:2|0:2,0:0:0:0:
137,289,97832,6,0,P|110:220|72:234,1,120,6|0,1:2|0:2,0:0:0:0:
18,192,98237,1,2,1:2:0:0:
11,162,98372,1,10,0:2:0:0:
150,56,98643,2,0,P|145:95|115:105,1,60,2|0,1:2|0:0,0:0:0:0:
52,80,98913,2,0,P|99:51|173:40,1,120,8|2,0:2|1:2,0:0:0:0:
263,210,99454,6,0,P|271:149|344:145,1,120,2|0,1:2|1:2,0:0:0:0:
388,87,99859,2,0,P|372:75|337:38,1,60,0|8,1:2|0:2,0:0:0:0:
404,167,100129,1,8,0:2:0:0:
428,152,100264,2,0,P|422:198|417:277,2,120,8|8|4,0:2|0:3|0:3,0:0:0:0:
313,312,101075,6,0,B|290:297|290:297|225:284,1,90.0000034332277,6|0,1:2|0:2,0:0:0:0:
103,268,101616,2,0,L|89:326,1,45.0000017166138,2|0,1:2|0:2,0:0:0:0:
81,253,101886,2,0,B|93:208|93:208|80:159,1,90.0000034332277,2|2,1:2|0:2,0:0:0:0:
37,80,102426,1,8,0:2:0:0:
159,23,102697,5,2,1:2:0:0:
228,94,102967,1,0,0:2:0:0:
196,182,103237,1,2,1:2:0:0:
289,253,103508,5,2,1:2:0:0:
335,133,103778,1,2,1:2:0:0:
463,114,104048,1,10,0:2:0:0:
304,244,104318,6,0,L|287:342,1,90.0000034332277,2|2,1:2|0:2,0:0:0:0:
142,252,104859,2,0,L|130:189,1,60,2|0,1:2|0:2,0:0:0:0:
193,140,105129,2,0,L|222:270,1,120,2|2,1:2|0:2,0:0:0:0:
298,151,105670,1,10,0:2:0:0:
309,111,105805,1,2,1:2:0:0:
322,74,105940,5,14,1:2:0:0:
155,29,106210,1,6,1:2:0:0:
8,99,106480,1,6,1:2:0:0:
159,41,106751,5,14,1:2:0:0:
322,86,107021,1,6,1:2:0:0:
475,37,107291,1,6,1:2:0:0:
503,205,107562,5,14,1:2:0:0:
341,236,107832,1,6,1:2:0:0:
184,263,108102,1,6,1:2:0:0:
139,272,108237,1,8,0:2:0:0:
92,283,108372,1,14,0:2:0:0:
19,155,108643,5,8,0:2:0:0:
58,127,108778,1,8,0:2:0:0:
112,110,108913,1,8,0:2:0:0:
182,116,109048,1,8,0:2:0:0:
243,153,109183,6,0,P|286:167|328:138,1,71.9999978027344,6|0,1:2|0:0,0:0:0:0:
364,222,109453,2,0,P|399:170|479:176,1,143.999995605469,8|0,0:2|1:2,0:0:0:0:
497,266,109859,1,8,0:2:0:0:
499,244,109994,6,0,P|449:266|414:292,1,71.9999978027344,2|0,1:2|0:2,0:0:0:0:
354,334,110264,2,0,B|332:316|332:316|267:308,1,71.9999978027344,8|0,0:2|0:2,0:0:0:0:
194,310,110534,2,0,P|127:320|99:327,1,71.9999978027344,10|0,0:2|0:2,0:0:0:0:
94,217,110805,6,0,P|68:246|23:238,1,71.9999978027344,2|0,1:2|0:2,0:0:0:0:
29,164,111075,2,0,P|92:172|192:191,1,143.999995605469,10|2,0:2|1:2,0:0:0:0:
259,208,111481,1,8,0:2:0:0:
339,159,111616,2,0,L|358:17,2,143.999995605469,2|8|8,1:2|0:2|0:2,0:0:0:0:
482,321,112427,6,0,P|440:303|331:312,1,143.999995605469,6|2,1:2|0:2,0:0:0:0:
256,348,112832,2,0,L|165:353,2,71.9999978027344,8|2|8,0:2|0:2|0:2,0:0:0:0:
271,251,113237,6,0,L|196:239,1,71.9999978027344,6|0,1:2|0:2,0:0:0:0:
99,127,113507,2,0,B|125:128|125:128|160:179,1,71.9999978027344,10|0,0:2|0:2,0:0:0:0:
57,270,113778,2,0,B|83:271|83:271|134:230,1,71.9999978027344,10|0,0:2|0:2,0:0:0:0:
12,59,114048,6,0,L|31:209,1,143.999995605469,6|2,1:2|0:2,0:0:0:0:
94,44,114453,2,0,B|121:21|121:21|190:17,1,71.9999978027344,8|2,0:2|0:2,0:0:0:0:
254,33,114724,1,8,0:2:0:0:
310,105,114859,6,0,L|327:258,1,143.999995605469,10|6,0:3|0:3,0:0:0:0:
267,296,115264,1,4,0:3:0:0:
208,253,115399,1,2,1:2:0:0:
204,270,115535,1,0,1:2:0:0:
201,289,115670,6,0,P|167:276|112:273,1,71.9999978027344,6|0,1:2|0:0,0:0:0:0:
65,219,115940,2,0,P|113:188|64:113,1,143.999995605469,8|0,0:2|1:2,0:0:0:0:
145,51,116345,1,8,0:2:0:0:
145,67,116480,6,0,L|242:59,1,71.9999978027344,2|0,1:2|0:2,0:0:0:0:
342,16,116751,2,0,P|320:46|312:97,1,71.9999978027344,8|0,0:2|0:2,0:0:0:0:
355,165,117021,2,0,L|413:253,1,71.9999978027344,10|0,0:2|0:2,0:0:0:0:
338,348,117291,6,0,P|288:340|298:299,1,71.9999978027344,2|0,1:2|0:2,0:0:0:0:
313,260,117562,2,0,B|286:244|286:244|171:261,1,143.999995605469,10|2,0:2|1:2,0:0:0:0:
99,279,117967,1,8,0:2:0:0:
26,255,118102,2,0,B|45:211|45:211|157:189,2,143.999995605469,2|8|8,1:2|0:2|0:2,0:0:0:0:
18,122,118913,6,0,P|41:43|92:57,1,143.999995605469,6|0,1:2|0:2,0:0:0:0:
184,25,119318,2,0,P|164:55|155:89,1,71.9999978027344,8|2,0:2|1:2,0:0:0:0:
215,135,119589,1,8,0:2:0:0:
288,98,119724,6,0,P|368:90|401:165,1,143.999995605469,6|8,1:2|0:2,0:0:0:0:
405,212,120129,1,0,1:2:0:0:
470,173,120264,2,0,P|493:122|512:89,1,71.9999978027344,10|0,0:2|0:2,0:0:0:0:
463,257,120534,6,0,P|402:244|307:261,1,143.999995605469,6|2,1:2|0:2,0:0:0:0:
261,299,120940,2,0,L|161:289,1,71.9999978027344,8|10,0:2|1:3,0:0:0:0:
114,309,121210,1,8,0:2:0:0:
46,263,121345,6,0,P|53:197|134:216,1,143.999995605469,10|4,0:3|0:3,0:0:0:0:
187,167,121751,1,4,0:3:0:0:
167,133,121886,1,0,1:2:0:0:
202,133,122021,1,0,1:2:0:0:
260,182,122156,6,0,L|289:113,1,71.9999978027344,6|0,1:2|0:0,0:0:0:0:
317,250,122426,2,0,B|336:219|336:219|460:197,1,143.999995605469,8|0,0:2|1:2,0:0:0:0:
512,192,122832,1,8,0:2:0:0:
507,117,122967,6,0,P|504:65|471:62,1,71.9999978027344,2|0,1:2|0:2,0:0:0:0:
423,34,123237,2,0,L|346:34,1,71.9999978027344,8|0,0:2|0:2,0:0:0:0:
276,106,123507,2,0,P|262:74|300:32,1,71.9999978027344,10|0,0:2|0:2,0:0:0:0:
122,6,123778,6,0,P|153:16|173:58,1,71.9999978027344,2|0,1:2|0:2,0:0:0:0:
197,120,124048,2,0,P|172:163|80:159,1,143.999995605469,10|2,0:2|1:2,0:0:0:0:
13,183,124454,1,8,0:2:0:0:
54,244,124589,2,0,B|76:264|76:264|91:384,2,143.999995605469,2|8|8,1:2|0:2|0:2,0:0:0:0:
239,231,125400,6,0,B|313:214|313:214|390:240,1,143.999995605469,6|2,1:2|0:2,0:0:0:0:
337,360,125805,2,0,B|303:368|303:368|260:352,1,71.9999978027344,8|2,0:2|0:2,0:0:0:0:
309,291,126075,1,8,0:2:0:0:
389,307,126210,6,0,L|475:321,1,71.9999978027344,6|0,1:2|0:2,0:0:0:0:
450,212,126480,2,0,B|460:230|460:230|531:244,1,71.9999978027344,10|0,0:2|0:2,0:0:0:0:
416,110,126751,2,0,L|506:126,1,71.9999978027344,10|0,0:2|0:2,0:0:0:0:
322,31,127021,6,0,P|306:110|241:100,1,143.999995605469,6|2,1:2|0:2,0:0:0:0:
175,111,127427,2,0,L|191:181,1,71.9999978027344,8|2,0:2|0:2,0:0:0:0:
269,195,127697,1,8,0:2:0:0:
250,275,127832,6,0,P|212:260|91:265,1,143.999995605469,10|6,0:3|0:3,0:0:0:0:
88,334,128237,1,4,0:3:0:0:
77,339,128372,1,2,1:2:0:0:
24,288,128508,1,0,1:2:0:0:
20,215,128643,6,0,L|13:118,1,71.9999978027344,6|0,1:2|0:0,0:0:0:0:
86,65,128913,2,0,P|94:126|172:122,1,143.999995605469,8|0,0:2|1:2,0:0:0:0:
219,82,129318,1,8,0:2:0:0:
287,112,129454,6,0,L|296:197,1,71.9999978027344,2|0,1:2|0:2,0:0:0:0:
411,171,129724,2,0,P|388:186|379:237,1,71.9999978027344,8|0,0:2|0:2,0:0:0:0:
433,283,129994,2,0,L|516:277,1,71.9999978027344,10|0,0:2|0:2,0:0:0:0:
328,344,130264,6,0,P|327:325|276:304,1,71.9999978027344,2|0,1:2|0:2,0:0:0:0:
221,363,130534,2,0,P|202:276|178:212,1,143.999995605469,10|2,0:2|1:2,0:0:0:0:
126,172,130940,1,8,0:2:0:0:
187,122,131075,2,0,P|144:72|115:-6,2,143.999995605469,2|8|8,1:2|0:2|0:2,0:0:0:0:
289,50,131886,6,0,P|318:108|397:88,1,143.999995605469,6|0,1:2|0:2,0:0:0:0:
292,197,132291,2,0,P|347:193|377:201,1,71.9999978027344,10|2,0:2|1:2,0:0:0:0:
431,164,132562,1,8,0:2:0:0:
467,233,132697,6,0,P|458:293|379:294,1,143.999995605469,2|2,1:2|0:2,0:0:0:0:
340,374,133102,2,0,P|320:342|283:325,1,71.9999978027344,8|2,0:2|1:2,0:0:0:0:
323,264,133372,1,8,0:2:0:0:
247,239,133507,6,0,P|177:289|106:259,1,143.999995605469,6|0,1:2|0:2,0:0:0:0:
91,212,133913,2,0,L|109:133,1,71.9999978027344,10|2,0:2|0:2,0:0:0:0:
170,92,134183,1,8,0:2:0:0:
170,92,134251,1,8,0:0:0:0:
170,92,134318,6,0,B|193:77|193:77|314:65,1,143.999995605469,10|10,0:2|0:3,0:0:0:0:
365,117,134724,1,8,0:3:0:0:
412,126,134859,1,6,0:3:0:0:
452,112,134994,1,4,0:3:0:0:
478,76,135129,6,0,L|461:154,1,71.9999978027344,14|0,1:2|0:2,0:0:0:0:
377,204,135399,2,0,B|394:220|394:220|407:287,1,71.9999978027344,6|0,1:2|0:2,0:0:0:0:
512,216,135670,2,0,B|496:230|496:230|479:286,1,71.9999978027344,6|0,1:2|0:2,0:0:0:0:
327,344,135940,6,0,P|324:316|272:305,1,71.9999978027344,14|0,1:2|0:2,0:0:0:0:
207,251,136210,2,0,B|203:207|203:207|214:174,1,71.9999978027344,6|0,1:2|0:2,0:0:0:0:
102,356,136480,2,0,P|100:332|141:306,1,71.9999978027344,6|0,1:2|0:2,0:0:0:0:
124,228,136751,5,14,1:2:0:0:
89,197,136886,1,2,0:2:0:0:
81,157,137021,2,0,B|70:48|70:48|36:18,1,143.999995605469,6|6,1:2|1:2,0:0:0:0:
134,4,137426,1,8,0:2:0:0:
183,60,137562,6,0,P|221:92|322:92,1,143.999995605469,14|14,1:2|1:2,0:0:0:0:
376,62,137967,1,10,0:2:0:0:
450,80,138102,1,10,0:2:0:0:
492,142,138237,1,10,0:2:0:0:
487,214,138372,6,0,B|464:332|464:332|396:364,1,180,6|0,1:2|1:2,0:0:0:0:
355,308,138913,1,10,0:2:0:0:
223,281,139183,2,0,L|111:325,2,120,2|10|2,1:2|0:2|1:2,0:0:0:0:
257,123,139994,5,2,1:2:0:0:
145,51,140264,1,2,0:2:0:0:
132,92,140399,1,2,1:2:0:0:
122,130,140534,1,10,0:2:0:0:
10,95,140805,1,2,1:2:0:0:
18,139,140940,1,2,0:2:0:0:
28,181,141075,2,0,B|38:236|38:236|48:242|48:242|62:312,1,120,10|8,0:2|0:2,0:0:0:0:
177,318,141616,5,2,1:2:0:0:
210,296,141751,1,0,0:0:0:0:
247,291,141886,1,0,0:2:0:0:
283,303,142021,1,2,1:2:0:0:
303,329,142156,1,10,0:2:0:0:
381,273,142426,1,2,1:2:0:0:
366,236,142562,1,2,0:2:0:0:
361,195,142697,1,10,0:2:0:0:
375,152,142832,1,2,0:2:0:0:
407,126,142967,1,2,1:2:0:0:
343,31,143237,6,0,P|322:83|251:64,1,120,2|2,1:2|0:2,0:0:0:0:
194,48,143643,1,10,0:2:0:0:
73,112,143913,1,10,0:2:0:0:
134,156,144048,2,0,L|140:226,1,60,8|8,0:2|0:3,0:0:0:0:
234,215,144318,2,0,B|218:231|218:231|205:290,1,60,10|4,0:3|0:3,0:0:0:0:
264,319,144589,2,0,L|248:384,2,60,4|0|6,0:3|1:3|1:2,0:0:0:0:
326,276,144994,5,0,0:0:0:0:
368,264,145129,1,2,0:2:0:0:
408,269,145264,1,2,1:2:0:0:
443,290,145399,1,10,0:2:0:0:
415,180,145670,1,0,1:2:0:0:
455,167,145806,1,2,0:2:0:0:
487,134,145941,1,10,0:2:0:0:
497,91,146076,1,2,0:2:0:0:
491,50,146210,1,2,1:2:0:0:
367,35,146480,6,0,B|273:11|308:69|173:18,1,180,2|0,1:2|1:0,0:0:0:0:
118,7,147021,1,10,0:2:0:0:
27,94,147291,2,0,L|39:180,1,60,2|0,1:2|0:2,0:0:0:0:
104,205,147562,2,0,P|111:173|140:164,1,60,10|0,0:2|0:2,0:0:0:0:
180,225,147832,2,0,L|263:210,1,60,10|0,0:2|0:2,0:0:0:0:
320,196,148102,5,2,1:2:0:0:
358,204,148237,1,0,0:0:0:0:
388,227,148372,1,2,0:2:0:0:
404,262,148507,1,2,1:2:0:0:
402,299,148643,1,10,0:2:0:0:
508,248,148913,5,2,1:2:0:0:
479,214,149048,1,2,0:2:0:0:
464,176,149183,1,10,0:2:0:0:
459,141,149318,1,2,0:2:0:0:
465,101,149453,1,2,1:2:0:0:
381,36,149724,5,6,1:2:0:0:
342,56,149859,1,0,0:0:0:0:
301,60,149994,1,0,0:2:0:0:
259,44,150129,2,0,P|254:35|195:21,1,60,8|0,0:2|1:2,0:0:0:0:
141,46,150399,1,8,0:2:0:0:
97,108,150534,6,0,L|105:252,1,120,6|0,1:2|0:2,0:0:0:0:
173,256,150940,2,0,L|162:334,2,60,8|0|8,0:2|1:2|0:2,0:0:0:0:
264,261,151345,5,6,1:2:0:0:
301,267,151480,1,0,0:0:0:0:
336,255,151616,1,8,0:2:0:0:
359,228,151751,1,4,0:3:0:0:
365,199,151886,1,4,0:3:0:0:
355,166,152021,1,4,0:3:0:0:
334,149,152156,6,0,B|318:127|318:127|294:112,2,30,8|8|8,0:2|0:2|0:2,0:0:0:0:
377,143,152426,1,4,0:3:0:0:
404,112,152562,1,4,0:3:0:0:
403,82,152697,1,4,0:3:0:0:
390,63,152832,1,4,0:3:0:0:
380,56,152967,6,0,B|360:42|360:42|246:29,1,120,6|0,1:2|0:2,0:0:0:0:
196,60,153372,1,2,1:2:0:0:
206,88,153507,1,10,0:2:0:0:
51,164,153777,2,0,L|67:86,1,60,2|0,1:2|0:0,0:0:0:0:
134,132,154048,2,0,L|107:252,1,120,8|2,0:2|1:2,0:0:0:0:
180,357,154588,5,2,1:2:0:0:
214,335,154723,2,0,L|200:195,1,120,0|0,3:0|1:2,0:0:0:0:
263,171,155129,1,8,0:2:0:0:
190,55,155399,6,0,L|270:64,1,60,2|0,1:2|0:2,0:0:0:0:
324,72,155669,2,0,L|332:27,2,30,10|0|0,0:2|0:0|0:2,0:0:0:0:
403,82,155940,2,0,L|475:91,1,60,10|0,0:2|0:2,0:0:0:0:
483,184,156210,6,0,P|422:181|411:241,1,120,6|0,1:2|0:2,0:0:0:0:
437,295,156615,1,2,1:2:0:0:
431,319,156750,1,10,0:2:0:0:
312,254,157021,2,0,P|263:208|200:220,1,120,2|8,1:2|0:2,0:0:0:0:
147,245,157426,1,2,0:2:0:0:
145,266,157562,1,0,1:2:0:0:
21,160,157832,6,0,B|100:145|83:190|158:161,1,120,2|0,1:2|1:2,0:0:0:0:
182,99,158237,2,0,L|184:34,1,60,0|8,1:2|0:2,0:0:0:0:
255,111,158507,1,8,0:2:0:0:
278,91,158643,2,0,P|330:69|400:63,2,120,8|8|4,0:2|0:3|0:3,0:0:0:0:
481,172,159453,6,0,L|386:155,1,90.0000034332277,6|0,1:2|0:2,0:0:0:0:
315,241,159994,2,0,L|307:289,1,45.0000017166138,2|0,1:2|0:2,0:0:0:0:
298,217,160264,2,0,L|196:195,2,90.0000034332277,2|2|10,1:2|0:2|0:2,0:0:0:0:
184,50,161075,5,2,1:2:0:0:
106,123,161345,1,0,0:2:0:0:
21,76,161615,1,2,1:2:0:0:
184,50,161886,5,2,1:2:0:0:
285,150,162156,1,2,0:2:0:0:
374,53,162426,1,10,0:2:0:0:
506,195,162697,6,0,L|418:167,1,90.0000034332277,2|2,1:2|0:2,0:0:0:0:
326,271,163237,2,0,L|394:257,1,60,2|0,1:2|0:2,0:0:0:0:
292,285,163507,2,0,P|283:245|210:232,1,120,2|2,1:2|0:2,0:0:0:0:
108,300,164048,1,2,1:2:0:0:
61,309,164183,1,8,0:2:0:0:
25,291,164318,5,14,1:2:0:0:
110,156,164589,1,6,1:2:0:0:
205,25,164859,1,6,1:2:0:0:
17,27,165129,5,14,1:2:0:0:
110,156,165399,1,6,1:2:0:0:
207,287,165670,1,6,1:2:0:0:
25,291,165940,5,14,1:2:0:0:
110,156,166211,1,6,1:2:0:0:
205,25,166481,1,6,1:2:0:0:
198,94,166616,1,8,0:2:0:0:
140,54,166751,1,14,1:2:0:0:
220,175,167021,5,8,0:2:0:0:
255,190,167156,1,8,0:2:0:0:
296,186,167291,1,8,0:2:0:0:
359,160,167426,1,8,0:2:0:0:
391,95,167562,1,2,0:2:0:0:
410,195,174048,6,0,P|380:196|367:242,1,71.9999978027344,6|0,1:2|0:0,0:0:0:0:
418,286,174318,2,0,P|401:324|295:314,1,143.999995605469,8|0,0:2|1:2,0:0:0:0:
244,282,174724,1,8,0:2:0:0:
227,300,174859,6,0,L|141:289,1,71.9999978027344,2|0,1:2|0:2,0:0:0:0:
113,193,175129,2,0,B|87:175|87:175|30:169,1,71.9999978027344,8|0,0:2|0:2,0:0:0:0:
177,94,175399,2,0,L|94:79,1,71.9999978027344,10|0,0:2|0:2,0:0:0:0:
249,14,175670,6,0,P|257:63|291:75,1,71.9999978027344,2|0,1:2|0:2,0:0:0:0:
347,82,175940,2,0,L|504:101,1,143.999995605469,10|2,0:2|1:2,0:0:0:0:
507,170,176346,1,8,0:2:0:0:
444,202,176480,2,0,P|396:217|354:305,2,143.999995605469,2|8|8,1:2|0:2|0:2,0:0:0:0:
233,196,177291,6,0,P|232:245|142:268,1,143.999995605469,6|0,1:2|0:2,0:0:0:0:
100,217,177697,1,10,0:2:0:0:
67,180,177832,1,2,1:2:0:0:
19,177,177967,1,8,0:2:0:0:
9,100,178102,6,0,L|171:79,1,143.999995605469,6|8,1:2|0:2,0:0:0:0:
217,122,178507,1,2,1:2:0:0:
286,83,178643,2,0,B|301:36|301:36|327:21,1,71.9999978027344,10|0,0:2|0:2,0:0:0:0:
416,155,178913,6,0,P|363:185|277:136,1,143.999995605469,6|2,1:2|0:2,0:0:0:0:
450,282,179319,2,0,L|466:212,1,71.9999978027344,8|10,0:2|1:3,0:0:0:0:
489,141,179589,1,8,0:2:0:0:
508,69,179724,6,0,P|475:14|384:28,1,143.999995605469,10|4,0:3|0:3,0:0:0:0:
346,63,180129,1,4,0:3:0:0:
291,108,180264,1,0,1:2:0:0:
279,36,180400,1,0,1:2:0:0:
349,73,180535,6,0,P|373:114|381:146,1,71.9999978027344,6|0,1:2|0:0,0:0:0:0:
368,210,180805,2,0,P|333:253|241:255,1,143.999995605469,8|0,0:2|1:2,0:0:0:0:
192,217,181210,1,8,0:2:0:0:
123,253,181345,6,0,L|105:337,1,71.9999978027344,2|0,1:2|0:2,0:0:0:0:
50,172,181616,2,0,L|35:245,1,71.9999978027344,8|0,0:2|0:2,0:0:0:0:
145,63,181886,2,0,L|129:147,1,71.9999978027344,10|0,0:2|0:2,0:0:0:0:
223,143,182156,6,0,P|250:106|288:99,1,71.9999978027344,2|0,1:2|0:2,0:0:0:0:
369,40,182426,2,0,L|339:180,1,143.999995605469,10|2,0:2|1:2,0:0:0:0:
416,163,182832,1,8,0:2:0:0:
399,236,182967,2,0,P|413:290|495:309,2,143.999995605469,2|8|8,1:2|0:2|0:2,0:0:0:0:
195,384,183778,6,0,P|165:324|90:313,1,143.999995605469,6|0,1:2|0:2,0:0:0:0:
260,322,184183,2,0,P|240:295|226:253,1,71.9999978027344,10|2,0:2|1:2,0:0:0:0:
229,186,184453,1,8,0:2:0:0:
277,129,184589,6,0,P|331:109|361:113,1,71.9999978027344,6|0,1:2|0:2,0:0:0:0:
160,54,184859,2,0,P|213:59|239:51,1,71.9999978027344,10|0,0:2|0:2,0:0:0:0:
301,31,185129,2,0,P|348:19|376:-4,1,71.9999978027344,10|0,0:2|0:2,0:0:0:0:
465,22,185399,6,0,P|439:61|418:183,1,143.999995605469,6|2,1:2|0:2,0:0:0:0:
421,234,185805,2,0,P|453:267|493:283,1,71.9999978027344,8|2,0:2|1:2,0:0:0:0:
354,202,186075,1,8,0:2:0:0:
355,277,186210,6,0,B|252:264|252:264|189:286,1,143.999995605469,10|4,0:3|0:3,0:0:0:0:
180,208,186616,1,4,0:3:0:0:
150,235,186751,1,0,1:2:0:0:
107,247,186886,1,0,1:2:0:0:
43,210,187021,6,0,L|72:141,1,71.9999978027344,6|0,1:2|0:0,0:0:0:0:
131,99,187291,2,0,P|124:44|29:37,1,143.999995605469,8|0,0:2|1:2,0:0:0:0:
152,21,187697,1,8,0:2:0:0:
214,80,187832,6,0,P|262:105|285:104,1,71.9999978027344,2|0,1:2|0:2,0:0:0:0:
388,20,188102,2,0,P|350:29|347:72,1,71.9999978027344,8|0,0:2|0:2,0:0:0:0:
438,120,188372,2,0,P|382:136|350:126,1,71.9999978027344,10|0,0:2|0:2,0:0:0:0:
255,189,188643,6,0,P|303:209|326:244,1,71.9999978027344,2|0,1:2|0:2,0:0:0:0:
449,231,188913,2,0,P|394:251|358:336,1,143.999995605469,10|2,0:2|1:2,0:0:0:0:
293,371,189319,1,8,0:2:0:0:
231,330,189453,2,0,P|184:301|89:300,2,143.999995605469,2|8|8,1:2|0:2|0:2,0:0:0:0:
19,184,190265,6,0,L|170:175,1,143.999995605469,6|0,1:2|0:2,0:0:0:0:
186,102,190670,2,0,P|161:64|116:61,1,71.9999978027344,10|2,0:2|1:2,0:0:0:0:
237,163,190940,1,8,0:2:0:0:
295,106,191075,6,0,P|342:63|429:81,1,143.999995605469,6|2,1:2|0:2,0:0:0:0:
347,171,191480,2,0,P|384:187|421:184,1,71.9999978027344,8|2,0:2|1:2,0:0:0:0:
486,161,191751,1,8,0:2:0:0:
505,240,191886,6,0,P|450:262|425:341,1,143.999995605469,6|0,1:2|0:2,0:0:0:0:
332,350,192292,2,0,L|348:280,1,71.9999978027344,10|0,0:2|1:2,0:0:0:0:
279,243,192562,1,8,0:2:0:0:
201,227,192697,5,6,1:2:0:0:
164,238,192832,1,0,1:2:0:0:
140,268,192967,2,0,L|124:357,1,71.9999978027344,10|8,0:3|0:3,0:0:0:0:
60,210,193237,1,6,0:3:0:0:
116,161,193372,1,4,0:3:0:0:
140,88,193507,5,14,1:2:0:0:
294,31,193778,1,6,1:2:0:0:
391,170,194048,1,6,1:2:0:0:
141,99,194318,5,14,1:2:0:0:
295,42,194589,1,6,1:2:0:0:
392,181,194859,1,6,1:2:0:0:
236,273,195129,5,14,1:2:0:0:
212,245,195264,1,2,0:2:0:0:
173,222,195399,1,6,1:2:0:0:
130,212,195534,1,2,0:2:0:0:
87,218,195670,2,0,P|55:224|3:203,2,71.9999978027344,6|8|14,1:2|0:2|1:2,0:0:0:0:
218,120,196210,5,14,1:2:0:0:
252,141,196345,1,10,0:2:0:0:
293,147,196480,1,10,0:2:0:0:
348,134,196616,1,10,0:2:0:0:
397,83,196751,6,0,L|380:186,1,90.0000034332277,6|0,1:2|0:2,0:0:0:0:
429,257,197291,1,0,1:2:0:0:
357,338,197562,2,0,P|314:286|278:283,2,90.0000034332277,10|0|0,0:2|0:2|1:2,0:0:0:0:
257,202,198372,6,0,L|267:152,2,45.0000017166138,2|0|0,1:2|0:0|0:2,0:0:0:0:
187,119,198913,2,0,L|179:68,2,45.0000017166138,0|0|10,1:2|0:0|0:2,0:0:0:0:
125,194,199453,1,0,0:2:0:0:
131,229,199589,1,8,0:2:0:0:
136,266,199724,1,0,1:2:0:0:
204,335,199994,6,0,P|233:364|285:362,1,90.0000034332277,6|0,1:2|0:2,0:0:0:0:
314,281,200534,1,0,1:2:0:0:
413,294,200805,1,10,0:2:0:0:
402,332,200940,1,0,0:0:0:0:
393,369,201075,1,0,0:2:0:0:
371,211,201345,1,0,1:2:0:0:
378,169,201480,1,0,0:2:0:0:
385,132,201616,6,0,P|360:79|324:73,1,90.0000034332277,2|0,1:2|0:2,0:0:0:0:
238,79,202156,1,0,1:2:0:0:
134,167,202426,6,0,P|163:199|211:203,1,90.0000034332277,10|0,0:2|1:2,0:0:0:0:
235,196,202832,1,8,1:2:0:0:
266,174,202967,1,8,0:2:0:0:
326,295,203237,6,0,P|291:312|200:323,1,120,6|2,1:2|0:2,0:0:0:0:
144,293,203643,1,10,0:2:0:0:
120,278,203778,2,0,P|83:262|38:259,1,60,2|0,1:2|0:2,0:0:0:0:
0,201,204048,2,0,P|45:183|114:132,2,120,10|2|10,0:2|1:2|0:2,0:0:0:0:
165,81,204859,6,0,B|183:110|183:110|173:209,1,120,2|0,1:2|0:2,0:0:0:0:
259,199,205264,1,8,0:0:0:0:
248,180,205399,2,0,L|258:103,1,60,0|0,1:2|0:0,0:0:0:0:
330,102,205670,1,10,0:2:0:0:
361,88,205805,2,0,B|379:79|379:79|488:90,1,120,0|0,1:2|1:2,0:0:0:0:
507,160,206210,1,10,0:2:0:0:
436,250,206480,6,0,P|390:235|308:238,1,120,6|0,1:2|0:2,0:0:0:0:
291,264,206886,1,2,1:2:0:0:
253,281,207021,1,10,0:2:0:0:
216,272,207156,1,2,0:2:0:0:
200,244,207291,2,0,L|205:379,1,120,10|0,0:2|1:2,0:0:0:0:
128,358,207697,1,0,1:2:0:0:
121,336,207832,1,8,0:2:0:0:
5,194,208102,5,10,0:2:0:0:
50,191,208237,1,2,0:2:0:0:
75,157,208372,1,6,1:2:0:0:
156,147,208507,6,0,B|164:64|164:64|196:41,1,120,8|2,0:2|0:2,0:0:0:0:
246,110,208913,5,10,0:2:0:0:
307,149,209048,1,2,0:2:0:0:
375,128,209183,1,6,1:2:0:0:
416,209,209318,6,0,B|418:251|418:251|407:285|407:285|403:342,1,120,10|0,0:2|1:2,0:0:0:0:
304,350,209724,5,14,0:2:0:0:
231,317,209859,1,0,1:2:0:0:
153,325,209994,2,0,P|109:337|79:348,1,60,14|0,0:2|1:2,0:0:0:0:
150,234,210264,2,0,P|110:234|82:223,1,60,14|0,0:2|1:2,0:0:0:0:
40,158,210534,5,14,0:2:0:0:
68,131,210670,1,0,1:2:0:0:
108,118,210805,1,14,0:2:0:0:
153,121,210940,1,8,0:2:0:0:
201,146,211075,1,14,0:2:0:0:
275,152,211210,1,8,0:2:0:0:
332,105,211345,1,14,0:2:0:0:
256,187,212967,5,2,0:2:0:0:
