osu file format v14

[General]
AudioFilename: audio.mp3
AudioLeadIn: 0
PreviewTime: 80535
Countdown: 0
SampleSet: Soft
StackLeniency: 0.7
Mode: 0
LetterboxInBreaks: 0
WidescreenStoryboard: 1

[Editor]
Bookmarks: 158213,200257
DistanceSpacing: 0.6
BeatDivisor: 4
GridSize: 32
TimelineZoom: 2.6

[Metadata]
Title:DELIGHT
TitleUnicode:DELIGHT
Artist:Kitamura Eri
ArtistUnicode:喜多村英梨
Creator:Mordred
Version:smozit's Extra ft. schoolboy
Source:
Tags:illusion dream wataru koda dystopia record schoolboy komore smozit kiyoshi guarden kowari saturnalize nymphe zelq japanese rock
BeatmapID:2200626
BeatmapSetID:1036552

[Difficulty]
HPDrainRate:5.5
CircleSize:4
OverallDifficulty:8.5
ApproachRate:9.5
SliderMultiplier:2.7
SliderTickRate:1

[Events]
//Background and Video events
0,0,"smokemansentmethis.jpg",0,0
//Break Periods
2,158413,161191
2,214490,225439
//Storyboard Layer 0 (Background)
//Storyboard Layer 1 (Fail)
//Storyboard Layer 2 (Pass)
//Storyboard Layer 3 (Foreground)
//Storyboard Layer 4 (Overlay)
//Storyboard Sound Samples

[TimingPoints]
549,437.956204379562,4,2,1,40,1,0
11059,-200,4,2,1,40,0,0
17629,-133.333333333333,4,2,3,40,0,0
18067,-133.333333333333,4,2,1,50,0,0
24636,-100,4,2,1,60,0,0
25074,-100,4,2,1,70,0,0
31205,-90.9090909090909,4,2,1,80,0,0
32027,-90.9090909090909,4,2,1,5,0,0
32081,-100,4,2,1,70,0,0
32519,-100,4,2,1,70,0,0
38213,-83.3333333333333,4,2,1,70,0,0
38651,-100,4,2,1,70,0,0
39089,-100,4,2,1,60,0,0
42757,-100,4,2,1,5,0,0
42811,-100,4,2,1,60,0,0
46260,-100,4,2,1,5,0,0
46315,-100,4,2,1,60,0,0
51516,-100,4,2,1,5,0,0
51570,-100,4,2,1,60,0,0
53267,-100,4,2,1,5,0,0
53322,-100,4,2,1,60,0,0
58523,-100,4,2,1,5,0,0
58578,-100,4,2,1,60,0,0
60275,-100,4,2,1,5,0,0
60330,-100,4,2,1,60,0,0
65530,-100,4,2,1,5,0,0
65585,-100,4,2,1,60,0,0
67118,-100,4,2,1,60,0,0
70184,-100,4,2,1,60,0,0
70621,-90.9090909090909,4,2,1,70,0,0
74125,-90.9090909090909,4,2,1,60,0,0
77191,-90.9090909090909,4,2,1,60,0,0
77629,-90.9090909090909,4,2,1,70,0,0
77848,-90.9090909090909,4,2,1,50,0,0
78067,-90.9090909090909,4,2,1,55,0,0
78286,-90.9090909090909,4,2,1,60,0,0
78505,-90.9090909090909,4,2,1,65,0,0
78724,-90.9090909090909,4,2,1,70,0,0
78943,-90.9090909090909,4,2,1,75,0,0
79162,-90.9090909090909,4,2,1,80,0,0
79381,-90.9090909090909,4,2,1,50,0,0
80257,-76.9230769230769,4,2,1,50,0,0
80640,-76.9230769230769,4,2,1,5,0,0
80694,-76.9230769230769,4,2,1,50,0,0
81132,-76.9230769230769,4,2,1,80,0,1
87702,-76.9230769230769,4,2,1,80,0,0
88140,-76.9230769230769,4,2,1,80,0,1
88468,-76.9230769230769,4,2,1,80,0,1
95585,-76.9230769230769,4,2,1,50,0,1
95804,-76.9230769230769,4,2,1,55,0,1
96023,-76.9230769230769,4,2,1,60,0,1
96242,-76.9230769230769,4,2,1,65,0,1
96461,-76.9230769230769,4,2,1,70,0,1
96680,-76.9230769230769,4,2,1,75,0,1
96899,-76.9230769230769,4,2,1,80,0,1
97556,-76.9230769230769,4,2,1,70,0,1
98651,-100,4,2,1,60,0,0
100348,-100,4,2,1,5,0,0
100403,-100,4,2,1,60,0,0
101278,-100,4,2,1,70,0,0
102154,-100,4,2,1,60,0,0
103906,-100,4,2,1,70,0,0
105658,-100,4,2,1,60,0,0
108286,-100,4,2,1,70,0,0
109162,-100,4,2,1,60,0,0
110913,-100,4,2,1,70,0,0
111899,-100,4,2,1,70,0,0
112665,-100,4,2,1,60,0,0
112830,-100,4,2,1,5,0,0
112884,-100,4,2,1,60,0,0
119837,-100,4,2,1,5,0,0
119892,-100,4,2,1,60,0,0
120494,-100,4,2,1,5,0,0
120548,-100,4,2,1,60,0,0
123833,-100,4,2,1,65,0,0
124052,-100,4,2,1,70,0,0
124709,-100,4,2,1,65,0,0
124928,-100,4,2,1,60,0,0
125092,-100,4,2,1,5,0,0
125147,-100,4,2,1,60,0,0
130184,-100,4,2,1,70,0,0
133687,-100,4,2,1,60,0,0
138943,-100,4,2,1,50,0,0
139819,-76.9230769230769,4,2,1,50,0,0
140202,-76.9230769230769,4,2,1,5,0,0
140257,-100,4,2,1,50,0,0
140694,-76.9230769230769,4,2,1,80,0,1
147264,-100,4,2,1,80,0,0
147702,-76.9230769230769,4,2,1,80,0,1
155147,-76.9230769230769,4,2,1,50,0,1
155366,-76.9230769230769,4,2,1,55,0,1
155585,-76.9230769230769,4,2,1,60,0,1
155804,-76.9230769230769,4,2,1,65,0,1
156023,-76.9230769230769,4,2,1,70,0,1
156242,-76.9230769230769,4,2,1,75,0,1
156461,-76.9230769230769,4,2,1,80,0,1
157118,-76.9230769230769,4,2,1,70,0,1
158213,-100,4,2,2,70,0,0
164344,-100,4,2,2,70,0,0
170476,-76.9230769230769,4,2,1,70,0,0
178359,-76.9230769230769,4,2,1,80,0,0
179235,-76.9230769230769,4,2,1,70,0,0
186242,-66.6666666666667,4,2,1,80,0,1
192373,-100,4,2,1,80,0,0
193249,-66.6666666666667,4,2,1,80,0,1
199381,-76.9230769230769,4,2,1,75,0,1
199819,-76.9230769230769,4,2,1,70,0,1
200257,-100,4,2,1,60,0,0
203760,-100,4,2,1,70,0,0
207264,-100,4,2,1,60,0,0
210767,-100,4,2,1,70,0,0
210986,-100,4,2,1,50,0,0
211205,-100,4,2,1,55,0,0
211424,-100,4,2,1,60,0,0
211643,-100,4,2,1,70,0,0
211862,-100,4,2,1,60,0,0
212191,-100,4,2,1,55,0,0
212519,-100,4,2,1,50,0,0
213395,-76.9230769230769,4,2,1,50,0,0
213778,-76.9230769230769,4,2,1,5,0,0
213833,-100,4,2,1,30,0,0
226534,-333.333333333333,4,2,1,30,0,0
226972,-200,4,2,1,40,0,0
227410,-133.333333333333,4,2,1,50,0,0
227848,-100,4,2,1,60,0,0
228286,-71.4285714285714,4,2,1,80,0,1
237209,-71.4285714285714,4,2,1,5,0,1
237264,-71.4285714285714,4,2,1,80,0,1
242738,-71.4285714285714,4,2,1,50,0,1
242957,-71.4285714285714,4,2,1,55,0,1
243176,-71.4285714285714,4,2,1,60,0,1
243395,-71.4285714285714,4,2,1,65,0,1
243614,-71.4285714285714,4,2,1,70,0,1
243833,-71.4285714285714,4,2,1,75,0,1
244052,-71.4285714285714,4,2,1,80,0,1
245804,-100,4,2,1,70,0,0
245968,-100,4,2,1,5,0,0
246023,-100,4,2,1,70,0,0
251935,-100,4,2,1,80,0,0
252757,-100,4,2,1,5,0,0
252811,-100,4,2,1,70,0,0
256479,-100,4,2,1,5,0,0
256534,-100,4,2,1,70,0,0
258943,-76.9230769230769,4,2,1,70,0,0

[Colours]
Combo1 : 250,180,240
Combo2 : 110,190,225
Combo3 : 255,230,130
Combo4 : 150,230,140

[HitObjects]
144,227,11059,6,0,P|137:211|116:195,3,33.75,2|0|0|0,0:2|0:2|0:2|0:2,0:0:0:0:
44,185,11497,2,0,P|27:189|11:187,1,33.75,0|0,0:2|0:2,0:0:0:0:
97,121,11716,2,0,P|101:104|111:91,1,33.75,0|0,0:2|0:2,0:0:0:0:
202,41,11935,2,0,P|217:45|234:48,1,33.75,2|0,0:2|0:2,0:0:0:0:
332,4,12154,2,0,P|321:14|309:28,1,33.75,0|0,0:2|0:2,0:0:0:0:
299,135,12373,2,0,P|294:120|288:102,1,33.75,0|0,0:2|0:2,0:0:0:0:
390,143,12592,2,0,P|384:158|379:175,1,33.75,0|0,0:2|0:2,0:0:0:0:
445,260,12811,6,0,L|451:316,3,33.75,2|0|0|0,0:2|0:2|0:2|0:2,0:0:0:0:
348,281,13249,2,0,P|331:281|314:286,1,33.75,0|0,0:2|0:2,0:0:0:0:
248,237,13468,2,0,P|237:250|231:266,1,33.75,0|0,0:2|0:2,0:0:0:0:
150,285,13687,2,0,P|152:301|161:316,1,33.75,2|0,0:2|0:2,0:0:0:0:
104,383,13906,2,0,P|88:377|70:377,1,33.75,0|0,0:2|0:2,0:0:0:0:
42,294,14125,2,0,P|55:283|63:268,1,33.75,2|0,0:2|0:2,0:0:0:0:
53,182,14344,2,0,P|39:171|31:156,1,33.75,0|0,0:2|0:2,0:0:0:0:
65,71,14563,6,0,P|80:65|98:65,3,33.75,2|0|0|0,0:2|0:2|0:2|0:2,0:0:0:0:
155,136,15001,2,0,P|152:152|143:167,1,33.75,0|0,0:2|0:2,0:0:0:0:
195,67,15220,2,0,P|181:56|173:41,1,33.75,0|0,0:2|0:2,0:0:0:0:
234,136,15439,2,0,P|249:130|267:130,1,33.75,2|0,0:2|0:2,0:0:0:0:
343,162,15658,2,0,P|359:161|375:156,1,33.75,0|0,0:2|0:2,0:0:0:0:
430,58,15877,2,0,P|421:72|418:89,1,33.75,0|0,0:2|0:2,0:0:0:0:
476,185,16096,2,0,P|467:170|454:159,1,33.75,0|0,0:2|0:2,0:0:0:0:
407,230,16315,6,0,L|404:294,1,33.75,2|0,0:2|0:2,0:0:0:0:
337,312,16534,2,0,L|340:376,1,33.75,0|0,0:2|0:2,0:0:0:0:
265,241,16753,2,0,L|262:305,1,33.75,0|0,0:2|0:2,0:0:0:0:
186,307,16972,2,0,L|189:371,1,33.75,0|0,0:2|0:2,0:0:0:0:
101,384,17191,6,0,L|44:354,1,33.75,2|0,0:2|0:2,0:0:0:0:
76,271,17410,6,0,L|129:236,1,33.75,0|0,0:2|0:2,0:0:0:0:
32,188,17629,6,0,P|21:169|0:148,1,50.6250019311906,10|0,0:2|0:2,0:0:0:0:
65,75,17848,6,0,P|78:53|96:36,1,50.6250019311906,0|0,0:2|0:2,0:0:0:0:
182,77,18067,6,0,P|206:86|232:84,3,50.6250019311906,2|0|0|0,0:2|0:2|0:2|0:2,0:0:0:0:
296,38,18505,2,0,P|307:15|327:0,1,50.6250019311906,2|0,0:2|0:2,0:0:0:0:
302,118,18724,2,0,P|315:138|319:163,1,50.6250019311906,0|0,0:2|0:2,0:0:0:0:
334,253,18943,2,0,P|308:254|285:245,1,50.6250019311906,2|0,0:2|0:2,0:0:0:0:
201,213,19162,2,0,P|212:190|231:174,1,50.6250019311906,0|0,0:2|0:2,0:0:0:0:
274,256,19381,2,0,P|297:265|323:264,1,50.6250019311906,2|0,0:2|0:2,0:0:0:0:
433,166,19600,2,0,P|413:181|402:204,1,50.6250019311906,0|0,0:2|0:2,0:0:0:0:
432,348,19819,6,0,P|427:323|414:302,1,50.6250019311906,2|0,0:2|0:2,0:0:0:0:
414,211,20038,2,0,P|424:188|444:173,1,50.6250019311906,0|0,0:2|0:2,0:0:0:0:
382,85,20257,2,0,P|371:62|351:47,1,50.6250019311906,2|0,0:2|0:2,0:0:0:0:
271,66,20476,2,0,P|256:86|253:111,1,50.6250019311906,0|0,0:2|0:2,0:0:0:0:
311,172,20694,2,0,P|336:173|359:164,1,50.6250019311906,2|0,0:2|0:2,0:0:0:0:
389,74,20913,2,0,P|378:51|358:36,1,50.6250019311906,2|0,0:2|0:2,0:0:0:0:
258,58,21132,2,0,P|243:78|240:103,1,50.6250019311906,2|0,0:2|0:2,0:0:0:0:
160,156,21351,2,0,P|138:142|113:139,1,50.6250019311906,2|0,0:2|0:2,0:0:0:0:
21,221,21570,6,0,B|16:244|16:244|21:271,3,50.6250019311906,2|0|0|0,0:2|0:2|0:2|0:2,0:0:0:0:
118,321,22008,2,0,B|140:313|140:313|161:295,1,50.6250019311906,2|0,0:2|0:2,0:0:0:0:
262,263,22227,2,0,B|284:270|284:270|304:288,1,50.6250019311906,0|0,0:2|0:2,0:0:0:0:
395,348,22446,2,0,B|417:340|417:340|437:322,1,50.6250019311906,2|0,0:2|0:2,0:0:0:0:
476,222,22665,2,0,L|461:138,1,50.6250019311906,0|0,0:2|0:2,0:0:0:0:
419,84,22884,2,0,L|434:0,1,50.6250019311906,2|0,0:2|0:2,0:0:0:0:
310,38,23103,2,0,L|234:42,1,50.6250019311906,0|0,0:2|0:2,0:0:0:0:
244,168,23322,6,0,L|278:100,1,50.6250019311906,2|0,0:2|0:2,0:0:0:0:
164,45,23541,2,0,L|205:108,1,50.6250019311906,2|0,0:2|0:2,0:0:0:0:
136,174,23760,2,0,L|60:178,1,50.6250019311906,2|0,0:2|0:2,0:0:0:0:
38,85,23979,2,0,L|72:17,1,50.6250019311906,2|0,0:2|0:2,0:0:0:0:
176,40,24198,2,0,L|217:103,1,50.6250019311906,2|0,0:2|0:2,0:0:0:0:
132,187,24417,2,0,L|56:191,1,50.6250019311906,2|0,0:2|0:2,0:0:0:0:
11,295,24636,5,2,0:2:0:0:
9,310,24745,1,2,0:2:0:0:
8,325,24854,1,2,0:2:0:0:
7,341,24964,1,2,0:2:0:0:
8,356,25074,6,0,B|77:372|62:306|149:319,1,135,6|8,1:2|0:2,0:0:0:0:
207,359,25403,1,0,0:2:0:0:
284,314,25512,1,2,1:2:0:0:
284,314,25621,1,0,1:2:0:0:
356,361,25731,2,0,P|387:355|423:368,1,67.5,10|0,0:2|0:2,0:0:0:0:
387,214,25950,2,0,P|376:243|347:268,1,67.5,2|0,1:2|0:2,0:0:0:0:
498,314,26169,2,0,P|477:290|470:252,1,67.5,10|0,0:2|1:2,0:0:0:0:
451,160,26388,2,0,P|471:136|478:98,1,67.5,2|0,0:2|1:2,0:0:0:0:
426,32,26607,2,0,P|395:25|359:39,1,67.5,10|0,0:2|0:2,0:0:0:0:
243,101,26826,6,0,P|211:112|179:105,1,67.5,2|0,1:2|0:2,0:0:0:0:
76,0,27045,2,0,P|101:21|111:53,1,67.5,10|0,0:2|0:2,0:0:0:0:
99,137,27264,1,2,1:2:0:0:
99,137,27373,1,0,1:2:0:0:
46,199,27483,2,0,L|62:292,1,67.5,10|0,0:2|0:2,0:0:0:0:
203,250,27702,2,0,L|114:217,1,67.5,2|0,1:2|0:2,0:0:0:0:
80,360,27921,1,10,0:2:0:0:
80,360,28030,2,0,L|131:316,1,67.5,0|2,1:2|0:2,0:0:0:0:
232,350,28249,1,0,1:2:0:0:
232,350,28358,2,0,L|298:362,1,67.5,10|0,0:2|0:2,0:0:0:0:
383,301,28578,6,0,P|349:218|348:113,2,135,6|8|2,1:2|0:2|1:2,0:0:0:0:
465,325,29125,1,0,1:2:0:0:
508,258,29235,2,0,P|500:221|487:186,1,67.5,10|0,0:2|0:2,0:0:0:0:
425,132,29454,2,0,P|433:95|446:60,1,67.5,2|0,1:2|0:2,0:0:0:0:
375,0,29673,2,0,P|342:10|309:16,1,67.5,10|0,0:2|1:2,0:0:0:0:
286,110,29892,2,0,P|314:135|337:164,1,67.5,2|0,0:2|1:2,0:0:0:0:
312,258,30111,2,0,P|275:270|239:276,1,67.5,10|0,0:2|0:2,0:0:0:0:
169,207,30330,6,0,P|177:170|190:135,1,67.5,2|0,1:2|0:2,0:0:0:0:
87,43,30548,2,0,P|98:74|104:107,1,67.5,10|0,0:2|0:2,0:0:0:0:
151,212,30767,2,0,P|159:175|172:140,1,67.5,2|0,1:2|1:2,0:0:0:0:
69,48,30986,2,0,P|80:79|86:112,1,67.5,10|0,0:2|0:2,0:0:0:0:
26,303,31205,6,0,P|76:285|167:354,1,148.50000453186,6|8,1:2|0:2,0:0:0:0:
241,367,31534,2,0,B|295:363|295:363|322:339|322:339|425:331,1,148.50000453186,6|0,1:2|1:2,0:0:0:0:
464,281,31808,1,0,1:2:0:0:
477,272,31862,2,0,P|488:216|458:162,1,111.375003398895,14|0,0:2|0:2,0:0:0:0:
480,52,32081,6,0,B|419:82|419:82|299:63,1,135,6|8,1:2|0:2,0:0:0:0:
277,26,32410,1,0,0:2:0:0:
221,93,32519,1,2,1:2:0:0:
221,93,32629,1,0,1:2:0:0:
131,71,32738,2,0,P|127:39|141:4,1,67.5,10|0,0:2|0:2,0:0:0:0:
59,104,32957,2,0,P|33:123|-3:128,1,67.5,2|0,1:2|0:2,0:0:0:0:
123,150,33176,2,0,P|152:162|175:192,1,67.5,10|0,0:2|1:2,0:0:0:0:
234,251,33395,2,0,P|209:270|171:275,1,67.5,2|0,0:2|1:2,0:0:0:0:
91,296,33614,2,0,P|86:264|101:229,1,67.5,10|0,0:2|0:2,0:0:0:0:
271,320,33833,6,0,B|307:329|307:329|352:364,1,67.5,2|0,1:2|0:2,0:0:0:0:
411,369,34052,2,0,B|440:358|440:358|465:331,1,67.5,10|0,0:2|0:2,0:0:0:0:
440,250,34271,1,2,1:2:0:0:
440,250,34381,1,0,1:2:0:0:
493,183,34490,2,0,P|496:165|512:118,1,67.5,10|0,0:2|0:2,0:0:0:0:
447,37,34709,2,0,P|429:43|381:52,1,67.5,2|0,1:2|0:2,0:0:0:0:
285,113,34928,1,10,0:2:0:0:
285,113,35038,2,0,P|267:106|219:97,1,67.5,0|2,1:2|0:2,0:0:0:0:
97,49,35257,1,0,1:2:0:0:
97,49,35367,2,0,P|115:42|163:33,1,67.5,10|0,0:2|0:2,0:0:0:0:
29,124,35585,6,0,B|62:184|62:184|42:258,2,135,6|8|2,1:2|0:2|1:2,0:0:0:0:
110,309,36132,1,0,1:2:0:0:
187,272,36242,2,0,P|220:267|252:276,1,67.5,10|0,0:2|0:2,0:0:0:0:
354,170,36461,2,0,P|341:201|317:224,1,67.5,2|0,1:2|0:2,0:0:0:0:
359,365,36680,2,0,P|338:338|330:305,1,67.5,10|0,0:2|1:2,0:0:0:0:
273,153,36899,2,0,P|293:126|301:93,1,67.5,2|0,0:2|1:2,0:0:0:0:
247,16,37118,2,0,P|213:11|181:20,1,67.5,10|0,0:2|0:2,0:0:0:0:
52,163,37337,5,14,0:2:0:0:
131,146,37446,1,8,0:2:0:0:
114,66,37555,1,10,0:2:0:0:
35,83,37665,1,8,0:2:0:0:
67,139,37775,1,10,0:3:0:0:
107,130,37884,1,8,0:3:0:0:
98,89,37993,1,6,0:3:0:0:
58,98,38103,1,4,0:3:0:0:
84,116,38213,6,0,B|87:148|75:188|75:188|90:203|90:203|80:237|80:279,1,161.999995056153,6|0,1:2|1:2,0:0:0:0:
71,286,38486,1,0,1:2:0:0:
69,294,38541,1,0,1:2:0:0:
68,302,38596,1,0,1:2:0:0:
67,310,38651,1,8,0:2:0:0:
141,353,38760,1,0,1:2:0:0:
451,370,39089,6,0,B|444:303|492:319|478:241,2,135,6|8|2,1:2|0:2|1:2,0:0:0:0:
401,219,39636,1,0,1:2:0:0:
401,219,39746,2,0,P|416:191|447:169,1,67.5,8|0,0:2|0:2,0:0:0:0:
511,81,39965,2,0,P|426:78|348:57,1,135,2|8,1:2|0:2,0:0:0:0:
299,75,40293,2,0,P|265:64|232:63,1,67.5,0|0,1:2|0:2,0:0:0:0:
207,198,40512,1,0,1:2:0:0:
207,198,40621,2,0,P|233:174|250:145,1,67.5,10|0,0:2|0:2,0:0:0:0:
146,56,40840,6,0,P|153:90|169:120,1,67.5,2|0,1:2|0:2,0:0:0:0:
96,200,41059,2,0,P|89:234|73:264,1,67.5,10|0,0:2|0:2,0:0:0:0:
138,359,41278,1,2,1:2:0:0:
138,359,41388,1,0,1:2:0:0:
138,359,41497,2,0,B|171:348|171:348|214:356,1,67.5,10|0,0:2|0:2,0:0:0:0:
380,333,41716,6,0,B|347:344|347:344|304:336,1,67.5,0|0,1:2|0:2,0:0:0:0:
415,255,41935,1,8,0:2:0:0:
415,255,42045,2,0,B|421:220|421:220|450:187,1,67.5,0|0,1:2|0:2,0:0:0:0:
465,324,42263,1,0,1:2:0:0:
465,324,42373,2,0,B|491:347|491:347|505:388,1,67.5,10|0,0:2|0:2,0:0:0:0:
383,96,42592,6,0,P|446:119|512:106,2,135,2|8|2,1:2|0:2|1:2,0:0:0:0:
315,40,43140,1,0,1:2:0:0:
315,40,43249,2,0,P|287:28|247:33,1,67.5,8|0,0:2|0:2,0:0:0:0:
172,88,43468,2,0,P|138:91|107:79,1,67.5,2|0,1:2|0:2,0:0:0:0:
4,0,43687,2,0,P|23:26|28:59,1,67.5,10|0,0:2|1:2,0:0:0:0:
12,190,43906,2,0,P|26:159|52:138,1,67.5,2|0,0:2|1:2,0:0:0:0:
182,101,44125,2,0,P|148:104|117:92,1,67.5,10|0,0:2|0:2,0:0:0:0:
90,223,44344,6,0,P|87:325|89:388,2,135,2|8|2,1:2|0:2|1:2,0:0:0:0:
170,334,44892,1,0,1:2:0:0:
244,297,45001,2,0,B|278:295|278:295|315:316,1,67.5,10|0,0:2|0:2,0:0:0:0:
436,384,45220,2,0,L|426:274,1,67.5,2|0,1:2|1:2,0:0:0:0:
491,239,45439,1,12,0:2:0:0:
491,239,45548,2,0,L|501:129,1,67.5,0|0,1:2|0:2,0:0:0:0:
403,64,45767,1,0,1:2:0:0:
403,64,45876,2,0,L|413:174,1,67.5,12|0,0:2|0:2,0:0:0:0:
265,46,46096,6,0,B|214:47|214:47|183:25|183:25|95:27,2,135,6|8|2,1:2|0:2|1:2,0:0:0:0:
124,108,46643,1,0,1:2:0:0:
124,108,46753,2,0,P|95:98|66:72,1,67.5,8|0,0:2|0:2,0:0:0:0:
37,163,46972,2,0,P|30:213|22:297,1,135,2|8,1:2|0:2,0:0:0:0:
49,379,47300,2,0,B|83:376|101:340|101:340|126:367|159:370,1,135,0|0,1:2|1:2,0:0:0:0:
224,315,47629,1,10,0:2:0:0:
299,355,47738,1,2,0:2:0:0:
387,312,47848,6,0,L|454:317,1,67.5,2|0,1:2|0:2,0:0:0:0:
500,222,48067,2,0,L|432:227,1,67.5,10|0,0:2|0:2,0:0:0:0:
355,166,48286,1,2,1:2:0:0:
355,166,48395,1,0,1:2:0:0:
355,166,48505,2,0,P|344:135|347:98,1,67.5,10|0,0:2|0:2,0:0:0:0:
425,56,48724,2,0,P|457:61|487:83,1,67.5,2|0,1:2|0:2,0:0:0:0:
352,14,48943,1,8,0:2:0:0:
352,14,49052,2,0,P|319:19|289:41,1,67.5,0|0,1:2|0:2,0:0:0:0:
232,128,49271,1,0,1:2:0:0:
232,128,49380,2,0,P|199:123|169:101,1,67.5,10|0,0:2|0:2,0:0:0:0:
10,21,49600,6,0,B|51:45|51:45|70:183,2,135,2|8|2,1:2|0:2|1:2,0:0:0:0:
26,205,50147,1,0,1:2:0:0:
26,205,50257,2,0,P|55:213|126:194,1,67.5,8|0,0:2|0:2,0:0:0:0:
232,128,50476,2,0,P|210:149|191:220,1,67.5,2|0,1:2|0:2,0:0:0:0:
195,344,50694,2,0,P|187:314|135:262,1,67.5,10|0,0:2|1:2,0:0:0:0:
280,369,50913,1,2,0:2:0:0:
280,369,51023,1,0,1:2:0:0:
348,315,51132,2,0,L|454:321,1,67.5,10|0,0:2|0:2,0:0:0:0:
485,242,51351,6,0,P|476:187|463:108,2,135,2|8|0,1:2|0:2|1:2,0:0:0:0:
379,106,51899,1,0,1:2:0:0:
379,106,52008,2,0,P|386:75|408:45,1,67.5,8|0,0:2|0:2,0:0:0:0:
281,37,52227,1,0,1:2:0:0:
261,35,52336,1,0,1:2:0:0:
241,34,52445,1,12,0:2:0:0:
220,32,52556,2,0,L|109:28,1,67.5,0|0,1:2|0:2,0:0:0:0:
107,175,52775,1,0,1:2:0:0:
107,175,52884,2,0,L|165:80,1,67.5,12|0,0:2|0:2,0:0:0:0:
23,320,53103,6,0,B|96:330|84:281|168:296,2,135,6|8|2,1:2|0:2|1:2,0:0:0:0:
223,343,53651,1,0,1:2:0:0:
223,343,53760,2,0,B|241:316|238:278,1,67.5,8|0,0:2|0:2,0:0:0:0:
280,181,53979,2,0,B|294:210|328:226,1,67.5,2|0,1:2|0:2,0:0:0:0:
391,311,54198,1,8,0:2:0:0:
391,311,54308,2,0,B|358:308|327:330,1,67.5,0|0,1:2|0:2,0:0:0:0:
470,277,54527,1,0,1:2:0:0:
470,277,54637,2,0,B|487:250|485:211,1,67.5,10|0,0:2|0:2,0:0:0:0:
380,121,54855,6,0,B|363:94|365:55,1,67.5,2|0,1:2|0:2,0:0:0:0:
487,59,55074,2,0,B|488:96|471:123,1,67.5,10|0,0:2|0:2,0:0:0:0:
291,28,55293,1,2,1:2:0:0:
291,28,55403,1,0,1:2:0:0:
291,28,55512,2,0,P|257:22|223:30,1,67.5,10|0,0:2|0:2,0:0:0:0:
94,98,55731,2,0,P|128:92|162:100,1,67.5,2|0,1:2|0:2,0:0:0:0:
121,239,55950,1,8,0:2:0:0:
121,239,56059,2,0,L|128:143,1,67.5,0|0,1:2|0:2,0:0:0:0:
39,258,56278,1,0,1:2:0:0:
39,258,56388,2,0,L|34:325,1,67.5,10|0,0:2|0:2,0:0:0:0:
176,384,56607,6,0,P|217:358|331:384,2,135,2|8|2,1:2|0:2|1:2,0:0:0:0:
344,295,57154,1,0,1:2:0:0:
344,295,57264,2,0,P|365:319|374:355,1,67.5,8|0,0:2|0:2,0:0:0:0:
326,213,57483,2,0,P|357:212|391:228,1,67.5,2|0,1:2|0:2,0:0:0:0:
258,173,57702,2,0,P|279:147|310:134,1,67.5,10|0,0:2|1:2,0:0:0:0:
392,69,57921,2,0,P|396:36|385:5,1,67.5,2|0,0:2|1:2,0:0:0:0:
209,23,58140,2,0,P|197:54|201:87,1,67.5,10|0,0:2|0:2,0:0:0:0:
69,241,58359,6,0,B|111:205|111:205|93:76,2,135,2|8|2,1:2|0:2|1:2,0:0:0:0:
0,353,58906,1,0,1:2:0:0:
75,384,59016,2,0,L|175:376,1,67.5,10|0,0:2|0:2,0:0:0:0:
229,310,59235,1,2,1:2:0:0:
276,346,59344,1,0,1:2:0:0:
335,351,59453,1,12,0:2:0:0:
388,325,59563,2,0,P|391:291|403:259,1,67.5,0|0,1:2|0:2,0:0:0:0:
455,191,59782,1,0,1:2:0:0:
414,116,59892,2,0,P|411:82|398:50,1,67.5,12|0,0:2|0:2,0:0:0:0:
258,56,60111,6,0,B|178:74|216:-16|83:36,2,135,6|8|2,1:2|0:2|1:2,0:0:0:0:
91,90,60658,1,0,1:2:0:0:
70,74,60767,2,0,P|52:48|51:9,1,67.5,8|0,0:2|0:2,0:0:0:0:
26,155,60986,2,0,L|22:308,1,135,2|8,1:2|0:2,0:0:0:0:
95,349,61315,2,0,B|152:371|196:336|196:336|156:316,1,135,0|0,1:2|1:2,0:0:0:0:
266,293,61643,2,0,P|275:324|274:360,1,67.5,10|0,0:2|0:2,0:0:0:0:
512,317,61862,6,0,P|479:330|445:325,1,67.5,2|0,1:2|0:2,0:0:0:0:
327,227,62081,2,0,P|360:214|393:218,1,67.5,10|0,0:2|0:2,0:0:0:0:
463,180,62300,2,0,P|476:213|471:246,1,67.5,2|0,1:2|1:2,0:0:0:0:
376,364,62519,2,0,P|363:331|367:297,1,67.5,10|0,0:2|0:2,0:0:0:0:
396,133,62738,2,0,L|378:31,1,67.5,2|0,1:2|0:2,0:0:0:0:
253,13,62957,1,8,0:2:0:0:
253,13,63067,2,0,L|241:79,1,67.5,0|0,1:2|0:2,0:0:0:0:
163,149,63286,1,0,1:2:0:0:
163,149,63395,2,0,P|134:154|95:144,1,67.5,10|0,0:2|0:2,0:0:0:0:
27,11,63614,6,0,P|70:79|77:171,2,135,2|8|2,1:2|0:2|1:2,0:0:0:0:
7,218,64162,1,0,1:2:0:0:
7,218,64271,2,0,L|13:285,1,67.5,8|0,0:2|0:2,0:0:0:0:
68,353,64490,2,0,L|135:346,1,67.5,2|0,1:2|0:2,0:0:0:0:
165,246,64709,2,0,L|98:253,1,67.5,10|0,0:2|1:2,0:0:0:0:
226,381,64928,2,0,L|220:314,1,67.5,2|0,0:2|1:2,0:0:0:0:
323,212,65147,2,0,L|317:279,1,67.5,10|0,0:2|0:2,0:0:0:0:
386,353,65366,6,0,P|493:366|515:327,2,135,2|8|0,1:2|0:2|1:2,0:0:0:0:
445,195,65913,1,0,1:2:0:0:
452,220,66023,2,0,L|447:305,1,67.5,12|0,0:2|0:2,0:0:0:0:
406,107,66242,5,12,0:2:0:0:
373,136,66351,1,8,0:2:0:0:
328,141,66460,1,8,0:2:0:0:
291,118,66570,1,8,0:2:0:0:
269,86,66680,2,0,P|261:54|264:18,1,67.5,8|8,0:3|0:3,0:0:0:0:
180,1,66899,1,8,0:3:0:0:
180,1,67008,1,8,0:3:0:0:
97,124,67118,5,6,1:2:0:0:
97,124,67227,1,0,1:2:0:0:
11,108,67446,5,0,1:2:0:0:
11,108,67556,2,0,B|-15:169|44:160|26:242,1,135,8|0,0:2|0:2,0:0:0:0:
0,315,67884,5,0,1:2:0:0:
0,315,67939,1,0,1:2:0:0:
0,315,67994,1,2,1:2:0:0:
83,298,68103,1,0,1:2:0:0:
165,331,68213,1,0,1:2:0:0:
201,350,68322,1,0,1:2:0:0:
233,344,68432,1,8,0:2:0:0:
239,335,68760,5,8,0:2:0:0:
317,310,68869,1,6,1:2:0:0:
393,342,68978,1,0,0:0:0:0:
429,335,69088,1,0,1:2:0:0:
459,342,69197,1,0,0:0:0:0:
469,352,69308,1,8,0:2:0:0:
512,279,69636,5,0,1:2:0:0:
512,279,69691,1,0,1:2:0:0:
512,279,69746,1,2,1:2:0:0:
470,204,69855,1,0,1:2:0:0:
493,124,69965,1,0,1:2:0:0:
503,95,70074,1,0,1:2:0:0:
491,71,70184,6,0,P|464:61|423:72,1,67.5,8|0,0:2|0:2,0:0:0:0:
374,142,70403,1,8,0:2:0:0:
374,142,70512,1,8,0:2:0:0:
263,91,70621,6,0,L|252:18,1,74.2500022659302,6|0,1:2|0:2,0:0:0:0:
195,159,70840,2,0,L|264:186,1,74.2500022659302,8|0,0:2|0:2,0:0:0:0:
170,66,71059,1,0,1:2:0:0:
170,66,71169,1,0,1:2:0:0:
170,66,71278,2,0,L|112:112,1,74.2500022659302,12|0,0:2|0:2,0:0:0:0:
15,161,71497,1,0,1:2:0:0:
15,161,71607,1,0,1:2:0:0:
15,161,71716,1,12,0:2:0:0:
15,161,71826,2,0,L|73:207,1,74.2500022659302,0|2,1:2|0:2,0:0:0:0:
139,316,72045,1,0,1:2:0:0:
68,353,72154,2,0,L|-26:361,1,74.2500022659302,12|0,0:2|0:2,0:0:0:0:
163,302,72373,6,0,L|257:310,1,74.2500022659302,2|0,1:2|0:2,0:0:0:0:
307,168,72592,2,0,L|253:245,1,74.2500022659302,12|0,0:2|0:2,0:0:0:0:
351,359,72811,1,2,1:2:0:0:
351,359,72921,1,0,1:2:0:0:
351,359,73030,2,0,L|310:273,1,74.2500022659302,12|0,0:2|0:2,0:0:0:0:
434,246,73249,1,2,1:2:0:0:
434,246,73359,1,0,1:2:0:0:
434,246,73468,1,12,0:2:0:0:
434,246,73578,2,0,L|474:160,1,74.2500022659302,0|2,1:2|0:2,0:0:0:0:
382,85,73797,1,0,1:2:0:0:
438,28,73906,2,0,L|511:21,1,74.2500022659302,12|0,0:2|0:2,0:0:0:0:
280,5,74125,5,6,1:2:0:0:
280,5,74235,1,0,1:2:0:0:
158,77,74454,5,0,1:2:0:0:
158,77,74563,2,0,B|71:83|102:35|-14:47,1,148.50000453186,8|0,0:2|0:2,0:0:0:0:
9,61,74892,5,0,1:2:0:0:
9,61,74946,1,0,1:2:0:0:
9,61,75001,1,2,1:2:0:0:
0,139,75111,1,0,1:2:0:0:
51,211,75220,1,0,1:2:0:0:
42,290,75330,1,0,1:2:0:0:
53,311,75439,1,8,0:2:0:0:
62,317,75767,5,8,0:2:0:0:
129,353,75877,1,6,1:2:0:0:
204,349,75986,1,0,1:2:0:0:
280,346,76096,1,0,1:2:0:0:
355,342,76205,1,0,1:2:0:0:
431,339,76315,1,8,0:2:0:0:
470,246,76534,5,0,0:0:0:0:
502,164,76643,1,0,1:2:0:0:
502,164,76698,1,0,1:2:0:0:
502,164,76753,1,2,1:2:0:0:
446,96,76862,1,0,1:2:0:0:
359,110,76972,1,0,1:2:0:0:
283,64,77081,1,0,1:2:0:0:
269,36,77191,6,0,B|233:27|233:27|194:40,1,74.2500022659302,10|0,0:2|0:2,0:0:0:0:
77,159,77410,5,8,0:2:0:0:
183,128,77519,1,8,0:2:0:0:
104,51,77629,1,6,1:2:0:0:
27,280,77848,6,0,L|127:273,1,74.2500022659302,8|0,0:2|0:0,0:0:0:0:
38,294,78067,2,0,L|138:287,1,74.2500022659302,8|0,0:2|0:0,0:0:0:0:
266,344,78286,2,0,L|166:337,1,74.2500022659302,8|0,0:2|0:0,0:0:0:0:
255,358,78505,2,0,L|155:351,1,74.2500022659302,8|0,0:2|0:0,0:0:0:0:
360,285,78724,2,0,L|460:278,1,74.2500022659302,8|0,0:2|0:0,0:0:0:0:
371,299,78943,2,0,L|471:292,1,74.2500022659302,8|0,0:2|0:0,0:0:0:0:
494,362,79162,1,8,0:2:0:0:
428,50,80257,6,0,B|489:96|468:174|391:205|313:149|358:32,1,263.249987949372,2|0,0:2|0:0,0:0:0:0:
361,4,80694,1,2,0:2:0:0:
361,4,80804,1,2,0:2:0:0:
361,4,80913,1,2,0:2:0:0:
0,289,81132,6,0,B|49:309|86:258|61:260|113:197|163:227,1,175.499991966248,6|8,1:2|0:2,0:0:0:0:
230,314,81461,2,0,P|197:373|151:298,1,175.499991966248,2|0,0:2|1:2,0:0:0:0:
241,222,81789,2,0,P|285:236|310:283,1,87.749995983124,10|0,0:2|0:2,0:0:0:0:
395,367,82008,2,0,P|385:321|413:276,1,87.749995983124,2|0,1:2|1:2,0:0:0:0:
444,162,82227,2,0,P|409:193|356:191,1,87.749995983124,10|0,0:2|1:2,0:0:0:0:
301,46,82446,2,0,P|336:15|389:17,1,87.749995983124,2|0,0:2|1:2,0:0:0:0:
493,54,82665,2,0,L|407:87,1,87.749995983124,8|0,0:2|0:2,0:0:0:0:
143,223,82884,6,0,B|82:260|22:204|22:204|45:166|88:176,1,175.499991966248,2|8,1:2|0:2,0:0:0:0:
138,45,83213,2,0,B|102:5|102:5|130:146,1,175.499991966248,2|0,0:2|1:2,0:0:0:0:
158,309,83541,2,0,L|134:179,1,87.749995983124,10|0,0:2|0:2,0:0:0:0:
252,194,83760,1,2,1:2:0:0:
252,194,83870,1,0,1:2:0:0:
322,286,83979,2,0,L|221:371,1,87.749995983124,10|0,1:2|1:2,0:0:0:0:
396,231,84198,2,0,L|372:101,1,87.749995983124,2|0,1:2|1:2,0:0:0:0:
406,322,84417,2,0,L|530:366,1,87.749995983124,10|0,1:2|1:2,0:0:0:0:
510,127,84636,6,0,B|421:133|469:47|321:62,1,175.499991966248,6|8,1:2|0:2,0:0:0:0:
183,85,84965,2,0,P|218:129|243:41,1,175.499991966248,2|0,0:2|1:2,0:0:0:0:
5,21,85293,2,0,B|-6:64|-6:64|18:107,1,87.749995983124,10|0,0:2|0:2,0:0:0:0:
183,85,85512,2,0,B|194:42|194:42|169:-1,1,87.749995983124,2|0,1:2|1:2,0:0:0:0:
110,161,85731,2,0,L|126:269,1,87.749995983124,10|0,0:2|1:2,0:0:0:0:
0,334,85950,2,0,L|12:247,1,87.749995983124,2|0,0:2|1:2,0:0:0:0:
168,337,86169,2,0,L|81:324,1,87.749995983124,10|0,0:2|0:2,0:0:0:0:
229,259,86388,5,2,1:2:0:0:
264,253,86497,1,0,1:2:0:0:
298,266,86606,1,8,1:2:0:0:
320,296,86716,1,0,1:2:0:0:
324,332,86825,5,2,1:2:0:0:
368,383,86935,1,0,1:2:0:0:
436,381,87044,1,8,1:2:0:0:
476,327,87154,1,0,1:2:0:0:
460,261,87263,5,2,1:2:0:0:
402,199,87373,1,0,1:2:0:0:
411,114,87482,1,12,1:2:0:0:
481,66,87592,1,0,1:2:0:0:
409,31,87702,5,10,0:2:0:0:
409,31,87811,1,10,0:2:0:0:
320,93,87921,1,10,0:2:0:0:
320,93,88030,1,10,0:2:0:0:
169,62,88140,6,0,B|239:54|239:54|261:21|261:21|365:5,1,175.499991966248,6|8,1:2|0:2,0:0:0:0:
149,149,88468,2,0,P|88:120|126:-16,1,175.499991966248,2|0,0:2|1:2,0:0:0:0:
228,136,88797,2,0,P|238:176|220:223,1,87.749995983124,10|0,0:2|0:2,0:0:0:0:
206,320,89016,2,0,P|166:308|134:269,1,87.749995983124,2|0,1:2|1:2,0:0:0:0:
57,208,89235,2,0,P|86:179|136:171,1,87.749995983124,10|0,0:2|1:2,0:0:0:0:
297,287,89454,2,0,P|326:315|376:323,1,87.749995983124,2|0,0:2|1:2,0:0:0:0:
466,176,89673,2,0,P|423:184|391:213,1,87.749995983124,10|0,0:2|0:2,0:0:0:0:
488,373,89892,6,0,L|475:133,1,175.499991966248,2|8,1:2|0:2,0:0:0:0:
512,44,90220,2,0,P|458:79|350:55,1,175.499991966248,2|0,0:2|1:2,0:0:0:0:
224,66,90549,2,0,B|189:34|189:34|75:26,1,87.749995983124,10|0,0:2|0:2,0:0:0:0:
160,213,90767,2,0,B|205:198|205:198|269:103,1,87.749995983124,2|0,1:2|1:2,0:0:0:0:
64,84,90986,2,0,B|53:130|53:130|103:233,1,87.749995983124,10|0,1:2|1:2,0:0:0:0:
0,376,91205,1,2,1:2:0:0:
0,376,91315,1,0,1:2:0:0:
85,347,91424,2,0,B|95:300|95:300|45:197,1,87.749995983124,10|0,1:2|1:2,0:0:0:0:
202,374,91643,6,0,P|349:350|432:395,2,175.499991966248,6|8|0,1:2|0:2|0:0,0:0:0:0:
376,268,92191,1,0,1:2:0:0:
376,268,92300,2,0,P|422:279|455:305,1,87.749995983124,10|0,0:2|0:2,0:0:0:0:
304,198,92519,2,0,P|271:232|231:248,1,87.749995983124,2|0,1:2|1:2,0:0:0:0:
400,170,92738,2,0,P|387:124|393:81,1,87.749995983124,10|0,0:2|0:2,0:0:0:0:
229,41,92957,2,0,P|275:52|309:79,1,87.749995983124,2|0,0:2|1:2,0:0:0:0:
131,185,93176,2,0,P|118:139|124:96,1,87.749995983124,10|0,0:2|0:2,0:0:0:0:
17,33,93395,5,2,1:2:0:0:
20,69,93504,1,0,1:2:0:0:
23,106,93613,1,12,1:2:0:0:
27,143,93723,1,0,1:2:0:0:
2,273,93833,5,2,1:2:0:0:
60,268,93942,1,0,1:2:0:0:
119,263,94051,1,8,1:2:0:0:
177,259,94161,1,0,1:2:0:0:
370,310,94271,5,6,1:2:0:0:
354,216,94381,1,0,1:2:0:0:
262,231,94490,1,8,1:2:0:0:
276,324,94600,1,0,1:2:0:0:
355,292,94709,5,6,0:3:0:0:
337,230,94819,1,4,0:3:0:0:
276,248,94928,1,4,0:3:0:0:
293,309,95038,1,4,0:3:0:0:
317,269,95147,5,6,1:2:0:0:
317,269,95585,1,8,0:2:0:0:
389,100,95804,1,8,0:2:0:0:
466,294,96023,1,8,0:2:0:0:
393,126,96242,1,8,0:2:0:0:
357,375,96461,1,8,0:2:0:0:
281,130,96680,1,8,0:2:0:0:
457,383,96899,1,8,0:2:0:0:
78,264,97556,5,2,1:2:0:0:
78,264,97611,1,0,1:2:0:0:
78,264,97665,1,0,1:2:0:0:
143,229,97775,1,14,0:2:0:0:
99,380,98103,1,10,0:2:0:0:
33,114,98432,1,10,0:2:0:0:
247,56,98651,6,0,P|280:51|313:67,1,67.5,6|0,1:2|0:2,0:0:0:0:
362,0,98870,2,0,P|387:22|396:58,1,67.5,2|0,1:2|0:2,0:0:0:0:
440,139,99089,1,10,0:2:0:0:
438,154,99198,1,0,1:2:0:0:
436,169,99307,1,0,0:2:0:0:
434,185,99417,1,0,0:2:0:0:
376,243,99527,5,2,1:2:0:0:
377,258,99636,1,0,0:2:0:0:
379,273,99745,1,0,0:2:0:0:
381,289,99855,1,0,1:2:0:0:
327,346,99964,5,8,0:2:0:0:
317,340,100074,1,0,0:2:0:0:
246,368,100184,2,0,P|178:363|132:370,1,67.5,2|0,1:2|0:0,0:0:0:0:
28,326,100403,1,2,1:2:0:0:
33,315,100512,2,0,P|101:310|147:317,1,67.5,2|0,0:2|1:2,0:0:0:0:
221,259,100731,1,2,0:2:0:0:
207,263,100840,1,10,0:2:0:0:
137,226,100950,2,0,P|69:221|23:228,1,67.5,2|0,1:2|0:2,0:0:0:0:
11,144,101169,1,0,0:2:0:0:
11,144,101278,5,2,1:2:0:0:
26,115,101387,1,2,1:2:0:0:
53,98,101496,1,2,1:2:0:0:
85,96,101606,1,2,1:2:0:0:
114,109,101715,5,10,0:2:0:0:
170,142,101825,1,2,1:2:0:0:
232,120,101934,1,2,1:2:0:0:
429,30,102154,6,0,B|433:63|433:63|421:97,1,67.5,6|2,1:2|0:2,0:0:0:0:
366,167,102373,2,0,B|362:200|362:200|373:234,1,67.5,2|0,1:2|0:2,0:0:0:0:
454,315,102592,1,10,0:2:0:0:
433,304,102701,1,0,1:2:0:0:
409,300,102810,1,0,0:2:0:0:
386,305,102920,1,0,0:2:0:0:
316,351,103030,5,2,1:2:0:0:
299,360,103139,1,0,0:2:0:0:
280,363,103249,1,0,0:2:0:0:
262,361,103358,1,0,1:2:0:0:
204,296,103467,5,8,0:2:0:0:
211,271,103578,1,0,0:2:0:0:
155,211,103687,1,8,0:2:0:0:
110,285,103798,1,8,0:2:0:0:
58,366,103906,6,0,P|40:270|-5:164,2,202.5,6|6|6,1:2|1:2|1:2,0:0:0:0:
97,139,104673,1,0,0:2:0:0:
97,139,104782,2,0,P|89:110|77:74,1,67.5,10|10,0:2|0:2,0:0:0:0:
139,21,105001,1,0,1:2:0:0:
205,116,105111,2,0,P|238:125|272:115,1,67.5,10|0,0:2|0:2,0:0:0:0:
364,0,105330,1,0,1:2:0:0:
364,0,105439,2,0,P|339:24|330:58,1,67.5,12|0,0:2|0:2,0:0:0:0:
382,195,105658,1,6,1:2:0:0:
382,195,105767,1,2,0:2:0:0:
382,195,105877,2,0,P|373:161|348:136,1,67.5,0|0,1:2|0:2,0:0:0:0:
298,215,106096,5,10,0:2:0:0:
300,247,106205,1,0,1:2:0:0:
302,279,106314,1,0,0:2:0:0:
304,311,106424,1,0,0:2:0:0:
223,298,106534,5,2,1:2:0:0:
203,310,106643,1,0,0:2:0:0:
185,324,106752,1,0,0:2:0:0:
166,338,106862,1,0,1:2:0:0:
73,384,106972,5,10,0:2:0:0:
56,361,107081,1,0,0:2:0:0:
71,268,107191,6,0,P|71:234|55:202,1,67.5,2|0,1:2|0:0,0:0:0:0:
13,101,107410,1,2,1:2:0:0:
27,91,107519,2,0,L|113:85,1,67.5,2|0,0:2|1:2,0:0:0:0:
243,32,107738,1,2,0:2:0:0:
232,28,107848,1,10,0:2:0:0:
218,24,107957,2,0,L|132:18,1,67.5,2|0,0:2|0:2,0:0:0:0:
257,122,108176,1,0,0:2:0:0:
257,122,108286,5,2,1:2:0:0:
281,135,108395,1,2,1:2:0:0:
309,139,108504,1,2,1:2:0:0:
336,131,108614,1,2,1:2:0:0:
358,114,108723,5,10,0:2:0:0:
403,67,108833,1,2,1:2:0:0:
464,85,108942,1,2,1:2:0:0:
499,342,109162,6,0,P|476:321|452:278,1,67.5,6|2,1:2|0:2,0:0:0:0:
329,356,109381,2,0,P|358:347|407:347,1,67.5,2|0,1:2|0:2,0:0:0:0:
400,202,109600,1,10,0:2:0:0:
396,221,109709,1,0,1:2:0:0:
389,239,109818,1,0,0:2:0:0:
380,256,109928,1,0,0:2:0:0:
297,245,110038,5,2,1:2:0:0:
270,263,110147,1,0,0:2:0:0:
240,278,110256,1,0,0:2:0:0:
210,289,110366,1,0,1:2:0:0:
112,248,110476,5,10,0:2:0:0:
135,243,110585,1,0,0:2:0:0:
93,334,110694,1,8,0:2:0:0:
29,275,110803,1,8,0:2:0:0:
0,149,110913,6,0,B|105:140|58:253|200:236,2,202.5,6|6|6,1:2|1:2|1:2,0:0:0:0:
28,34,111680,1,0,0:2:0:0:
124,81,111789,2,0,P|156:88|191:83,1,67.5,8|8,0:2|0:2,0:0:0:0:
275,13,112008,1,0,1:2:0:0:
259,161,112118,2,0,P|284:140|304:111,1,67.5,8|2,0:2|0:2,0:0:0:0:
398,22,112337,1,10,0:2:0:0:
455,54,112446,1,10,0:2:0:0:
478,116,112555,1,10,0:2:0:0:
455,178,112665,6,0,P|456:246|467:313,1,135,6|8,1:2|0:2,0:0:0:0:
386,366,112994,1,0,0:2:0:0:
370,348,113103,2,0,P|340:341|302:342,1,67.5,2|0,1:2|1:2,0:0:0:0:
195,360,113322,5,10,0:2:0:0:
168,368,113431,1,0,0:2:0:0:
121,242,113542,5,2,1:2:0:0:
142,261,113651,1,2,0:2:0:0:
156,285,113760,1,10,0:2:0:0:
69,380,113870,5,2,1:2:0:0:
56,366,113979,2,0,P|59:344|78:304,1,67.5,2|2,0:2|1:2,0:0:0:0:
38,196,114198,2,0,P|35:174|16:134,1,67.5,10|0,0:2|0:2,0:0:0:0:
82,57,114417,6,0,P|102:65|146:68,1,67.5,2|0,1:2|0:2,0:0:0:0:
259,15,114636,1,10,0:2:0:0:
250,24,114746,1,0,0:2:0:0:
245,36,114855,2,0,L|256:131,1,67.5,0|0,1:2|1:2,0:0:0:0:
362,71,115074,2,0,L|369:3,1,67.5,10|0,0:2|0:2,0:0:0:0:
358,160,115293,6,0,B|442:152|403:109|501:109,1,135,2|8,1:2|0:2,0:0:0:0:
498,210,115621,1,0,1:2:0:0:
434,272,115731,1,2,0:2:0:0:
434,272,115840,1,2,1:2:0:0:
497,364,115950,2,0,P|466:354|429:357,1,67.5,8|0,0:2|0:2,0:0:0:0:
295,372,116169,6,0,B|304:305|304:305|270:239,2,135,2|8|2,1:2|0:2|1:2,0:0:0:0:
193,259,116716,1,0,1:2:0:0:
193,259,116825,2,0,P|195:223|212:194,1,67.5,8|0,0:2|0:2,0:0:0:0:
137,328,117045,2,0,P|104:344|71:344,1,67.5,2|0,1:2|0:2,0:0:0:0:
77,129,117264,1,8,0:2:0:0:
77,129,117373,2,0,L|95:283,1,135,2|0,1:2|1:2,0:0:0:0:
0,209,117702,1,10,0:2:0:0:
0,209,117811,1,2,0:2:0:0:
104,42,117921,6,0,L|137:44,2,33.75,2|2|2,1:2|0:2|0:2,0:0:0:0:
206,81,118140,5,10,0:2:0:0:
276,39,118249,5,2,0:2:0:0:
335,94,118359,5,2,1:2:0:0:
385,63,118468,5,2,1:2:0:0:
459,98,118578,5,10,0:2:0:0:
483,82,118687,5,2,0:2:0:0:
434,185,118797,6,0,P|430:214|434:234,2,33.75,2|2|2,1:2|0:2|1:2,0:0:0:0:
475,311,119016,6,0,P|452:297|409:295,1,67.5,12|0,0:2|1:2,0:0:0:0:
336,347,119235,1,2,0:2:0:0:
317,353,119344,1,2,1:2:0:0:
296,354,119454,2,0,P|270:353|228:349,1,67.5,14|0,0:2|0:2,0:0:0:0:
44,219,119673,6,0,B|76:250|76:250|69:345,2,135,6|8|2,1:2|0:2|1:2,0:0:0:0:
0,127,120220,1,0,1:2:0:0:
0,127,120330,2,0,P|0:92|27:38,1,67.5,8|0,0:2|0:0,0:0:0:0:
116,22,120548,1,2,1:2:0:0:
147,22,120657,1,2,0:2:0:0:
178,22,120766,1,10,0:2:0:0:
264,78,120877,5,2,1:2:0:0:
279,78,120986,1,2,0:2:0:0:
295,78,121095,1,2,1:2:0:0:
380,64,121205,2,0,P|391:32|382:-3,1,67.5,10|0,0:2|0:2,0:0:0:0:
499,169,121424,6,0,L|410:174,1,67.5,2|0,1:2|0:2,0:0:0:0:
470,317,121643,2,0,L|466:249,1,67.5,10|0,0:2|0:2,0:0:0:0:
321,293,121862,2,0,L|410:288,1,67.5,2|0,1:2|1:2,0:0:0:0:
350,145,122081,2,0,L|353:212,1,67.5,10|0,0:2|0:2,0:0:0:0:
217,369,122300,2,0,P|215:337|209:204,1,135,2|8,1:2|0:2,0:0:0:0:
129,181,122629,1,0,1:2:0:0:
85,261,122738,1,2,0:2:0:0:
85,261,122848,1,2,1:2:0:0:
64,137,122957,2,0,P|85:115|123:104,1,67.5,10|0,0:2|0:2,0:0:0:0:
212,30,123176,6,0,P|307:56|367:50,1,135,2|10,1:2|0:2,0:0:0:0:
437,19,123505,1,0,0:0:0:0:
494,90,123614,1,2,1:2:0:0:
494,90,123724,1,0,1:2:0:0:
446,156,123833,2,0,L|461:283,1,67.5,10|0,0:2|0:0,0:0:0:0:
511,360,124052,6,0,B|486:361|466:348|466:348|434:365|434:365|391:336|334:345,1,135,2|10,1:2|0:2,0:0:0:0:
307,283,124381,1,0,0:0:0:0:
294,300,124490,2,0,L|310:393,1,67.5,2|0,1:2|0:0,0:0:0:0:
212,263,124709,1,10,0:2:0:0:
86,375,124928,6,0,B|62:355|62:355|68:205,2,135,2|8|0,1:2|0:2|1:2,0:0:0:0:
102,186,125476,1,0,1:2:0:0:
102,186,125585,2,0,P|79:169|35:175,1,67.5,12|0,0:2|0:2,0:0:0:0:
69,74,125804,5,12,0:2:0:0:
45,54,125913,1,8,0:2:0:0:
50,23,126022,1,8,0:2:0:0:
79,13,126132,1,8,0:2:0:0:
102,31,126242,5,8,0:3:0:0:
159,64,126351,1,8,0:3:0:0:
226,61,126460,1,8,0:3:0:0:
280,22,126570,1,8,0:3:0:0:
360,58,126680,5,6,1:2:0:0:
360,58,126789,1,0,1:2:0:0:
443,170,127008,1,0,1:2:0:0:
443,170,127118,2,0,B|429:251|467:214|455:304,1,135,8|0,0:2|0:2,0:0:0:0:
387,357,127446,5,0,1:2:0:0:
387,357,127501,1,0,1:2:0:0:
387,357,127556,1,2,1:2:0:0:
355,363,127665,1,0,1:2:0:0:
313,350,127775,1,0,1:2:0:0:
247,306,127884,1,0,1:2:0:0:
169,292,127994,1,8,0:2:0:0:
86,370,128322,5,8,0:2:0:0:
86,370,128432,1,6,1:2:0:0:
82,302,128541,1,0,1:2:0:0:
75,235,128650,1,0,1:2:0:0:
65,168,128760,1,0,1:2:0:0:
47,96,128869,1,8,0:2:0:0:
184,38,129198,5,0,1:2:0:0:
184,38,129253,1,0,1:2:0:0:
184,38,129308,1,2,1:2:0:0:
207,75,129417,1,0,1:2:0:0:
249,89,129526,1,0,1:2:0:0:
309,61,129636,1,0,1:2:0:0:
369,87,129746,6,0,L|384:202,1,67.5,8|0,0:2|0:2,0:0:0:0:
441,238,129965,1,8,0:2:0:0:
441,238,130074,1,8,0:2:0:0:
382,345,130184,6,0,B|348:349|348:349|314:336,1,67.5,6|0,1:2|0:2,0:0:0:0:
260,185,130403,2,0,B|280:211|280:211|286:247,1,67.5,8|0,0:2|0:2,0:0:0:0:
221,318,130621,1,0,1:2:0:0:
221,318,130731,1,0,1:2:0:0:
121,305,130840,2,0,B|101:279|101:279|95:243,1,67.5,12|0,0:2|0:2,0:0:0:0:
75,93,131059,1,2,1:2:0:0:
70,73,131168,1,0,1:2:0:0:
60,57,131277,1,12,0:2:0:0:
47,41,131388,2,0,P|84:32|114:37,1,67.5,0|2,1:2|0:2,0:0:0:0:
187,118,131607,1,0,1:2:0:0:
308,19,131716,2,0,P|271:28|241:23,1,67.5,12|0,0:2|0:2,0:0:0:0:
334,173,131935,6,0,P|344:136|364:112,1,67.5,2|0,1:2|0:2,0:0:0:0:
187,118,132154,2,0,P|213:145|223:174,1,67.5,12|0,0:2|0:2,0:0:0:0:
276,242,132373,1,2,1:2:0:0:
276,242,132483,1,0,1:2:0:0:
197,313,132592,2,0,P|170:285|160:256,1,67.5,12|0,0:2|0:2,0:0:0:0:
32,209,132811,1,2,1:2:0:0:
32,209,132921,1,0,1:2:0:0:
32,209,133030,1,12,0:2:0:0:
32,209,133140,2,0,P|69:199|99:205,1,67.5,0|2,1:2|0:2,0:0:0:0:
114,56,133359,1,0,1:2:0:0:
29,67,133468,2,0,P|19:104|-1:127,1,67.5,12|0,0:2|0:2,0:0:0:0:
187,118,133687,5,6,1:2:0:0:
187,118,133797,1,0,1:2:0:0:
283,19,134016,5,0,1:2:0:0:
283,19,134125,2,0,P|353:25|444:33,1,135,8|0,0:2|0:2,0:0:0:0:
482,84,134454,5,0,1:2:0:0:
482,84,134508,1,0,1:2:0:0:
482,84,134563,1,2,1:2:0:0:
507,157,134672,1,0,1:2:0:0:
446,204,134782,1,0,1:2:0:0:
470,240,134891,1,0,1:2:0:0:
452,268,135001,1,8,0:2:0:0:
303,330,135330,5,8,0:2:0:0:
262,333,135439,1,6,1:2:0:0:
228,310,135548,1,0,1:2:0:0:
217,270,135658,1,0,1:2:0:0:
177,218,135767,1,0,1:2:0:0:
111,215,135876,1,8,0:2:0:0:
37,2,136096,5,0,1:0:0:0:
27,35,136205,1,0,1:2:0:0:
27,35,136260,1,0,1:2:0:0:
27,35,136315,1,2,1:2:0:0:
42,68,136424,1,0,1:2:0:0:
71,90,136533,1,0,1:2:0:0:
136,105,136643,1,0,1:2:0:0:
195,76,136753,6,0,P|228:61|261:62,1,67.5,10|0,0:2|0:2,0:0:0:0:
399,136,136972,1,8,0:2:0:0:
351,59,137081,1,8,0:2:0:0:
341,229,137191,6,0,L|355:304,1,67.5,6|0,1:2|0:0,0:0:0:0:
262,199,137410,2,0,L|276:274,1,67.5,8|0,0:2|0:0,0:0:0:0:
98,320,137629,2,0,L|84:245,1,67.5,8|0,0:2|0:0,0:0:0:0:
177,350,137848,2,0,L|163:275,1,67.5,8|0,0:2|0:0,0:0:0:0:
136,105,138067,5,8,0:2:0:0:
262,199,138286,1,8,0:2:0:0:
52,169,138505,5,8,0:2:0:0:
35,104,138614,1,8,0:2:0:0:
59,43,138723,1,8,0:2:0:0:
84,23,138833,1,8,0:2:0:0:
115,12,138942,1,0,0:2:0:0:
363,330,139819,6,0,B|374:319|379:290|379:290|357:273|329:291|329:291|334:278|323:253|323:253|303:264|299:281|299:281|285:257|261:250|261:250|242:277|254:305,1,263.249987949372,2|0,0:2|0:0,0:0:0:0:
185,342,140257,1,2,0:2:0:0:
103,331,140366,1,2,0:2:0:0:
21,320,140476,1,2,0:2:0:0:
0,148,140694,6,0,B|54:141|54:141|104:96|104:96|229:84,1,175.499991966248,6|8,1:2|0:2,0:0:0:0:
282,128,141023,2,0,P|242:157|165:58,1,175.499991966248,2|0,0:2|1:2,0:0:0:0:
320,52,141351,2,0,P|348:69|363:128,1,87.749995983124,10|0,0:2|0:2,0:0:0:0:
412,190,141570,2,0,P|383:205|324:189,1,87.749995983124,2|0,1:2|1:2,0:0:0:0:
246,200,141789,2,0,P|246:167|290:124,1,87.749995983124,10|0,0:2|1:2,0:0:0:0:
316,342,142008,2,0,P|290:362|229:356,1,87.749995983124,2|0,0:2|1:2,0:0:0:0:
114,223,142227,2,0,P|144:234|169:290,1,87.749995983124,10|0,0:2|0:2,0:0:0:0:
13,384,142446,6,0,L|34:165,1,175.499991966248,2|8,1:2|0:2,0:0:0:0:
19,31,142775,2,0,B|119:31|76:101|182:115,1,175.499991966248,2|0,0:2|1:2,0:0:0:0:
260,22,143103,2,0,L|156:29,1,87.749995983124,10|0,0:2|0:2,0:0:0:0:
361,90,143322,1,0,1:2:0:0:
361,90,143432,1,0,1:2:0:0:
278,211,143541,2,0,P|264:172|272:123,1,87.749995983124,10|0,1:2|1:2,0:0:0:0:
345,271,143760,2,0,P|385:278|423:309,1,87.749995983124,2|0,1:2|1:2,0:0:0:0:
258,299,143979,2,0,P|231:330|185:347,1,87.749995983124,10|0,1:2|1:2,0:0:0:0:
16,295,144198,6,0,B|0:289|-1:267|-1:267|86:287|41:326|133:353,1,175.499991966248,6|8,1:2|0:2,0:0:0:0:
193,223,144527,2,0,B|206:139|78:128|76:231|126:267,1,175.499991966248,2|0,0:2|1:2,0:0:0:0:
54,127,144855,2,0,P|86:102|147:86,1,87.749995983124,10|0,0:2|0:2,0:0:0:0:
186,5,145074,2,0,P|225:13|277:49,1,87.749995983124,2|0,1:2|0:2,0:0:0:0:
404,133,145293,2,0,P|372:158|311:174,1,87.749995983124,10|0,0:2|1:2,0:0:0:0:
272,255,145512,2,0,P|232:246|180:210,1,87.749995983124,2|0,0:2|1:2,0:0:0:0:
60,344,145731,2,0,P|92:319|153:303,1,87.749995983124,10|0,0:2|0:2,0:0:0:0:
247,348,145950,5,2,1:2:0:0:
272,345,146059,1,0,1:2:0:0:
297,345,146168,1,8,1:2:0:0:
323,348,146278,1,0,1:2:0:0:
413,350,146388,5,2,1:2:0:0:
442,300,146497,1,0,1:2:0:0:
434,243,146606,1,8,1:2:0:0:
392,205,146716,1,0,1:2:0:0:
344,137,146826,5,2,1:2:0:0:
337,55,146935,1,0,1:2:0:0:
417,49,147045,1,12,1:2:0:0:
423,130,147154,1,0,1:2:0:0:
351,94,147264,5,10,0:2:0:0:
379,64,147373,1,10,0:2:0:0:
408,91,147483,1,10,0:2:0:0:
380,121,147592,1,10,0:2:0:0:
250,91,147702,6,0,B|140:96|212:27|33:40,1,175.499991966248,6|8,1:2|0:2,0:0:0:0:
0,141,148030,2,0,B|110:136|38:205|217:192,1,175.499991966248,2|0,0:2|1:2,0:0:0:0:
303,174,148359,2,0,P|262:185|231:225,1,87.749995983124,10|0,0:2|0:2,0:0:0:0:
383,302,148578,2,0,P|353:273|302:266,1,87.749995983124,2|0,1:2|1:2,0:0:0:0:
162,193,148797,2,0,P|151:233|171:280,1,87.749995983124,10|0,0:2|1:2,0:0:0:0:
354,376,149016,2,0,P|397:381|439:358,1,87.749995983124,2|0,0:2|1:2,0:0:0:0:
474,177,149235,2,0,P|431:172|388:194,1,87.749995983124,10|0,0:2|0:2,0:0:0:0:
247,61,149454,6,0,P|267:112|375:81,1,175.499991966248,2|8,1:2|0:2,0:0:0:0:
180,14,149782,2,0,B|48:5|139:76|-37:65,1,175.499991966248,2|0,0:2|1:2,0:0:0:0:
37,195,150111,2,0,P|7:227|0:274,1,87.749995983124,10|0,0:2|0:2,0:0:0:0:
185,253,150330,2,0,P|171:211|134:181,1,87.749995983124,2|0,1:2|1:2,0:0:0:0:
60,352,150549,2,0,P|102:361|147:344,1,87.749995983124,10|0,1:2|1:2,0:0:0:0:
349,288,150767,2,0,P|306:278|261:295,1,87.749995983124,2|0,1:2|1:2,0:0:0:0:
446,380,150986,2,0,P|475:347|482:300,1,87.749995983124,10|0,1:2|1:2,0:0:0:0:
439,67,151205,6,0,B|411:49|381:69|381:69|359:126|413:198,1,175.499991966248,6|8,1:2|0:2,0:0:0:0:
495,15,151534,2,0,P|350:3|290:78,1,175.499991966248,2|0,0:2|1:2,0:0:0:0:
224,115,151862,2,0,P|187:134|137:127,1,87.749995983124,10|0,0:2|0:2,0:0:0:0:
23,12,152081,2,0,P|57:34|77:80,1,87.749995983124,2|0,1:2|1:2,0:0:0:0:
35,238,152300,2,0,P|37:196|67:156,1,87.749995983124,10|0,0:2|1:2,0:0:0:0:
288,241,152519,2,0,P|285:282|255:322,1,87.749995983124,2|0,0:2|1:2,0:0:0:0:
122,229,152738,2,0,L|230:262,1,87.749995983124,10|0,0:2|0:2,0:0:0:0:
428,353,152957,5,2,1:2:0:0:
423,316,153066,1,0,1:2:0:0:
419,279,153175,1,12,1:2:0:0:
414,243,153285,1,0,1:2:0:0:
410,206,153395,5,2,1:2:0:0:
382,124,153504,1,0,1:2:0:0:
310,78,153613,1,8,1:2:0:0:
224,89,153723,1,0,1:2:0:0:
167,162,153833,5,6,1:2:0:0:
55,182,153943,1,0,1:2:0:0:
35,69,154052,1,8,1:2:0:0:
147,49,154161,1,0,1:2:0:0:
104,155,154271,5,6,0:3:0:0:
60,119,154381,1,4,0:3:0:0:
97,75,154490,1,4,0:3:0:0:
141,111,154599,1,4,0:3:0:0:
100,116,154709,5,6,1:2:0:0:
100,116,155147,1,8,0:2:0:0:
59,321,155366,1,8,0:2:0:0:
302,161,155585,1,8,0:2:0:0:
261,366,155804,1,8,0:2:0:0:
106,231,156023,5,8,0:2:0:0:
172,313,156242,1,8,0:2:0:0:
188,168,156461,1,8,0:2:0:0:
254,250,157118,1,2,1:2:0:0:
254,250,157173,1,0,1:2:0:0:
254,250,157227,1,0,1:2:0:0:
261,366,157337,5,6,1:2:0:0:
59,321,157665,5,10,0:2:0:0:
100,116,157994,5,10,0:2:0:0:
302,161,158213,5,6,1:1:0:0:
77,330,161716,5,6,1:1:0:0:
371,144,164180,6,0,L|363:136|351:96,1,33.75,0|0,1:2|1:0,0:0:0:0:
358,113,164344,2,0,B|335:133|315:135|315:135|334:228,1,135,14|0,0:1|0:0,0:0:0:0:
414,276,164673,2,0,P|455:277|486:189,1,135,6|0,1:1|0:0,0:0:0:0:
355,355,165001,2,0,P|287:359|224:385,1,135,6|6,1:1|1:1,0:0:0:0:
56,165,168724,5,6,1:1:0:0:
48,186,170476,6,0,B|44:181|44:181|109:178|146:240|118:298,1,175.499991966248,6|8,1:2|0:2,0:0:0:0:
54,355,170804,1,8,0:2:0:0:
0,286,170913,1,8,0:2:0:0:
34,364,171023,1,8,0:2:0:0:
20,277,171132,5,8,0:2:0:0:
20,277,171242,1,8,0:2:0:0:
52,190,171351,6,0,B|111:200|111:200|117:199|117:199|176:213,1,131.624993974686,8|0,0:2|1:2,0:0:0:0:
180,214,171570,2,0,L|172:151,1,43.874997991562,0|8,1:2|0:2,0:0:0:0:
260,163,171789,2,0,L|268:226,3,43.874997991562,0|0|0|12,1:2|1:2|1:2|0:2,0:0:0:0:
510,367,172227,6,0,P|479:338|431:334,1,87.749995983124,6|0,1:2|0:0,0:0:0:0:
359,172,172446,2,0,B|375:287,1,87.749995983124,8|0,1:2|1:2,0:0:0:0:
466,247,172665,2,0,B|453:160,1,87.749995983124,0|0,1:2|1:2,0:0:0:0:
361,369,172884,6,0,P|281:333|194:340,1,175.499991966248,10|0,1:2|1:2,0:0:0:0:
35,337,173213,1,0,1:2:0:0:
107,285,173322,2,0,L|125:396,1,87.749995983124,8|0,1:2|1:2,0:0:0:0:
11,156,173541,5,0,1:2:0:0:
11,156,173651,1,0,1:2:0:0:
10,156,173760,2,0,P|26:115|29:71,1,87.749995983124,8|0,1:2|1:2,0:0:0:0:
256,176,173979,2,0,P|169:190|83:206,1,175.499991966248,2|10,1:2|1:2,0:0:0:0:
156,107,174308,1,2,1:2:0:0:
259,192,174417,2,0,B|244:294,1,87.749995983124,2|2,1:2|1:2,0:0:0:0:
403,373,174636,5,10,1:2:0:0:
403,373,174746,1,2,1:2:0:0:
512,297,174855,2,0,L|381:277,1,87.749995983124,2|0,1:2|1:2,0:0:0:0:
256,176,175074,2,0,L|387:156,1,87.749995983124,10|0,1:2|1:2,0:0:0:0:
470,62,175293,5,2,1:2:0:0:
451,135,175403,1,2,1:2:0:0:
470,62,175512,1,10,1:2:0:0:
451,135,175621,1,2,1:2:0:0:
429,88,175731,6,0,L|376:80,3,43.874997991562,2|2|2|0,1:2|0:2|1:2|0:0,0:0:0:0:
307,49,175950,2,0,L|254:57,3,43.874997991562,10|0|2|0,1:2|0:0|1:2|0:0,0:0:0:0:
205,117,176169,6,0,L|197:170,3,43.874997991562,2|2|2|0,1:2|0:2|1:2|0:0,0:0:0:0:
135,217,176388,2,0,L|143:270,3,43.874997991562,10|0|2|0,1:2|0:0|1:2|0:0,0:0:0:0:
98,359,176607,5,2,1:2:0:0:
142,364,176716,1,2,1:2:0:0:
186,368,176826,1,10,1:2:0:0:
230,374,176935,1,0,1:2:0:0:
275,375,177045,5,2,1:2:0:0:
262,288,177154,1,0,1:0:0:0:
332,233,177264,1,10,1:2:0:0:
415,262,177373,1,2,1:2:0:0:
461,335,177483,6,0,P|464:203|509:80,1,263.249987949372,2|0,1:2|1:0,0:0:0:0:
444,5,177921,2,0,P|412:33|410:76,1,87.749995983124,2|8,1:2|1:2,0:0:0:0:
306,142,178140,2,0,L|218:131,1,87.749995983124,0|0,0:0|1:2,0:0:0:0:
153,60,178304,1,0,0:0:0:0:
150,48,178359,6,0,L|178:227,1,175.499991966248,6|8,1:2|1:2,0:0:0:0:
306,352,178687,2,0,B|240:372|240:372|204:361|204:361|137:382,1,175.499991966248,6|0,1:2|1:2,0:0:0:0:
391,267,179016,2,0,B|494:287,1,87.749995983124,14|0,1:2|1:2,0:0:0:0:
262,103,179235,6,0,L|277:205,1,87.749995983124,6|0,1:2|0:0,0:0:0:0:
64,377,179454,2,0,P|67:332|86:261,1,87.749995983124,8|0,1:2|0:0,0:0:0:0:
161,243,179673,6,0,L|243:254,1,58.4999973220826,2|2,1:2|0:2,0:0:0:0:
245,274,179819,2,0,L|276:347,1,58.4999973220826,2|10,0:2|1:2,0:0:0:0:
296,349,179965,2,0,L|378:338,1,58.4999973220826,2|2,0:2|0:2,0:0:0:0:
499,379,180111,6,0,L|510:281,1,58.4999973220826,2|2,1:2|0:2,0:0:0:0:
489,289,180257,2,0,L|462:191,1,58.4999973220826,2|10,0:2|1:2,0:0:0:0:
460,199,180403,2,0,L|471:101,1,58.4999973220826,2|2,0:2|0:2,0:0:0:0:
508,44,180548,6,0,L|410:17,1,58.4999973220826,2|2,1:2|0:2,0:0:0:0:
418,41,180694,2,0,L|324:55,1,58.4999973220826,2|10,0:2|1:2,0:0:0:0:
325,58,180840,2,0,L|227:31,1,58.4999973220826,2|2,0:2|0:2,0:0:0:0:
196,99,180986,5,2,1:2:0:0:
196,99,181096,1,0,0:0:0:0:
140,20,181205,1,10,1:2:0:0:
140,20,181315,1,0,0:0:0:0:
72,84,181424,6,0,P|33:91|-39:102,1,87.749995983124,2|0,1:2|0:0,0:0:0:0:
284,229,181643,2,0,P|286:187|307:121,1,87.749995983124,10|0,1:2|0:0,0:0:0:0:
25,299,181862,5,2,1:2:0:0:
25,299,181972,1,0,0:0:0:0:
25,299,182081,1,10,1:2:0:0:
25,299,182191,1,0,0:0:0:0:
25,299,182300,5,2,1:2:0:0:
81,231,182410,1,0,0:0:0:0:
167,239,182519,1,10,1:2:0:0:
221,308,182629,1,0,0:0:0:0:
175,382,182738,6,0,B|174:307|262:259|319:291|319:291|320:226|376:200|376:200|382:135|319:98,1,438.74997991562,2|0,1:2|1:2,0:0:0:0:
199,8,183395,2,0,P|205:49|212:94,1,87.749995983124,8|0,1:2|1:2,0:0:0:0:
62,228,183614,5,2,1:2:0:0:
62,228,183687,1,2,0:2:0:0:
62,228,183760,1,2,0:2:0:0:
62,228,183833,1,10,1:2:0:0:
62,228,183906,1,2,0:2:0:0:
62,228,183979,1,2,0:2:0:0:
62,228,184052,6,0,L|80:124,2,58.4999973220826,2|2|2,1:2|0:2|0:2,0:0:0:0:
141,303,184271,2,0,L|123:407,2,58.4999973220826,10|2|2,1:2|0:2|0:2,0:0:0:0:
211,233,184490,5,2,1:2:0:0:
282,181,184600,1,0,1:2:0:0:
363,212,184709,1,10,1:2:0:0:
383,297,184819,1,0,1:2:0:0:
317,355,184928,6,0,P|279:342|219:341,1,87.749995983124,2|0,1:2|1:2,0:0:0:0:
441,123,185147,2,0,L|459:232,1,87.749995983124,10|0,1:2|1:2,0:0:0:0:
131,360,185366,6,0,L|144:214,1,87.749995983124,4|0,1:2|1:2,0:0:0:0:
181,77,185585,1,8,1:2:0:0:
73,136,185694,1,8,1:2:0:0:
175,183,185804,2,0,L|167:95,1,87.749995983124,8|8,1:3|1:3,0:0:0:0:
317,355,186023,2,0,L|324:267,1,87.749995983124,4|4,1:3|1:3,0:0:0:0:
411,318,186187,1,0,1:2:0:0:
425,332,186242,6,0,P|474:330|507:293,1,101.250003862381,6|0,1:2|1:2,0:0:0:0:
99,221,186461,2,0,L|-39:244,1,101.250003862381,8|0,1:2|1:2,0:0:0:0:
268,43,186680,2,0,L|130:66,1,101.250003862381,8|0,1:2|1:2,0:0:0:0:
317,355,186899,2,0,L|179:378,1,101.250003862381,8|0,1:2|1:2,0:0:0:0:
254,276,187063,1,0,1:2:0:0:
256,255,187118,6,0,L|267:154,1,101.250003862381,10|0,1:2|1:2,0:0:0:0:
484,375,187337,2,0,L|472:274,1,101.250003862381,8|0,1:2|1:2,0:0:0:0:
150,210,187556,2,0,L|49:223,1,101.250003862381,8|0,1:2|1:2,0:0:0:0:
381,78,187775,1,10,1:2:0:0:
308,20,187884,5,2,1:2:0:0:
308,20,187939,1,0,1:2:0:0:
308,20,187994,2,0,L|293:122,1,101.250003862381,6|0,1:2|1:2,0:0:0:0:
362,381,188213,2,0,B|366:373|366:373|349:244,1,101.250003862381,8|0,1:2|1:2,0:0:0:0:
75,343,188432,2,0,P|125:361|177:323,1,101.250003862381,8|0,1:2|1:2,0:0:0:0:
165,43,188651,2,0,P|120:22|75:41,1,101.250003862381,10|2,1:2|1:2,0:0:0:0:
0,178,188815,1,0,1:2:0:0:
15,190,188870,6,0,L|129:178,1,101.250003862381,10|0,1:2|1:2,0:0:0:0:
457,41,189089,2,0,L|357:31,1,101.250003862381,8|2,1:2|1:2,0:0:0:0:
317,375,189308,2,0,P|336:339|312:258,1,101.250003862381,8|0,1:2|1:2,0:0:0:0:
159,161,189527,1,10,1:2:0:0:
246,121,189636,5,0,1:2:0:0:
246,121,189691,1,0,1:2:0:0:
246,121,189746,2,0,L|231:235,1,101.250003862381,6|0,1:2|1:2,0:0:0:0:
489,372,189965,2,0,P|470:333|404:332,1,101.250003862381,8|0,1:2|1:2,0:0:0:0:
123,384,190184,2,0,L|245:375,1,101.250003862381,8|0,1:2|1:2,0:0:0:0:
111,192,190403,2,0,L|-11:201,1,101.250003862381,10|0,1:2|1:2,0:0:0:0:
58,117,190567,1,0,1:2:0:0:
51,98,190621,6,0,B|47:86|47:86|72:-35,1,101.250003862381,10|0,1:2|1:2,0:0:0:0:
372,232,190840,2,0,B|376:220|376:220|351:99,1,101.250003862381,8|0,1:2|1:2,0:0:0:0:
123,384,191059,2,0,B|119:372|119:372|144:251,1,101.250003862381,8|0,1:2|1:2,0:0:0:0:
507,384,191278,2,0,B|511:372|511:372|486:251,1,101.250003862381,10|2,1:2|1:2,0:0:0:0:
305,327,191443,1,0,1:2:0:0:
320,339,191497,6,0,L|436:354,1,101.250003862381,6|0,1:2|1:2,0:0:0:0:
320,45,191716,2,0,L|436:30,1,101.250003862381,8|0,1:2|1:2,0:0:0:0:
136,192,191935,2,0,B|97:167|97:167|27:181,1,101.250003862381,8|0,1:2|1:2,0:0:0:0:
376,192,192154,2,0,B|415:167|415:167|485:181,1,101.250003862381,8|0,1:2|1:2,0:0:0:0:
256,378,192373,6,0,L|260:320,4,33.75,0|0|0|0|0,1:2|1:2|1:2|1:2|1:2,0:0:0:0:
182,249,192702,6,0,L|230:281,2,33.75,0|0|0,1:2|1:2|1:2,0:0:0:0:
339,250,192921,5,0,1:2:0:0:
339,250,192976,1,0,1:2:0:0:
339,250,193030,2,0,L|286:275,3,33.75,8|0|0|0,1:2|0:0|1:2|1:2,0:0:0:0:
355,262,193249,6,0,L|465:280,1,101.250003862381,6|0,1:2|1:2,0:0:0:0:
274,16,193468,2,0,B|269:27|269:27|279:127,1,101.250003862381,8|0,1:2|1:2,0:0:0:0:
113,384,193687,2,0,B|118:373|118:373|108:273,1,101.250003862381,8|0,1:2|1:2,0:0:0:0:
372,165,193906,2,0,L|485:185,1,101.250003862381,10|2,1:2|1:2,0:0:0:0:
89,127,194070,1,0,1:2:0:0:
73,123,194125,6,0,B|46:17,1,101.250003862381,10|0,1:2|1:2,0:0:0:0:
218,240,194344,2,0,B|245:134,1,101.250003862381,8|2,1:2|1:2,0:0:0:0:
25,377,194563,2,0,B|-2:271,1,101.250003862381,8|0,1:2|1:2,0:0:0:0:
244,376,194782,2,0,P|292:360|359:384,1,101.250003862381,10|0,1:2|1:2,0:0:0:0:
393,297,194946,1,0,1:2:0:0:
407,287,195001,6,0,L|521:312,1,101.250003862381,6|0,1:2|1:2,0:0:0:0:
407,97,195220,2,0,L|521:68,1,101.250003862381,8|0,1:2|1:2,0:0:0:0:
219,192,195439,2,0,L|205:86,1,101.250003862381,8|0,1:2|1:2,0:0:0:0:
393,384,195658,2,0,L|408:273,1,101.250003862381,10|2,1:2|1:2,0:0:0:0:
313,326,195822,1,0,1:2:0:0:
296,319,195877,6,0,P|234:326|203:373,1,101.250003862381,10|0,1:2|1:2,0:0:0:0:
0,207,196096,2,0,P|51:224|96:202,1,101.250003862381,8|2,1:2|1:2,0:0:0:0:
297,91,196315,2,0,P|250:73|202:94,1,101.250003862381,8|0,1:2|1:2,0:0:0:0:
506,270,196534,1,10,1:2:0:0:
451,203,196643,5,0,1:2:0:0:
451,203,196698,1,0,1:2:0:0:
451,203,196753,2,0,L|478:81,1,101.250003862381,6|0,1:2|1:2,0:0:0:0:
259,296,196972,2,0,L|357:317,1,101.250003862381,8|0,1:2|1:2,0:0:0:0:
114,106,197191,2,0,L|87:228,1,101.250003862381,8|0,1:2|1:2,0:0:0:0:
314,23,197410,2,0,L|215:1,1,101.250003862381,10|2,1:2|1:2,0:0:0:0:
276,177,197574,1,0,1:2:0:0:
291,190,197629,6,0,P|346:178|372:124,1,101.250003862381,10|0,1:2|1:2,0:0:0:0:
119,384,197848,2,0,B|113:377|113:377|87:252,1,101.250003862381,8|2,1:2|1:2,0:0:0:0:
393,384,198067,2,0,B|399:377|399:377|425:252,1,101.250003862381,8|0,1:2|1:2,0:0:0:0:
211,130,198286,1,10,1:2:0:0:
125,149,198395,5,0,1:2:0:0:
125,149,198450,1,0,1:2:0:0:
125,149,198505,2,0,L|-9:167,1,101.250003862381,6|0,1:2|0:0,0:0:0:0:
383,121,198724,1,8,1:2:0:0:
228,46,198833,1,8,1:2:0:0:
302,247,198943,2,0,L|292:134,1,101.250003862381,14|8,1:2|1:2,0:0:0:0:
447,33,199162,6,0,L|501:40,18,50.6250019311906,6|0|0|0|8|0|8|0|8|0|8|0|4|0|4|0|4|0|4,1:2|0:0|1:2|0:0|1:3|0:0|1:3|0:0|1:3|0:0|1:3|0:0|1:3|0:0|1:3|0:0|1:3|0:0|1:3,0:0:0:0:
368,81,200257,5,6,1:2:0:0:
368,81,200366,1,0,1:2:0:0:
256,46,200585,5,0,1:2:0:0:
256,46,200694,2,0,P|200:41|76:17,1,135,8|0,0:2|0:2,0:0:0:0:
11,4,201023,5,0,1:2:0:0:
11,4,201078,1,0,1:2:0:0:
11,4,201132,1,2,1:2:0:0:
55,52,201241,1,0,1:2:0:0:
59,118,201350,1,0,1:2:0:0:
36,180,201460,1,0,1:2:0:0:
64,239,201569,1,8,0:2:0:0:
69,256,201899,5,8,0:2:0:0:
108,326,202008,1,6,1:2:0:0:
170,346,202117,1,0,1:2:0:0:
230,317,202226,1,0,1:2:0:0:
305,286,202336,1,0,1:2:0:0:
380,320,202445,1,8,0:2:0:0:
499,384,202775,5,0,1:2:0:0:
499,384,202830,1,0,1:2:0:0:
499,384,202884,1,2,1:2:0:0:
462,304,202993,1,0,1:2:0:0:
480,219,203102,1,0,1:2:0:0:
472,131,203212,1,0,1:2:0:0:
393,91,203322,6,0,P|398:72|412:27,1,67.5,8|0,0:2|0:2,0:0:0:0:
314,7,203541,1,8,0:2:0:0:
314,7,203651,1,8,0:2:0:0:
281,102,203760,6,0,P|292:133|300:166,1,67.5,6|0,1:2|0:2,0:0:0:0:
184,217,203979,2,0,P|192:184|203:152,1,67.5,8|0,0:2|0:2,0:0:0:0:
251,284,204198,1,0,1:2:0:0:
251,284,204308,1,0,1:2:0:0:
163,308,204417,2,0,P|135:301|96:298,1,67.5,12|0,0:2|0:2,0:0:0:0:
0,196,204636,1,0,1:2:0:0:
19,209,204746,1,0,1:2:0:0:
41,216,204854,1,12,0:2:0:0:
65,214,204964,1,0,1:2:0:0:
85,205,205074,2,0,B|89:185|89:185|77:137,1,67.5,2|0,0:2|1:2,0:0:0:0:
101,0,205293,2,0,B|97:20|97:20|109:68,1,67.5,12|0,0:2|0:2,0:0:0:0:
202,92,205512,6,0,B|233:96|233:96|269:86,1,67.5,2|0,1:2|0:2,0:0:0:0:
374,0,205731,2,0,B|355:24|355:24|345:61,1,67.5,12|0,0:2|0:2,0:0:0:0:
329,139,205950,1,2,1:2:0:0:
329,139,206059,1,0,1:2:0:0:
398,177,206169,2,0,B|429:181|429:181|464:171,1,67.5,12|0,0:2|0:2,0:0:0:0:
473,308,206388,5,2,1:2:0:0:
473,308,206497,1,0,1:2:0:0:
402,265,206607,2,0,B|366:255|366:255|335:259,1,67.5,12|0,0:2|1:2,0:0:0:0:
268,296,206826,1,2,0:2:0:0:
268,296,206935,1,0,1:2:0:0:
192,340,207045,2,0,B|161:344|161:344|125:334,1,67.5,12|0,0:2|0:2,0:0:0:0:
27,310,207264,5,6,1:2:0:0:
27,310,207373,1,0,1:2:0:0:
55,177,207592,5,0,1:2:0:0:
55,177,207702,2,0,P|50:91|35:6,1,135,8|0,0:2|0:2,0:0:0:0:
127,9,208030,5,0,1:2:0:0:
127,9,208085,1,0,1:2:0:0:
127,9,208140,1,2,1:2:0:0:
170,73,208249,1,0,1:2:0:0:
237,104,208358,1,0,1:2:0:0:
310,90,208467,1,0,1:2:0:0:
368,40,208578,1,8,0:2:0:0:
382,33,208906,5,8,0:2:0:0:
445,72,209016,1,6,1:2:0:0:
478,141,209125,1,0,1:2:0:0:
448,213,209235,1,0,1:2:0:0:
426,290,209344,1,0,1:2:0:0:
462,357,209453,1,8,0:2:0:0:
332,362,209782,5,0,1:2:0:0:
332,362,209837,1,0,1:2:0:0:
332,362,209892,1,2,1:2:0:0:
276,326,210001,1,0,1:2:0:0:
210,326,210110,1,0,1:2:0:0:
138,356,210220,1,0,1:2:0:0:
68,323,210330,6,0,B|50:296|50:296|47:254,1,67.5,10|0,0:2|0:2,0:0:0:0:
103,182,210548,1,8,0:2:0:0:
103,182,210658,1,8,0:2:0:0:
20,10,210767,6,0,P|55:79|69:130,1,67.5,6|0,1:2|0:0,0:0:0:0:
32,17,210986,2,0,P|67:86|81:137,1,67.5,8|0,0:2|0:0,0:0:0:0:
237,86,211205,6,0,P|159:81|108:68,1,67.5,8|0,0:2|0:0,0:0:0:0:
224,92,211424,2,0,P|146:87|95:74,1,67.5,8|0,0:2|0:0,0:0:0:0:
343,28,211643,6,0,P|420:32|471:45,1,67.5,6|0,1:2|0:0,0:0:0:0:
356,22,211862,2,0,P|433:26|484:39,1,67.5,8|8,0:3|0:3,0:0:0:0:
476,99,212081,5,4,0:3:0:0:
464,129,212191,1,4,0:3:0:0:
421,203,212300,5,0,1:0:0:0:
428,221,212410,1,0,1:0:0:0:
442,362,213395,6,0,B|391:361|348:317|348:317|302:353|302:353|264:307|170:322,1,263.249987949372,2|0,0:2|0:0,0:0:0:0:
185,346,213833,1,0,0:2:0:0:
185,346,213943,1,0,0:2:0:0:
185,346,214052,1,0,0:2:0:0:
29,251,214271,5,0,0:2:0:0:
18,99,226534,6,0,P|47:89|81:95,1,60.7499981460572,2|0,0:2|0:0,0:0:0:0:
145,128,226972,2,0,P|192:145|253:107,1,101.25,2|0,0:2|0:0,0:0:0:0:
281,43,227410,2,0,L|296:235,1,151.875005793572,2|0,0:2|0:0,0:0:0:0:
267,282,227848,1,2,0:2:0:0:
267,282,227957,1,2,0:2:0:0:
267,282,228067,1,2,0:2:0:0:
507,364,228286,6,0,P|422:312|321:357,1,188.999994232178,6|8,1:2|0:2,0:0:0:0:
136,384,228614,2,0,P|123:283|87:143,1,188.999994232178,2|0,0:2|1:2,0:0:0:0:
125,76,228943,2,0,P|145:106|172:157,1,94.4999971160889,10|0,0:2|0:2,0:0:0:0:
270,0,229162,2,0,P|262:35|245:91,1,94.4999971160889,2|0,1:2|1:2,0:0:0:0:
461,133,229381,2,0,P|441:103|413:51,1,94.4999971160889,10|0,0:2|1:2,0:0:0:0:
316,209,229600,2,0,P|323:173|340:117,1,94.4999971160889,2|0,0:2|1:2,0:0:0:0:
469,313,229819,2,0,P|426:297|377:291,1,94.4999971160889,10|0,0:2|0:2,0:0:0:0:
136,384,230038,6,0,B|181:338|181:338|162:206,1,188.999994232178,2|8,1:2|0:2,0:0:0:0:
61,39,230366,2,0,B|15:84|15:84|34:216,1,188.999994232178,2|0,0:2|1:2,0:0:0:0:
204,138,230694,2,0,P|148:128|95:159,1,94.4999971160889,10|0,0:2|0:2,0:0:0:0:
296,91,230913,1,0,1:2:0:0:
296,91,231023,1,0,1:2:0:0:
289,191,231132,6,0,P|340:216|399:200,1,94.4999971160889,10|0,1:2|1:2,0:0:0:0:
512,78,231351,2,0,P|464:109|448:168,1,94.4999971160889,2|0,1:2|1:2,0:0:0:0:
497,328,231570,2,0,P|493:271|450:227,1,94.4999971160889,10|0,1:2|1:2,0:0:0:0:
295,341,231789,2,0,P|404:318|508:382,1,188.999994232178,6|8,1:2|0:2,0:0:0:0:
217,321,232118,2,0,P|108:298|4:362,1,188.999994232178,2|0,0:2|1:2,0:0:0:0:
0,254,232446,2,0,P|39:232|107:214,1,94.4999971160889,10|0,0:2|0:2,0:0:0:0:
425,237,232665,2,0,P|470:251|512:274,1,94.4999971160889,2|0,1:2|1:2,0:0:0:0:
98,107,232884,2,0,P|136:129|186:179,1,94.4999971160889,10|0,0:2|1:2,0:0:0:0:
414,107,233103,2,0,P|375:129|325:179,1,94.4999971160889,2|0,0:2|1:2,0:0:0:0:
263,8,233322,2,0,L|259:121,1,94.4999971160889,10|0,0:2|0:2,0:0:0:0:
256,198,233541,5,2,1:2:0:0:
254,243,233650,1,0,1:2:0:0:
253,288,233759,1,0,1:2:0:0:
251,334,233869,1,0,1:2:0:0:
149,371,233979,5,2,1:2:0:0:
149,302,234089,1,0,1:2:0:0:
151,238,234198,1,0,1:2:0:0:
154,171,234307,1,0,1:2:0:0:
288,88,234417,5,2,1:2:0:0:
263,8,234527,1,0,1:2:0:0:
185,32,234636,1,4,1:2:0:0:
209,111,234746,1,0,1:2:0:0:
288,88,234855,5,10,0:2:0:0:
380,91,234964,1,8,0:2:0:0:
454,148,235073,1,10,0:2:0:0:
479,238,235183,1,8,0:2:0:0:
448,325,235293,6,0,P|369:276|225:303,1,188.999994232178,6|8,1:2|0:2,0:0:0:0:
154,384,235621,2,0,B|183:345|142:279|133:303|102:254|118:195,1,188.999994232178,2|0,0:2|1:2,0:0:0:0:
54,69,235950,2,0,P|43:110|15:155,1,94.4999971160889,10|0,0:2|0:2,0:0:0:0:
149,4,236169,2,0,P|160:45|188:90,1,94.4999971160889,2|0,1:2|1:2,0:0:0:0:
418,65,236388,2,0,P|429:106|457:151,1,94.4999971160889,10|0,0:2|1:2,0:0:0:0:
323,0,236607,2,0,P|312:41|284:86,1,94.4999971160889,2|0,0:2|1:2,0:0:0:0:
412,234,236826,2,0,P|379:199|358:157,1,94.4999971160889,10|0,0:2|0:2,0:0:0:0:
457,384,237045,6,0,P|368:327|244:384,2,188.999994232178,2|8|0,1:2|0:2|1:2,0:0:0:0:
198,382,237592,1,0,1:2:0:0:
207,357,237702,2,0,L|177:214,1,94.4999971160889,10|0,0:2|0:2,0:0:0:0:
11,33,237921,6,0,L|41:176,1,94.4999971160889,2|0,1:2|1:2,0:0:0:0:
19,334,238140,2,0,L|38:241,1,94.4999971160889,10|0,1:2|1:2,0:0:0:0:
220,37,238359,2,0,L|190:180,1,94.4999971160889,2|0,1:2|1:2,0:0:0:0:
212,338,238578,2,0,L|192:245,1,94.4999971160889,10|0,1:2|1:2,0:0:0:0:
420,41,238797,6,0,P|378:162|411:296,1,188.999994232178,6|8,1:2|0:2,0:0:0:0:
502,370,239125,2,0,B|393:359|445:292|302:299,1,188.999994232178,2|0,0:2|1:2,0:0:0:0:
118,351,239454,2,0,P|213:337|269:342,1,94.4999971160889,10|0,0:2|0:2,0:0:0:0:
28,189,239673,2,0,P|42:284|37:340,1,94.4999971160889,2|0,1:2|1:2,0:0:0:0:
174,95,239892,2,0,P|79:109|23:104,1,94.4999971160889,10|0,0:2|1:2,0:0:0:0:
264,257,240111,2,0,P|250:162|255:106,1,94.4999971160889,2|0,0:2|1:2,0:0:0:0:
344,11,240330,2,0,P|305:37|271:69,1,94.4999971160889,10|0,0:2|0:2,0:0:0:0:
361,203,240548,5,2,1:2:0:0:
400,224,240657,1,0,1:2:0:0:
445,225,240766,1,4,1:2:0:0:
485,205,240876,1,0,1:2:0:0:
482,116,240986,5,2,1:2:0:0:
429,161,241095,1,0,1:2:0:0:
400,224,241204,1,0,1:2:0:0:
400,294,241314,1,0,1:2:0:0:
215,337,241424,5,6,1:2:0:0:
244,250,241534,1,0,1:2:0:0:
329,279,241643,1,0,1:2:0:0:
300,365,241753,1,0,1:2:0:0:
228,288,241862,5,6,0:3:0:0:
290,264,241972,1,4,0:3:0:0:
315,326,242082,1,4,0:3:0:0:
253,350,242191,1,4,0:3:0:0:
270,307,242300,5,6,1:2:0:0:
270,307,242738,5,8,0:2:0:0:
108,225,242957,1,8,0:2:0:0:
246,111,243176,1,8,0:2:0:0:
407,192,243395,1,8,0:2:0:0:
133,143,243614,5,8,0:2:0:0:
343,107,243833,1,8,0:2:0:0:
270,307,244052,1,8,0:2:0:0:
494,380,244709,1,2,1:2:0:0:
494,380,244764,1,0,1:2:0:0:
494,380,244819,1,0,1:2:0:0:
424,350,244928,5,6,1:2:0:0:
449,184,245257,5,10,0:2:0:0:
270,372,245585,5,10,0:2:0:0:
314,175,245804,6,0,P|306:144|167:128,1,135,6|8,1:2|0:2,0:0:0:0:
129,48,246132,1,0,0:2:0:0:
53,112,246242,1,2,1:2:0:0:
53,112,246351,1,0,1:2:0:0:
159,202,246461,2,0,P|155:169|130:140,1,67.5,10|0,0:2|0:2,0:0:0:0:
212,274,246680,2,0,P|242:287|279:280,1,67.5,2|0,1:2|0:2,0:0:0:0:
123,283,246899,2,0,P|96:302|84:338,1,67.5,10|0,0:2|1:2,0:0:0:0:
323,353,247118,2,0,P|349:333|361:297,1,67.5,2|0,0:2|1:2,0:0:0:0:
441,288,247337,2,0,P|437:254|412:226,1,67.5,10|0,0:2|0:2,0:0:0:0:
254,165,247556,6,0,P|284:178|321:171,1,67.5,2|0,1:2|0:2,0:0:0:0:
454,64,247775,2,0,P|427:83|415:119,1,67.5,10|0,0:2|0:2,0:0:0:0:
340,27,247994,1,2,1:2:0:0:
340,27,248103,1,0,1:2:0:0:
252,77,248213,2,0,P|240:45|213:25,1,67.5,10|0,0:2|0:2,0:0:0:0:
157,203,248432,2,0,P|189:208|220:195,1,67.5,2|0,1:2|0:2,0:0:0:0:
95,57,248651,1,10,0:2:0:0:
95,57,248760,2,0,P|74:82|70:116,1,67.5,0|2,1:2|0:2,0:0:0:0:
18,224,248979,1,0,1:2:0:0:
18,224,249088,2,0,P|39:249|43:283,1,67.5,10|0,0:2|0:2,0:0:0:0:
256,358,249308,6,0,P|145:339|78:365,2,135,6|8|2,1:2|0:2|1:2,0:0:0:0:
347,326,249855,1,0,1:2:0:0:
347,326,249965,2,0,B|381:328|381:328|410:348,1,67.5,10|0,0:2|0:2,0:0:0:0:
382,170,250184,2,0,B|363:198|363:198|330:213,1,67.5,2|0,1:2|0:2,0:0:0:0:
499,278,250403,2,0,B|483:247|483:247|486:211,1,67.5,10|0,0:2|1:2,0:0:0:0:
454,33,250621,2,0,B|469:63|469:63|466:99,1,67.5,2|0,0:2|1:2,0:0:0:0:
310,42,250840,2,0,B|328:13|328:13|361:-1,1,67.5,10|0,0:2|0:2,0:0:0:0:
67,31,251059,6,0,B|93:51|93:51|105:83,1,67.5,2|0,1:2|0:2,0:0:0:0:
53,234,251278,2,0,B|57:200|57:200|79:174,1,67.5,10|0,0:2|0:2,0:0:0:0:
236,144,251497,2,0,B|204:156|204:156|171:150,1,67.5,2|0,1:2|1:2,0:0:0:0:
96,343,251716,2,0,B|127:330|127:330|160:336,1,67.5,10|0,0:2|0:2,0:0:0:0:
512,359,251935,6,0,P|432:330|343:363,1,135,6|10,1:2|0:2,0:0:0:0:
101,363,252264,6,0,P|181:334|270:367,1,135,4|0,1:2|1:2,0:0:0:0:
306,368,252538,1,0,1:2:0:0:
306,368,252592,2,0,P|305:347|311:300,1,67.5,14|0,0:2|0:0,0:0:0:0:
410,19,252811,6,0,P|470:84|458:162,1,135,6|8,1:2|0:2,0:0:0:0:
396,182,253140,1,0,0:2:0:0:
314,149,253249,1,2,1:2:0:0:
314,149,253359,1,0,1:2:0:0:
274,65,253468,2,0,P|304:56|341:63,1,67.5,10|0,0:2|0:2,0:0:0:0:
283,206,253687,2,0,P|290:175|315:146,1,67.5,2|0,1:2|0:2,0:0:0:0:
430,237,253906,2,0,P|407:215|395:179,1,67.5,10|0,0:2|1:2,0:0:0:0:
243,317,254125,2,0,P|235:286|210:257,1,67.5,2|0,0:2|1:2,0:0:0:0:
96,348,254344,2,0,P|118:326|130:290,1,67.5,10|0,0:2|0:2,0:0:0:0:
3,118,254563,6,0,L|30:231,1,67.5,2|0,1:2|0:2,0:0:0:0:
132,74,254782,2,0,L|116:8,1,67.5,10|0,0:2|0:2,0:0:0:0:
253,17,255001,1,2,1:2:0:0:
253,17,255111,1,0,1:2:0:0:
329,118,255220,2,0,L|378:71,1,67.5,10|0,0:2|0:2,0:0:0:0:
499,183,255439,2,0,L|458:125,1,67.5,2|0,1:2|0:2,0:0:0:0:
380,282,255658,1,10,0:2:0:0:
380,282,255767,2,0,P|387:262|407:212,1,67.5,0|2,1:2|0:2,0:0:0:0:
485,360,255986,1,0,1:2:0:0:
485,360,256095,2,0,P|478:340|458:290,1,67.5,10|0,0:2|0:2,0:0:0:0:
269,357,256315,6,0,P|168:326|80:341,1,135,6|8,1:2|0:2,0:0:0:0:
34,359,256643,1,0,0:2:0:0:
85,272,256753,1,2,1:2:0:0:
85,272,256862,1,0,1:2:0:0:
20,195,256972,2,0,P|13:168|3:129,1,67.5,10|0,0:2|0:2,0:0:0:0:
106,19,257191,2,0,P|98:51|89:84,1,67.5,2|0,1:2|0:2,0:0:0:0:
160,217,257410,2,0,P|153:190|143:151,1,67.5,10|0,0:2|1:2,0:0:0:0:
246,41,257629,2,0,P|238:73|229:106,1,67.5,2|0,0:2|1:2,0:0:0:0:
290,252,257848,2,0,P|281:219|273:186,1,67.5,10|0,0:2|0:2,0:0:0:0:
444,57,258067,5,14,0:2:0:0:
480,139,258176,1,8,0:2:0:0:
397,176,258286,1,10,0:2:0:0:
360,93,258395,1,8,0:2:0:0:
438,107,258505,5,10,0:3:0:0:
426,135,258614,1,8,0:3:0:0:
399,123,258724,1,10,0:3:0:0:
410,96,258833,1,8,0:3:0:0:
418,118,258943,6,0,B|443:158|431:205|431:205|455:246|455:246|451:311|476:355,1,175.499991966248,6|0,1:2|0:0,0:0:0:0:
400,367,259271,1,0,1:2:0:0:
400,367,259326,1,0,1:2:0:0:
400,367,259381,1,12,0:2:0:0:
