osu file format v14

[General]
AudioFilename: audio.mp3
AudioLeadIn: 0
PreviewTime: 80535
Countdown: 0
SampleSet: Soft
StackLeniency: 0.6
Mode: 0
LetterboxInBreaks: 0
WidescreenStoryboard: 1

[Editor]
DistanceSpacing: 0.6
BeatDivisor: 4
GridSize: 32
TimelineZoom: 2.8

[Metadata]
Title:DELIGHT
TitleUnicode:DELIGHT
Artist:Kitamura Eri
ArtistUnicode:喜多村英梨
Creator:Mordred
Version:Zelq's Hard
Source:
Tags:illusion dream wataru koda dystopia record schoolboy komore smozit kiyoshi guarden kowari saturnalize nymphe zelq japanese rock
BeatmapID:2246210
BeatmapSetID:1036552

[Difficulty]
HPDrainRate:4.2
CircleSize:3.4
OverallDifficulty:6.5
ApproachRate:8.2
SliderMultiplier:2.3
SliderTickRate:1

[Events]
//Background and Video events
0,0,"smokemansentmethis.jpg",0,0
//Break Periods
2,161916,163405
2,214271,225814
//Storyboard Layer 0 (Background)
//Storyboard Layer 1 (Fail)
//Storyboard Layer 2 (Pass)
//Storyboard Layer 3 (Foreground)
//Storyboard Layer 4 (Overlay)
//Storyboard Sound Samples

[TimingPoints]
549,437.956204379562,4,2,1,40,1,0
17629,-100,4,2,3,40,0,0
18067,-100,4,2,1,50,0,0
24636,-125,4,2,1,60,0,0
25074,-100,4,2,1,70,0,0
31205,-100,4,2,1,80,0,0
32027,-100,4,2,1,5,0,0
32081,-100,4,2,1,70,0,0
39089,-111.111111111111,4,2,1,60,0,0
42757,-111.111111111111,4,2,1,5,0,0
42811,-111.111111111111,4,2,1,60,0,0
46260,-111.111111111111,4,2,1,5,0,0
46315,-111.111111111111,4,2,1,60,0,0
51516,-111.111111111111,4,2,1,5,0,0
51570,-111.111111111111,4,2,1,60,0,0
53267,-111.111111111111,4,2,1,5,0,0
53322,-111.111111111111,4,2,1,60,0,0
58523,-111.111111111111,4,2,1,5,0,0
58578,-111.111111111111,4,2,1,60,0,0
60275,-111.111111111111,4,2,1,5,0,0
60330,-111.111111111111,4,2,1,60,0,0
65530,-111.111111111111,4,2,1,5,0,0
65585,-111.111111111111,4,2,1,60,0,0
67118,-125,4,2,1,60,0,0
70621,-111.111111111111,4,2,1,70,0,0
74125,-125,4,2,1,60,0,0
77629,-90.9090909090909,4,2,1,70,0,0
77848,-90.9090909090909,4,2,1,50,0,0
78067,-90.9090909090909,4,2,1,55,0,0
78286,-90.9090909090909,4,2,1,60,0,0
78505,-90.9090909090909,4,2,1,65,0,0
78724,-90.9090909090909,4,2,1,70,0,0
78943,-90.9090909090909,4,2,1,75,0,0
79162,-90.9090909090909,4,2,1,80,0,0
79381,-90.9090909090909,4,2,1,50,0,0
80640,-90.9090909090909,4,2,1,5,0,0
80694,-90.9090909090909,4,2,1,50,0,0
81132,-90.9090909090909,4,2,1,80,0,1
81735,-90.9090909090909,4,2,1,5,0,1
81789,-90.9090909090909,4,2,1,80,0,1
85457,-90.9090909090909,4,2,1,5,0,1
85512,-90.9090909090909,4,2,1,80,0,1
92465,-90.9090909090909,4,2,1,5,0,1
92519,-90.9090909090909,4,2,1,80,0,1
94654,-90.9090909090909,4,2,1,5,0,1
94709,-90.9090909090909,4,2,1,80,0,1
95585,-90.9090909090909,4,2,1,50,0,1
95804,-90.9090909090909,4,2,1,55,0,1
96023,-90.9090909090909,4,2,1,60,0,1
96242,-90.9090909090909,4,2,1,65,0,1
96461,-90.9090909090909,4,2,1,70,0,1
96680,-90.9090909090909,4,2,1,75,0,1
96899,-111.111111111111,4,2,1,80,0,0
97556,-111.111111111111,4,2,1,70,0,0
98651,-111.111111111111,4,2,1,60,0,0
100348,-111.111111111111,4,2,1,5,0,0
100403,-111.111111111111,4,2,1,60,0,0
101278,-111.111111111111,4,2,1,70,0,0
102154,-111.111111111111,4,2,1,60,0,0
103906,-111.111111111111,4,2,1,70,0,0
105658,-111.111111111111,4,2,1,60,0,0
108286,-111.111111111111,4,2,1,70,0,0
109162,-111.111111111111,4,2,1,60,0,0
110913,-111.111111111111,4,2,1,70,0,0
112665,-111.111111111111,4,2,1,60,0,0
112830,-111.111111111111,4,2,1,5,0,0
112884,-111.111111111111,4,2,1,60,0,0
119837,-111.111111111111,4,2,1,5,0,0
119892,-111.111111111111,4,2,1,60,0,0
120494,-111.111111111111,4,2,1,5,0,0
120548,-111.111111111111,4,2,1,60,0,0
123833,-111.111111111111,4,2,1,65,0,0
124052,-111.111111111111,4,2,1,70,0,0
124709,-111.111111111111,4,2,1,65,0,0
124928,-111.111111111111,4,2,1,60,0,0
125092,-111.111111111111,4,2,1,5,0,0
125147,-111.111111111111,4,2,1,60,0,0
126680,-125,4,2,1,60,0,0
130184,-111.111111111111,4,2,1,70,0,0
133687,-125,4,2,1,60,0,0
137191,-90.9090909090908,4,2,1,60,0,0
138943,-90.9090909090908,4,2,1,50,0,0
140202,-90.9090909090908,4,2,1,5,0,0
140257,-90.9090909090908,4,2,1,50,0,0
140694,-90.9090909090908,4,2,1,80,0,1
141297,-90.9090909090908,4,2,1,5,0,1
141351,-90.9090909090908,4,2,1,80,0,1
145238,-90.9090909090908,4,2,1,5,0,1
145293,-90.9090909090908,4,2,1,80,0,1
152246,-90.9090909090908,4,2,1,5,0,1
152300,-90.9090909090908,4,2,1,80,0,1
155147,-90.9090909090908,4,2,1,50,0,1
155366,-90.9090909090908,4,2,1,55,0,1
155585,-90.9090909090908,4,2,1,60,0,1
155804,-90.9090909090908,4,2,1,65,0,1
156023,-90.9090909090908,4,2,1,70,0,1
156242,-90.9090909090908,4,2,1,75,0,1
156461,-111.111111111111,4,2,1,80,0,0
157118,-111.111111111111,4,2,1,70,0,0
158213,-111.111111111111,4,2,2,70,0,0
170476,-111.111111111111,4,2,1,70,0,0
172227,-99.9999999999999,4,2,1,70,0,0
178359,-99.9999999999999,4,2,1,80,0,0
179235,-99.9999999999999,4,2,1,70,0,0
183121,-99.9999999999999,4,2,1,5,0,0
183176,-99.9999999999999,4,2,1,70,0,0
186242,-99.9999999999999,4,2,1,80,0,0
191005,-99.9999999999999,4,2,1,5,0,0
191059,-99.9999999999999,4,2,1,80,0,0
199381,-99.9999999999999,4,2,1,75,0,0
199819,-99.9999999999999,4,2,1,70,0,0
200257,-125,4,2,1,60,0,0
203760,-111.111111111111,4,2,1,70,0,0
207264,-125,4,2,1,60,0,0
210767,-125,4,2,1,70,0,0
210986,-125,4,2,1,50,0,0
211205,-125,4,2,1,55,0,0
211424,-125,4,2,1,60,0,0
211643,-125,4,2,1,70,0,0
211862,-125,4,2,1,60,0,0
212191,-125,4,2,1,55,0,0
212519,-125,4,2,1,50,0,0
213778,-125,4,2,1,5,0,0
213833,-125,4,2,1,30,0,0
226534,-166.666666666667,4,2,1,30,0,0
226972,-166.666666666667,4,2,1,40,0,0
227410,-166.666666666667,4,2,1,50,0,0
227848,-166.666666666667,4,2,1,60,0,0
228286,-90.909090909091,4,2,1,80,0,1
229107,-90.909090909091,4,2,1,5,0,1
229162,-90.909090909091,4,2,1,80,0,1
232392,-90.909090909091,4,2,1,5,0,1
232446,-90.909090909091,4,2,1,80,0,1
237209,-90.909090909091,4,2,1,5,0,1
237264,-90.909090909091,4,2,1,80,0,1
242738,-90.909090909091,4,2,1,50,0,1
242957,-90.909090909091,4,2,1,55,0,1
243176,-90.909090909091,4,2,1,60,0,1
243395,-90.909090909091,4,2,1,65,0,1
243614,-90.909090909091,4,2,1,70,0,1
243833,-90.909090909091,4,2,1,75,0,1
244052,-111.111111111111,4,2,1,80,0,0
245804,-100,4,2,1,70,0,0
245968,-111.111111111111,4,2,1,5,0,0
246023,-100,4,2,1,70,0,0
251935,-99.9999999999999,4,2,1,80,0,0
252757,-111.111111111111,4,2,1,5,0,0
252811,-100,4,2,1,70,0,0
256479,-111.111111111111,4,2,1,5,0,0
256534,-100,4,2,1,70,0,0

[Colours]
Combo1 : 250,180,240
Combo2 : 110,190,225
Combo3 : 255,230,130
Combo4 : 150,230,140

[HitObjects]
33,90,24636,6,0,P|20:66|20:42,1,46,2|2,0:2|0:2,0:0:0:0:
105,29,24855,2,0,P|114:51|114:76,1,46,2|2,0:2|0:2,0:0:0:0:
89,161,25074,6,0,B|40:173|40:173|23:192|23:192|-25:204,2,115,6|8|2,1:2|0:2|1:2,0:0:0:0:
162,210,25621,1,0,1:2:0:0:
162,210,25731,1,10,0:2:0:0:
51,321,25950,2,0,P|107:304|162:322,1,115,2|10,1:2|0:2,0:0:0:0:
240,330,26278,2,0,P|295:348|351:331,1,115,0|0,1:2|1:2,0:0:0:0:
393,261,26607,2,0,P|365:248|325:257,1,57.5,10|0,0:2|0:2,0:0:0:0:
461,319,26826,6,0,P|481:267|463:201,1,115,2|10,1:2|0:2,0:0:0:0:
464,78,27264,1,2,1:2:0:0:
464,78,27373,1,0,1:2:0:0:
464,78,27483,1,10,0:2:0:0:
361,146,27702,2,0,L|225:136,1,115,2|10,1:2|0:2,0:0:0:0:
301,220,28030,2,0,L|182:211,1,115,0|0,1:2|1:2,0:0:0:0:
228,126,28359,2,0,L|286:130,1,57.5,10|0,0:2|0:2,0:0:0:0:
217,38,28578,6,0,P|163:58|132:108,1,115,6|8,1:2|0:2,0:0:0:0:
53,229,29016,2,0,L|43:161,1,57.5,2|0,1:2|1:2,0:0:0:0:
32,93,29235,1,10,0:2:0:0:
141,208,29454,2,0,B|167:261|167:261|149:322,1,115,2|10,1:2|0:2,0:0:0:0:
63,335,29782,2,0,B|36:281|36:281|55:221,1,115,0|0,1:2|1:2,0:0:0:0:
141,208,30111,2,0,L|210:219,1,57.5,10|0,0:2|0:2,0:0:0:0:
270,254,30330,6,0,L|386:238,2,115,2|10|2,1:2|0:2|1:2,0:0:0:0:
228,327,30877,1,0,1:2:0:0:
228,327,30986,2,0,L|155:321,1,57.5,10|0,0:2|0:2,0:0:0:0:
100,370,31205,6,0,B|103:336|125:315|125:315|101:262,1,115,6|8,1:2|0:2,0:0:0:0:
46,204,31534,2,0,B|42:174|21:149|21:149|43:95,1,115,6|0,1:2|1:2,0:0:0:0:
89,33,31862,1,14,0:2:0:0:
159,77,31972,1,0,1:0:0:0:
219,21,32081,6,0,P|281:12|339:75,2,115,6|8|2,1:2|0:2|1:2,0:0:0:0:
159,77,32629,1,0,1:2:0:0:
159,77,32738,1,10,0:2:0:0:
198,209,32957,2,0,L|316:218,1,115,2|10,1:2|0:2,0:0:0:0:
354,149,33286,1,0,1:2:0:0:
470,227,33505,1,0,1:2:0:0:
470,227,33614,1,10,0:2:0:0:
473,351,33833,6,0,P|418:336|363:356,1,115,2|10,1:2|0:2,0:0:0:0:
214,363,34271,2,0,L|223:288,1,57.5,2|0,1:2|1:2,0:0:0:0:
299,287,34490,1,10,0:2:0:0:
137,315,34709,2,0,L|123:200,1,115,2|10,1:2|0:2,0:0:0:0:
51,171,35038,1,0,1:2:0:0:
160,98,35257,1,0,1:2:0:0:
160,98,35366,1,10,0:2:0:0:
32,53,35585,6,0,L|146:61,1,115,6|8,1:2|0:2,0:0:0:0:
313,20,36023,2,0,L|319:77,1,57.5,2|0,1:2|1:2,0:0:0:0:
250,123,36242,1,10,0:2:0:0:
375,205,36461,2,0,P|321:186|267:203,1,115,2|10,1:2|0:2,0:0:0:0:
210,261,36789,2,0,P|156:279|102:262,1,115,0|0,1:2|1:2,0:0:0:0:
39,204,37118,2,0,L|32:146,1,57.5,10|0,0:2|0:2,0:0:0:0:
13,286,37337,6,0,L|13:343,1,57.5,14|8,0:2|0:2,0:0:0:0:
110,319,37556,2,0,L|101:262,1,57.5,10|8,0:2|0:2,0:0:0:0:
210,261,37775,2,0,L|199:386,1,115,10|6,0:3|0:3,0:0:0:0:
422,355,38213,6,0,B|388:337|388:337|372:302|379:261,1,115,6|0,1:2|1:2,0:0:0:0:
436,199,38541,2,0,B|449:175|449:175|454:204,1,57.5,0|8,1:2|0:2,0:0:0:0:
464,287,38760,1,0,1:2:0:0:
488,93,39089,6,0,B|453:67|405:91|405:91|386:123|332:126,1,155.249995262146,6|0,1:2|0:0,0:0:0:0:
312,90,39527,1,2,1:2:0:0:
196,100,39746,1,8,0:2:0:0:
72,56,39965,6,0,P|104:95|118:144,1,103.499996841431,2|8,1:2|0:2,0:0:0:0:
26,135,40293,2,0,P|34:181|9:254,1,103.499996841431,0|0,1:2|1:2,0:0:0:0:
98,271,40621,1,10,0:2:0:0:
39,363,40840,6,0,B|94:351|94:351|137:370,1,103.499996841431,2|10,1:2|0:2,0:0:0:0:
213,275,41278,2,0,B|158:287|158:287|114:267,1,103.499996841431,2|10,1:2|0:2,0:0:0:0:
137,150,41716,6,0,P|190:139|248:165,1,103.499996841431,0|8,1:2|0:2,0:0:0:0:
293,211,42045,2,0,P|346:222|404:196,1,103.499996841431,0|0,1:2|1:2,0:0:0:0:
441,144,42373,2,0,L|453:83,1,51.7499984207154,10|0,0:2|0:2,0:0:0:0:
485,213,42592,6,0,B|504:247|504:247|469:307|497:375,1,155.249995262146,2|0,1:2|0:2,0:0:0:0:
443,373,43030,2,0,P|418:314|376:298,1,103.499996841431,2|8,1:2|0:2,0:0:0:0:
293,211,43468,1,2,1:2:0:0:
293,211,43687,1,10,0:2:0:0:
223,297,43906,1,2,0:2:0:0:
223,297,44125,1,10,0:2:0:0:
119,234,44344,6,0,L|109:337,1,103.499996841431,2|8,1:2|0:2,0:0:0:0:
9,222,44782,2,0,L|18:325,1,103.499996841431,2|10,1:2|0:2,0:0:0:0:
129,238,45220,2,0,P|154:194|137:145,1,103.499996841431,2|12,1:2|0:2,0:0:0:0:
66,113,45548,1,0,1:2:0:0:
152,41,45767,1,0,1:2:0:0:
152,41,45877,1,12,0:2:0:0:
261,77,46096,6,0,L|246:212,1,103.499996841431,6|8,1:2|0:2,0:0:0:0:
295,209,46424,1,0,0:2:0:0:
295,209,46534,2,0,L|413:184,1,103.499996841431,2|8,1:2|0:2,0:0:0:0:
288,334,46972,6,0,P|242:312|193:325,1,103.499996841431,2|8,1:2|0:2,0:0:0:0:
159,249,47300,2,0,P|200:220|213:171,1,103.499996841431,0|0,1:2|1:2,0:0:0:0:
166,106,47629,2,0,L|88:100,1,51.7499984207154,10|2,0:2|0:2,0:0:0:0:
93,20,47848,6,0,L|196:28,1,103.499996841431,2|10,1:2|0:2,0:0:0:0:
239,53,48176,1,0,0:2:0:0:
239,53,48286,2,0,L|366:35,1,103.499996841431,2|10,1:2|0:2,0:0:0:0:
485,1,48724,6,0,B|504:48|504:48|486:97,1,103.499996841431,2|8,1:2|0:2,0:0:0:0:
408,126,49052,2,0,B|389:173|389:173|406:222,1,103.499996841431,0|0,1:2|1:2,0:0:0:0:
480,255,49381,1,10,0:2:0:0:
415,369,49600,6,0,B|392:330|392:330|327:318|275:361,1,155.249995262146,2|0,1:2|0:0,0:0:0:0:
254,379,50038,2,0,P|203:384|158:361,1,103.499996841431,2|8,1:2|0:2,0:0:0:0:
100,240,50476,1,2,1:2:0:0:
100,240,50694,1,10,0:2:0:0:
223,288,50913,1,2,0:2:0:0:
223,288,51131,1,10,0:2:0:0:
70,228,51351,6,0,L|86:111,1,103.499996841431,2|8,1:2|0:2,0:0:0:0:
51,56,51680,1,0,0:2:0:0:
51,56,51789,2,0,P|89:49|120:60,1,51.7499984207154,0|0,1:2|1:2,0:0:0:0:
169,3,52008,1,8,0:2:0:0:
283,86,52227,1,0,1:2:0:0:
290,209,52446,1,12,0:2:0:0:
290,209,52556,1,0,1:2:0:0:
196,294,52775,1,0,1:2:0:0:
196,294,52884,1,12,0:2:0:0:
66,279,53103,6,0,L|84:121,1,155.249995262146,6|0,1:2|0:2,0:0:0:0:
119,90,53541,2,0,P|169:82|218:98,1,103.499996841431,2|8,1:2|0:2,0:0:0:0:
309,179,53979,2,0,P|358:168|392:130,1,103.499996841431,2|8,1:2|0:2,0:0:0:0:
436,135,54308,2,0,L|441:268,1,103.499996841431,0|0,1:2|1:2,0:0:0:0:
497,294,54636,1,10,0:2:0:0:
359,300,54855,6,0,P|309:287|263:307,1,103.499996841431,2|10,1:2|0:2,0:0:0:0:
234,341,55184,1,0,0:2:0:0:
234,341,55293,2,0,L|119:330,1,103.499996841431,2|10,1:2|0:2,0:0:0:0:
29,243,55731,2,0,L|133:235,1,103.499996841431,2|8,1:2|0:2,0:0:0:0:
151,149,56059,2,0,L|47:140,1,103.499996841431,0|0,1:2|1:2,0:0:0:0:
19,63,56388,1,10,0:2:0:0:
144,33,56607,6,0,B|191:57|191:57|300:41,1,155.249995262146,2|0,1:2|0:0,0:0:0:0:
273,83,57045,2,0,L|221:91,1,51.7499984207154,2|0,1:2|1:2,0:0:0:0:
151,149,57264,1,8,0:2:0:0:
263,241,57483,1,2,1:2:0:0:
263,241,57702,1,10,0:2:0:0:
166,340,57921,1,2,0:2:0:0:
166,340,58140,1,10,0:2:0:0:
120,216,58359,6,0,P|195:205|251:256,1,155.249995262146,2|0,1:2|0:2,0:0:0:0:
314,319,58797,2,0,L|302:392,2,51.7499984207154,2|0|10,1:2|1:2|0:2,0:0:0:0:
385,256,59235,2,0,P|375:205|391:156,1,103.499996841431,2|12,1:2|0:2,0:0:0:0:
459,80,59563,2,0,L|343:49,1,103.499996841431,0|0,1:2|1:2,0:0:0:0:
311,124,59892,1,12,0:2:0:0:
188,17,60111,6,0,B|220:57|220:57|192:103|211:172,1,155.249995262146,6|0,1:2|0:2,0:0:0:0:
175,190,60548,2,0,P|124:170|62:191,1,103.499996841431,2|8,1:2|0:2,0:0:0:0:
30,298,60986,2,0,P|77:317|127:307,1,103.499996841431,2|8,1:2|0:2,0:0:0:0:
192,348,61315,1,0,1:2:0:0:
264,258,61534,1,0,1:2:0:0:
264,258,61643,1,10,0:2:0:0:
166,196,61862,6,0,B|124:168|124:168|103:95,1,103.499996841431,2|10,1:2|0:2,0:0:0:0:
110,37,62191,1,0,0:2:0:0:
181,1,62300,2,0,P|232:-4|280:14,1,103.499996841431,2|10,1:2|0:2,0:0:0:0:
396,96,62738,2,0,P|345:98|313:137,1,103.499996841431,2|8,1:2|0:2,0:0:0:0:
265,202,63067,2,0,L|273:308,1,103.499996841431,0|0,1:2|1:2,0:0:0:0:
301,381,63395,1,10,0:2:0:0:
368,289,63614,6,0,B|263:273|294:332|167:323,1,206.999993682861,2|2,1:2|1:2,0:0:0:0:
127,293,64162,1,0,1:2:0:0:
127,293,64271,1,8,0:2:0:0:
16,358,64490,2,0,P|17:306|2:257,1,103.499996841431,2|10,1:2|0:2,0:0:0:0:
110,201,64928,2,0,P|109:149|124:100,1,103.499996841431,2|10,0:2|0:2,0:0:0:0:
22,6,65366,6,0,L|125:12,1,103.499996841431,2|8,1:2|0:2,0:0:0:0:
192,55,65694,1,0,0:2:0:0:
262,92,65804,2,0,L|365:85,1,103.499996841431,0|12,1:2|0:2,0:0:0:0:
493,21,66242,1,12,0:2:0:0:
493,21,66351,1,8,0:2:0:0:
493,21,66461,2,0,L|485:73,1,51.7499984207154,8|8,0:2|0:2,0:0:0:0:
504,157,66680,2,0,P|430:158|384:218,1,155.249995262146,8|8,0:3|0:3,0:0:0:0:
412,304,67118,6,0,L|457:312,2,46,6|0|0,1:2|1:2|1:0,0:0:0:0:
381,325,67446,2,0,L|335:331,1,46,0|8,1:2|0:2,0:0:0:0:
216,350,67775,2,0,L|180:340,4,23,0|0|0|0|2,0:2|1:0|1:2|1:2|1:2,0:0:0:0:
272,270,68213,1,0,1:2:0:0:
272,270,68322,1,0,1:2:0:0:
272,270,68432,2,0,L|285:166,1,92,8|0,0:2|0:0,0:0:0:0:
319,59,68870,6,0,L|374:50,2,46,6|0|0,1:2|1:2|1:2,0:0:0:0:
292,77,69198,2,0,L|231:69,1,46,0|8,1:2|0:2,0:0:0:0:
141,43,69527,2,0,L|99:35,4,23,0|0|0|0|2,1:0|1:0|1:2|1:2|1:2,0:0:0:0:
182,126,69965,1,0,1:2:0:0:
93,180,70184,2,0,L|47:176,1,46,8|0,0:2|0:2,0:0:0:0:
0,246,70403,1,8,0:2:0:0:
12,273,70512,1,8,0:2:0:0:
40,285,70621,6,0,P|88:270|186:349,1,155.249995262146,6|0,1:2|0:2,0:0:0:0:
242,359,71059,2,0,L|293:354,2,51.7499984207154,0|0|12,1:2|1:2|0:2,0:0:0:0:
254,245,71497,1,0,1:2:0:0:
254,245,71607,2,0,L|243:170,1,51.7499984207154,0|12,1:2|0:2,0:0:0:0:
327,282,71826,2,0,P|378:286|420:258,1,103.499996841431,0|0,1:2|1:2,0:0:0:0:
470,189,72154,2,0,L|474:131,1,51.7499984207154,12|0,0:2|0:2,0:0:0:0:
376,71,72373,6,0,L|384:179,1,103.499996841431,2|12,1:2|0:2,0:0:0:0:
296,151,72702,1,0,0:2:0:0:
296,151,72811,2,0,L|277:92,2,51.7499984207154,2|0|12,1:2|1:2|0:2,0:0:0:0:
221,239,73249,1,2,1:2:0:0:
221,239,73359,2,0,L|134:228,1,51.7499984207154,0|12,1:2|0:2,0:0:0:0:
247,324,73578,2,0,L|132:338,1,103.499996841431,0|0,1:2|1:2,0:0:0:0:
60,350,73906,2,0,L|69:288,1,51.7499984207154,12|0,0:2|0:2,0:0:0:0:
41,214,74125,6,0,L|-3:224,2,46,6|0|0,1:2|1:2|1:0,0:0:0:0:
71,191,74454,2,0,L|78:134,1,46,0|8,1:2|0:2,0:0:0:0:
34,41,74782,2,0,L|-1:26,4,23,0|0|0|0|2,0:2|1:0|1:2|1:2|1:2,0:0:0:0:
142,5,75220,1,0,1:2:0:0:
142,5,75330,1,0,1:2:0:0:
142,5,75439,2,0,B|181:0|181:0|203:12|203:12|261:16,1,92,8|0,0:2|0:0,0:0:0:0:
303,58,75767,1,8,0:2:0:0:
303,58,75877,6,0,P|348:64|399:25,1,92,6|0,1:2|1:2,0:0:0:0:
467,74,76205,1,0,1:2:0:0:
467,74,76315,1,8,0:2:0:0:
393,160,76534,2,0,L|418:194,4,23,0|0|0|0|2,1:0|1:0|1:2|1:2|1:2,0:0:0:0:
234,93,76972,2,0,L|289:81,2,46,0|0|10,1:2|1:2|0:2,0:0:0:0:
151,75,77300,1,0,0:2:0:0:
151,75,77410,2,0,L|144:9,1,46,8|8,0:2|0:2,0:0:0:0:
20,40,77629,6,0,P|48:83|20:177,1,126.500003860474,6|8,1:2|0:2,0:0:0:0:
23,298,78067,2,0,P|11:237|41:183,1,126.500003860474,8|8,0:2|0:2,0:0:0:0:
152,345,78505,6,0,L|164:255,1,63.2500019302369,8|0,0:2|0:0,0:0:0:0:
252,296,78724,2,0,L|243:233,1,63.2500019302369,8|0,0:2|0:0,0:0:0:0:
339,238,78943,2,0,L|351:148,1,63.2500019302369,8|0,0:2|0:0,0:0:0:0:
443,180,79162,2,0,L|434:117,1,63.2500019302369,8|0,0:2|0:0,0:0:0:0:
487,21,81132,6,0,B|403:9|436:51|339:41,1,126.500003860474,6|8,1:2|0:2,0:0:0:0:
297,83,81461,1,2,0:2:0:0:
297,83,81570,2,0,P|236:89|203:72,1,94.8750028953553,0|0,1:2|0:0,0:0:0:0:
170,67,81789,2,0,L|149:136,1,63.2500019302369,10|0,0:2|0:2,0:0:0:0:
81,173,82008,2,0,P|121:168|191:218,1,126.500003860474,2|10,1:2|0:2,0:0:0:0:
270,190,82337,1,0,1:2:0:0:
270,190,82446,2,0,L|288:319,1,126.500003860474,2|8,0:2|0:2,0:0:0:0:
99,378,82884,6,0,L|109:251,1,126.500003860474,2|8,1:2|0:2,0:0:0:0:
109,168,83213,2,0,L|40:182,2,63.2500019302369,2|0|0,0:2|0:0|1:2,0:0:0:0:
182,115,83541,2,0,L|243:127,1,63.2500019302369,10|0,0:2|0:2,0:0:0:0:
322,79,83760,2,0,P|315:48|322:17,1,63.2500019302369,2|0,1:2|1:2,0:0:0:0:
406,1,83979,1,10,1:2:0:0:
440,16,84089,1,0,1:2:0:0:
464,45,84198,1,2,1:2:0:0:
473,81,84308,1,0,1:2:0:0:
466,118,84417,2,0,L|402:137,1,63.2500019302369,10|0,1:2|1:2,0:0:0:0:
467,226,84636,6,0,L|341:209,1,126.500003860474,6|8,1:2|0:2,0:0:0:0:
292,284,84965,2,0,L|216:300,2,63.2500019302369,2|0|0,0:2|0:0|1:2,0:0:0:0:
253,195,85293,2,0,P|248:154|270:92,1,94.8750028953553,10|0,0:2|0:0,0:0:0:0:
254,72,85512,2,0,L|128:57,1,126.500003860474,2|10,1:2|0:2,0:0:0:0:
78,134,85840,1,0,1:2:0:0:
78,134,85950,2,0,L|203:148,1,126.500003860474,2|10,0:2|0:2,0:0:0:0:
29,351,86388,5,2,1:2:0:0:
62,334,86497,1,0,1:2:0:0:
98,323,86607,1,8,1:2:0:0:
135,328,86716,1,0,1:2:0:0:
166,349,86826,2,0,L|151:276,2,63.2500019302369,2|0|8,1:2|1:2|1:2,0:0:0:0:
261,311,87154,1,0,1:2:0:0:
261,311,87264,2,0,L|272:232,2,63.2500019302369,2|0|12,1:2|1:2|1:2,0:0:0:0:
333,368,87592,1,0,1:2:0:0:
333,368,87702,2,0,L|408:381,1,63.2500019302369,10|10,0:2|0:2,0:0:0:0:
436,305,87921,2,0,L|498:294,1,63.2500019302369,10|10,0:2|0:2,0:0:0:0:
488,205,88140,6,0,L|348:186,1,126.500003860474,6|8,1:2|0:2,0:0:0:0:
379,98,88468,2,0,B|475:91|475:91|451:72,1,126.500003860474,2|0,0:2|1:2,0:0:0:0:
361,13,88797,2,0,L|277:7,1,63.2500019302369,10|0,0:2|0:2,0:0:0:0:
206,35,89016,2,0,P|224:90|220:178,1,126.500003860474,2|10,1:2|0:2,0:0:0:0:
147,201,89344,1,0,1:2:0:0:
147,201,89454,2,0,B|110:218|110:218|18:180,1,126.500003860474,2|10,0:2|0:2,0:0:0:0:
32,369,89892,6,0,P|26:306|88:315,1,126.500003860474,2|8,1:2|0:2,0:0:0:0:
122,376,90220,2,0,B|175:371|175:371|193:353|193:353|248:343,1,126.500003860474,2|0,0:2|1:2,0:0:0:0:
333,368,90549,2,0,L|323:296,1,63.2500019302369,10|0,0:2|0:2,0:0:0:0:
403,256,90767,1,2,1:2:0:0:
415,219,90877,1,0,1:2:0:0:
417,181,90986,1,10,1:2:0:0:
408,143,91096,1,0,1:2:0:0:
386,112,91205,2,0,L|310:105,1,63.2500019302369,2|0,1:2|1:2,0:0:0:0:
258,163,91424,2,0,L|182:156,1,63.2500019302369,10|0,1:2|1:2,0:0:0:0:
117,113,91643,6,0,B|122:85|161:72|219:126|137:248,1,189.750005790711,6|2,1:2|0:2,0:0:0:0:
78,289,92081,2,0,L|3:278,1,63.2500019302369,0|0,0:0|1:2,0:0:0:0:
131,363,92300,2,0,L|241:347,1,94.8750028953553,10|0,0:2|0:0,0:0:0:0:
255,363,92519,2,0,P|242:323|306:246,1,126.500003860474,2|10,1:2|0:2,0:0:0:0:
373,291,92848,1,0,0:2:0:0:
373,291,92957,2,0,P|383:230|346:182,1,126.500003860474,2|10,0:2|0:2,0:0:0:0:
254,43,93395,6,0,L|334:18,2,63.2500019302369,2|0|12,1:2|1:2|1:2,0:0:0:0:
210,124,93724,1,0,1:2:0:0:
210,124,93833,2,0,L|191:205,2,63.2500019302369,2|0|8,1:2|1:2|1:2,0:0:0:0:
161,45,94162,1,0,1:2:0:0:
161,45,94271,2,0,L|99:-11,1,63.2500019302369,6|0,1:2|1:2,0:0:0:0:
29,65,94490,2,0,P|47:118|36:176,1,94.8750028953553,8|0,1:2|0:0,0:0:0:0:
22,188,94709,2,0,P|8:217|4:248,1,63.2500019302369,6|4,0:3|0:3,0:0:0:0:
75,301,94928,2,0,P|77:332|89:361,1,63.2500019302369,4|4,0:3|0:3,0:0:0:0:
156,261,95147,5,6,1:2:0:0:
156,261,95585,1,8,0:2:0:0:
255,339,95804,1,8,0:2:0:0:
359,268,96023,1,8,0:2:0:0:
322,146,96242,1,8,0:2:0:0:
195,142,96461,1,8,0:2:0:0:
156,261,96680,1,8,0:2:0:0:
258,232,96899,5,8,0:2:0:0:
258,232,97556,6,0,L|188:241,1,51.7499984207154,2|0,1:2|1:2,0:0:0:0:
307,159,97775,2,0,B|371:179|371:179|393:219|393:219|344:204,2,155.249995262146,14|10|10,0:2|0:2|0:2,0:0:0:0:
161,102,98651,5,6,1:2:0:0:
161,102,98760,2,0,P|110:97|63:139,1,103.499996841431,0|0,0:2|0:2,0:0:0:0:
31,200,99089,1,10,0:2:0:0:
31,200,99198,2,0,L|43:322,1,103.499996841431,0|0,1:2|0:2,0:0:0:0:
101,364,99527,1,2,1:2:0:0:
101,364,99636,1,0,0:2:0:0:
207,271,99855,1,0,1:2:0:0:
207,271,99964,1,8,0:2:0:0:
298,364,100184,2,0,L|388:373,1,77.6249976310731,2|0,1:2|0:2,0:0:0:0:
410,363,100403,5,2,1:2:0:0:
410,363,100512,2,0,L|418:299,1,51.7499984207154,2|0,0:2|1:2,0:0:0:0:
505,332,100731,2,0,L|493:220,1,103.499996841431,2|2,0:2|1:2,0:0:0:0:
405,205,101059,2,0,L|412:153,1,51.7499984207154,0|0,0:2|0:2,0:0:0:0:
480,82,101278,1,2,1:2:0:0:
459,66,101388,1,2,1:2:0:0:
434,57,101497,1,2,1:2:0:0:
408,56,101607,1,2,1:2:0:0:
382,61,101716,2,0,P|355:72|332:98,2,51.7499984207154,10|2|2,0:2|1:2|1:2,0:0:0:0:
153,33,102154,5,6,1:2:0:0:
153,33,102264,1,2,0:2:0:0:
153,33,102373,2,0,L|54:26,1,77.6249976310731,2|0,1:2|0:0,0:0:0:0:
42,47,102592,2,0,P|55:92|48:148,1,103.499996841431,10|0,0:2|0:2,0:0:0:0:
6,223,102921,1,0,0:2:0:0:
6,223,103030,2,0,L|124:233,1,103.499996841431,2|0,1:2|0:2,0:0:0:0:
143,319,103359,1,0,1:2:0:0:
143,319,103468,1,8,0:2:0:0:
250,199,103687,1,8,0:2:0:0:
250,199,103797,1,8,0:2:0:0:
250,199,103906,6,0,B|240:314|240:314|269:286,2,155.249995262146,6|6|6,1:2|1:2|1:2,0:0:0:0:
189,62,104782,1,10,0:2:0:0:
188,61,104892,2,0,P|232:86|283:88,1,103.499996841431,10|10,0:2|0:2,0:0:0:0:
356,51,105220,2,0,L|365:-11,2,51.7499984207154,0|0|12,0:2|1:2|0:2,0:0:0:0:
471,175,105658,6,0,L|481:225,1,51.7499984207154,6|2,1:2|0:2,0:0:0:0:
434,293,105877,2,0,P|389:268|338:272,1,103.499996841431,0|10,1:2|0:2,0:0:0:0:
273,326,106205,2,0,L|265:382,2,51.7499984207154,0|0|0,1:2|0:2|0:2,0:0:0:0:
224,249,106534,1,2,1:2:0:0:
224,249,106643,1,0,0:2:0:0:
130,337,106862,1,0,1:2:0:0:
130,337,106971,1,10,0:2:0:0:
34,264,107191,2,0,L|26:195,1,51.7499984207154,2|0,1:2|0:0,0:0:0:0:
93,160,107410,5,2,1:2:0:0:
93,160,107519,2,0,L|104:88,1,51.7499984207154,2|0,0:2|1:2,0:0:0:0:
161,48,107738,2,0,P|116:23|65:28,2,103.499996841431,2|2|0,0:2|0:2|0:2,0:0:0:0:
210,129,108286,1,2,1:2:0:0:
232,141,108395,1,2,1:2:0:0:
257,146,108505,1,2,1:2:0:0:
282,143,108614,1,2,1:2:0:0:
305,130,108724,2,0,L|315:66,2,51.7499984207154,10|2|2,0:2|1:2|1:2,0:0:0:0:
360,268,109162,5,6,1:2:0:0:
360,268,109271,1,2,0:2:0:0:
360,268,109381,2,0,B|320:240|320:240|266:249,1,103.499996841431,2|10,1:2|0:2,0:0:0:0:
204,311,109709,2,0,L|89:300,1,103.499996841431,0|0,1:2|0:2,0:0:0:0:
32,358,110038,1,2,1:2:0:0:
32,358,110147,2,0,L|18:250,1,103.499996841431,0|0,0:2|1:2,0:0:0:0:
6,175,110476,1,10,0:2:0:0:
159,148,110694,1,8,0:2:0:0:
159,148,110804,1,8,0:2:0:0:
159,148,110913,6,0,B|213:143|213:143|254:115|254:115|305:147,2,155.249995262146,6|6|6,1:2|1:2|1:2,0:0:0:0:
37,35,111789,1,8,0:2:0:0:
36,34,111899,2,0,P|58:81|63:132,1,103.499996841431,8|8,0:2|0:2,0:0:0:0:
11,202,112227,1,2,0:2:0:0:
9,227,112337,1,10,0:2:0:0:
17,251,112446,1,10,0:2:0:0:
37,267,112556,1,10,0:2:0:0:
60,274,112665,6,0,P|108:254|196:318,1,155.249995262146,6|0,1:2|0:2,0:0:0:0:
214,314,113103,2,0,P|256:346|321:334,1,103.499996841431,2|10,1:2|0:2,0:0:0:0:
332,313,113432,1,0,0:2:0:0:
332,313,113541,2,0,L|319:261,2,51.7499984207154,2|2|10,1:2|0:2|0:2,0:0:0:0:
412,351,113870,2,0,L|425:299,2,51.7499984207154,2|2|2,1:2|0:2|1:2,0:0:0:0:
500,342,114198,1,10,0:2:0:0:
512,218,114417,5,2,1:2:0:0:
420,159,114636,1,10,0:2:0:0:
461,61,114855,2,0,L|512:56,2,51.7499984207154,0|0|10,1:2|1:2|0:2,0:0:0:0:
423,35,115184,1,0,0:2:0:0:
423,35,115293,2,0,L|298:25,1,103.499996841431,2|8,1:2|0:2,0:0:0:0:
146,35,115731,1,2,0:2:0:0:
146,35,115840,1,2,1:2:0:0:
146,35,115950,2,0,P|163:68|166:105,1,51.7499984207154,8|0,0:2|0:2,0:0:0:0:
223,143,116169,6,0,P|271:122|334:192,1,155.249995262146,2|0,1:2|0:0,0:0:0:0:
246,230,116607,2,0,L|180:242,2,51.7499984207154,2|0|8,1:2|1:2|0:2,0:0:0:0:
352,323,117045,2,0,L|425:333,2,51.7499984207154,2|0|8,1:2|0:2|0:2,0:0:0:0:
271,361,117373,1,2,1:2:0:0:
271,361,117483,2,0,B|237:354|237:354|208:379|142:377,1,103.499996841431,0|10,0:0|0:2,0:0:0:0:
35,290,117921,5,2,1:2:0:0:
38,264,118030,1,2,0:2:0:0:
49,240,118140,1,10,0:2:0:0:
67,221,118249,1,2,0:2:0:0:
90,209,118359,2,0,L|163:223,2,51.7499984207154,2|2|10,1:2|1:2|0:2,0:0:0:0:
38,94,118797,5,2,1:2:0:0:
38,94,118906,1,2,1:2:0:0:
38,94,119016,2,0,L|32:23,1,51.7499984207154,12|0,0:2|1:2,0:0:0:0:
140,22,119235,1,2,0:2:0:0:
140,22,119344,1,2,1:2:0:0:
140,22,119454,2,0,L|134:93,1,51.7499984207154,14|0,0:2|0:2,0:0:0:0:
196,142,119673,6,0,B|300:124|254:187|385:170,1,155.249995262146,6|0,1:2|0:2,0:0:0:0:
411,117,120111,1,2,1:2:0:0:
411,117,120220,1,0,1:2:0:0:
411,117,120330,1,8,0:2:0:0:
467,253,120548,2,0,L|531:261,2,51.7499984207154,2|2|10,1:2|0:2|0:2,0:0:0:0:
443,331,120877,2,0,L|507:339,2,51.7499984207154,2|2|2,1:2|0:2|1:2,0:0:0:0:
377,270,121205,1,10,0:2:0:0:
280,366,121424,6,0,L|132:352,1,103.499996841431,2|10,1:2|0:2,0:0:0:0:
40,277,121862,2,0,L|143:267,1,103.499996841431,2|10,1:2|0:2,0:0:0:0:
207,208,122191,1,0,0:2:0:0:
207,208,122300,1,2,1:2:0:0:
47,73,122629,1,0,1:2:0:0:
47,73,122738,2,0,L|57:155,2,51.7499984207154,2|2|10,0:2|1:2|0:2,0:0:0:0:
159,17,123176,6,0,B|219:21|219:21|246:41|246:41|307:49,1,155.249995262146,2|0,1:2|0:0,0:0:0:0:
396,37,123614,1,2,1:2:0:0:
420,44,123724,1,0,1:2:0:0:
439,49,123833,2,0,L|432:126,1,51.7499984207154,10|0,0:2|0:0,0:0:0:0:
390,174,124052,2,0,L|394:225,2,51.7499984207154,2|0|10,1:2|0:0|0:2,0:0:0:0:
313,132,124381,1,0,1:0:0:0:
313,132,124490,2,0,P|262:131|223:163,1,103.499996841431,2|10,1:2|0:2,0:0:0:0:
65,228,124928,6,0,B|52:197|52:197|74:171|74:171|133:185|133:185|143:245|228:257,1,206.999993682861,2|0,1:2|1:2,0:0:0:0:
220,236,125476,1,0,1:2:0:0:
220,236,125585,1,12,0:2:0:0:
133,347,125804,1,12,0:2:0:0:
153,349,125913,1,8,0:2:0:0:
173,351,126023,1,8,0:2:0:0:
193,353,126132,1,8,0:2:0:0:
214,356,126242,2,0,L|286:368,2,51.7499984207154,8|8|8,0:3|0:3|0:3,0:0:0:0:
383,294,126680,6,0,L|376:364,2,46,6|0|0,1:2|1:2|0:0,0:0:0:0:
361,269,127008,2,0,L|284:281,1,46,0|8,1:2|0:2,0:0:0:0:
228,183,127337,2,0,L|194:181,4,23,0|0|0|0|2,0:2|1:0|1:2|1:2|1:2,0:0:0:0:
342,154,127775,1,0,1:2:0:0:
342,154,127884,1,0,1:2:0:0:
342,154,127994,2,0,L|355:50,1,92,8|0,0:2|0:0,0:0:0:0:
223,45,128432,6,0,L|216:-25,2,46,6|0|0,1:2|1:2|1:2,0:0:0:0:
201,70,128760,2,0,L|124:58,1,46,0|8,1:2|0:2,0:0:0:0:
48,151,129089,2,0,L|8:147,4,23,0|0|0|0|2,1:0|1:0|1:2|1:2|1:2,0:0:0:0:
142,202,129527,1,0,1:2:0:0:
69,295,129746,2,0,P|79:343|169:347,1,138,8|8,0:2|0:2,0:0:0:0:
217,296,130184,6,0,L|326:313,1,103.499996841431,6|8,1:2|0:2,0:0:0:0:
452,368,130621,1,0,1:2:0:0:
452,368,130731,1,0,1:2:0:0:
452,368,130840,1,12,0:2:0:0:
476,231,131059,1,2,1:2:0:0:
476,230,131169,2,0,P|429:252|379:243,1,103.499996841431,0|0,1:2|1:2,0:0:0:0:
351,201,131497,2,0,L|363:92,1,103.499996841431,2|12,0:2|0:2,0:0:0:0:
512,54,131935,6,0,B|476:88|476:88|371:74,1,155.249995262146,2|0,1:2|0:2,0:0:0:0:
296,28,132373,2,0,L|245:36,2,51.7499984207154,2|0|12,1:2|1:2|0:2,0:0:0:0:
88,65,132811,2,0,L|34:58,2,51.7499984207154,2|0|12,1:2|1:2|0:2,0:0:0:0:
149,135,133140,1,0,1:2:0:0:
149,135,133249,2,0,B|166:189|166:189|126:253,1,103.499996841431,2|12,0:2|0:2,0:0:0:0:
37,361,133687,6,0,L|23:295,2,46,6|0|0,1:2|1:2|1:0,0:0:0:0:
65,376,134016,2,0,L|137:386,1,46,0|8,1:2|0:2,0:0:0:0:
246,342,134344,1,0,0:2:0:0:
142,262,134563,1,2,1:2:0:0:
143,241,134673,1,0,1:2:0:0:
151,222,134782,1,0,1:2:0:0:
163,205,134892,1,0,1:2:0:0:
181,196,135001,2,0,L|251:205,2,46,8|0|0,0:2|0:0|0:0,0:0:0:0:
94,60,135439,6,0,L|84:-9,2,46,6|0|0,1:2|1:2|1:2,0:0:0:0:
109,76,135767,2,0,L|157:82,1,46,0|8,1:2|0:2,0:0:0:0:
268,38,136096,2,0,L|271:-3,4,23,0|0|0|0|2,1:0|1:0|1:2|1:2|1:2,0:0:0:0:
355,130,136534,1,0,1:2:0:0:
355,130,136643,1,0,1:2:0:0:
355,130,136753,2,0,P|424:125|464:216,1,138,10|8,0:2|0:2,0:0:0:0:
442,265,137191,6,0,L|295:246,1,126.500003860474,6|8,1:2|0:2,0:0:0:0:
194,369,137629,2,0,L|341:350,1,126.500003860474,8|8,0:2|0:2,0:0:0:0:
216,257,138067,2,0,P|209:217|212:177,1,63.2500019302369,8|0,0:2|0:0,0:0:0:0:
123,141,138286,2,0,P|122:172|116:203,1,63.2500019302369,8|0,0:2|0:0,0:0:0:0:
49,265,138505,1,8,0:2:0:0:
38,287,138614,1,8,0:2:0:0:
49,309,138724,1,8,0:2:0:0:
35,330,138833,1,8,0:2:0:0:
26,42,140694,6,0,B|96:25|78:78|174:54,1,126.500003860474,6|8,1:2|0:2,0:0:0:0:
222,11,141023,1,2,0:2:0:0:
222,11,141132,2,0,P|298:15|328:37,1,94.8750028953553,0|0,0:0|0:0,0:0:0:0:
333,39,141351,2,0,L|324:119,1,63.2500019302369,10|0,0:2|0:2,0:0:0:0:
278,164,141570,2,0,B|228:131|228:131|158:157,1,126.500003860474,2|10,1:2|0:2,0:0:0:0:
89,199,141899,1,0,1:2:0:0:
89,199,142008,2,0,P|60:134|88:82,1,126.500003860474,2|10,0:2|0:2,0:0:0:0:
254,164,142446,6,0,P|261:241|223:304,1,126.500003860474,2|8,1:2|0:2,0:0:0:0:
189,359,142775,2,0,P|238:319|300:310,1,126.500003860474,2|0,0:2|1:2,0:0:0:0:
389,316,143103,2,0,P|330:293|291:244,1,126.500003860474,10|0,0:2|1:2,0:0:0:0:
349,185,143432,1,0,1:2:0:0:
349,185,143541,2,0,L|358:116,1,63.2500019302369,10|0,1:2|1:2,0:0:0:0:
461,111,143760,1,2,1:2:0:0:
463,149,143870,1,0,1:2:0:0:
465,186,143979,1,10,1:2:0:0:
468,224,144089,1,0,1:2:0:0:
471,261,144198,6,0,B|428:257|428:257|391:273|391:273|305:265,1,126.500003860474,6|8,1:2|0:2,0:0:0:0:
286,334,144527,2,0,L|150:352,1,126.500003860474,2|0,0:2|1:2,0:0:0:0:
79,310,144855,1,10,0:2:0:0:
27,112,145074,2,0,P|47:136|66:207,1,94.8750028953553,2|0,1:2|0:0,0:0:0:0:
85,205,145293,2,0,P|119:152|179:135,2,126.500003860474,10|2|10,0:2|0:2|0:2,0:0:0:0:
189,335,145950,5,2,1:2:0:0:
226,339,146059,1,0,1:2:0:0:
262,327,146169,1,8,1:2:0:0:
288,300,146278,1,0,1:2:0:0:
297,263,146388,2,0,L|277:203,2,63.2500019302369,2|0|8,1:2|1:2|1:2,0:0:0:0:
395,298,146716,1,0,1:2:0:0:
395,298,146826,2,0,L|384:374,2,63.2500019302369,2|0|12,1:2|1:2|1:2,0:0:0:0:
463,229,147154,1,0,1:2:0:0:
463,229,147264,2,0,P|479:201|483:170,1,63.2500019302369,10|10,0:2|0:2,0:0:0:0:
503,89,147483,2,0,P|486:62|461:42,1,63.2500019302369,10|10,0:2|0:2,0:0:0:0:
390,2,147702,6,0,B|350:40|350:40|239:29,1,126.500003860474,6|8,1:2|0:2,0:0:0:0:
189,29,148030,2,0,L|221:151,1,126.500003860474,2|0,0:2|1:2,0:0:0:0:
128,139,148359,2,0,L|65:131,1,63.2500019302369,10|0,0:2|0:2,0:0:0:0:
26,214,148578,2,0,P|71:276|61:353,1,126.500003860474,2|10,1:2|0:2,0:0:0:0:
211,242,149016,1,2,0:2:0:0:
211,242,149125,1,0,1:2:0:0:
211,242,149235,2,0,L|282:250,1,63.2500019302369,10|0,0:2|0:2,0:0:0:0:
359,293,149454,6,0,P|365:219|301:164,1,126.500003860474,2|8,1:2|0:2,0:0:0:0:
261,130,149782,2,0,L|136:149,1,126.500003860474,2|0,0:2|1:2,0:0:0:0:
66,103,150111,1,10,0:2:0:0:
231,19,150330,1,2,1:2:0:0:
268,16,150439,1,0,1:2:0:0:
304,25,150549,1,10,1:2:0:0:
337,42,150658,1,0,1:2:0:0:
368,63,150767,2,0,P|426:68|462:51,2,63.2500019302369,2|0|10,1:2|1:2|1:2,0:0:0:0:
312,124,151096,1,0,1:2:0:0:
312,124,151205,6,0,B|305:171|305:171|321:201|321:201|314:245,1,126.500003860474,6|8,1:2|0:2,0:0:0:0:
354,317,151534,2,0,P|296:292|236:307,1,126.500003860474,2|0,0:2|1:2,0:0:0:0:
189,372,151862,1,10,0:2:0:0:
41,303,152081,2,0,P|68:246|52:192,1,94.8750028953553,2|0,1:2|0:0,0:0:0:0:
42,195,152300,2,0,P|28:152|103:97,1,126.500003860474,10|2,0:2|0:2,0:0:0:0:
151,135,152629,1,0,1:2:0:0:
151,135,152738,1,10,0:2:0:0:
269,34,152957,6,0,L|190:20,2,63.2500019302369,2|0|12,1:2|1:2|1:2,0:0:0:0:
334,113,153286,1,0,1:2:0:0:
334,113,153395,2,0,L|413:99,2,63.2500019302369,2|0|8,1:2|1:2|1:2,0:0:0:0:
239,159,153724,1,0,1:2:0:0:
239,159,153833,2,0,L|160:145,2,63.2500019302369,6|0|8,1:2|1:2|1:2,0:0:0:0:
323,221,154162,1,0,1:2:0:0:
323,221,154271,2,0,P|341:280|324:340,1,126.500003860474,6|4,0:3|0:3,0:0:0:0:
135,374,154709,5,6,1:2:0:0:
135,374,155147,5,8,0:2:0:0:
214,291,155366,1,8,0:2:0:0:
76,245,155585,1,8,0:2:0:0:
191,145,155804,1,8,0:2:0:0:
29,119,156023,1,8,0:2:0:0:
175,25,156242,1,8,0:2:0:0:
58,23,156461,5,8,0:2:0:0:
58,23,157118,2,0,L|-7:12,1,51.7499984207154,2|0,1:2|1:2,0:0:0:0:
161,31,157337,2,0,B|203:20|203:20|245:33|245:33|253:56|253:56|228:72|228:72|187:61,2,155.249995262146,6|10|10,1:2|0:2|0:2,0:0:0:0:
256,158,158213,5,6,1:1:0:0:
256,192,158322,12,6,161716,1:0:0:0:
434,358,164125,6,0,L|500:351,1,51.7499984207154,0|0,1:2|1:2,0:0:0:0:
342,321,164344,2,0,B|306:309|306:309|276:327|276:327|266:343|266:343|233:360|233:360|201:348,2,155.249995262146,14|6|6,0:1|1:1|1:1,0:0:0:0:
432,255,165220,5,6,1:1:0:0:
256,192,165330,12,6,168724,1:0:0:0:
329,37,170476,6,0,L|193:30,1,103.499996841431,6|8,1:2|0:2,0:0:0:0:
165,103,170804,1,8,0:2:0:0:
165,103,170913,2,0,L|82:114,2,51.7499984207154,8|8|8,0:2|0:2|0:2,0:0:0:0:
237,160,171242,1,8,0:2:0:0:
237,160,171351,2,0,L|330:176,2,51.7499984207154,8|0|0,0:2|1:2|1:2,0:0:0:0:
158,199,171680,1,0,1:0:0:0:
158,199,171789,2,0,L|113:204,3,25.8749992103577,0|0|0|12,1:2|1:2|1:2|0:2,0:0:0:0:
49,301,172227,6,0,B|144:278|124:344|226:319,1,172.5,6|0,1:2|1:2,0:0:0:0:
314,361,172665,1,0,1:2:0:0:
314,361,172775,1,0,1:2:0:0:
314,361,172884,2,0,B|273:287|305:156|394:164|434:227|389:274,1,287.5,10|0,1:2|1:2,0:0:0:0:
293,221,173541,2,0,L|236:212,1,57.5,0|0,1:2|1:2,0:0:0:0:
178,281,173760,2,0,L|121:289,1,57.5,8|0,1:2|1:2,0:0:0:0:
28,346,173979,6,0,L|39:208,1,115,2|10,1:2|1:2,0:0:0:0:
81,158,174308,1,2,1:2:0:0:
81,158,174417,2,0,L|69:99,2,57.5,2|2|10,1:2|1:2|1:2,0:0:0:0:
166,191,174746,1,2,1:2:0:0:
166,191,174855,2,0,L|256:201,1,57.5,2|0,1:2|1:2,0:0:0:0:
262,118,175074,2,0,L|204:111,1,57.5,10|0,1:2|1:2,0:0:0:0:
241,34,175293,1,2,1:2:0:0:
275,39,175403,1,2,1:2:0:0:
308,44,175512,1,10,1:2:0:0:
341,48,175621,1,2,1:2:0:0:
375,53,175731,6,0,P|421:16|424:117,1,172.5,2|2,1:2|1:2,0:0:0:0:
417,160,176169,2,0,B|451:195|451:195|311:181,1,172.5,2|2,1:2|1:2,0:0:0:0:
250,247,176607,1,2,1:2:0:0:
238,279,176716,1,2,1:2:0:0:
244,313,176826,1,10,1:2:0:0:
264,340,176935,1,0,1:2:0:0:
295,354,177045,2,0,L|371:338,1,57.5,2|0,1:2|1:0,0:0:0:0:
422,280,177264,2,0,L|498:296,1,57.5,10|2,1:2|1:2,0:0:0:0:
344,216,177483,6,0,B|275:219|310:278|214:264,1,115,2|12,1:2|1:2,0:0:0:0:
167,232,177811,1,0,1:0:0:0:
167,232,177921,2,0,L|155:351,1,115,2|0,1:2|1:0,0:0:0:0:
66,338,178249,1,0,1:2:0:0:
66,338,178359,2,0,L|-9:368,2,57.5,6|0|8,1:2|1:0|1:2,0:0:0:0:
57,246,178687,2,0,L|-23:255,2,57.5,6|0|0,1:2|1:0|1:2,0:0:0:0:
79,157,179016,2,0,L|22:147,1,57.5,14|0,1:2|1:2,0:0:0:0:
136,79,179235,6,0,B|243:69|194:128|298:116,1,172.5,6|0,1:2|1:0,0:0:0:0:
385,70,179673,2,0,L|392:-1,2,57.5,2|0|10,1:2|1:0|1:2,0:0:0:0:
458,134,180001,1,0,1:0:0:0:
458,134,180111,2,0,L|471:218,1,57.5,2|0,1:2|1:0,0:0:0:0:
395,248,180330,1,10,1:2:0:0:
395,248,180439,1,0,1:0:0:0:
395,248,180548,2,0,L|324:239,1,57.5,2|0,1:2|1:0,0:0:0:0:
418,335,180767,1,10,1:2:0:0:
418,335,180876,1,0,1:0:0:0:
418,335,180986,6,0,B|356:329|356:329|322:348|322:348|246:341,1,172.5,2|0,1:2|1:0,0:0:0:0:
157,353,181424,1,2,1:2:0:0:
162,318,181534,1,0,1:0:0:0:
166,283,181643,2,0,L|237:263,1,57.5,10|0,1:2|1:0,0:0:0:0:
85,235,181862,1,2,1:2:0:0:
80,200,181972,1,0,1:0:0:0:
76,165,182081,2,0,L|5:145,1,57.5,10|0,1:2|1:0,0:0:0:0:
135,83,182300,1,2,1:2:0:0:
165,99,182410,1,0,1:0:0:0:
198,107,182519,1,10,1:2:0:0:
232,105,182629,1,0,1:0:0:0:
262,88,182738,6,0,B|374:62|347:127|476:96,1,201.25,2|0,1:2|0:0,0:0:0:0:
480,86,183176,2,0,P|446:154|452:209,1,115,0|8,1:2|1:2,0:0:0:0:
486,364,183614,1,2,1:2:0:0:
451,358,183724,1,0,1:0:0:0:
417,352,183833,1,10,1:2:0:0:
382,346,183943,1,0,1:0:0:0:
348,340,184052,2,0,L|339:283,2,57.5,2|0|10,1:2|1:0|1:2,0:0:0:0:
260,361,184381,1,0,1:0:0:0:
260,361,184490,6,0,P|207:382|153:365,1,115,2|10,1:2|1:2,0:0:0:0:
106,288,184819,1,0,1:2:0:0:
106,288,184928,2,0,L|94:205,1,57.5,2|0,1:2|1:2,0:0:0:0:
200,209,185147,2,0,L|188:292,1,57.5,10|0,1:2|1:2,0:0:0:0:
294,242,185366,2,0,L|285:164,2,57.5,4|0|8,1:2|1:2|1:2,0:0:0:0:
378,277,185694,1,8,1:2:0:0:
378,277,185804,2,0,L|369:355,2,57.5,8|8|4,1:3|1:3|1:3,0:0:0:0:
454,227,186132,1,4,1:3:0:0:
454,227,186242,6,0,P|448:170|471:117,1,115,6|8,1:2|1:2,0:0:0:0:
349,34,186680,2,0,P|292:39|239:16,1,115,8|8,1:2|1:2,0:0:0:0:
167,64,187008,1,0,1:2:0:0:
167,64,187118,2,0,B|107:47|107:47|19:84,2,115,10|8|8,1:2|1:2|1:2,0:0:0:0:
260,176,187775,2,0,L|246:255,1,57.5,10|2,1:2|1:2,0:0:0:0:
172,262,187994,6,0,P|99:243|33:278,1,115,6|8,1:2|1:2,0:0:0:0:
112,370,188432,1,8,1:2:0:0:
248,318,188651,1,10,1:2:0:0:
248,318,188760,1,2,1:2:0:0:
248,318,188870,2,0,B|293:333|325:303|325:303|383:290|425:332,1,172.5,10|2,1:2|1:2,0:0:0:0:
468,382,189308,2,0,P|454:315|495:248,1,115,8|10,1:2|1:2,0:0:0:0:
506,191,189636,1,0,1:2:0:0:
506,191,189746,6,0,B|432:165|432:165|378:197|378:197|271:201,1,230,6|8,1:2|1:2,0:0:0:0:
158,265,190403,1,10,1:2:0:0:
158,265,190512,1,0,1:2:0:0:
158,265,190621,2,0,L|150:333,1,57.5,10|0,1:2|1:2,0:0:0:0:
81,213,190840,2,0,P|62:152|76:108,1,86.25,8|0,1:2|0:0,0:0:0:0:
92,100,191059,2,0,L|227:111,1,115,8|10,1:2|1:2,0:0:0:0:
353,185,191497,5,6,1:2:0:0:
325,70,191716,1,8,1:2:0:0:
441,34,191935,2,0,L|433:107,1,57.5,8|0,1:2|1:2,0:0:0:0:
490,171,192154,2,0,L|503:254,1,57.5,8|0,1:2|1:2,0:0:0:0:
433,296,192373,2,0,L|383:309,12,28.75,0|0|0|0|0|0|0|0|0|8|0|0|8,1:2|1:2|1:2|1:2|1:2|1:0|1:2|1:2|1:2|1:2|1:2|1:2|1:2,0:0:0:0:
269,380,193249,5,6,1:2:0:0:
276,346,193359,1,0,1:2:0:0:
270,312,193468,1,8,1:2:0:0:
253,281,193578,1,0,1:2:0:0:
225,260,193687,2,0,L|96:301,1,115,8|10,1:2|1:2,0:0:0:0:
52,243,194016,1,2,1:2:0:0:
52,243,194125,2,0,B|64:201|64:201|36:99,1,115,10|8,1:2|1:2,0:0:0:0:
106,53,194454,2,0,B|245:68,1,115,2|0,1:2|1:2,0:0:0:0:
256,145,194782,2,0,L|165:158,1,57.5,10|0,1:2|1:2,0:0:0:0:
159,242,195001,6,0,B|272:237|213:292|345:289,1,172.5,6|0,1:2|1:2,0:0:0:0:
393,238,195439,2,0,L|403:166,1,57.5,8|0,1:2|1:2,0:0:0:0:
448,323,195658,1,10,1:2:0:0:
448,323,195767,1,2,1:2:0:0:
448,323,195877,2,0,P|400:367|349:364,1,115,10|8,1:2|1:2,0:0:0:0:
286,308,196205,2,0,P|235:284|182:304,1,115,2|0,1:2|1:2,0:0:0:0:
126,368,196534,2,0,P|98:376|70:372,1,57.5,10|0,1:2|1:2,0:0:0:0:
23,291,196753,5,6,1:2:0:0:
15,257,196862,1,0,1:2:0:0:
17,222,196972,1,8,1:2:0:0:
25,188,197081,1,0,1:2:0:0:
45,160,197191,2,0,L|115:153,2,57.5,8|0|10,1:2|1:2|1:2,0:0:0:0:
14,81,197519,1,2,1:2:0:0:
14,81,197629,2,0,B|3:40|3:40|74:51,1,115,10|8,1:2|1:2,0:0:0:0:
158,84,197957,2,0,L|282:61,1,115,2|0,1:2|1:2,0:0:0:0:
342,4,198286,2,0,P|355:29|361:57,1,57.5,10|0,1:2|1:2,0:0:0:0:
336,137,198505,5,6,1:2:0:0:
475,265,198724,1,8,1:2:0:0:
444,248,198833,1,8,1:2:0:0:
409,247,198943,1,14,1:2:0:0:
377,259,199052,1,8,1:2:0:0:
352,283,199162,2,0,L|347:357,2,57.5,6|0|8,1:2|1:2|1:3,0:0:0:0:
270,302,199490,1,8,1:3:0:0:
270,302,199600,2,0,L|265:376,2,57.5,8|8|4,1:3|1:3|1:3,0:0:0:0:
196,255,199928,1,4,1:3:0:0:
196,255,200038,2,0,L|102:277,1,57.5,4|4,1:3|1:3,0:0:0:0:
58,307,200257,6,0,L|66:374,2,46,6|0|0,1:2|1:2|1:0,0:0:0:0:
33,279,200585,2,0,L|37:233,1,46,0|8,1:2|0:2,0:0:0:0:
58,118,200913,2,0,L|15:110,4,23,0|0|0|0|2,0:2|1:0|1:2|1:2|1:2,0:0:0:0:
191,139,201351,1,0,1:2:0:0:
299,37,201570,2,0,L|190:48,1,92,8|0,0:2|0:0,0:0:0:0:
396,113,202008,6,0,L|388:46,2,46,6|0|0,1:2|1:2|1:2,0:0:0:0:
421,141,202336,2,0,L|417:187,1,46,0|8,1:2|0:2,0:0:0:0:
457,300,202665,2,0,L|500:304,4,23,0|0|0|0|2,1:0|1:0|1:2|1:2|1:2,0:0:0:0:
343,352,203103,1,0,1:2:0:0:
343,352,203213,1,0,1:2:0:0:
343,352,203322,2,0,L|209:342,1,92,8|8,0:2|0:2,0:0:0:0:
241,321,203651,1,8,0:2:0:0:
241,321,203760,6,0,P|226:258|267:188,1,103.499996841431,6|8,1:2|0:2,0:0:0:0:
320,104,204198,1,0,1:2:0:0:
320,104,204308,1,0,1:2:0:0:
320,104,204417,1,12,0:2:0:0:
174,34,204636,2,0,P|106:34|69:82,1,103.499996841431,0|12,1:2|0:2,0:0:0:0:
72,92,204965,2,0,P|103:145|104:213,1,103.499996841431,0|0,1:2|1:2,0:0:0:0:
84,220,205293,2,0,L|10:239,1,51.7499984207154,12|0,0:2|0:2,0:0:0:0:
81,311,205512,5,2,1:2:0:0:
189,283,205731,1,12,0:2:0:0:
285,331,205950,2,0,L|351:344,2,51.7499984207154,2|0|12,1:2|1:2|0:2,0:0:0:0:
289,231,206388,1,2,1:2:0:0:
289,231,206497,2,0,L|263:148,1,51.7499984207154,0|12,1:2|0:2,0:0:0:0:
373,253,206716,2,0,L|399:110,1,103.499996841431,0|0,1:2|1:2,0:0:0:0:
461,99,207045,2,0,L|447:24,1,51.7499984207154,12|0,0:2|0:2,0:0:0:0:
364,13,207264,6,0,L|353:81,2,46,6|0|0,1:2|1:2|0:0,0:0:0:0:
341,1,207592,2,0,L|282:10,1,46,0|8,1:2|0:2,0:0:0:0:
202,95,207921,2,0,L|206:139,4,23,0|0|0|0|2,0:2|1:0|1:2|1:2|1:2,0:0:0:0:
91,22,208359,1,0,1:2:0:0:
91,22,208468,1,0,1:2:0:0:
91,22,208578,2,0,P|65:85|72:135,1,92,8|0,0:2|0:0,0:0:0:0:
138,201,209016,6,0,L|211:213,2,46,6|0|0,1:2|1:2|1:2,0:0:0:0:
109,217,209344,2,0,L|48:232,1,46,0|8,1:2|0:2,0:0:0:0:
180,301,209673,2,0,L|221:308,4,23,0|0|0|0|2,1:0|1:0|1:2|1:2|1:2,0:0:0:0:
12,384,210111,2,0,L|5:311,2,46,0|0|10,1:2|1:2|0:2,0:0:0:0:
50,231,210548,1,8,0:2:0:0:
50,231,210657,1,8,0:2:0:0:
50,231,210767,5,6,1:2:0:0:
51,121,210986,1,8,0:2:0:0:
132,38,211205,1,8,0:2:0:0:
257,21,211424,1,8,0:2:0:0:
365,93,211643,1,6,1:2:0:0:
412,222,211862,1,8,0:3:0:0:
359,357,212081,2,0,L|289:342,1,46,4|4,0:3|0:3,0:0:0:0:
256,284,212300,6,0,L|256:192,1,92,0|0,1:0|0:2,0:0:0:0:
394,43,226534,6,0,B|420:29|420:29|446:30|446:30|470:47|470:47|475:78|475:78|467:98,2,137.999995788574,2|2|2,0:2|0:2|0:2,0:0:0:0:
192,36,228286,6,0,P|251:51|279:105,1,126.500003860474,6|8,1:2|0:2,0:0:0:0:
195,153,228614,1,2,0:2:0:0:
195,153,228724,2,0,L|121:143,1,63.2500019302369,0|0,0:0|1:2,0:0:0:0:
60,207,228943,2,0,P|92:241|105:286,1,94.8750028953553,10|0,0:2|0:0,0:0:0:0:
93,315,229162,2,0,P|153:297|213:314,1,126.500003860474,2|10,1:2|0:2,0:0:0:0:
285,363,229490,1,0,1:2:0:0:
285,363,229600,2,0,L|293:218,1,126.500003860474,2|10,0:2|0:2,0:0:0:0:
476,171,230038,6,0,P|422:202|361:190,1,126.500003860474,2|8,1:2|0:2,0:0:0:0:
312,127,230366,2,0,P|311:65|352:18,1,126.500003860474,2|0,0:2|1:2,0:0:0:0:
432,6,230694,2,0,P|485:36|505:95,1,126.500003860474,10|0,0:2|1:2,0:0:0:0:
467,171,231023,1,0,1:2:0:0:
467,171,231132,2,0,L|483:254,1,63.2500019302369,10|0,1:2|1:2,0:0:0:0:
430,303,231351,1,2,1:2:0:0:
393,291,231461,1,0,1:2:0:0:
355,290,231570,1,10,1:2:0:0:
318,300,231680,1,0,1:2:0:0:
289,324,231789,6,0,P|218:353|151:315,1,126.500003860474,6|8,1:2|0:2,0:0:0:0:
92,361,232118,1,2,0:2:0:0:
92,361,232227,2,0,L|80:238,1,94.8750028953553,0|0,0:0|0:0,0:0:0:0:
84,236,232446,2,0,P|109:218|140:218,1,63.2500019302369,10|0,0:2|0:2,0:0:0:0:
226,264,232665,2,0,L|244:117,1,126.500003860474,2|10,1:2|0:2,0:0:0:0:
147,58,233103,2,0,L|62:69,2,63.2500019302369,2|0|10,0:2|1:2|0:2,0:0:0:0:
224,10,233432,1,0,0:2:0:0:
224,10,233541,6,0,L|320:24,1,63.2500019302369,2|0,1:2|1:2,0:0:0:0:
347,80,233760,2,0,L|443:66,1,63.2500019302369,0|0,1:2|1:2,0:0:0:0:
424,158,233979,2,0,L|492:172,2,63.2500019302369,2|0|0,1:2|1:2|1:2,0:0:0:0:
328,190,234308,1,0,1:2:0:0:
328,190,234417,2,0,L|310:271,1,63.2500019302369,2|0,1:2|1:2,0:0:0:0:
376,320,234636,2,0,P|320:293|263:316,1,126.500003860474,4|10,1:2|0:2,0:0:0:0:
196,373,234965,1,8,0:2:0:0:
158,375,235074,1,10,0:2:0:0:
124,357,235184,1,8,0:2:0:0:
107,322,235293,6,0,L|123:184,1,126.500003860474,6|8,1:2|0:2,0:0:0:0:
193,147,235621,2,0,B|218:131|218:131|207:241,1,126.500003860474,2|0,0:2|1:2,0:0:0:0:
323,201,235950,2,0,L|318:137,1,63.2500019302369,10|0,0:2|0:2,0:0:0:0:
382,68,236169,2,0,P|325:43|265:59,1,126.500003860474,2|10,1:2|0:2,0:0:0:0:
100,169,236607,2,0,P|159:185|216:160,1,126.500003860474,2|10,0:2|0:2,0:0:0:0:
84,50,237045,6,0,B|44:8|44:8|0:61|17:156,1,189.750005790711,2|0,1:2|0:2,0:0:0:0:
69,205,237483,1,0,1:2:0:0:
69,205,237592,1,0,1:2:0:0:
69,205,237702,2,0,L|81:295,1,63.2500019302369,10|0,0:2|0:2,0:0:0:0:
35,360,237921,1,2,1:2:0:0:
72,353,238030,1,0,1:2:0:0:
109,356,238140,1,10,1:2:0:0:
145,364,238249,1,0,1:2:0:0:
179,380,238359,2,0,L|183:308,2,63.2500019302369,2|0|10,1:2|1:2|1:2,0:0:0:0:
275,373,238687,1,0,1:2:0:0:
275,373,238797,6,0,L|257:222,1,126.500003860474,6|8,1:2|0:2,0:0:0:0:
306,175,239125,1,2,0:2:0:0:
306,175,239235,2,0,P|240:161|184:212,1,126.500003860474,0|10,0:0|0:2,0:0:0:0:
356,266,239673,2,0,L|367:356,2,63.2500019302369,2|0|10,1:2|1:2|0:2,0:0:0:0:
425,203,240001,1,0,1:2:0:0:
425,203,240111,2,0,L|436:113,2,63.2500019302369,2|0|10,0:2|1:2|0:2,0:0:0:0:
402,26,240548,5,2,1:2:0:0:
366,13,240658,1,0,1:2:0:0:
328,13,240767,1,4,1:2:0:0:
291,24,240877,1,0,1:2:0:0:
263,49,240986,2,0,P|210:66|180:60,1,63.2500019302369,2|0,1:2|1:2,0:0:0:0:
132,27,241205,2,0,P|104:13|73:10,1,63.2500019302369,0|0,1:2|1:2,0:0:0:0:
13,68,241424,2,0,L|7:139,2,63.2500019302369,6|0|0,1:2|1:2|1:2,0:0:0:0:
100,121,241753,1,0,1:2:0:0:
100,121,241862,2,0,L|106:192,2,63.2500019302369,6|4|4,0:3|0:3|0:3,0:0:0:0:
188,92,242191,1,4,0:3:0:0:
188,92,242300,1,6,1:2:0:0:
188,92,242738,5,8,0:2:0:0:
285,39,242957,1,8,0:2:0:0:
383,93,243176,1,8,0:2:0:0:
387,201,243395,1,8,0:2:0:0:
295,262,243614,1,8,0:2:0:0:
196,204,243833,1,8,0:2:0:0:
292,146,244052,5,8,0:2:0:0:
292,146,244709,6,0,L|349:156,1,51.7499984207154,2|0,1:2|1:2,0:0:0:0:
212,95,244928,2,0,B|184:87|184:87|162:95|162:95|136:91|136:91|114:102|114:102|86:97|86:97|64:105,2,155.249995262146,6|10|10,1:2|0:2|0:2,0:0:0:0:
423,161,245804,6,0,B|472:173|472:173|489:192|489:192|537:204,2,115,6|8|2,1:2|0:2|1:2,0:0:0:0:
350,210,246351,1,0,1:2:0:0:
350,210,246461,1,10,0:2:0:0:
461,321,246680,2,0,P|405:304|350:322,1,115,2|10,1:2|0:2,0:0:0:0:
272,330,247008,2,0,P|217:348|161:331,1,115,0|0,1:2|1:2,0:0:0:0:
119,261,247337,2,0,P|147:248|187:257,1,57.5,10|0,0:2|0:2,0:0:0:0:
51,319,247556,6,0,P|31:267|49:201,1,115,2|10,1:2|0:2,0:0:0:0:
48,78,247994,1,2,1:2:0:0:
48,78,248103,1,0,1:2:0:0:
48,78,248213,1,10,0:2:0:0:
151,146,248432,2,0,L|287:136,1,115,2|10,1:2|0:2,0:0:0:0:
211,220,248760,2,0,L|330:211,1,115,0|0,1:2|1:2,0:0:0:0:
284,126,249089,2,0,L|226:130,1,57.5,10|0,0:2|0:2,0:0:0:0:
295,38,249308,6,0,P|349:58|380:108,1,115,6|8,1:2|0:2,0:0:0:0:
459,229,249746,2,0,L|469:161,1,57.5,2|0,1:2|1:2,0:0:0:0:
480,93,249965,1,10,0:2:0:0:
371,208,250184,2,0,B|345:261|345:261|363:322,1,115,2|10,1:2|0:2,0:0:0:0:
449,335,250512,2,0,B|476:281|476:281|457:221,1,115,0|0,1:2|1:2,0:0:0:0:
371,208,250841,2,0,L|302:219,1,57.5,10|0,0:2|0:2,0:0:0:0:
242,254,251060,6,0,L|126:238,2,115,2|10|2,1:2|0:2|1:2,0:0:0:0:
284,327,251607,1,0,1:2:0:0:
284,327,251716,2,0,L|357:321,1,57.5,10|0,0:2|0:2,0:0:0:0:
412,370,251935,6,0,B|409:336|387:315|387:315|411:262,1,115,6|10,1:2|0:2,0:0:0:0:
466,204,252264,2,0,B|470:174|491:149|491:149|469:95,1,115,4|0,1:2|1:2,0:0:0:0:
423,33,252592,1,14,0:2:0:0:
353,77,252702,1,0,0:0:0:0:
293,21,252811,6,0,P|231:12|173:75,2,115,6|8|2,1:2|0:2|1:2,0:0:0:0:
353,77,253359,1,0,1:2:0:0:
353,77,253468,1,10,0:2:0:0:
314,209,253687,2,0,L|196:218,1,115,2|10,1:2|0:2,0:0:0:0:
158,149,254016,1,0,1:2:0:0:
42,227,254235,1,0,1:2:0:0:
42,227,254344,1,10,0:2:0:0:
39,351,254563,6,0,P|94:336|149:356,1,115,2|10,1:2|0:2,0:0:0:0:
298,363,255001,2,0,L|289:288,1,57.5,2|0,1:2|1:2,0:0:0:0:
213,287,255220,1,10,0:2:0:0:
375,315,255439,2,0,L|389:200,1,115,2|10,1:2|0:2,0:0:0:0:
461,171,255768,1,0,1:2:0:0:
352,98,255987,1,0,1:2:0:0:
352,98,256096,1,10,0:2:0:0:
480,53,256315,6,0,L|366:61,1,115,6|8,1:2|0:2,0:0:0:0:
199,20,256753,2,0,L|193:77,1,57.5,2|0,1:2|1:2,0:0:0:0:
262,123,256972,1,10,0:2:0:0:
137,205,257191,2,0,P|191:186|245:203,1,115,2|10,1:2|0:2,0:0:0:0:
302,261,257519,2,0,P|356:279|410:262,1,115,0|0,1:2|1:2,0:0:0:0:
473,204,257848,2,0,L|480:146,1,57.5,10|0,0:2|0:2,0:0:0:0:
499,286,258067,6,0,L|499:343,1,57.5,14|8,0:2|0:2,0:0:0:0:
400,318,258286,2,0,L|409:261,1,57.5,10|8,0:2|0:2,0:0:0:0:
302,261,258505,2,0,L|313:386,1,115,10|10,0:3|0:3,0:0:0:0:
90,355,258943,6,0,B|124:337|124:337|140:302|133:261,1,115,6|0,1:2|1:2,0:0:0:0:
116,231,259271,1,0,1:2:0:0:
99,200,259381,1,12,0:2:0:0:
