osu file format v14

[General]
AudioFilename: audio.mp3
AudioLeadIn: 0
PreviewTime: 54210
Countdown: 0
SampleSet: Soft
StackLeniency: 0.7
Mode: 0
LetterboxInBreaks: 0
WidescreenStoryboard: 0

[Editor]
DistanceSpacing: 0.6
BeatDivisor: 4
GridSize: 32
TimelineZoom: 1

[Metadata]
Title:Birth (TV Size)
TitleUnicode:Birth (TV Size)
Artist:Kitamura Eri
ArtistUnicode:喜多村英梨
Creator:Adinda
Version:Insane
Source:神さまのいない日曜日
Tags:Kamisama no Inai Nichiyoubi Opening Anime japanese pop jpop j-pop Sunday Without God kitaeri rock jrock j-rock
BeatmapID:2863554
BeatmapSetID:1386203

[Difficulty]
HPDrainRate:6
CircleSize:4
OverallDifficulty:8
ApproachRate:9
SliderMultiplier:1.9
SliderTickRate:1

[Events]
//Background and Video events
0,0,"a.jpg",0,0
//Break Periods
//Storyboard Layer 0 (Background)
//Storyboard Layer 1 (Fail)
//Storyboard Layer 2 (Pass)
//Storyboard Layer 3 (Foreground)
//Storyboard Layer 4 (Overlay)
//Storyboard Sound Samples

[TimingPoints]
1662,461.538461538462,4,2,1,90,1,0
6738,794.701986754967,4,2,1,90,1,0
9916,341.782967815437,4,2,1,90,1,0
9916,-90.9090909090909,4,2,1,70,0,0
16751,351.802990325418,4,2,1,70,1,0
16751,-90.9090909090909,4,2,1,70,0,0
18158,342.857142857143,4,2,1,70,1,0
20900,-181.818181818181,4,2,1,20,0,0
30329,789.473684210526,4,2,1,25,1,0
31675,368.098159509202,4,2,1,45,1,0
31849,342.857142857143,4,2,1,45,1,0
31849,-117.647058823529,4,2,1,60,0,0
42820,-142.857142857143,4,2,1,55,0,0
48306,-111.111111111111,4,2,1,65,0,0
49591,-111.111111111111,4,2,1,5,0,0
49677,-111.111111111111,4,2,1,65,0,0
53106,-66.6666666666667,4,2,1,70,0,0
53791,-125,4,2,1,65,0,0
55163,-83.3333333333333,4,2,1,75,0,1
57134,-83.3333333333333,4,2,1,5,0,1
57220,-83.3333333333333,4,2,1,75,0,1
57820,-83.3333333333333,4,2,1,5,0,1
57906,-83.3333333333333,4,2,1,75,0,1
58163,-83.3333333333333,4,2,1,5,0,1
58249,-83.3333333333333,4,2,1,75,0,1
64077,-66.6666666666667,4,2,1,75,0,1
65449,-83.3333333333333,4,2,1,75,0,0
66134,-74.0740740740741,4,2,1,75,0,1
68106,-74.0740740740741,4,2,1,5,0,1
68191,-74.0740740740741,4,2,1,75,0,1
68791,-74.0740740740741,4,2,1,5,0,1
68876,-74.0740740740741,4,2,1,75,0,1
69134,-74.0740740740741,4,2,1,5,0,1
69219,-74.0740740740741,4,2,1,75,0,1
77106,-111.111111111111,4,2,1,75,0,1
79163,346.820809248555,4,2,1,75,1,0
79856,342.857142857143,4,2,1,70,1,0
80370,-83.3333333333333,4,2,1,70,0,0
82513,-83.3333333333333,4,2,1,5,0,0
82598,-83.3333333333333,4,2,1,70,0,0
85256,-83.3333333333333,4,2,1,5,0,0

[Colours]
Combo1 : 206,176,238
Combo2 : 255,128,0
Combo3 : 255,184,149

[HitObjects]
0,93,9916,5,14,0:1:0:0:
16,293,10086,1,10,0:1:0:0:
189,244,10257,1,10,0:0:0:0:
244,168,10428,6,0,P|238:98|366:48,1,209.000006378174,2|8,0:0|0:1,0:0:0:0:
313,253,10941,1,10,0:0:0:0:
313,253,11026,1,2,0:0:0:0:
313,253,11112,2,8,B|382:275|382:275|403:335|403:335|474:360,1,209.000006378174,10|10,0:1|0:1,0:1:0:0:
471,359,11539,1,2,0:0:0:0:
471,359,11624,5,10,0:0:0:0:
313,253,11795,1,2,0:0:0:0:
270,382,11966,1,10,0:1:0:0:
112,276,12137,1,10,0:1:0:0:
244,168,12308,5,10,0:0:0:0:
244,168,12479,1,2,0:0:0:0:
199,288,12650,5,14,0:1:0:0:
177,84,12821,1,10,0:1:0:0:
367,18,12992,1,10,0:0:0:0:
435,64,13162,6,0,B|430:184|509:129|490:260,1,209.000006378174,2|0,0:0|0:0,0:0:0:0:
321,164,13675,1,10,0:0:0:0:
321,164,13761,1,2,0:0:0:0:
321,164,13846,2,0,B|257:155|212:175|212:175|153:134|146:89,1,209.000006378174,2|8,0:0|0:1,0:0:0:0:
50,241,14359,2,0,P|51:301|80:345,1,104.500003189087,8|0,0:0|0:0,0:0:0:0:
155,379,14615,1,8,0:3:0:0:
155,379,14700,5,10,0:1:0:0:
149,101,14871,1,10,0:1:0:0:
321,164,15042,2,0,P|320:224|291:268,1,104.500003189087,10|0,0:0|0:0,0:0:0:0:
149,101,15384,5,14,0:1:0:0:
370,59,15555,1,10,0:1:0:0:
201,0,15726,1,10,0:0:0:0:
321,164,15897,2,0,B|359:172|359:172|369:191|369:191|411:215,1,104.500003189087,14|0,0:1|0:0,0:0:0:0:
136,192,16238,1,10,0:1:0:0:
136,192,16324,1,2,0:0:0:0:
136,192,16409,2,0,B|98:200|98:200|88:219|88:219|46:243,1,104.500003189087,10|0,0:0|0:0,0:0:0:0:
33,127,16751,5,14,0:1:0:0:
90,317,16926,1,10,0:1:0:0:
149,101,17102,1,10,0:0:0:0:
321,164,17278,6,0,P|301:222|291:282,1,104.500003189087,14|0,0:1|0:0,0:0:0:0:
506,273,17630,5,10,0:1:0:0:
409,173,17806,1,8,0:0:0:0:
404,366,17982,1,8,0:0:0:0:
9,248,19529,5,10,0:0:0:0:
0,284,19643,1,8,0:1:0:0:
8,321,19757,1,8,0:1:0:0:
30,352,19871,1,8,0:1:0:0:
63,371,19986,1,8,0:1:0:0:
100,375,20100,1,8,0:1:0:0:
136,363,20214,1,10,0:0:0:0:
143,140,20386,1,10,0:0:0:0:
143,140,20900,6,0,P|134:99|112:34,1,104.500003189087,2|0,0:0|0:0,0:0:0:0:
204,70,21415,2,0,P|187:119|175:170,1,104.500003189087,2|0,0:0|0:0,0:0:0:0:
203,295,21929,5,2,0:0:0:0:
203,295,22100,1,2,0:0:0:0:
264,224,22272,6,0,P|313:207|364:195,1,104.500003189087,2|0,0:0|0:0,0:0:0:0:
364,195,22786,1,0,0:0:0:0:
354,296,22958,2,0,P|400:318|445:346,1,104.500003189087,2|0,0:0|0:0,0:0:0:0:
497,147,23472,5,2,0:0:0:0:
497,147,23558,1,2,0:0:0:0:
497,147,23643,2,0,B|493:131|493:131|493:118|493:118|483:85,1,52.2500015945435,2|0,0:0|0:0,0:0:0:0:
440,14,23986,1,2,0:0:0:0:
392,95,24158,2,0,P|380:145|363:195,1,104.500003189087,2|0,0:0|0:0,0:0:0:0:
169,196,24672,5,2,0:0:0:0:
202,110,24843,2,0,P|185:60|173:9,1,104.500003189087,2|0,0:0|0:0,0:0:0:0:
43,79,25358,2,0,L|92:54,1,52.2500015945435,2|0,0:0|0:0,0:0:0:0:
46,162,25700,2,0,L|62:109,1,52.2500015945435,2|0,0:0|0:0,0:0:0:0:
169,196,26043,5,2,0:0:0:0:
202,110,26215,1,2,0:0:0:0:
164,222,26386,6,0,P|118:234|94:298,1,104.500003189087,2|0,0:0|0:0,0:0:0:0:
92,281,26900,1,0,0:0:0:0:
177,352,27072,2,0,P|199:306|248:292,1,104.500003189087,2|0,0:0|0:0,0:0:0:0:
342,377,27586,5,2,0:0:0:0:
413,305,27758,2,0,P|390:259|341:245,1,104.500003189087,2|0,0:0|0:0,0:0:0:0:
341,245,28272,1,0,0:0:0:0:
390,164,28443,6,0,P|417:159|446:148,1,52.2500015945435,2|0,0:0|0:0,0:0:0:0:
355,152,28786,2,0,P|382:147|411:136,1,52.2500015945435,2|0,0:0|0:0,0:0:0:0:
265,73,29129,5,2,0:0:0:0:
214,156,29300,1,2,0:0:0:0:
174,41,29472,1,2,0:0:0:0:
143,209,29643,5,2,0:0:0:0:
143,209,29986,2,0,P|116:204|87:193,1,52.2500015945435,2|0,0:0|0:0,0:0:0:0:
12,240,30329,5,2,0:0:0:0:
256,192,30526,12,0,31513,0:0:0:0:
305,24,31849,5,14,0:1:0:0:
283,112,32020,1,2,0:0:0:0:
392,23,32191,1,10,0:0:0:0:
454,87,32363,6,0,B|514:125|482:196|482:196|457:202|441:215,1,161.500003080368,2|2,0:0|0:0,0:0:0:0:
341,285,32877,2,0,P|343:328|371:364,1,80.750001540184,10|0,0:0|0:0,0:0:0:0:
132,309,33220,6,8,B|109:298|109:298|90:306|90:306|48:288,1,80.750001540184,10|8,0:1|0:1,0:1:0:0:
58,292,33563,1,10,0:0:0:0:
26,120,33734,5,2,0:0:0:0:
68,186,33906,1,10,0:1:0:0:
128,136,34077,1,10,0:1:0:0:
86,70,34249,1,10,0:0:0:0:
214,71,34420,5,2,0:0:0:0:
214,71,34506,1,2,0:0:0:0:
214,71,34591,2,0,P|216:114|244:150,1,80.750001540184,10|0,0:1|0:0,0:0:0:0:
295,15,34934,1,10,0:0:0:0:
359,168,35106,2,0,P|381:134|382:95,1,80.750001540184,2|8,0:0|0:1,0:0:0:0:
433,243,35449,2,0,P|454:209|455:169,1,80.750001540184,2|8,0:0|0:0,0:0:0:0:
236,144,35791,6,0,B|224:178|198:179|198:179|153:146|92:145,1,161.500003080368,2|0,0:0|0:0,0:0:0:0:
37,261,36306,2,0,P|82:245|126:240,1,80.750001540184,8|0,0:0|0:0,0:0:0:0:
245,363,36649,6,8,P|205:356|167:342,1,80.750001540184,10|8,0:1|0:1,0:1:0:0:
339,349,36991,2,0,P|378:355|416:369,1,80.750001540184,10|0,0:0|0:0,0:0:0:0:
435,240,37334,6,0,B|449:229|458:211|458:211|455:129|402:93,1,161.500003080368,14|10,0:1|0:0,0:0:0:0:
512,284,37849,1,0,0:0:0:0:
411,100,38020,2,8,B|394:148|323:138|323:138|306:107|264:85,1,161.500003080368,10|10,0:1|0:0,0:1:0:0:
148,48,38534,5,2,0:0:0:0:
148,48,38706,1,10,0:1:0:0:
199,140,38877,1,10,0:1:0:0:
111,157,39049,1,10,0:0:0:0:
161,247,39220,1,2,0:0:0:0:
93,132,39391,6,8,P|48:116|4:111,1,80.750001540184,10|8,0:1|0:1,0:1:0:0:
285,97,39734,2,0,P|330:113|374:118,1,80.750001540184,8|2,0:0|0:0,0:0:0:0:
375,103,39991,1,2,0:0:0:0:
388,88,40077,5,14,0:1:0:0:
463,23,40249,1,8,0:1:0:0:
486,206,40420,1,10,0:0:0:0:
374,318,40591,5,14,0:1:0:0:
374,318,40934,1,10,0:1:0:0:
247,223,41106,1,8,0:0:0:0:
145,384,41277,6,8,B|162:333|123:278|123:278|165:244,1,161.500003080368,14|8,0:1|0:1,0:1:0:0:
141,226,41706,1,8,0:1:0:0:
141,226,41791,2,0,P|126:185|119:146,1,80.750001540184,12|0,0:0|0:0,0:0:0:0:
278,0,42134,2,0,P|270:39|256:77,1,80.750001540184,8|8,0:1|0:0,0:0:0:0:
309,154,42391,1,8,0:0:0:0:
348,148,42476,1,8,0:0:0:0:
389,148,42562,1,8,0:3:0:0:
427,160,42648,1,8,0:3:0:0:
467,162,42733,1,8,0:3:0:0:
503,159,42820,6,0,L|426:129,1,66.4999979705811,14|0,0:1|0:0,0:0:0:0:
353,275,43163,2,0,L|430:245,1,66.4999979705811,10|0,0:1|0:0,0:0:0:0:
253,220,43506,2,8,B|221:230|202:254|202:254|156:248|128:211,1,132.999995941162,10|10,0:1|0:1,0:1:0:0:
139,223,44020,1,0,0:0:0:0:
51,250,44191,6,8,P|32:307|25:381,1,132.999995941162,10|8,0:1|0:1,0:1:0:0:
71,151,44706,1,10,0:0:0:0:
71,151,44791,1,8,0:0:0:0:
71,151,44877,2,8,P|65:84|44:21,1,132.999995941162,10|8,0:0|0:1,0:0:0:0:
44,21,45391,1,0,0:0:0:0:
231,65,45563,6,0,L|292:40,1,66.4999979705811,14|0,0:1|0:0,0:0:0:0:
382,79,45906,2,0,L|459:49,1,66.4999979705811,10|0,0:1|0:0,0:0:0:0:
330,177,46249,2,8,B|305:191|305:191|287:246|326:289,1,132.999995941162,10|10,0:1|0:1,0:1:0:0:
325,288,46763,1,0,0:0:0:0:
423,323,46934,6,0,P|428:285|445:242,1,66.4999979705811,10|8,0:1|0:0,0:0:0:0:
474,248,47191,1,8,0:0:0:0:
474,248,47277,2,8,P|479:210|496:167,1,66.4999979705811,8|2,0:0|0:3,0:0:0:0:
231,65,47620,5,10,0:0:0:0:
234,84,47705,1,8,0:0:0:0:
231,104,47791,1,8,0:0:0:0:
223,122,47877,1,8,0:0:0:0:
209,136,47962,1,8,0:0:0:0:
191,145,48048,1,8,0:0:0:0:
172,148,48134,1,8,0:0:0:0:
152,146,48219,1,8,0:0:0:0:
134,137,48305,5,14,0:1:0:0:
29,57,48477,1,10,0:1:0:0:
48,266,48649,1,10,0:0:0:0:
112,328,48820,6,8,B|226:301|162:360|294:348,1,170.999994781494,14|10,0:1|0:1,0:1:0:0:
287,320,49249,1,8,0:1:0:0:
287,320,49334,2,0,P|282:253|341:193,1,128.249996086121,10|0,0:0|0:0,0:0:0:0:
355,200,49677,5,14,0:1:0:0:
485,89,49849,1,10,0:1:0:0:
389,31,50020,1,10,0:0:0:0:
455,242,50191,2,8,B|466:284|511:310|511:310|515:360|471:374,1,170.999994781494,14|10,0:1|0:1,0:1:0:0:
287,320,50706,2,0,P|330:311|373:290,1,85.4999973907472,10|0,0:0|0:0,0:0:0:0:
220,221,50963,1,8,0:0:0:0:
192,212,51049,6,0,P|153:229|111:238,1,85.4999973907472,14|0,0:1|0:0,0:0:0:0:
94,218,51306,2,0,P|55:235|13:244,1,85.4999973907472,2|0,0:1|0:0,0:0:0:0:
15,159,51563,2,0,L|-8:94,1,42.7499986953736,2|8,0:0|0:0,0:0:0:0:
109,51,51734,6,0,P|147:68|189:77,1,85.4999973907472,14|0,0:1|0:0,0:0:0:0:
207,57,51991,2,0,P|245:74|287:83,1,85.4999973907472,2|0,0:0|0:0,0:0:0:0:
310,68,52248,5,2,0:0:0:0:
209,263,52420,1,14,0:1:0:0:
109,51,52591,1,8,0:0:0:0:
109,51,52677,1,8,0:0:0:0:
109,51,52763,1,8,0:0:0:0:
14,244,52934,5,8,0:0:0:0:
14,244,53020,1,8,0:0:0:0:
14,244,53106,2,0,B|-8:216|9:175|9:175|25:173|30:196,1,95.0000036239625,14|0,0:0|0:0,0:0:0:0:
60,334,53334,2,0,B|46:367|2:372|2:372|-4:355|10:344,1,95.0000036239625,14|0,0:1|0:0,0:0:0:0:
142,238,53563,2,0,B|177:232|204:268|204:268|185:285|175:275,1,95.0000036239625,14|0,0:1|0:0,0:0:0:0:
97,146,53791,6,0,B|281:160|182:57|394:88,1,304,14|0,0:1|0:0,0:0:0:0:
312,269,54649,5,0,0:0:0:0:
475,206,54820,1,0,0:0:0:0:
325,166,54991,1,0,0:0:0:0:
385,85,55163,6,0,B|418:157|381:238|381:238|430:302,1,227.999993041992,14|8,0:1|0:0,0:0:0:0:
423,293,55677,1,0,0:0:0:0:
265,378,55849,2,8,P|288:324|285:262,1,113.999996520996,10|8,0:1|0:1,0:1:0:0:
96,226,56191,2,0,P|95:282|117:334,1,113.999996520996,8|0,0:0|0:0,0:0:0:0:
26,133,56534,5,10,0:1:0:0:
4,234,56706,1,8,0:1:0:0:
121,124,56877,2,0,B|172:113|206:142|206:142|262:129|254:77,1,170.999994781494,8|0,0:0|0:0,0:0:0:0:
300,108,57220,2,8,B|290:77|290:77|299:48|299:48|274:-26,1,113.999996520996,10|8,0:1|0:1,0:1:0:0:
411,173,57563,2,0,B|442:171|462:151|462:151|516:204|474:253,1,170.999994781494,10|0,0:0|0:0,0:0:0:0:
423,319,57906,6,0,B|363:305|314:338|314:338|261:297,1,170.999994781494,10|0,0:1|0:0,0:0:0:0:
235,282,58249,2,0,L|284:391,1,113.999996520996,10|0,0:0|0:0,0:0:0:0:
152,240,58591,2,8,L|109:351,1,113.999996520996,10|8,0:1|0:1,0:1:0:0:
121,124,58934,2,0,L|12:173,1,113.999996520996,10|0,0:0|0:0,0:0:0:0:
93,18,59277,5,10,0:1:0:0:
152,240,59449,1,8,0:1:0:0:
300,108,59620,1,8,0:0:0:0:
411,173,59791,5,8,0:1:0:0:
411,173,59877,1,8,0:0:0:0:
411,173,59963,2,8,P|415:242|454:275,1,113.999996520996,8|8,0:1|0:1,0:1:0:0:
512,106,60306,2,0,P|508:37|469:4,1,113.999996520996,14|0,0:0|0:0,0:0:0:0:
274,227,60649,5,14,0:1:0:0:
351,17,60820,1,10,0:1:0:0:
411,173,60991,1,10,0:0:0:0:
209,75,61163,2,8,B|166:68|136:94|136:94|46:98|32:7,1,227.999993041992,14|8,0:1|0:1,0:1:0:0:
0,269,61677,2,0,B|10:238|10:238|1:209|1:209|26:135,1,113.999996520996,10|0,0:0|0:0,0:0:0:0:
44,158,61934,1,8,0:0:0:0:
44,158,62020,5,14,0:1:0:0:
114,370,62191,1,10,0:1:0:0:
209,75,62363,1,10,0:0:0:0:
209,75,62449,1,8,0:0:0:0:
209,75,62534,2,8,B|122:117|142:218|142:218|165:236|188:275,1,227.999993041992,14|10,0:1|0:1,0:1:0:0:
319,136,63049,5,10,0:0:0:0:
319,136,63220,1,2,0:0:0:0:
470,313,63391,5,14,0:1:0:0:
424,102,63563,1,8,0:1:0:0:
379,357,63734,1,8,0:0:0:0:
178,261,63906,5,10,0:1:0:0:
87,320,64077,2,0,B|60:321|43:339|43:339|-2:292|41:254,1,142.500005435944,14|0,0:0|0:0,0:0:0:0:
128,198,64334,2,0,B|155:197|172:179|172:179|217:226|174:264,1,142.500005435944,14|0,0:0|0:0,0:0:0:0:
43,170,64591,1,10,0:1:0:0:
194,36,64763,6,0,B|381:-10|266:78|494:46,1,285.000010871888,14|8,0:1|0:0,0:0:0:0:
354,330,65277,1,2,0:0:0:0:
344,147,65449,5,10,0:0:0:0:
313,192,65534,1,8,0:0:0:0:
335,241,65620,1,10,0:0:0:0:
389,248,65706,1,8,0:0:0:0:
444,267,65791,1,10,0:3:0:0:
474,312,65876,1,8,0:3:0:0:
452,361,65962,1,6,0:3:0:0:
240,363,66134,6,0,B|156:380|129:307|129:307|65:271|0:333,1,256.50000097847,14|8,0:1|0:0,0:0:0:0:
18,317,66649,1,0,0:0:0:0:
55,28,66820,2,8,P|37:97|30:178,1,128.250000489235,10|8,0:1|0:1,0:1:0:0:
208,129,67163,2,0,P|215:65|232:3,1,128.250000489235,8|0,0:0|0:0,0:0:0:0:
428,128,67506,5,10,0:1:0:0:
352,47,67677,1,8,0:1:0:0:
292,210,67849,2,0,B|308:244|290:269|290:269|315:351|405:326,1,192.375000733852,8|0,0:0|0:0,0:0:0:0:
390,366,68191,2,8,B|348:358|348:358|326:373|326:373|260:358,1,128.250000489235,10|8,0:1|0:1,0:1:0:0:
102,379,68534,2,0,B|113:272|187:317|184:201,1,192.375000733852,10|0,0:0|0:0,0:0:0:0:
107,174,68877,6,0,B|81:114|125:57|125:57|80:-14,1,192.375000733852,10|0,0:1|0:0,0:0:0:0:
43,4,69220,2,0,P|26:65|18:129,1,128.250000489235,10|0,0:0|0:0,0:0:0:0:
310,162,69563,2,8,P|302:98|285:36,1,128.250000489235,10|8,0:1|0:1,0:1:0:0:
24,250,69906,2,0,P|7:311|0:375,1,128.250000489235,10|0,0:0|0:0,0:0:0:0:
227,363,70249,5,10,0:1:0:0:
239,360,70334,1,8,0:1:0:0:
252,358,70420,1,8,0:1:0:0:
264,356,70506,1,8,0:1:0:0:
279,353,70591,2,8,B|321:348|321:348|343:358|343:358|426:344,1,128.250000489235,8|0,0:0|0:1,0:1:0:0:
486,177,70934,5,8,0:1:0:0:
473,174,71019,1,8,0:1:0:0:
460,172,71105,1,8,0:1:0:0:
448,170,71191,1,8,0:1:0:0:
434,167,71277,2,8,B|392:162|392:162|370:172|370:172|287:158,1,128.250000489235,10|0,0:0|0:1,0:1:0:0:
115,31,71620,5,14,0:1:0:0:
309,161,71791,1,10,0:1:0:0:
274,13,71963,1,10,0:0:0:0:
152,190,72134,2,8,P|72:206|6:374,1,256.50000097847,14|8,0:1|0:1,0:1:0:0:
239,382,72649,2,0,P|231:301|241:249,1,128.250000489235,10|0,0:0|0:0,0:0:0:0:
274,13,72991,5,14,0:1:0:0:
425,262,73163,1,10,0:1:0:0:
460,20,73334,1,10,0:0:0:0:
439,288,73506,6,8,B|422:225|485:164|485:164|474:92|397:97,1,256.50000097847,14|10,0:1|0:1,0:1:0:0:
72,60,74020,2,0,P|71:130|108:187,1,128.250000489235,10|0,0:0|0:0,0:0:0:0:
126,186,74277,1,8,0:0:0:0:
152,190,74363,2,0,P|182:134|179:71,1,128.250000489235,10|0,0:1|0:0,0:0:0:0:
38,247,74706,6,0,L|83:388,1,128.250000489235,10|0,0:0|0:0,0:0:0:0:
239,255,75049,2,8,L|277:132,1,128.250000489235,10|8,0:1|0:1,0:1:0:0:
465,261,75391,2,0,L|510:402,1,128.250000489235,10|0,0:0|0:0,0:0:0:0:
429,109,75734,5,10,0:1:0:0:
330,323,75906,1,8,0:1:0:0:
276,132,76077,5,10,0:0:0:0:
169,159,76249,1,10,0:0:0:0:
103,20,76420,1,8,0:1:0:0:
58,97,76591,5,8,0:0:0:0:
34,118,76676,1,8,0:0:0:0:
16,144,76762,1,8,0:0:0:0:
5,175,76848,1,8,0:3:0:0:
3,206,76933,1,8,0:3:0:0:
9,238,77019,1,8,0:3:0:0:
24,269,77106,2,0,B|145:243|78:306|219:282,1,170.999994781494,14|2,0:1|0:0,0:0:0:0:
248,362,77620,5,8,0:1:0:0:
420,216,77791,1,10,0:0:0:0:
512,341,77963,2,8,B|489:385|418:355|418:355|409:321|382:300,1,170.999994781494,8|8,0:1|0:1,0:1:0:0:
326,0,78477,5,12,0:0:0:0:
479,82,78706,5,4,0:3:0:0:
326,176,78934,5,4,0:3:0:0:
383,300,79163,5,14,0:1:0:0:
27,145,79856,5,14,0:1:0:0:
95,70,80027,1,8,0:1:0:0:
147,175,80198,1,8,0:0:0:0:
52,313,80370,6,8,B|113:303|174:344|174:344|230:324|255:277,1,227.999993041992,14|8,0:1|0:1,0:1:0:0:
286,279,80798,1,8,0:1:0:0:
286,279,80884,2,0,P|289:339|345:379,1,113.999996520996,10|0,0:0|0:0,0:0:0:0:
490,200,81227,5,10,0:1:0:0:
490,200,81398,2,8,B|453:191|453:191|432:202|432:202|373:186,1,113.999996520996,10|8,0:1|0:0,0:1:0:0:
219,49,81741,2,8,B|302:35|302:35|344:63|344:63|459:38,1,227.999993041992,14|8,0:1|0:1,0:1:0:0:
132,164,82256,2,0,B|152:89|73:42|73:42|18:51,1,170.999994781494,14|0,0:0|0:0,0:0:0:0:
37,77,82598,5,10,0:1:0:0:
228,210,82770,1,10,0:1:0:0:
219,49,82941,1,10,0:0:0:0:
52,254,83113,2,8,B|95:295|96:356|96:356|159:392|196:334,1,227.999993041992,14|10,0:1|0:1,0:1:0:0:
429,178,83627,5,8,0:0:0:0:
415,215,83712,1,8,0:0:0:0:
410,254,83798,1,8,0:0:0:0:
413,294,83884,1,8,0:0:0:0:
425,332,83970,1,14,0:1:0:0:
284,138,84141,1,10,0:1:0:0:
512,212,84313,1,8,0:0:0:0:
284,286,84484,1,10,0:1:0:0:
425,92,84656,1,8,0:0:0:0:
425,332,84827,1,10,0:3:0:0:
425,332,84913,1,8,0:3:0:0:
425,332,84998,1,8,0:3:0:0:
391,210,85170,5,14,0:1:0:0:
256,192,85256,12,0,88084,0:0:0:0:
