osu file format v14

[General]
AudioFilename: Birth.mp3
AudioLeadIn: 0
PreviewTime: 53908
Countdown: 0
SampleSet: None
StackLeniency: 0.7
Mode: 2
LetterboxInBreaks: 0
WidescreenStoryboard: 0

[Editor]
Bookmarks: 4656
DistanceSpacing: 0.6
BeatDivisor: 4
GridSize: 16
TimelineZoom: 1.9

[Metadata]
Title:Birth
TitleUnicode:Birth
Artist:Kitamura Eri
ArtistUnicode:喜多村英梨
Creator:Kyuare
Version:Rain
Source:Kamisama no Inai Nichiyoubi
Tags:anime opening madhouse Kaminai Kaminichi Starchild Records Takuneru
BeatmapID:1562603
BeatmapSetID:740701

[Difficulty]
HPDrainRate:6
CircleSize:4
OverallDifficulty:9
ApproachRate:9
SliderMultiplier:1.6
SliderTickRate:1

[Events]
//Background and Video events
0,0,"Birth.jpg",0,0
//Break Periods
//Storyboard Layer 0 (Background)
//Storyboard Layer 1 (Fail)
//Storyboard Layer 2 (Pass)
//Storyboard Layer 3 (Foreground)
//Storyboard Sound Samples

[TimingPoints]
1426,461.538461538462,4,2,0,50,1,0
6502,794.701986754967,4,2,0,50,1,0
9680,341.782967815437,4,2,0,70,1,0
16515,351.802990325418,4,2,0,70,1,0
17922,342.857142857143,4,2,0,70,1,0
30093,769.230769230769,4,2,0,70,1,0
31439,368.098159509202,4,2,0,70,1,0
31623,342.857142857143,4,2,0,70,1,0
54937,-100,4,2,0,80,0,1
76880,-100,4,2,0,70,0,0
78937,346.820809248555,4,2,0,70,1,0
79630,342.857142857143,4,2,0,70,1,0

[Colours]
Combo1 : 236,83,17
Combo2 : 227,172,121
Combo3 : 14,29,97
Combo4 : 252,214,143
Combo5 : 164,190,210
Combo6 : 232,116,47

[HitObjects]
416,192,1426,6,0,L|176:192,1,240,2|0,0:0|0:0,0:0:0:0:
320,80,2349,2,0,P|464:80|496:160,1,240,2|0,0:0|0:0,0:0:0:0:
336,192,3272,2,0,L|176:192,1,160,2|0,0:0|0:0,0:0:0:0:
336,112,4195,1,2,0:0:0:0:
176,112,4656,1,2,0:0:0:0:
336,112,5118,2,0,L|176:112,1,160,2|2,0:0|0:0,0:0:0:0:
352,160,6041,1,0,0:0:0:0:
160,160,6502,1,2,0:0:0:0:
256,192,6899,12,2,9018,0:0:0:0:
256,32,9680,5,0,1:0:0:0:
256,96,9850,1,0,0:0:0:0:
368,144,10021,2,0,L|288:144,1,80,8|0,0:0|0:0,0:0:0:0:
416,160,10363,5,2,0:0:0:0:
416,224,10533,1,0,0:0:0:0:
176,224,10705,2,0,L|256:224,1,80,8|0,0:0|0:0,0:0:0:0:
160,160,11047,2,0,L|80:160,1,80,0|0,1:0|0:0,0:0:0:0:
224,160,11388,2,0,P|256:128|256:96,1,80,8|0,0:0|0:0,0:0:0:0:
112,96,11730,1,2,0:0:0:0:
112,32,11901,1,0,1:0:0:0:
288,32,12072,2,0,L|368:32,1,80,8|0,0:0|0:0,0:0:0:0:
256,32,12414,5,0,1:0:0:0:
288,96,12584,1,0,0:0:0:0:
176,144,12755,2,0,L|256:144,1,80,8|0,0:0|0:0,0:0:0:0:
96,160,13097,5,2,0:0:0:0:
96,224,13267,1,0,0:0:0:0:
336,224,13439,2,0,L|256:224,1,80,8|0,0:0|0:0,0:0:0:0:
352,160,13781,2,0,L|432:160,1,80,0|0,1:0|1:0,1:0:0:0:
288,160,14123,2,0,P|256:128|256:96,1,80,8|0,0:0|0:0,0:0:0:0:
304,64,14379,1,0,0:0:0:0:
368,48,14464,2,0,L|448:48,1,80,0|0,1:0|1:0,1:0:0:0:
208,160,14806,2,0,P|128:160|96:128,1,120,0|0,1:0|0:0,1:0:0:0:
256,96,15148,6,0,L|336:96,2,80,4|0|8,0:0|0:0|0:0,0:0:0:0:
416,144,15661,2,0,B|480:192|480:192|416:240,1,160,2|0,0:0|0:0,0:0:0:0:
288,192,16173,2,0,L|368:192,1,80,8|0,0:0|0:0,0:0:0:0:
256,96,16515,6,0,L|176:96,2,80,2|0|8,0:0|0:0|0:0,0:0:0:0:
96,144,17042,2,0,B|32:192|32:192|96:240,1,160,2|8,0:0|0:0,0:0:0:0:
176,192,17570,1,8,0:0:0:0:
32,144,17746,1,8,0:0:0:0:
144,128,17922,6,0,L|160:48,1,80,2|0,0:0|0:0,0:0:0:0:
256,128,18264,2,0,L|272:48,1,80
96,192,18607,6,0,L|112:112,1,80,2|2,0:0|0:0,0:0:0:0:
272,192,18950,2,0,L|288:112,1,80,0|2,0:0|0:0,0:0:0:0:
48,304,19293,5,0,0:0:0:0:
64,240,19379,1,0,0:0:0:0:
112,208,19464,1,0,0:0:0:0:
176,192,19550,1,0,0:0:0:0:
256,192,19636,1,0,0:0:0:0:
240,144,19722,1,0,0:0:0:0:
208,112,19807,1,0,0:0:0:0:
160,96,19893,1,0,0:0:0:0:
0,160,19979,5,4,0:0:0:0:
128,176,20150,1,4,0:0:0:0:
256,192,20493,1,0,0:0:0:0:
128,176,20664,5,2,0:0:0:0:
112,224,20836,1,0,0:0:0:0:
176,256,21007,1,0,0:0:0:0:
288,256,21179,2,0,P|304:176|240:144,1,160,2|0,0:0|0:0,0:0:0:0:
208,112,21693,1,0,0:0:0:0:
256,80,21864,1,0,0:0:0:0:
384,80,22036,2,0,P|400:160|336:176,1,160,2|0,0:0|0:0,0:0:0:0:
288,128,22550,1,0,0:0:0:0:
416,128,22722,1,2,0:0:0:0:
256,128,23236,2,0,L|224:160,1,40
304,160,23407,5,2,0:0:0:0:
320,208,23579,1,0,0:0:0:0:
256,224,23750,1,0,0:0:0:0:
144,192,23922,2,0,P|192:128|256:160,1,160,2|0,0:0|0:0,0:0:0:0:
176,224,24436,1,0,0:0:0:0:
80,240,24607,2,0,P|16:192|48:112,1,160,2|2,0:0|0:0,0:0:0:0:
192,96,25122,1,2,0:0:0:0:
288,112,25293,1,2,0:0:0:0:
208,176,25464,1,2,0:0:0:0:
144,144,25636,1,2,0:0:0:0:
240,112,25807,1,2,0:0:0:0:
288,160,25979,1,2,0:0:0:0:
128,192,26150,6,0,B|64:144|64:144|128:96,1,160
336,96,26836,2,0,P|256:96|208:160,1,160,2|0,0:0|0:0,0:0:0:0:
256,208,27350,1,0,0:0:0:0:
384,192,27522,6,0,B|448:240|448:240|384:288,1,160,2|0,0:0|0:0,0:0:0:0:
176,288,28208,2,0,P|256:288|304:224,1,160,2|0,0:0|0:0,0:0:0:0:
256,176,28722,1,0,0:0:0:0:
144,112,28893,2,0,L|224:112,2,80,2|0|2,0:0|0:0|0:0,0:0:0:0:
256,176,29407,2,0,P|208:240|144:208,1,160,2|0,0:0|0:0,0:0:0:0:
208,240,29922,1,0,0:0:0:0:
304,208,30093,2,0,P|240:256|80:176,1,280,2|0,0:0|0:0,0:0:0:0:
256,192,31623,6,0,L|176:192,1,80,0|0,1:0|0:0,0:0:0:0:
272,144,31965,1,8,0:0:0:0:
160,144,32137,1,0,0:0:0:0:
224,112,32308,1,0,1:0:0:0:
176,80,32480,1,0,0:0:0:0:
32,64,32651,2,0,L|112:64,1,80,8|0,0:0|0:0,0:0:0:0:
224,112,32994,6,0,L|144:112,1,80,0|0,1:0|0:0,0:0:0:0:
256,160,33337,1,8,0:0:0:0:
256,208,33508,1,0,0:0:0:0:
160,192,33680,6,0,L|240:192,1,80,2|0,0:0|1:0,0:0:0:0:
128,240,34023,1,8,0:0:0:0:
128,288,34194,1,0,0:0:0:0:
176,304,34280,1,0,0:0:0:0:
256,304,34365,6,0,L|176:304,2,80,0|2|8,1:0|0:0|0:0,0:0:0:0:
128,256,34880,2,0,P|160:224|192:224,1,80,0|0,0:0|1:0,0:0:0:0:
288,224,35223,2,0,P|256:192|224:192,1,80,0|8,0:0|0:0,0:0:0:0:
352,192,35565,2,0,L|432:192,2,80,0|0|0,0:0|1:0|0:0,0:0:0:0:
256,160,36080,5,8,0:0:0:0:
256,112,36251,1,0,0:0:0:0:
352,80,36423,1,2,0:0:0:0:
256,80,36594,1,0,0:0:0:0:
160,80,36765,2,0,P|224:128|304:128,1,160,0|2,1:0|0:0,0:0:0:0:
96,128,37451,1,0,1:0:0:0:
352,192,37794,1,0,1:0:0:0:
160,192,38137,6,0,L|208:256,1,80
480,192,38480,2,2,L|400:192,2,80
352,192,38994,1,0,0:0:0:0:
512,256,39165,1,0,1:0:0:0:
512,320,39337,1,0,0:0:0:0:
352,352,39508,2,0,P|320:352|288:320,1,80,8|0,0:0|0:0,0:0:0:0:
320,272,39765,1,0,0:0:0:0:
384,240,39851,1,4,0:0:0:0:
384,192,40023,1,0,0:0:0:0:
288,192,40194,1,0,0:0:0:0:
480,192,40365,5,4,0:0:0:0:
256,192,40708,1,4,0:0:0:0:
256,144,40880,1,0,0:0:0:0:
320,144,40965,1,0,0:0:0:0:
384,144,41051,2,0,P|384:224|320:256,1,160,2|0,0:0|0:0,0:0:0:0:
256,256,41480,1,0,0:0:0:0:
191,256,41565,2,0,P|191:176|255:144,1,160,8|0,0:0|0:0,0:0:0:0:
128,144,42080,1,0,0:0:0:0:
64,144,42165,1,0,0:0:0:0:
16,144,42251,1,0,0:0:0:0:
0,144,42337,1,0,0:0:0:0:
0,192,42423,1,0,0:0:0:0:
16,192,42508,1,0,0:0:0:0:
128,192,42594,6,0,L|144:272,1,80,4|0,0:0|0:0,0:0:0:0:
256,192,42937,2,0,L|320:240,1,80,2|0,0:0|0:0,0:0:0:0:
160,272,43280,6,0,L|176:352,1,80,8|0,0:0|0:0,0:0:0:0:
288,272,43623,2,0,L|352:320,1,80,2|0,0:0|0:0,0:0:0:0:
192,320,43965,6,0,P|144:256|192:208,1,160,2|0,0:0|0:0,0:0:0:0:
320,208,44480,2,0,L|256:208,1,40
240,208,44651,2,0,L|320:208,1,80,2|0,0:0|0:0,0:0:0:0:
224,160,44994,2,0,L|144:160,1,80,8|0,0:0|0:0,0:0:0:0:
384,192,45337,2,0,P|400:224|368:240,1,80,2|0,0:0|0:0,0:0:0:0:
256,192,45680,2,0,L|192:240,1,80,8|0,0:0|0:0,0:0:0:0:
352,272,46023,2,0,L|336:352,1,80,2|0,0:0|0:0,0:0:0:0:
224,272,46366,2,0,L|160:320,1,80,8|0,0:0|0:0,0:0:0:0:
352,320,46708,5,0,0:0:0:0:
368,288,46794,1,0,0:0:0:0:
352,256,46880,1,0,0:0:0:0:
320,240,46965,1,0,0:0:0:0:
256,224,47051,1,0,0:0:0:0:
304,208,47137,1,0,0:0:0:0:
336,176,47223,1,0,0:0:0:0:
352,144,47308,1,0,0:0:0:0:
160,112,47394,5,0,0:0:0:0:
96,128,47480,1,0,0:0:0:0:
64,192,47565,1,0,0:0:0:0:
96,256,47651,1,0,0:0:0:0:
160,272,47737,5,0,0:0:0:0:
224,240,47823,1,0,0:0:0:0:
224,176,47908,1,0,0:0:0:0:
160,160,47994,1,0,0:0:0:0:
16,192,48080,6,0,L|96:192,2,80,2|0|8,0:0|0:0|0:0,0:0:0:0:
160,160,48594,2,0,P|160:80|96:80,1,160,2|0,0:0|0:0,0:0:0:0:
224,128,49108,2,0,L|144:128,1,80,8|0,0:0|0:0,0:0:0:0:
384,192,49451,6,0,L|304:192,2,80,2|0|8,0:0|0:0|0:0,0:0:0:0:
256,160,49965,2,0,P|256:80|320:80,1,160,2|0,0:0|0:0,0:0:0:0:
256,80,50479,2,0,L|336:80,1,80,8|0,0:0|0:0,0:0:0:0:
320,128,50737,1,0,0:0:0:0:
304,176,50823,2,0,L|176:176,2,120,4|0|0,0:0|0:0|0:0,0:0:0:0:
176,80,51508,2,0,P|160:160|224:176,1,160,4|0,0:0|0:0,0:0:0:0:
128,144,52023,1,0,0:0:0:0:
384,144,52194,1,0,0:0:0:0:
400,192,52280,1,0,0:0:0:0:
368,240,52365,1,0,0:0:0:0:
320,256,52451,1,0,0:0:0:0:
256,240,52537,5,0,0:0:0:0:
240,208,52623,1,0,0:0:0:0:
272,176,52708,1,0,0:0:0:0:
320,192,52794,1,0,0:0:0:0:
464,192,52880,5,4,0:0:0:0:
256,192,53165,2,4,L|176:192,1,80
464,192,53565,2,0,P|512:256|400:304,1,240,4|0,0:0|0:0,0:0:0:0:
416,272,54251,1,0,0:0:0:0:
368,224,54423,1,0,0:0:0:0:
288,208,54594,1,0,0:0:0:0:
400,160,54765,1,0,0:0:0:0:
128,144,54937,2,0,P|112:224|176:240,1,160,2|8,0:0|0:0,0:0:0:0:
64,192,55451,1,0,0:0:0:0:
304,192,55623,6,0,L|384:192,1,80,2|0,0:0|0:0,0:0:0:0:
224,224,55965,1,8,0:0:0:0:
224,272,56137,1,0,0:0:0:0:
384,240,56308,6,0,L|304:240,1,80,2|0,0:0|0:0,0:0:0:0:
400,288,56651,2,0,L|480:288,1,80,8|0,0:0|0:0,0:0:0:0:
224,320,56994,2,0,L|144:320,1,80
320,352,57337,2,0,L|240:352,1,80,8|0,0:0|0:0,0:0:0:0:
480,336,57680,2,0,P|480:256|416:224,1,160,2|8,0:0|0:0,0:0:0:0:
512,192,58194,1,0,0:0:0:0:
256,240,58365,2,0,P|224:240|192:208,1,80,2|0,0:0|0:0,0:0:0:0:
320,192,58708,1,8,0:0:0:0:
320,144,58880,1,0,0:0:0:0:
272,128,58965,1,0,0:0:0:0:
192,128,59051,5,2,0:0:0:0:
256,160,59223,1,2,0:0:0:0:
160,192,59394,1,2,0:0:0:0:
288,224,59565,1,2,0:0:0:0:
128,256,59737,5,0,1:0:0:0:
96,320,59908,1,0,1:0:0:0:
384,224,60080,1,0,0:0:0:0:
432,240,60165,1,0,0:0:0:0:
432,288,60251,1,0,0:0:0:0:
384,304,60337,1,0,0:0:0:0:
64,384,60423,6,0,L|144:384,2,80,4|0|8,0:0|0:0|0:0,0:0:0:0:
352,256,60937,2,0,P|352:176|288:144,1,160,4|0,0:0|0:0,0:0:0:0:
144,144,61451,1,2,0:0:0:0:
112,96,61623,1,0,0:0:0:0:
448,384,61794,6,0,L|368:384,2,80,4|0|8,0:0|0:0|0:0,0:0:0:0:
128,256,62308,2,0,P|128:176|192:144,1,160,4|0,0:0|0:0,0:0:0:0:
320,144,62823,1,2,0:0:0:0:
192,192,62994,1,0,0:0:0:0:
448,192,63165,2,0,P|480:192|512:224,1,80,4|0,0:0|0:0,0:0:0:0:
384,272,63508,2,0,L|464:272,1,80,8|0,0:0|0:0,0:0:0:0:
224,208,63851,6,0,L|144:208,1,80,4|0,0:0|0:0,0:0:0:0:
208,272,64108,2,0,L|288:272,1,80,4|0,0:0|0:0,0:0:0:0:
224,336,64365,2,0,L|176:336,1,40,2|0,0:0|0:0,0:0:0:0:
256,288,64537,6,0,L|336:288,1,80,4|0,0:0|0:0,0:0:0:0:
224,240,64880,1,0,0:0:0:0:
224,208,65051,1,0,0:0:0:0:
256,192,65137,1,0,0:0:0:0:
320,192,65223,6,0,L|336:144,1,40,2|0,0:0|0:0,0:0:0:0:
256,160,65394,2,0,L|208:160,1,40,2|0,0:0|0:0,0:0:0:0:
288,112,65565,6,0,L|304:64,1,40,2|0,0:0|0:0,0:0:0:0:
224,80,65737,2,0,L|176:80,1,40,2|0,0:0|0:0,0:0:0:0:
384,64,65908,6,0,L|464:64,1,80,4|0,0:0|0:0,0:0:0:0:
320,112,66251,2,0,L|240:112,1,80,8|0,0:0|0:0,0:0:0:0:
480,192,66594,6,0,L|400:192,1,80,2|0,0:0|0:0,0:0:0:0:
512,240,66937,1,8,0:0:0:0:
512,288,67108,1,0,0:0:0:0:
368,288,67280,6,0,L|448:288,1,80,2|0,0:0|0:0,0:0:0:0:
288,224,67623,2,0,L|368:224,1,80,2|0,0:0|0:0,0:0:0:0:
112,256,67965,6,0,L|192:256,1,80,2|0,0:0|0:0,0:0:0:0:
32,192,68308,2,0,L|112:192,1,80,2|0,0:0|0:0,0:0:0:0:
368,160,68651,2,0,B|400:160|400:160|272:160,1,160,4|0,0:0|0:0,0:0:0:0:
400,160,69165,1,8,0:0:0:0:
144,160,69337,2,0,B|112:160|112:160|240:160,1,160,4|0,0:0|0:0,0:0:0:0:
112,160,69851,1,8,0:0:0:0:
400,160,70023,5,2,0:0:0:0:
400,192,70194,1,2,0:0:0:0:
112,192,70365,1,2,0:0:0:0:
112,160,70537,1,2,0:0:0:0:
368,128,70708,1,2,0:0:0:0:
400,112,70794,1,0,0:0:0:0:
384,64,70880,1,0,0:0:0:0:
336,64,70965,1,0,0:0:0:0:
192,64,71051,2,0,P|160:96|176:112,1,80
480,128,71394,5,4,0:0:0:0:
384,160,71565,1,0,0:0:0:0:
480,192,71737,1,8,0:0:0:0:
224,128,71908,2,0,P|288:176|368:176,1,160,4|0,0:0|0:0,0:0:0:0:
240,192,72423,2,0,L|320:192,1,80
32,128,72765,5,4,0:0:0:0:
128,160,72937,1,0,0:0:0:0:
32,192,73108,1,8,0:0:0:0:
288,128,73280,2,0,P|224:176|144:176,1,160,4|0,0:0|0:0,0:0:0:0:
272,192,73794,2,0,L|192:192,1,80
432,192,74137,5,4,0:0:0:0:
256,192,74480,2,0,P|320:144|400:144,1,160,2|0,0:0|0:0,0:0:0:0:
336,112,74994,1,0,0:0:0:0:
96,144,75165,2,0,P|64:144|32:112,1,80,8|0,0:0|0:0,0:0:0:0:
272,80,75508,2,0,P|208:32|128:32,1,160,2|8,0:0|0:0,0:0:0:0:
256,48,76023,1,0,0:0:0:0:
16,96,76194,2,0,P|0:128|0:176,1,80,2|0,0:0|0:0,0:0:0:0:
32,192,76451,1,0,0:0:0:0:
128,208,76537,5,0,0:0:0:0:
192,208,76623,1,0,0:0:0:0:
240,208,76708,1,0,0:0:0:0:
256,208,76794,1,0,0:0:0:0:
96,160,76880,6,0,P|80:128|112:112,1,80,4|0,0:0|0:0,0:0:0:0:
208,128,77223,2,0,P|224:96|192:80,1,80,2|0,0:0|0:0,0:0:0:0:
79,207,77565,2,0,P|63:175|95:159,1,80,2|0,0:0|0:0,0:0:0:0:
256,192,77908,2,0,P|272:160|240:144,1,80,8|0,0:0|0:0,0:0:0:0:
0,160,78251,5,4,0:0:0:0:
224,96,78480,1,4,0:0:0:0:
112,128,78708,1,4,0:0:0:0:
400,128,78937,1,4,0:0:0:0:
256,160,79283,1,0,0:0:0:0:
112,128,79630,5,4,3:0:0:0:
224,192,79801,2,0,L|120:192,1,80,0|2,3:3|0:0,0:0:0:0:
320,224,80144,1,0,0:0:0:0:
224,296,80315,2,0,L|328:296,1,80,2|0,0:0|3:3,0:0:0:0:
144,244,80658,1,2,3:3:0:0:
384,144,80830,2,0,L|288:144,1,80,0|4,0:0|3:3,0:0:0:0:
428,84,81172,5,0,3:3:0:0:
168,184,81344,2,0,L|276:184,1,80,0|0,0:0|3:3,0:0:0:0:
104,128,81687,2,0,L|208:128,1,80,2|0,0:0|3:3,0:0:0:0:
56,64,82030,1,0,1:0:0:0:
288,64,82201,2,0,L|188:64,1,80,2|0,0:0|1:1,0:0:0:0:
352,112,82544,6,0,L|256:148,1,80,2|0,0:0|1:1,0:0:0:0:
424,128,82887,2,0,L|356:192,1,80,0|0,3:3|0:0,0:0:0:0:
472,208,83230,1,2,3:3:0:0:
184,208,83401,1,0,1:0:0:0:
328,184,83572,2,0,L|256:144,2,80,2|0|0,0:0|1:1|0:0,0:0:0:0:
96,160,84087,1,0,1:0:0:0:
216,152,84258,1,0,0:0:0:0:
328,144,84430,1,0,1:0:0:0:
80,304,84601,2,0,L|144:256,1,80,0|4,1:1|3:3,0:0:0:0:
408,224,84944,1,4,0:0:0:0:
256,192,85115,12,0,87515,0:0:0:0:
