osu file format v14

[General]
AudioFilename: Birth.mp3
AudioLeadIn: 0
PreviewTime: 53908
Countdown: 0
SampleSet: None
StackLeniency: 0.7
Mode: 2
LetterboxInBreaks: 0
WidescreenStoryboard: 0

[Editor]
DistanceSpacing: 0.6
BeatDivisor: 4
GridSize: 8
TimelineZoom: 1.9

[Metadata]
Title:Birth
TitleUnicode:Birth
Artist:Kitamura Eri
ArtistUnicode:喜多村英梨
Creator:Kyuare
Version:Overdose
Source:Kamisama no Inai Nichiyoubi
Tags:anime opening madhouse Kaminai Kaminichi Starchild Records Takuneru
BeatmapID:1562601
BeatmapSetID:740701

[Difficulty]
HPDrainRate:6
CircleSize:4
OverallDifficulty:9
ApproachRate:9.3
SliderMultiplier:1.6
SliderTickRate:1

[Events]
//Background and Video events
0,0,"Birth.jpg",0,0
//Break Periods
//Storyboard Layer 0 (Background)
//Storyboard Layer 1 (Fail)
//Storyboard Layer 2 (Pass)
//Storyboard Layer 3 (Foreground)
//Storyboard Sound Samples

[TimingPoints]
1426,461.538461538462,4,2,0,50,1,0
1426,-200,4,2,0,50,0,0
1887,-200,4,2,0,5,0,0
2195,-200,4,2,0,30,0,0
2349,-200,4,2,0,50,0,0
2810,-200,4,2,0,5,0,0
3272,-200,4,2,0,50,0,0
6502,794.701986754967,4,2,0,50,1,0
8985,-200,4,2,0,5,0,0
9680,341.782967815437,4,2,0,60,1,0
16515,351.802990325418,4,2,0,60,1,0
17922,342.857142857143,4,2,0,30,1,0
18248,-100,4,2,0,40,0,0
18591,-100,4,2,0,50,0,0
18934,-100,4,2,0,60,0,0
19277,-100,4,1,0,40,0,0
19619,-100,4,1,0,45,0,0
19963,-66.6666666666667,4,1,0,50,0,0
20648,-200,4,2,0,40,0,0
25105,-100,4,2,0,40,0,0
26134,-200,4,2,0,40,0,0
30093,769.230769230769,4,2,0,40,1,0
31439,368.098159509202,4,2,0,40,1,0
31623,342.857142857143,4,2,0,60,1,0
42077,-100,4,1,0,50,0,0
42591,-133.333333333333,4,2,0,50,0,0
44477,-133.333333333333,4,1,0,40,0,0
44648,-133.333333333333,4,2,0,50,0,0
45337,-133.333333333333,4,2,0,55,0,0
46705,-100,4,1,0,50,0,0
46877,-100,4,1,0,35,0,0
47048,-100,4,1,0,40,0,0
47391,-100,4,1,0,45,0,0
47734,-100,4,1,0,50,0,0
48077,-100,4,2,0,60,0,0
52277,-100,4,1,0,30,0,0
52534,-100,4,1,0,40,0,0
52877,-100,4,2,0,50,0,0
53048,-100,4,2,0,55,0,0
53305,-100,4,2,0,60,0,0
53648,-100,4,2,0,30,0,0
53905,-100,4,2,0,40,0,0
54077,-100,4,2,0,45,0,0
54248,-100,4,2,0,50,0,0
54419,-100,4,2,0,55,0,0
54591,-100,4,2,0,65,0,0
54762,-100,4,2,0,75,0,0
54937,-83.3333333333333,4,2,2,100,0,1
55108,-83.3333333333333,4,1,0,65,0,1
60080,-83.3333333333333,4,2,0,55,0,1
60423,-83.3333333333333,4,2,0,60,0,1
63848,-66.6666666666667,4,2,0,65,0,1
64880,-83.3333333333333,4,2,0,50,0,0
65219,-83.3333333333333,4,1,0,50,0,0
65562,-83.3333333333333,4,1,0,60,0,0
65908,-83.3333333333333,4,2,2,100,0,1
65994,-83.3333333333333,4,2,0,70,0,1
66594,-83.3333333333333,4,1,0,75,0,1
66680,-83.3333333333333,4,2,0,70,0,1
67280,-83.3333333333333,4,1,0,75,0,1
67365,-83.3333333333333,4,2,0,70,0,1
67623,-83.3333333333333,4,1,0,75,0,1
67708,-83.3333333333333,4,2,0,70,0,1
67965,-83.3333333333333,4,1,0,75,0,1
68051,-83.3333333333333,4,2,0,70,0,1
68308,-83.3333333333333,4,1,0,75,0,1
68394,-83.3333333333333,4,2,0,70,0,1
68651,-83.3333333333333,4,1,0,75,0,1
68737,-83.3333333333333,4,2,0,70,0,1
69337,-83.3333333333333,4,1,0,75,0,1
69423,-83.3333333333333,4,2,0,70,0,1
69680,-83.3333333333333,4,1,0,75,0,1
69765,-83.3333333333333,4,2,0,70,0,1
71394,-83.3333333333333,4,1,0,75,0,1
71823,-83.3333333333333,4,2,0,70,0,1
76448,-83.3333333333333,4,2,0,50,0,1
76877,-83.3333333333333,4,2,0,60,0,1
77734,-133.333333333333,4,2,0,55,0,1
78248,-83.3333333333333,4,2,0,70,0,1
78937,346.820809248555,4,2,0,60,1,1
78937,-166.666666666667,4,2,0,60,0,1
79630,342.857142857143,4,2,0,50,1,0
79630,-100,4,2,0,50,0,0
83734,-100,4,2,0,60,0,0
84419,-100,4,1,0,50,0,0
84848,-100,4,2,0,5,0,0
84934,-100,4,2,0,60,0,0
87505,-100,4,2,0,5,0,0

[Colours]
Combo1 : 236,83,17
Combo2 : 227,172,121
Combo3 : 14,29,97
Combo4 : 252,214,143
Combo5 : 164,190,210
Combo6 : 232,116,47

[HitObjects]
328,240,1426,6,0,P|448:212|456:184,1,160,2|0,0:0|0:0,0:0:0:0:
104,188,3272,1,2,0:0:0:0:
336,264,4195,2,0,L|240:264,1,80,0|2,0:0|0:0,0:0:0:0:
168,232,5118,1,0,0:0:0:0:
368,184,5579,1,2,0:0:0:0:
208,128,6041,2,0,L|128:128,1,80,0|2,0:0|0:0,0:0:0:0:
256,192,6700,12,2,8985,0:0:0:0:
184,176,9680,5,2,0:0:0:0:
436,164,9850,1,0,0:0:0:0:
348,164,10021,1,2,3:0:0:0:
256,164,10192,2,0,B|200:164|200:164|168:184,1,80,0|2,0:0|0:0,0:0:0:0:
348,236,10534,1,0,0:0:0:0:
396,236,10705,1,2,3:0:0:0:
296,304,10876,2,0,L|208:304,1,80,0|2,0:0|0:0,0:0:0:0:
360,304,11218,2,0,L|444:304,1,80,0|2,0:0|3:0,0:0:0:0:
296,232,11559,2,0,L|212:232,1,80,0|2,0:0|0:0,0:0:0:0:
296,232,11816,5,0,0:0:0:0:
380,160,11901,6,0,L|428:160,1,40
216,136,12072,1,2,3:0:0:0:
332,232,12243,1,0,0:0:0:0:
216,228,12414,2,0,L|116:228,1,80,2|0,0:0|3:0,0:0:0:0:
216,136,12756,2,0,L|284:76,1,80,2|0,0:3|3:0,0:0:0:0:
376,136,13097,2,0,L|420:64,1,80,0|0,0:1|3:0,0:0:0:0:
132,136,13439,2,0,L|200:76,1,80,2|0,0:3|3:0,0:0:0:0:
444,132,13781,2,0,L|376:72,1,80,0|2,0:1|0:0,0:0:0:0:
132,136,14037,5,0,0:0:0:0:
72,180,14123,1,0,0:0:0:0:
32,244,14208,1,0,0:0:0:0:
72,312,14294,1,0,0:0:0:0:
132,356,14379,1,0,0:0:0:0:
304,284,14464,2,0,L|408:284,1,80,0|2,0:1|0:0,0:0:0:0:
32,244,14806,1,4,0:0:0:0:
304,224,15148,6,0,L|408:196,1,80,2|0,3:0|0:0,0:0:0:0:
236,224,15490,2,0,L|132:252,1,80,0|2,0:0|3:0,0:0:0:0:
96,244,15832,1,0,0:0:0:0:
32,244,16002,2,0,L|0:188,1,40,0|0,0:1|0:0,0:0:0:0:
236,168,16173,1,2,0:0:0:0:
368,176,16344,6,0,L|460:176,1,80,0|0,0:0|0:1,0:0:0:0:
148,176,16690,1,0,3:0:0:0:
72,176,16866,1,2,0:0:0:0:
224,176,17042,1,0,3:0:0:0:
368,176,17394,5,2,0:0:0:0:
224,176,17570,2,0,L|164:176,1,40,0|0,2:0|0:0,0:0:0:0:
368,176,17746,1,4,0:0:0:0:
224,176,17922,5,0,0:0:0:0:
368,176,18093,1,0,0:0:0:0:
288,248,18264,5,2,0:0:0:0:
144,248,18435,1,0,0:0:0:0:
224,248,18607,5,2,0:0:0:0:
368,248,18778,1,0,0:0:0:0:
224,248,18950,2,0,P|156:248|116:184,1,120,2|0,0:0|0:0,0:0:0:0:
368,176,19293,5,4,3:0:0:0:
424,156,19379,1,0,0:0:0:0:
472,120,19464,1,0,0:0:0:0:
488,64,19550,1,0,0:0:0:0:
460,16,19636,2,0,L|336:16,1,120,0|0,3:0|0:0,0:0:0:0:
144,16,19979,1,2,3:0:0:0:
428,224,20150,1,4,0:0:0:0:
220,192,20493,6,0,B|156:172|156:172|128:128,1,120.000004577637,0|2,0:0|0:0,0:0:0:0:
224,68,20836,1,0,0:0:0:0:
316,132,21007,1,0,0:0:0:0:
428,224,21179,6,0,L|364:224,1,60,2|0,0:0|0:0,0:0:0:0:
220,192,21522,1,2,0:0:0:0:
88,192,21693,1,0,0:0:0:0:
248,192,21864,1,0,0:0:0:0:
368,192,22036,2,0,L|456:192,1,80,2|0,0:0|0:0,0:0:0:0:
120,192,22550,1,0,0:0:0:0:
248,192,22722,5,2,0:0:0:0:
368,192,23064,5,0,0:0:0:0:
432,128,23236,2,0,L|464:128,1,20
248,128,23407,1,2,0:0:0:0:
152,128,23579,1,0,0:0:0:0:
56,128,23750,1,0,0:0:0:0:
248,192,23922,2,0,L|320:192,1,60,2|0,0:0|0:0,0:0:0:0:
368,192,24264,2,0,L|416:192,1,40,2|0,0:0|0:0,0:0:0:0:
168,128,24607,2,0,B|128:128|128:128|96:176,1,80,2|2,0:0|0:0,0:0:0:0:
264,192,25122,5,0,0:0:0:0:
128,160,25293,1,2,0:0:0:0:
288,192,25464,1,0,0:0:0:0:
152,168,25636,1,2,0:0:0:0:
288,192,25807,1,2,0:0:0:0:
384,192,25979,6,0,L|304:192,1,80,2|0,0:0|3:0,0:0:0:0:
128,160,26493,1,0,0:0:0:0:
384,136,26836,1,2,3:0:0:0:
280,208,27350,6,0,L|224:208,1,40,0|2,0:0|0:0,0:0:0:0:
384,136,27864,2,0,L|456:96,1,80,2|0,0:0|3:0,0:0:0:0:
312,136,28379,1,0,0:0:0:0:
192,136,28550,1,2,0:0:0:0:
304,136,28722,1,0,0:0:0:0:
152,136,28893,6,0,L|200:136,1,40,2|0,0:0|0:0,0:0:0:0:
424,136,29236,2,0,L|376:136,1,40,2|0,0:0|3:0,0:0:0:0:
248,136,29750,1,0,3:0:0:0:
152,136,30093,6,0,P|112:160|224:256,1,280,2|0,0:0|0:0,0:0:0:0:
280,256,31623,5,2,3:0:0:0:
512,256,31794,2,0,L|424:216,1,80,0|0,0:0|3:0,0:0:0:0:
200,256,32137,1,2,3:0:0:0:
120,208,32308,1,0,3:0:0:0:
72,128,32480,2,0,L|152:88,1,80,0|2,0:0|0:0,0:0:0:0:
224,96,32737,1,0,0:0:0:0:
304,96,32823,1,0,0:0:0:0:
144,88,32994,6,0,L|208:248,1,160,2|0,3:0|3:0,0:0:0:0:
288,160,33508,6,0,L|336:160,1,40
384,216,33680,2,0,L|336:216,1,40,0|0,3:0|0:0,0:0:0:0:
120,208,33851,2,0,L|216:208,1,80,0|2,3:0|3:0,0:0:0:0:
328,160,34194,6,0,L|280:160,1,40,0|2,0:0|0:0,0:0:0:0:
144,104,34365,6,0,L|224:104,1,80,0|2,3:0|0:0,0:0:0:0:
368,216,34708,1,2,3:0:0:0:
120,208,34880,2,0,L|40:128,1,80,2|0,0:0|3:0,0:0:0:0:
368,216,35223,2,0,L|440:168,1,80,2|0,0:0|3:0,0:0:0:0:
256,144,35565,2,0,P|208:184|280:312,1,240,2|2,0:0|3:0,0:0:0:0:
360,312,36251,1,0,0:0:0:0:
432,256,36423,2,0,L|512:224,1,80,0|0,3:0|0:0,0:0:0:0:
272,168,36765,2,0,B|224:136|224:136|144:136,1,120,0|0,3:3|0:0,0:0:0:0:
0,168,37108,2,0,B|48:128|48:128|120:128,1,120,2|0,0:2|0:0,0:0:0:0:
432,256,37451,2,0,B|384:224|384:224|304:224,1,120,2|0,3:3|0:0,0:0:0:0:
96,168,37794,6,0,B|48:120|48:88|48:88|112:48,1,160,8|2,3:3|0:0,0:0:0:0:
184,56,38308,2,0,L|88:56,1,80,0|2,0:0|3:0,0:0:0:0:
384,120,38651,2,0,L|464:120,1,80,0|2,0:0|0:0,0:0:0:0:
224,120,38994,2,0,L|128:120,1,80,2|2,0:0|3:0,0:0:0:0:
256,200,39251,2,0,L|304:200,1,40,0|0,0:0|3:0,0:0:0:0:
456,192,39508,6,0,B|488:160|488:160|488:120,1,80,8|0,3:3|3:0,0:0:0:0:
408,128,39765,1,2,0:0:0:0:
224,120,39851,2,0,P|176:128|160:232,1,160,4|2,3:3|3:3,0:0:0:0:
456,192,40365,2,0,L|328:208,1,120,2|0,3:3|0:0,0:0:0:0:
56,192,40708,2,0,L|184:208,1,120,2|0,3:3|0:0,0:0:0:0:
336,208,41051,2,0,P|384:184|336:96,1,160,8|0,3:3|0:0,0:0:0:0:
280,104,41480,1,0,0:0:0:0:
112,192,41565,2,0,P|80:160|136:112,1,120,2|0,3:3|0:0,0:0:0:0:
336,208,41908,2,0,L|376:256,1,40,8|0,3:3|0:0,0:0:0:0:
112,192,42080,5,2,3:0:0:0:
72,224,42137,1,0,0:0:0:0:
40,264,42194,1,0,0:0:0:0:
24,312,42251,1,0,0:0:0:0:
40,360,42308,1,0,0:0:0:0:
80,360,42365,1,0,0:0:0:0:
128,360,42423,1,0,0:0:0:0:
256,256,42594,2,0,L|328:256,1,60.0000022888185,2|0,0:0|0:0,0:0:0:0:
416,200,42937,2,0,L|352:152,1,60.0000022888184,4|0,3:3|0:0,0:0:0:0:
80,168,43280,2,0,L|160:168,1,60.0000022888184,2|0,0:0|0:0,0:0:0:0:
416,200,43623,6,0,B|480:216|480:216|480:241,1,90.0000034332277,0|0,3:3|0:0,0:0:0:0:
144,192,43965,2,0,B|88:88|88:88|88:32,1,150.000005722046,2|0,3:3|0:0,0:0:0:0:
250,88,44480,2,0,L|280:88,1,30.0000011444092,2|0,3:3|0:0,0:0:0:0:
200,152,44651,1,4,2:0:0:0:
280,152,44823,5,0,0:0:0:0:
200,232,44994,2,0,L|272:232,1,60.0000022888185,8|0,3:3|0:0,0:0:0:0:
432,168,45337,6,0,L|360:136,1,60.0000022888184,2|0,0:0|0:0,0:0:0:0:
80,168,45680,2,0,L|152:136,1,60.0000022888184,0|0,3:3|0:0,0:0:0:0:
376,112,46023,2,0,L|448:112,1,60.0000022888184,2|0,0:0|0:0,0:0:0:0:
136,80,46365,2,0,L|56:80,1,60.0000022888184,0|0,3:3|0:0,0:0:0:0:
400,112,46708,5,4,3:3:0:0:
464,112,46794,1,0,0:0:0:0:
496,112,46880,1,0,0:0:0:0:
512,112,46965,1,0,0:0:0:0:
496,112,47051,1,0,0:0:0:0:
464,112,47137,1,0,0:0:0:0:
400,112,47223,6,0,L|456:112,1,40
256,144,47394,6,0,L|216:144,1,40,2|0,3:3|0:0,0:0:0:0:
360,112,47565,2,0,L|400:112,1,40,2|0,3:3|0:0,0:0:0:0:
136,80,47737,2,0,L|96:80,1,40,2|0,3:3|0:0,0:0:0:0:
304,112,47908,1,4,3:0:0:0:
400,112,48080,6,0,L|504:112,1,80,2|0,3:3|0:0,0:0:0:0:
304,112,48423,1,4,3:0:0:0:
24,232,48594,2,0,B|-26:199|38:135|38:135|78:167,1,160,2|0,3:3|0:0,0:0:0:0:
368,168,49108,1,2,3:0:0:0:
256,168,49280,1,0,0:0:0:0:
352,168,49451,2,0,L|432:168,1,80,0|0,3:3|0:0,0:0:0:0:
168,168,49794,1,2,3:0:0:0:
432,168,49965,2,0,B|472:144|472:72|472:72|400:72,1,160,2|0,3:3|3:3,0:0:0:0:
184,168,50480,1,4,3:0:0:0:
344,72,50651,1,0,0:0:0:0:
184,168,50823,6,0,L|304:120,1,120,0|0,1:1|0:0,0:0:0:0:
432,168,51337,2,0,L|360:168,1,53.3333333333333,2|0,0:0|0:0,0:0:0:0:
96,168,51508,2,0,P|80:112|168:112,1,160,4|0,3:3|1:1,0:0:0:0:
408,168,52023,2,0,L|320:168,1,80,2|0,0:0|1:1,0:0:0:0:
256,168,52280,5,0,0:0:0:0:
200,168,52365,1,0,0:0:0:0:
160,168,52451,1,0,0:0:0:0:
136,168,52537,1,0,1:0:0:0:
160,168,52623,5,0,3:0:0:0:
216,168,52708,1,0,3:0:0:0:
256,168,52794,1,0,3:0:0:0:
440,168,52880,1,2,0:0:0:0:
200,168,53051,5,2,3:0:0:0:
160,168,53308,6,0,L|304:168,1,120,2|4,0:0|2:0,0:0:0:0:
472,168,53651,2,0,L|328:168,1,120
248,232,53994,6,0,L|376:232,1,120,0|0,0:0|3:3,0:0:0:0:
392,168,54423,2,0,L|292:168,1,80,2|0,0:0|3:0,0:0:0:0:
416,112,54765,2,0,L|488:112,1,53.3333333333333,2|0,0:0|0:0,0:0:0:0:
296,168,54937,6,0,L|200:168,1,95.9999970703126,8|0,0:0|0:0,0:0:0:0:
296,168,55280,1,2,3:0:0:0:
200,168,55451,1,0,0:0:0:0:
48,168,55623,6,0,L|144:168,1,95.9999970703126,4|0,3:3|0:0,0:0:0:0:
56,168,55966,1,2,3:0:0:0:
192,168,56137,1,0,0:0:0:0:
296,168,56308,1,4,3:0:0:0:
216,168,56480,1,0,0:0:0:0:
376,168,56651,2,0,L|480:168,1,95.9999970703126,2|0,3:3|0:0,0:0:0:0:
216,168,56994,6,0,L|112:168,1,95.9999970703126,8|0,3:3|0:0,0:0:0:0:
376,168,57337,2,0,P|416:128|384:40,1,143.999995605469,2|0,3:3|0:0,0:0:0:0:
168,168,57680,2,0,L|8:168,1,143.999995605469,4|0,3:3|0:0,0:0:0:0:
168,224,58023,2,0,L|320:224,1,143.999995605469,4|0,3:3|0:0,0:0:0:0:
496,168,58365,2,0,L|376:168,1,95.9999970703126,2|0,3:3|0:0,0:0:0:0:
24,168,58708,2,0,L|176:168,1,143.999995605469,0|0,1:1|0:0,0:0:0:0:
336,168,59051,5,4,3:0:0:0:
440,104,59223,2,0,L|328:104,1,95.9999970703126,0|2,0:0|3:3,0:0:0:0:
240,168,59565,2,0,L|352:168,1,95.9999970703126,0|4,0:0|3:3,0:0:0:0:
384,168,59823,1,0,0:0:0:0:
240,168,59908,2,0,L|184:168,1,47.9999985351563,0|0,3:3|0:0,0:0:0:0:
384,104,60080,5,2,0:0:0:0:
400,104,60137,1,0,0:0:0:0:
416,104,60194,1,0,0:0:0:0:
432,104,60251,1,0,0:0:0:0:
448,104,60308,1,0,0:0:0:0:
464,104,60365,1,0,0:0:0:0:
240,168,60423,6,0,L|144:168,1,95.9999970703126,0|4,1:1|3:3,0:0:0:0:
288,168,60765,2,0,L|384:168,1,95.9999970703126,8|0,3:3|0:0,0:0:0:0:
456,168,61108,1,0,0:0:0:0:
368,208,61280,1,0,3:0:0:0:
496,208,61451,5,0,1:0:0:0:
400,208,61623,2,0,L|336:208,1,63.9999980468751,2|0,0:0|0:0,0:0:0:0:
144,224,61794,2,0,L|72:120,1,95.9999970703126,0|0,1:1|3:3,0:0:0:0:
368,224,62137,2,0,L|440:120,1,95.9999970703126,0|0,3:3|3:3,0:0:0:0:
144,224,62480,2,0,L|72:120,1,95.9999970703126,2|0,3:3|3:3,0:0:0:0:
368,224,62823,2,0,L|440:120,1,95.9999970703126,0|2,1:1|0:0,0:0:0:0:
120,224,63165,1,0,1:0:0:0:
96,224,63337,2,0,L|-8:224,1,95.9999970703126,0|0,3:3|1:1,0:0:0:0:
304,184,63680,5,0,3:0:0:0:
424,184,63851,2,0,L|240:184,1,180.000006866455,0|2,1:1|0:0,0:0:0:0:
448,184,64365,1,0,1:0:0:0:
216,176,64537,5,4,3:0:0:0:
112,240,64708,1,0,0:0:0:0:
160,208,64794,1,0,0:0:0:0:
216,172,64880,1,4,3:0:0:0:
160,124,64965,1,0,0:0:0:0:
112,240,65051,1,0,0:0:0:0:
232,84,65137,1,0,0:0:0:0:
352,84,65223,1,0,1:0:0:0:
448,168,65394,2,0,L|352:168,1,95.9999970703126,0|0,3:3|1:1,0:0:0:0:
216,176,65737,1,8,0:3:0:0:
512,168,65908,5,8,0:0:0:0:
328,168,66080,1,0,2:2:0:0:
424,168,66251,1,2,3:3:0:0:
328,232,66423,1,0,2:2:0:0:
184,176,66594,2,0,L|80:176,1,95.9999970703126,0|0,0:0|2:0,0:0:0:0:
328,232,66937,1,2,3:3:0:0:
288,152,67108,2,0,L|392:152,1,95.9999970703126,0|0,2:2|1:1,0:0:0:0:
132,184,67451,1,0,2:2:0:0:
384,216,67623,2,0,L|280:216,1,95.9999970703126,0|0,1:1|2:2,0:0:0:0:
196,152,67965,2,0,L|304:152,1,95.9999970703126,0|0,1:1|2:2,0:0:0:0:
132,184,68308,2,0,L|248:232,1,95.9999970703126,0|0,1:1|2:2,0:0:0:0:
64,192,68651,2,0,L|140:272,1,95.9999970703126,0|0,1:1|2:2,0:0:0:0:
304,200,68994,1,4,3:0:0:0:
196,152,69165,1,0,2:2:0:0:
392,72,69337,6,0,B|305:72|305:72|257:104,1,143.999995605469,0|0,1:0|2:2,0:0:0:0:
64,120,69680,2,0,B|150:120|150:120|198:152,1,143.999995605469,0|0,0:1|2:2,0:0:0:0:
304,200,70023,2,0,L|352:112,1,95.9999970703126,2|0,2:2|2:2,0:0:0:0:
112,200,70365,2,0,L|64:112,1,95.9999970703126,8|0,3:3|0:0,0:0:0:0:
304,200,70708,1,4,0:0:0:0:
400,48,70880,2,0,P|452:92|440:136,1,95.9999970703126,0|2,0:0|3:3,0:0:0:0:
304,88,71223,6,0,L|208:88,1,95.9999970703126,0|0,0:0|1:1,0:0:0:0:
496,88,71565,1,4,3:0:0:0:
328,152,71737,2,0,L|440:152,1,95.9999970703126,0|4,1:1|3:3,0:0:0:0:
328,172,72080,1,0,0:0:0:0:
272,176,72251,1,2,0:0:0:0:
136,104,72423,1,2,3:0:0:0:
112,248,72594,6,0,L|212:248,1,95.9999970703126,2|8,0:0|3:3,0:0:0:0:
464,176,72937,2,0,L|355:176,1,95.9999970703126,0|0,3:3|1:1,0:0:0:0:
464,176,73280,1,2,0:0:0:0:
328,176,73451,1,0,0:0:0:0:
184,88,73623,1,0,3:0:0:0:
56,192,73794,2,0,L|164:192,1,95.9999970703126,2|0,3:3|0:0,0:0:0:0:
400,176,74137,6,0,B|329:176|329:176|269:216,1,143.999995605469,2|0,0:0|0:0,0:0:0:0:
96,144,74480,2,0,L|240:144,1,143.999995605469,2|0,3:3|0:0,0:0:0:0:
400,176,74823,2,0,P|440:128|352:96,1,143.999995605469,8|0,3:3|0:0,0:0:0:0:
232,192,75165,2,0,B|152:192|152:192|136:176|136:176|48:176,1,143.999995605469,0|0,1:1|0:0,0:0:0:0:
264,256,75508,1,4,1:0:0:0:
344,256,75680,1,0,0:0:0:0:
400,176,75851,2,0,L|352:176,1,47.9999985351563,2|0,3:3|0:0,0:0:0:0:
284,136,76023,2,0,L|172:136,1,95.9999970703126,0|0,3:3|1:1,0:0:0:0:
96,160,76365,2,0,L|175:213,1,95.9999970703126,2|0,0:0|0:0,0:0:0:0:
288,208,76708,2,0,L|184:272,1,95.9999970703126,2|0,0:0|1:1,0:0:0:0:
48,188,77051,2,0,L|120:288,1,95.9999970703126,0|2,0:0|0:0,0:0:0:0:
392,184,77394,2,0,L|280:184,1,95.9999970703126,0|0,3:3|1:1,0:0:0:0:
328,184,77737,5,0,3:3:0:0:
152,184,77908,2,0,B|104:144|104:144|104:112,1,90.0000034332277,0|0,1:1|0:0,0:0:0:0:
424,120,78251,1,0,1:0:0:0:
328,184,78423,1,0,0:0:0:0:
480,184,78594,1,4,3:0:0:0:
248,184,78765,2,0,L|152:184,1,95.9999970703126,2|0,0:0|1:1,0:0:0:0:
224,184,79110,1,0,0:0:0:0:
328,184,79283,2,0,B|368:184|368:184|392:144,1,71.9999978027344,2|0,0:0|0:0,0:0:0:0:
208,188,79630,1,4,3:0:0:0:
128,188,79801,6,0,L|232:188,1,80,0|2,3:3|0:0,0:0:0:0:
48,248,80144,1,0,0:0:0:0:
288,296,80315,2,0,L|184:296,1,80,2|0,0:0|3:3,0:0:0:0:
368,244,80658,1,2,3:3:0:0:
128,144,80830,2,0,L|224:144,1,80,0|4,0:0|3:3,0:0:0:0:
84,84,81172,5,0,3:3:0:0:
344,184,81344,2,0,L|236:184,1,80,0|0,0:0|3:3,0:0:0:0:
408,128,81687,2,0,L|304:128,1,80,2|0,0:0|3:3,0:0:0:0:
456,64,82030,1,0,1:0:0:0:
224,64,82201,2,0,L|324:64,1,80,2|0,0:0|1:1,0:0:0:0:
160,112,82544,6,0,L|256:148,1,80,2|0,0:0|1:1,0:0:0:0:
88,128,82887,2,0,L|156:192,1,80,0|0,3:3|0:0,0:0:0:0:
40,208,83230,1,2,3:3:0:0:
328,208,83401,1,0,1:0:0:0:
184,184,83572,2,0,L|280:144,1,80,2|0,0:0|1:1,0:0:0:0:
360,120,83915,1,2,0:0:0:0:
256,104,84087,1,0,1:0:0:0:
360,224,84258,1,0,0:0:0:0:
184,144,84430,1,0,1:0:0:0:
440,312,84601,2,0,L|344:312,1,80,0|4,1:1|3:3,0:0:0:0:
104,224,84944,1,4,0:0:0:0:
256,192,85115,12,0,87515,0:0:0:0:
