osu file format v14

[General]
AudioFilename: audio.mp3
AudioLeadIn: 0
PreviewTime: 53887
Countdown: 0
SampleSet: Soft
StackLeniency: 0.2
Mode: 0
LetterboxInBreaks: 0
WidescreenStoryboard: 0

[Editor]
DistanceSpacing: 1
BeatDivisor: 4
GridSize: 32
TimelineZoom: 1

[Metadata]
Title:Birth
TitleUnicode:Birth
Artist:Kitamura Eri
ArtistUnicode:喜多村英梨
Creator:Cheri
Version:Insane
Source:神さまのいない日曜日
Tags:Hailie Kamisama no Inai Nichiyoubi Opening OP Full Version Japanese Anime DJ Lucky
BeatmapID:2068142
BeatmapSetID:987593

[Difficulty]
HPDrainRate:5
CircleSize:3.5
OverallDifficulty:8
ApproachRate:9
SliderMultiplier:1.55
SliderTickRate:1

[Events]
//Background and Video events
0,0,"Webp.net-resizeimage (3).jpg",0,0
//Break Periods
2,83573,93745
//Storyboard Layer 0 (Background)
//Storyboard Layer 1 (Fail)
//Storyboard Layer 2 (Pass)
//Storyboard Layer 3 (Foreground)
//Storyboard Layer 4 (Overlay)
//Storyboard Sound Samples

[TimingPoints]
2459,342.857142857143,4,2,0,50,1,0
2459,-200,4,2,0,50,0,0
7601,-100,4,2,0,10,0,0
10687,-100,4,2,0,60,0,0
18916,-333.333333333333,4,2,0,40,0,0
20288,-100,4,2,0,60,0,0
21659,-125,4,2,0,40,0,0
31088,-333.333333333333,4,2,0,50,0,0
32630,-100,4,2,0,55,0,0
43602,-133.333333333333,4,2,0,50,0,0
49088,-100,4,2,0,60,0,0
55944,-83.3333333333333,4,2,0,70,0,1
66230,-83.3333333333333,4,2,0,70,0,0
66916,-76.9230769230769,4,2,0,80,0,1
80630,-76.9230769230769,4,2,0,60,0,0
83373,-100,4,2,0,50,0,0
94345,-142.857142857143,4,2,0,45,0,0
105316,-100,4,2,0,55,0,0
116288,-133.333333333333,4,2,0,50,0,0
121773,-100,4,2,0,60,0,0
128630,-83.3333333333333,4,2,0,70,0,1
138916,-83.3333333333333,4,2,0,70,0,0
139601,-76.9230769230769,4,2,0,80,0,1
153316,-166.666666666667,4,2,0,40,0,0
162230,-100,4,2,0,40,0,0
164288,-100,4,2,0,60,0,0
182116,-285.714285714284,4,2,0,40,0,0
193773,-100,4,2,0,50,0,0
194459,-83.3333333333333,4,2,0,75,0,1
204573,-83.3333333333333,4,2,0,75,0,0
205430,-76.9230769230769,4,2,0,85,0,1
218459,-76.9230769230769,4,2,0,80,0,0
219144,-76.9230769230769,4,2,0,90,0,1
229944,-76.9230769230769,4,2,0,90,0,0
230030,-76.9230769230769,4,2,0,10,0,0

[Colours]
Combo1 : 255,0,0
Combo2 : 255,128,64
Combo3 : 0,128,255
Combo4 : 128,64,64

[HitObjects]
256,192,7601,12,0,10001,0:0:0:0:
421,55,10688,6,0,P|470:47|517:52,2,77.5,4|0|0,0:0|0:0|1:0,0:0:0:0:
341,36,11202,2,0,P|340:110|381:191,1,155,2|0,0:0|0:0,0:0:0:0:
471,308,11716,1,0,1:0:0:0:
471,308,11888,2,0,P|392:289|302:306,1,155,0|0,0:0|0:0,0:0:0:0:
135,296,12402,6,0,P|139:257|157:130,1,155,0|4,1:0|3:0,0:0:0:0:
248,80,12916,2,0,P|241:20|236:-8,2,77.5,4|0|2,3:0|1:0|0:0,0:0:0:0:
430,67,13430,5,4,3:0:0:0:
430,67,13602,1,0,0:0:0:0:
364,224,13773,1,0,1:0:0:0:
236,62,13945,2,0,P|156:75|76:99,1,155,2|4,0:0|3:0,0:0:0:0:
81,275,14459,1,0,1:0:0:0:
81,275,14630,2,0,P|187:276|267:301,1,155,2|4,0:0|3:0,0:0:0:0:
425,346,15145,5,0,1:0:0:0:
356,171,15316,2,0,L|375:107,2,38.75,4|4|4,3:0|3:0|3:0,0:0:0:0:
233,287,15659,1,4,3:0:0:0:
185,94,15830,2,0,P|183:43|184:-11,1,77.5,0|0,1:0|0:0,0:0:0:0:
54,65,16173,5,4,0:0:0:0:
125,223,16345,1,0,3:0:0:0:
277,48,16516,1,0,1:0:0:0:
277,48,16688,2,0,L|386:33,1,77.5,4|0,1:0|0:0,0:0:0:0:
464,119,17030,2,0,L|376:127,2,77.5,4|0|0,3:0|1:0|0:0,0:0:0:0:
445,317,17545,5,4,0:0:0:0:
386,126,17716,1,4,3:0:0:0:
210,236,17888,1,0,1:0:0:0:
210,236,18059,2,0,L|125:228,1,77.5,4|0,1:0|0:0,0:0:0:0:
132,310,18402,5,4,3:0:0:0:
98,103,18573,1,0,1:0:0:0:
300,128,18745,1,0,1:0:0:0:
319,133,18916,5,0,0:0:0:0:
338,154,19259,2,0,L|331:185,2,23.2499992904663,2|0|0,0:0|0:0|0:0,0:0:0:0:
288,271,19773,1,0,0:0:0:0:
288,271,19945,2,0,L|293:295,1,23.2499992904663,2|0,0:0|0:0,0:0:0:0:
446,276,20288,5,0,1:0:0:0:
384,111,20459,1,4,3:0:0:0:
384,111,20545,1,4,3:0:0:0:
384,111,20630,1,4,3:0:0:0:
188,257,20802,1,4,3:0:0:0:
188,257,20888,1,4,3:0:0:0:
188,257,20973,1,4,1:0:0:0:
197,25,21145,1,0,1:0:0:0:
197,25,21488,5,0,0:0:0:0:
197,25,21659,2,0,L|127:36,2,62,2|0|0,0:0|0:0|0:0,0:0:0:0:
282,107,22173,2,0,L|433:98,1,124,2|0,0:0|0:0,0:0:0:0:
512,115,22688,1,0,0:0:0:0:
512,115,22859,1,0,0:0:0:0:
512,115,23030,6,0,P|482:178|489:247,1,124,2|0,0:0|0:0,0:0:0:0:
385,309,23545,2,0,P|384:235|380:168,1,124,2|0,0:0|0:0,0:0:0:0:
158,57,24230,5,2,0:0:0:0:
158,57,24316,1,0,0:0:0:0:
158,57,24402,2,0,L|78:67,2,62,2|0|0,0:0|0:0|0:0,0:0:0:0:
160,161,24916,2,0,P|228:153|309:159,1,124,2|0,0:0|0:0,0:0:0:0:
358,138,25430,1,0,0:0:0:0:
358,138,25602,2,0,P|309:172|286:246,1,124,2|0,0:0|0:0,0:0:0:0:
276,358,26116,2,0,P|271:335|252:296,2,62,2|0|2,0:0|0:0|0:0,0:0:0:0:
165,332,26630,1,0,0:0:0:0:
165,332,26801,1,2,0:0:0:0:
165,332,26973,1,0,0:0:0:0:
165,332,27145,6,0,P|160:271|170:187,1,124,2|0,0:0|0:0,0:0:0:0:
261,38,27830,2,0,P|299:74|294:151,1,124,0|0,0:0|0:0,0:0:0:0:
486,333,28516,2,0,L|480:189,1,124,2|0,0:0|0:0,0:0:0:0:
404,78,29202,2,0,P|370:140|327:195,1,124,0|0,0:0|0:0,0:0:0:0:
110,342,29888,5,2,0:0:0:0:
110,342,30059,1,0,0:0:0:0:
110,342,30230,1,0,0:0:0:0:
35,282,30402,1,2,0:0:0:0:
35,282,30745,2,0,L|46:208,1,62,2|0,0:0|0:0,0:0:0:0:
111,111,31088,2,0,P|87:195|111:246,1,139.499995742798,2|0,0:0|0:0,0:0:0:0:
218,166,32459,5,0,0:0:0:0:
218,166,32630,2,0,P|251:161|293:117,2,77.5,4|0|0,3:0|0:0|1:0,0:0:0:0:
154,336,33145,2,0,P|223:302|314:327,1,155,0|2,0:0|0:0,0:0:0:0:
482,239,33659,1,0,1:0:0:0:
482,239,33830,1,0,0:0:0:0:
482,239,34002,6,0,P|477:162|487:68,1,155,4|0,3:0|1:0,0:0:0:0:
281,30,34516,2,0,L|196:62,1,77.5,0|4,0:0|3:0,0:0:0:0:
69,195,34859,2,0,L|77:278,1,77.5,4|0,3:0|1:0,0:0:0:0:
176,259,35202,5,4,3:0:0:0:
176,259,35288,1,4,3:0:0:0:
175,258,35373,2,0,P|166:215|159:160,1,77.5,4|0,3:0|0:0,0:0:0:0:
244,77,35716,1,0,1:0:0:0:
244,77,35888,2,0,P|282:72|375:148,1,155,0|2,0:0|0:0,0:0:0:0:
495,143,36401,1,0,1:0:0:0:
495,143,36573,2,0,P|432:158|388:256,1,155,0|0,0:0|0:0,0:0:0:0:
256,357,37088,2,0,P|292:309|308:276,1,77.5,0|0,1:0|0:0,0:0:0:0:
199,267,37430,6,0,L|103:270,1,77.5,4|4,3:0|3:0,0:0:0:0:
260,119,37773,2,0,L|345:123,1,77.5,0|4,1:0|3:0,0:0:0:0:
472,44,38116,6,0,P|463:128|464:218,1,155,4|0,3:0|1:0,0:0:0:0:
352,341,38630,1,0,0:0:0:0:
352,341,38802,2,0,P|364:285|356:230,1,77.5,4|2,3:0|0:0,0:0:0:0:
172,150,39144,2,0,P|186:124|221:86,1,77.5,0|0,1:0|0:0,0:0:0:0:
320,17,39488,6,0,P|282:27|244:32,1,77.5,4|0,3:0|0:0,0:0:0:0:
53,67,39830,1,0,1:0:0:0:
197,214,40002,1,0,0:0:0:0:
197,214,40173,2,0,P|261:183|354:163,1,155,4|0,3:0|1:0,0:0:0:0:
271,318,40688,5,4,3:0:0:0:
271,318,40773,1,4,3:0:0:0:
271,318,40859,2,0,P|198:342|106:336,1,155,4|0,0:0|1:0,0:0:0:0:
22,211,41373,2,0,L|36:127,1,77.5,6|0,3:0|0:0,0:0:0:0:
178,131,41716,2,0,L|168:40,1,77.5,4|0,0:0|1:0,0:0:0:0:
336,126,42059,2,0,P|396:193|477:242,1,155,4|0,1:0|0:0,0:0:0:0:
474,246,42488,1,4,3:0:0:0:
487,267,42573,2,0,L|475:358,1,77.5,0|0,1:0|0:0,0:0:0:0:
308,325,42916,1,4,3:0:0:0:
308,325,43087,2,0,L|261:316,3,38.75,4|4|4|4,3:0|3:0|3:0|3:0,0:0:0:0:
240,310,43430,1,4,3:0:0:0:
214,285,43516,1,4,3:0:0:0:
203,246,43602,6,0,P|209:202|245:133,2,116.250004434586,4|4|4,3:0|3:0|3:0,0:0:0:0:
324,208,44630,2,0,P|334:163|334:135,1,58.1250022172929,4|0,3:0|0:0,0:0:0:0:
395,36,44973,6,0,P|438:45|475:48,1,58.1250022172929,4|0,3:0|0:0,0:0:0:0:
512,117,45316,1,4,3:0:0:0:
512,117,45487,2,0,L|473:115,2,29.0625011086464,0|0|4,1:0|1:0|1:3,0:0:0:0:
473,226,45830,1,0,0:0:0:0:
473,226,46002,1,4,3:0:0:0:
473,226,46173,1,0,0:0:0:0:
366,221,46345,6,0,P|375:175|411:100,2,116.250004434586,4|4|4,0:0|3:0|3:0,0:0:0:0:
289,87,47373,2,0,P|284:61|252:24,1,58.1250022172929,4|0,3:0|0:0,0:0:0:0:
154,34,47716,1,4,3:0:0:0:
31,135,47887,2,0,L|-1:133,3,29.0625011086464,0|0|0|0,1:0|1:0|1:0|1:0,0:0:0:0:
1,166,48230,1,0,1:0:0:0:
3,181,48316,1,4,3:0:0:0:
18,198,48401,1,0,1:0:0:0:
48,202,48487,1,4,3:0:0:0:
83,185,48573,1,4,3:0:0:0:
131,313,48744,2,0,L|135:354,3,29.0625011086464,4|4|4|4,3:0|3:0|3:0|3:0,0:0:0:0:
160,356,49088,6,0,L|257:363,1,77.5,4|0,0:0|0:0,0:0:0:0:
376,282,49430,1,0,1:0:0:0:
376,282,49602,2,0,P|379:225|379:167,1,77.5,4|0,3:0|0:0,0:0:0:0:
253,62,49945,1,4,3:0:0:0:
253,62,50030,1,4,3:0:0:0:
253,62,50116,2,0,L|156:79,1,77.5,0|0,1:0|0:0,0:0:0:0:
61,269,50459,5,4,3:0:0:0:
61,269,50630,1,4,3:0:0:0:
106,97,50802,1,0,1:0:0:0:
271,321,50973,2,0,P|340:294|399:235,1,155,4|4,0:0|3:0,0:0:0:0:
285,94,51488,1,0,1:0:0:0:
129,226,51659,1,2,0:0:0:0:
129,226,51745,1,0,0:0:0:0:
129,226,51830,6,0,P|82:214|37:172,1,77.5,4|0,3:0|0:0,0:0:0:0:
20,114,52087,2,0,P|62:105|103:118,1,77.5,2|0,0:0|0:0,0:0:0:0:
233,83,52345,1,0,1:0:0:0:
233,83,52430,1,0,1:0:0:0:
233,83,52516,2,0,P|233:136|226:195,1,77.5,4|0,3:0|0:0,0:0:0:0:
283,276,52773,2,0,P|340:283|395:302,1,116.25,2|0,0:0|0:0,0:0:0:0:
491,197,53202,5,4,3:0:0:0:
357,53,53373,1,0,1:0:0:0:
357,53,53459,1,0,1:0:0:0:
357,53,53545,1,0,1:0:0:0:
253,192,53716,1,0,1:0:0:0:
253,192,53802,1,0,1:0:0:0:
253,192,53888,6,0,P|266:248|331:297,1,116.25,2|4,0:0|3:0,0:0:0:0:
314,112,54402,2,0,P|305:95|289:78,1,38.75,0|0,1:0|0:0,0:0:0:0:
213,90,54573,2,0,P|301:64|321:-18,1,155,4|0,0:0|0:0,0:0:0:0:
213,90,55088,5,2,0:0:0:0:
213,90,55259,1,0,0:0:0:0:
203,174,55431,1,2,0:0:0:0:
203,174,55602,1,0,0:0:0:0:
134,127,55773,1,2,0:0:0:0:
305,24,55945,6,0,P|402:31|452:109,1,185.999994323731,4|0,0:0|1:0,0:0:0:0:
371,256,56459,1,0,0:0:0:0:
371,256,56630,2,0,L|261:264,1,92.9999971618653,4|0,3:0|0:0,0:0:0:0:
364,102,56973,2,0,L|473:102,1,92.9999971618653,0|0,1:0|0:0,0:0:0:0:
269,136,57316,2,0,P|253:217|238:352,1,185.999994323731,4|0,3:0|1:0,0:0:0:0:
118,225,57830,1,0,0:0:0:0:
118,225,58002,6,0,L|106:126,1,92.9999971618653,4|0,3:0|0:0,0:0:0:0:
214,12,58345,2,0,L|210:131,1,92.9999971618653,0|0,1:0|0:0,0:0:0:0:
325,145,58688,6,0,P|384:142|454:129,1,92.9999971618653,4|0,3:0|0:0,0:0:0:0:
476,320,59030,2,0,P|403:325|272:353,1,185.999994323731,0|4,1:0|3:0,0:0:0:0:
163,287,59545,1,4,3:0:0:0:
163,287,59716,2,0,L|176:192,1,92.9999971618653,0|0,1:0|0:0,0:0:0:0:
328,121,60059,2,0,P|321:193|319:214,1,92.9999971618653,4|4,3:0|3:0,0:0:0:0:
431,158,60402,1,0,1:0:0:0:
361,43,60573,2,0,L|391:-9,2,46.4999985809327,4|4|4,3:0|3:0|3:0,0:0:0:0:
319,213,60916,1,4,3:0:0:0:
437,70,61087,5,0,1:0:0:0:
238,39,61259,1,2,0:0:0:0:
238,39,61430,2,0,P|197:77|161:122,1,92.9999971618653,4|0,0:0|0:0,0:0:0:0:
63,259,61773,1,2,0:0:0:0:
63,259,61945,2,0,P|136:249|239:318,1,185.999994323731,4|0,3:0|0:0,0:0:0:0:
411,367,62459,5,0,1:0:0:0:
311,223,62630,2,0,L|263:208,2,46.4999985809327,2|0|0,0:0|1:0|1:0,0:0:0:0:
452,198,62973,1,4,3:0:0:0:
341,44,63144,1,0,1:0:0:0:
341,44,63316,2,0,P|265:75|206:171,1,185.999994323731,4|4,3:0|3:0,0:0:0:0:
84,252,63830,2,0,P|79:201|64:158,1,92.9999971618653,0|2,1:0|0:0,0:0:0:0:
156,318,64173,2,0,B|239:306|252:361|337:344,1,185.999994323731,4|0,0:0|1:0,0:0:0:0:
302,211,64688,5,4,3:0:0:0:
446,85,64859,2,0,P|398:25|355:5,1,92.9999971618653,0|0,1:0|0:0,0:0:0:0:
268,126,65116,2,0,P|279:177|326:231,1,92.9999971618653,4|0,3:0|0:0,0:0:0:0:
160,152,65373,2,0,L|78:172,1,46.4999985809327,0|0,0:1|0:0,0:0:0:0:
76,139,65545,2,0,P|186:163|274:150,1,185.999994323731,4|0,1:0|0:0,0:0:0:0:
247,25,66059,1,2,0:0:0:0:
476,38,66230,2,0,L|490:102,3,46.4999985809327,0|0|0|0,1:0|1:0|1:0|1:0,0:0:0:0:
489,133,66573,1,0,1:0:0:0:
464,163,66659,1,0,1:0:0:0:
417,168,66745,1,0,1:0:0:0:
377,160,66830,1,0,1:0:0:0:
340,135,66916,6,0,P|333:223|209:268,1,201.499990776062,4|0,0:0|1:0,0:0:0:0:
246,132,67430,1,0,0:0:0:0:
246,132,67602,2,0,P|309:119|356:153,1,100.749995388031,4|0,3:0|0:0,0:0:0:0:
241,274,67945,2,0,P|194:260|136:216,1,100.749995388031,0|0,1:0|0:0,0:0:0:0:
36,85,68288,2,0,P|37:188|34:297,1,201.499990776062,4|0,3:0|1:0,0:0:0:0:
250,359,68802,1,0,0:0:0:0:
250,359,68973,6,0,L|360:343,1,100.749995388031,4|0,3:0|0:0,0:0:0:0:
399,179,69316,2,0,L|294:188,1,100.749995388031,0|0,1:0|0:0,0:0:0:0:
157,164,69659,2,0,P|166:92|173:58,1,100.749995388031,4|0,3:0|0:0,0:0:0:0:
298,187,70002,2,0,P|301:249|293:316,1,100.749995388031,0|0,1:0|0:0,0:0:0:0:
123,359,70345,1,4,3:0:0:0:
30,235,70516,1,4,3:0:0:0:
30,235,70688,2,0,P|80:222|129:207,1,100.749995388031,0|0,1:0|0:0,0:0:0:0:
283,276,71030,5,4,3:0:0:0:
421,121,71201,2,0,L|472:93,2,50.3749976940156,4|0|0,3:0|0:0|1:0,0:0:0:0:
215,97,71545,1,4,3:0:0:0:
283,276,71716,1,4,3:0:0:0:
313,265,71802,1,4,3:0:0:0:
351,267,71888,1,4,3:0:0:0:
383,280,71973,1,4,3:0:0:0:
402,312,72059,5,0,1:0:0:0:
471,78,72230,1,2,0:0:0:0:
471,78,72401,2,0,P|421:75|358:64,1,100.749995388031,4|0,0:0|0:0,0:0:0:0:
178,61,72745,1,2,0:0:0:0:
178,61,72916,2,0,P|141:112|195:226,1,201.499990776062,4|0,3:0|0:0,0:0:0:0:
194,225,73345,1,0,0:0:0:0:
194,225,73430,5,0,1:0:0:0:
285,37,73602,1,2,0:0:0:0:
285,37,73773,2,0,P|336:39|417:31,1,100.749995388031,0|4,1:0|3:0,0:0:0:0:
507,174,74116,2,0,L|440:155,1,50.3749976940156,0|0,1:0|0:0,0:0:0:0:
419,140,74288,2,0,P|361:205|347:251,1,100.749995388031,4|0,3:0|0:0,0:0:0:0:
370,369,74630,5,4,3:0:0:0:
370,369,74802,1,0,1:0:0:0:
465,261,74973,1,2,0:0:0:0:
465,261,75058,1,0,0:0:0:0:
465,261,75145,2,0,P|464:211|456:138,1,100.749995388031,4|0,0:0|0:0,0:0:0:0:
315,39,75488,2,0,P|274:47|205:86,1,100.749995388031,0|0,1:0|0:0,0:0:0:0:
40,129,75830,1,4,3:0:0:0:
40,129,76002,1,4,3:0:0:0:
23,318,76173,2,0,P|91:311|141:277,1,100.749995388031,0|0,1:0|0:0,0:0:0:0:
320,239,76516,2,0,P|325:138|314:34,1,201.499990776062,4|0,3:0|1:0,0:0:0:0:
116,90,77030,1,0,1:0:0:0:
236,9,77202,1,4,3:0:0:0:
116,90,77373,2,0,L|109:149,3,50.3749976940156,0|0|0|0,1:0|1:0|1:0|1:0,0:0:0:0:
114,175,77716,1,0,1:0:0:0:
138,192,77801,1,0,1:0:0:0:
190,204,77888,6,0,P|246:122|340:66,2,201.499990776062,4|2|0,0:0|0:0|1:0,0:0:0:0:
94,342,78916,2,0,L|-10:304,1,100.749995388031,0|4,0:0|3:0,0:0:0:0:
214,356,79259,5,4,1:0:0:0:
282,52,79516,1,4,1:0:0:0:
11,100,79773,1,4,3:0:0:0:
111,40,79945,2,0,P|67:89|108:232,1,201.499990776062,4|2,0:0|0:0,0:0:0:0:
390,271,80630,6,0,L|408:386,2,100.749995388031,0|4|4,1:0|3:0|3:0,0:0:0:0:
274,114,81144,2,0,L|293:0,2,100.749995388031,4|4|4,3:0|3:0|3:0,0:0:0:0:
292,336,81659,5,0,1:0:0:0:
373,153,81830,1,4,3:0:0:0:
164,190,82002,1,4,3:0:0:0:
187,324,82173,5,0,1:0:0:0:
273,210,82345,1,4,3:0:0:0:
386,284,82516,1,4,3:0:0:0:
274,114,82688,5,0,1:0:0:0:
94,295,82859,1,0,1:0:0:0:
94,295,83030,1,2,0:0:0:0:
67,289,83116,1,2,0:0:0:0:
49,265,83202,1,2,0:0:0:0:
44,233,83288,1,2,0:0:0:0:
60,196,83373,5,4,3:0:0:0:
52,112,94345,6,0,P|51:77|57:43,2,54.2499983444214,4|4|0,3:0|3:0|0:0,0:0:0:0:
65,200,94859,2,0,P|123:160|141:71,1,162.749995033264,2|0,0:0|0:0,0:0:0:0:
233,128,95545,1,4,3:0:0:0:
233,128,95716,2,0,P|270:194|311:218,1,108.499996688843,2|4,0:0|3:0,0:0:0:0:
451,195,96230,2,0,P|459:141|472:82,1,108.499996688843,2|0,0:0|0:0,0:0:0:0:
354,36,96916,5,2,0:0:0:0:
354,36,97002,1,2,0:0:0:0:
354,36,97088,2,0,L|280:40,2,54.2499983444214,4|4|0,3:0|3:0|0:0,0:0:0:0:
371,123,97602,2,0,P|308:127|201:148,1,162.749995033264,0|4,0:0|3:0,0:0:0:0:
116,77,98288,2,0,L|122:205,1,108.499996688843,4|4,3:0|3:0,0:0:0:0:
54,283,98802,2,0,L|56:216,2,54.2499983444214,0|0|0,1:0|0:0|1:0,0:0:0:0:
170,336,99316,1,4,3:0:0:0:
170,336,99488,1,0,1:0:0:0:
300,374,99659,5,0,1:0:0:0:
300,374,99745,1,0,1:0:0:0:
300,374,99830,2,0,P|308:306|289:251,1,108.499996688843,4|0,0:0|0:0,0:0:0:0:
410,197,100516,2,0,L|410:271,2,54.2499983444214,0|4|0,1:0|3:0|0:0,0:0:0:0:
329,117,101030,1,0,3:0:0:0:
329,117,101116,1,0,3:0:0:0:
329,117,101202,2,0,P|275:124|221:118,1,108.499996688843,4|0,3:0|0:0,0:0:0:0:
82,41,101888,2,0,P|135:32|189:38,1,108.499996688843,0|0,1:0|0:0,0:0:0:0:
388,72,102573,5,4,3:0:0:0:
388,72,102745,1,4,3:0:0:0:
342,211,102916,1,0,1:0:0:0:
342,211,103088,2,0,L|233:196,1,108.499996688843,4|4,3:0|3:0,0:0:0:0:
88,156,103602,1,0,1:0:0:0:
88,156,103773,2,0,P|89:74|101:43,1,108.499996688843,4|4,3:0|3:0,0:0:0:0:
97,49,104202,1,4,3:0:0:0:
97,49,104288,1,0,0:0:0:0:
299,52,104459,1,0,0:0:0:0:
299,52,104630,1,4,3:0:0:0:
245,267,104801,2,0,P|210:265|193:268,3,27.1249991722107,0|0|0|0,1:0|1:0|1:0|1:0,0:0:0:0:
184,260,105145,1,0,1:0:0:0:
156,236,105230,1,0,1:0:0:0:
136,191,105316,6,0,P|157:168|211:142,2,77.5,4|0|0,3:0|0:0|1:0,0:0:0:0:
45,292,105831,2,0,P|58:232|31:113,1,155,0|2,0:0|0:0,0:0:0:0:
153,51,106345,1,0,1:0:0:0:
153,51,106516,1,0,0:0:0:0:
153,51,106688,6,0,P|281:54|335:41,1,155,4|0,3:0|1:0,0:0:0:0:
362,173,107202,2,0,L|281:163,1,77.5,0|4,0:0|3:0,0:0:0:0:
369,290,107545,2,0,L|463:308,1,77.5,4|0,3:0|1:0,0:0:0:0:
501,174,107888,5,4,3:0:0:0:
501,174,107974,1,4,3:0:0:0:
500,173,108059,2,0,P|499:129|484:75,1,77.5,4|0,3:0|0:0,0:0:0:0:
341,48,108402,1,0,1:0:0:0:
341,48,108574,2,0,B|304:67|273:92|230:33|208:38|171:60,1,155,0|2,0:0|0:0,0:0:0:0:
79,145,109087,1,0,1:0:0:0:
79,145,109259,2,0,P|47:198|72:298,1,155,0|0,0:0|0:0,0:0:0:0:
182,367,109774,2,0,P|213:318|226:286,1,77.5,0|0,1:0|0:0,0:0:0:0:
356,222,110116,6,0,L|461:232,1,77.5,4|4,3:0|3:0,0:0:0:0:
352,90,110459,2,0,L|274:102,1,77.5,0|4,1:0|3:0,0:0:0:0:
130,153,110802,6,0,P|121:69|103:-21,1,155,4|0,3:0|1:0,0:0:0:0:
39,125,111316,1,0,0:0:0:0:
39,125,111488,2,0,P|37:163|40:208,1,77.5,4|2,3:0|0:0,0:0:0:0:
17,343,111830,2,0,P|49:338|119:328,1,77.5,0|0,1:0|0:0,0:0:0:0:
251,293,112174,6,0,P|249:255|239:212,1,77.5,4|0,3:0|0:0,0:0:0:0:
479,157,112516,1,0,1:0:0:0:
299,27,112688,1,0,0:0:0:0:
299,27,112859,2,0,P|346:87|347:189,1,155,4|0,3:0|1:0,0:0:0:0:
248,290,113374,5,4,3:0:0:0:
248,290,113459,1,4,3:0:0:0:
248,290,113545,2,0,P|325:292|412:315,1,155,4|0,0:0|1:0,0:0:0:0:
474,161,114059,2,0,L|488:77,1,77.5,6|0,3:0|0:0,0:0:0:0:
388,142,114402,2,0,L|393:236,1,77.5,4|0,0:0|1:0,0:0:0:0:
250,284,114745,2,0,P|186:239|136:180,1,155,4|0,1:0|0:0,0:0:0:0:
157,167,115174,1,4,3:0:0:0:
170,190,115259,2,0,L|158:281,1,77.5,0|0,1:0|0:0,0:0:0:0:
21,350,115602,1,4,3:0:0:0:
21,350,115773,2,0,L|23:307,3,38.75,4|4|4|4,3:0|3:0|3:0|3:0,0:0:0:0:
33,267,116116,1,4,3:0:0:0:
63,237,116202,1,4,3:0:0:0:
99,223,116288,6,0,P|146:217|219:239,2,116.250004434586,4|4|4,3:0|3:0|3:0,0:0:0:0:
217,125,117316,2,0,P|246:134|292:134,1,58.1250022172929,4|0,3:0|0:0,0:0:0:0:
360,43,117659,6,0,P|403:52|452:111,1,116.250004434586,4|4,3:0|3:0,0:0:0:0:
499,217,118173,2,0,L|501:262,2,29.0625011086464,0|0|4,1:0|1:0|1:3,0:0:0:0:
417,300,118516,1,0,0:0:0:0:
417,300,118688,1,4,3:0:0:0:
417,300,118859,1,0,0:0:0:0:
328,320,119031,6,0,P|306:317|208:342,2,116.250004434586,4|4|4,0:0|3:0|3:0,0:0:0:0:
160,257,120059,2,0,P|132:261|91:251,1,58.1250022172929,4|0,3:0|0:0,0:0:0:0:
119,73,120402,1,4,3:0:0:0:
266,138,120573,2,0,L|301:112,3,29.0625011086464,0|0|0|0,1:0|1:0|1:0|1:0,0:0:0:0:
319,118,120916,1,0,1:0:0:0:
331,134,121002,1,4,3:0:0:0:
334,165,121087,1,0,1:0:0:0:
311,195,121173,1,4,3:0:0:0:
264,194,121259,1,4,3:0:0:0:
125,345,121430,2,0,L|82:332,3,29.0625011086464,4|4|4|4,3:0|3:0|3:0|3:0,0:0:0:0:
67,299,121774,6,0,L|90:221,1,77.5,4|0,0:0|0:0,0:0:0:0:
209,98,122116,1,0,1:0:0:0:
209,98,122288,2,0,P|212:155|212:213,1,77.5,4|0,3:0|0:0,0:0:0:0:
312,292,122631,1,4,3:0:0:0:
312,292,122716,1,4,3:0:0:0:
312,292,122802,2,0,L|405:281,1,77.5,0|0,1:0|0:0,0:0:0:0:
474,154,123145,5,4,3:0:0:0:
474,154,123316,1,4,3:0:0:0:
424,7,123488,1,0,1:0:0:0:
234,99,123659,2,0,P|316:129|318:216,1,155,4|4,0:0|3:0,0:0:0:0:
210,266,124174,1,0,1:0:0:0:
134,127,124345,1,2,0:0:0:0:
134,127,124431,1,0,0:0:0:0:
134,127,124516,6,0,P|138:66|127:10,1,116.25,4|2,3:0|0:0,0:0:0:0:
45,145,125031,1,0,1:0:0:0:
45,145,125116,1,0,1:0:0:0:
45,145,125202,2,0,P|45:198|59:251,1,77.5,4|0,3:0|0:0,0:0:0:0:
22,346,125459,2,0,P|79:353|146:332,1,116.25,2|0,0:0|0:0,0:0:0:0:
284,348,125888,5,4,3:0:0:0:
164,240,126059,1,0,1:0:0:0:
164,240,126145,1,0,1:0:0:0:
164,240,126231,1,0,1:0:0:0:
325,199,126402,1,0,1:0:0:0:
325,199,126488,1,0,1:0:0:0:
325,199,126574,6,0,P|380:228|423:235,1,77.5,2|0,0:0|0:0,0:0:0:0:
497,229,126830,2,0,P|504:191|513:147,1,77.5
438,68,127088,2,0,P|429:51|413:34,1,38.75,0|0,1:0|0:0,0:0:0:0:
310,19,127259,2,0,P|266:80|242:164,1,155,4|0,0:0|0:0,0:0:0:0:
209,290,127774,5,2,0:0:0:0:
209,290,127859,1,0,0:0:0:0:
209,290,127945,1,2,0:0:0:0:
209,290,128030,1,2,0:0:0:0:
209,290,128117,1,2,0:0:0:0:
242,155,128288,1,2,0:0:0:0:
85,189,128459,1,2,0:0:0:0:
198,67,128631,6,0,P|282:72|329:160,1,185.999994323731,4|0,0:0|1:0,0:0:0:0:
468,266,129145,1,0,0:0:0:0:
468,266,129316,2,0,L|485:372,1,92.9999971618653,4|0,3:0|0:0,0:0:0:0:
309,314,129659,2,0,P|259:319|200:314,1,92.9999971618653,0|0,1:0|0:0,0:0:0:0:
187,156,130002,2,0,P|213:86|328:60,1,185.999994323731,4|0,3:0|1:0,0:0:0:0:
453,97,130516,1,0,0:0:0:0:
453,97,130688,6,0,B|461:52|461:52|441:0,1,92.9999971618653,4|0,3:0|0:0,0:0:0:0:
317,97,131031,2,0,P|307:146|311:217,1,92.9999971618653,0|0,1:0|0:0,0:0:0:0:
375,310,131374,6,0,P|325:310|282:317,1,92.9999971618653,4|0,3:0|0:0,0:0:0:0:
121,331,131716,2,0,P|118:252|234:203,1,185.999994323731,0|4,1:0|3:0,0:0:0:0:
317,97,132231,1,4,3:0:0:0:
317,97,132402,2,0,L|196:99,1,92.9999971618653,0|0,1:0|0:0,0:0:0:0:
94,18,132745,2,0,P|87:90|64:148,1,92.9999971618653,4|4,3:0|3:0,0:0:0:0:
59,272,133088,1,0,1:0:0:0:
186,118,133259,2,0,L|183:65,2,46.4999985809327,4|4|4,3:0|3:0|3:0,0:0:0:0:
256,308,133602,1,4,3:0:0:0:
59,272,133773,5,0,1:0:0:0:
97,94,133945,1,2,0:0:0:0:
97,94,134116,2,0,P|120:59|174:15,1,92.9999971618653,4|0,0:0|0:0,0:0:0:0:
344,17,134459,1,2,0:0:0:0:
344,17,134631,2,0,P|363:124|328:219,1,185.999994323731,4|0,3:0|0:0,0:0:0:0:
160,302,135145,5,0,1:0:0:0:
251,149,135316,2,0,L|241:97,2,46.4999985809327,2|0|0,0:0|1:0|1:0,0:0:0:0:
120,23,135659,1,4,3:0:0:0:
378,26,135830,1,0,1:0:0:0:
378,26,136002,2,0,P|454:57|487:152,1,185.999994323731,4|4,3:0|3:0,0:0:0:0:
368,240,136516,2,0,P|363:189|380:138,1,92.9999971618653,0|2,1:0|0:0,0:0:0:0:
244,328,136859,2,0,B|159:345|146:290|59:311,1,185.999994323731,4|0,0:0|1:0,0:0:0:0:
110,122,137374,5,4,3:0:0:0:
207,4,137545,2,0,P|269:32|303:77,1,92.9999971618653,0|4,1:0|3:0,0:0:0:0:
418,137,137801,2,0,P|467:151|528:121,1,92.9999971618653,4|0,3:0|0:0,0:0:0:0:
448,303,138059,2,0,P|410:308|366:323,1,46.4999985809327,0|0,0:1|0:0,0:0:0:0:
410,382,138231,2,0,P|321:349|226:369,1,185.999994323731,4|0,1:0|0:0,0:0:0:0:
22,239,138745,1,2,0:0:0:0:
131,44,138916,2,0,L|192:41,3,46.4999985809327,0|0|0|0,1:0|1:0|1:0|1:0,0:0:0:0:
219,49,139259,1,0,1:0:0:0:
213,97,139345,1,0,1:0:0:0:
232,134,139431,1,0,1:0:0:0:
268,153,139516,1,0,1:0:0:0:
318,162,139602,6,0,P|311:250|187:295,1,201.499990776062,4|0,0:0|1:0,0:0:0:0:
44,311,140116,1,0,0:0:0:0:
44,311,140288,2,0,P|54:277|44:197,1,100.749995388031,4|0,3:0|0:0,0:0:0:0:
195,43,140631,2,0,P|152:67|124:122,1,100.749995388031,0|0,1:0|0:0,0:0:0:0:
296,45,140974,2,0,P|371:76|504:61,1,201.499990776062,4|0,3:0|1:0,0:0:0:0:
497,223,141488,1,0,0:0:0:0:
497,223,141659,6,0,L|510:343,1,100.749995388031,4|0,3:0|0:0,0:0:0:0:
348,292,142002,2,0,P|289:287|240:295,1,100.749995388031,0|0,1:0|0:0,0:0:0:0:
128,184,142345,2,0,P|137:112|151:78,1,100.749995388031,4|0,3:0|0:0,0:0:0:0:
248,192,142688,2,0,P|251:254|243:321,1,100.749995388031,0|0,1:0|0:0,0:0:0:0:
183,102,143031,1,4,3:0:0:0:
355,131,143202,1,4,3:0:0:0:
355,131,143374,2,0,P|416:134|465:119,1,100.749995388031,0|0,1:0|0:0,0:0:0:0:
474,282,143716,5,4,3:0:0:0:
337,188,143887,2,0,L|339:270,2,50.3749976940156,4|0|0,3:0|0:0|1:0,0:0:0:0:
199,354,144231,1,4,3:0:0:0:
128,145,144402,1,4,3:0:0:0:
154,133,144488,1,4,3:0:0:0:
193,142,144574,1,4,3:0:0:0:
215,170,144659,1,4,3:0:0:0:
214,207,144745,5,0,1:0:0:0:
332,113,144916,1,2,0:0:0:0:
332,113,145087,2,0,P|337:69|354:12,1,100.749995388031,4|0,0:0|0:0,0:0:0:0:
478,131,145431,1,2,0:0:0:0:
478,131,145602,2,0,P|471:210|466:348,1,201.499990776062,4|0,3:0|0:0,0:0:0:0:
466,332,146031,1,0,0:0:0:0:
466,332,146116,5,0,1:0:0:0:
287,260,146288,1,2,0:0:0:0:
287,260,146459,2,0,P|336:243|403:231,1,100.749995388031,0|4,1:0|3:0,0:0:0:0:
348,79,146802,2,0,L|281:72,1,50.3749976940156,0|0,1:0|0:0,0:0:0:0:
267,54,146974,2,0,P|209:119|195:165,1,100.749995388031,4|0,3:0|0:0,0:0:0:0:
333,178,147316,5,4,3:0:0:0:
333,178,147488,1,0,1:0:0:0:
105,183,147659,1,2,0:0:0:0:
105,183,147744,1,0,0:0:0:0:
105,183,147831,2,0,P|92:129|62:63,1,100.749995388031,4|0,0:0|0:0,0:0:0:0:
23,318,148174,2,0,P|67:294|116:284,1,100.749995388031,0|0,1:0|0:0,0:0:0:0:
294,307,148516,1,4,3:0:0:0:
294,307,148688,1,4,3:0:0:0:
316,107,148859,2,0,P|301:64|240:20,1,100.749995388031,0|0,1:0|0:0,0:0:0:0:
257,176,149202,2,0,P|325:193|426:114,1,201.499990776062,4|0,3:0|1:0,0:0:0:0:
496,291,149716,1,0,1:0:0:0:
424,119,149888,1,4,3:0:0:0:
496,291,150059,2,0,L|464:337,3,50.3749976940156,0|0|0|0,1:0|1:0|1:0|1:0,0:0:0:0:
443,348,150402,1,0,1:0:0:0:
419,351,150487,1,0,1:0:0:0:
386,337,150574,6,0,P|311:325|168:387,2,201.499990776062,4|2|0,0:0|0:0|1:0,0:0:0:0:
384,156,151602,2,0,L|478:190,1,100.749995388031,0|4,0:0|3:0,0:0:0:0:
366,56,151945,5,4,1:0:0:0:
250,289,152202,1,4,1:0:0:0:
160,49,152459,1,4,3:0:0:0:
232,28,152631,2,0,P|188:77|142:210,1,201.499990776062,4|2,0:0|0:0,0:0:0:0:
51,233,153316,6,0,P|117:231|242:262,1,185.999994323731,2|0,0:0|0:0,0:0:0:0:
259,204,155030,6,0,P|297:229|347:274,1,92.9999971618653,2|0,0:0|0:0,0:0:0:0:
345,192,156402,2,0,L|361:283,1,92.9999971618653,2|0,0:0|0:0,0:0:0:0:
464,376,157088,1,0,0:0:0:0:
464,376,157430,2,0,P|404:345|287:348,1,185.999994323731,2|2,0:0|0:0,0:0:0:0:
156,361,158802,1,0,0:0:0:0:
155,360,159145,6,0,P|142:316|137:270,1,92.9999971618653,2|0,0:0|0:0,0:0:0:0:
77,154,160516,2,0,P|127:143|181:145,1,92.9999971618653,2|0,0:0|0:0,0:0:0:0:
337,70,161373,1,4,3:0:0:0:
342,77,161459,1,4,3:0:0:0:
342,77,161545,6,0,P|348:150|353:229,1,139.499995742798,4|0,1:0|0:0,0:0:0:0:
452,273,162230,6,0,P|466:332|472:365,2,77.5,0|0|0,1:0|1:0|1:0,0:0:0:0:
334,154,162744,2,0,P|336:119|346:53,2,77.5,0|0|0,1:0|1:0|1:0,0:0:0:0:
231,252,163259,2,0,L|231:346,1,77.5,0|0,1:0|0:0,0:0:0:0:
146,182,163601,2,0,L|155:95,1,77.5,0|0,1:0|1:0,0:0:0:0:
335,78,163944,1,0,1:0:0:0:
485,192,164116,1,0,1:0:0:0:
485,192,164288,6,0,L|411:215,1,77.5,4|0,1:0|0:0,0:0:0:0:
492,224,164630,2,0,L|397:256,1,77.5,4|0,3:0|0:0,0:0:0:0:
280,321,164973,2,0,P|179:299|25:335,1,232.5,4|0,3:0|1:0,0:0:0:0:
31,98,165659,1,0,1:0:0:0:
35,102,165830,2,0,L|20:52,4,38.75,4|4|4|4|0,3:0|3:0|3:0|3:0|1:0,0:0:0:0:
167,170,166344,2,0,L|175:217,3,38.75,4|4|4|4,3:0|3:0|3:0|3:0,0:0:0:0:
160,234,166687,1,0,1:0:0:0:
277,356,166859,1,2,0:0:0:0:
277,356,166945,1,2,0:0:0:0:
277,356,167030,6,0,P|328:333|371:318,1,77.5,4|0,0:0|0:0,0:0:0:0:
488,181,167373,2,0,L|471:119,3,38.75,0|0|0|0,1:0|3:0|3:0|3:0,0:0:0:0:
458,102,167716,2,0,P|417:91|374:85,1,77.5,4|4,3:0|3:0,0:0:0:0:
130,37,168059,2,0,L|101:92,3,38.75,0|0|0|0,1:0|3:0|3:0|3:0,0:0:0:0:
88,106,168402,2,0,P|130:178|71:240,1,155,4|0,3:0|1:0,0:0:0:0:
350,343,169088,6,0,P|410:328|470:329,1,116.25,4|2,3:0|0:0,0:0:0:0:
325,195,169602,2,0,L|266:194,1,38.75,2|0,0:0|0:0,0:0:0:0:
200,166,169773,2,0,P|214:124|241:68,1,77.5,4|0,0:0|3:0,0:0:0:0:
427,52,170116,1,0,1:0:0:0:
427,52,170288,2,0,P|433:122|431:154,1,77.5,0|4,3:0|3:0,0:0:0:0:
401,285,170630,2,0,L|426:336,2,38.75,4|4|0,3:0|3:0|1:0,0:0:0:0:
346,95,170973,1,2,0:0:0:0:
191,249,171145,1,4,3:0:0:0:
69,104,171316,2,0,L|98:57,1,51.6666666666667,2|0,3:0|3:0,0:0:0:0:
237,47,171573,2,0,L|269:97,1,38.75
191,249,171830,5,4,3:0:0:0:
156,252,171916,1,4,3:0:0:0:
129,236,172002,1,4,3:0:0:0:
120,203,172087,1,4,3:0:0:0:
114,169,172173,2,0,P|74:230|63:268,1,77.5,0|0,1:0|0:0,0:0:0:0:
204,367,172516,6,0,P|297:360|306:359,1,77.5,4|0,3:0|0:0,0:0:0:0:
375,153,172859,1,0,1:0:0:0:
185,167,173030,2,0,L|151:127,2,38.75,0|0|4,3:0|3:0|3:0,0:0:0:0:
375,153,173373,2,0,L|410:113,2,38.75,4|4|0,3:0|3:0|1:0,0:0:0:0:
297,334,173716,1,0,3:0:0:0:
297,334,173802,1,0,3:0:0:0:
297,334,173888,1,0,1:0:0:0:
185,167,174059,1,4,3:0:0:0:
185,167,174145,1,4,3:0:0:0:
185,167,174230,1,0,1:0:0:0:
394,99,174402,6,0,P|416:128|439:186,1,77.5,2|4,3:0|3:0,0:0:0:0:
249,276,174745,1,4,3:0:0:0:
223,85,174916,1,0,1:0:0:0:
53,147,175088,2,0,P|62:197|88:245,1,77.5,2|4,3:0|3:0,0:0:0:0:
252,348,175430,1,4,3:0:0:0:
252,348,175601,2,0,L|356:346,1,77.5,0|4,1:0|3:0,0:0:0:0:
471,168,175945,1,2,3:0:0:0:
259,104,176116,1,2,3:0:0:0:
259,104,176202,1,2,3:0:0:0:
259,104,176288,1,0,1:0:0:0:
340,309,176459,1,0,3:0:0:0:
471,168,176630,5,4,3:0:0:0:
471,168,176801,2,0,P|410:115|390:102,1,77.5,2|4,0:0|3:0,0:0:0:0:
256,58,177145,1,2,3:0:0:0:
256,58,177230,1,2,3:0:0:0:
256,58,177316,6,0,L|255:154,1,77.5,2|4,3:0|3:0,0:0:0:0:
119,131,177659,1,0,1:0:0:0:
192,279,177830,1,4,3:0:0:0:
192,279,177916,1,4,3:0:0:0:
192,279,178002,6,0,L|205:330,1,38.75,0|0,1:0|0:0,0:0:0:0:
326,270,178173,1,2,3:0:0:0:
259,83,178344,1,0,1:0:0:0:
259,83,178430,1,2,3:0:0:0:
259,83,178516,1,2,3:0:0:0:
259,83,178602,1,4,3:0:0:0:
259,83,178688,6,0,P|241:110|236:179,1,77.5,0|2,1:0|3:0,0:0:0:0:
256,348,179030,1,0,1:0:0:0:
256,348,179116,1,0,1:0:0:0:
256,348,179201,1,0,1:0:0:0:
256,348,179287,1,0,1:0:0:0:
256,348,179373,6,0,P|188:357|145:354,1,77.5,0|0,1:0|0:0,0:0:0:0:
18,217,179716,1,4,3:0:0:0:
115,50,179888,1,0,3:0:0:0:
115,50,179973,1,0,3:0:0:0:
115,50,180059,6,0,P|106:94|99:129,1,77.5,0|0,1:0|0:0,0:0:0:0:
277,231,180401,1,0,1:0:0:0:
411,68,180573,1,0,1:0:0:0:
411,68,180745,6,0,P|424:142|431:215,1,116.25,4|4,0:0|0:0,0:0:0:0:
318,267,181259,2,0,P|319:305|321:338,1,38.75,4|0,0:0|0:0,0:0:0:0:
280,332,181430,6,0,P|306:335|363:358,3,77.5,4|0|4|0,3:0|0:0|3:0|0:0,0:0:0:0:
217,345,182116,6,0,P|270:293|306:278,1,108.499996688843,0|0,0:0|0:0,0:0:0:0:
123,309,183488,2,0,P|124:347|118:373,1,54.2499983444214,2|0,0:0|0:0,0:0:0:0:
62,242,184173,6,0,P|76:218|98:196,1,54.2499983444214,2|0,0:0|0:0,0:0:0:0:
135,110,184859,2,0,L|69:107,2,54.2499983444214,2|0|2,0:0|0:0|0:0,0:0:0:0:
242,152,185888,1,2,0:0:0:0:
242,152,186230,2,0,P|278:155|360:146,1,108.499996688843,2|2,0:0|0:0,0:0:0:0:
455,245,187259,5,2,0:0:0:0:
455,245,187430,1,2,0:0:0:0:
455,245,187602,2,0,L|459:283,2,27.1249991722107,2|0|0,0:0|0:0|0:0,0:0:0:0:
383,170,188116,2,0,P|392:138|409:87,1,81.3749975166321,2|2,0:0|0:0,0:0:0:0:
299,82,188802,5,2,0:0:0:0:
299,82,188973,2,0,L|295:117,2,27.1249991722107,2|0|0,0:0|0:0|0:0,0:0:0:0:
206,84,189488,2,0,P|165:89|116:102,1,81.3749975166321,2|2,0:0|0:0,0:0:0:0:
79,179,190173,1,0,0:0:0:0:
79,179,190345,2,0,P|79:247|79:272,1,81.3749975166321,2|0,0:0|0:0,0:0:0:0:
43,345,191030,5,2,0:0:0:0:
125,333,191287,1,0,0:0:0:0:
125,333,191545,1,0,0:0:0:0:
125,333,191716,2,0,P|177:324|202:300,1,81.3749975166321,2|0,0:0|0:0,0:0:0:0:
183,259,192316,2,0,P|261:253|296:339,1,176.31249461937,2|0,3:0|0:0,0:0:0:0:
469,324,193602,5,2,0:0:0:0:
469,324,193773,2,0,P|472:286|506:232,1,77.5,0|0,3:0|0:0,0:0:0:0:
491,90,194116,1,2,0:0:0:0:
293,117,194287,1,2,0:0:0:0:
293,117,194373,1,2,0:0:0:0:
293,117,194459,6,0,P|321:122|289:252,1,185.999994323731,4|0,0:0|1:0,0:0:0:0:
143,271,194973,1,0,0:0:0:0:
143,271,195145,2,0,P|138:310|137:373,1,92.9999971618653,4|0,3:0|0:0,0:0:0:0:
245,221,195488,2,0,P|229:171|201:135,1,92.9999971618653,0|0,1:0|0:0,0:0:0:0:
114,58,195830,2,0,B|180:37|216:76|261:89|327:70,1,185.999994323731,4|0,3:0|1:0,0:0:0:0:
465,101,196344,1,0,0:0:0:0:
465,101,196516,6,0,P|443:151|432:222,1,92.9999971618653,4|0,3:0|0:0,0:0:0:0:
450,353,196859,2,0,P|435:300|408:251,1,92.9999971618653,0|0,1:0|0:0,0:0:0:0:
241,329,197202,6,0,P|169:332|127:298,1,92.9999971618653,4|0,3:0|0:0,0:0:0:0:
78,216,197544,2,0,P|77:122|63:30,1,185.999994323731,0|4,1:0|3:0,0:0:0:0:
206,34,198059,1,4,3:0:0:0:
206,34,198230,2,0,L|185:143,1,92.9999971618653,0|0,1:0|0:0,0:0:0:0:
312,268,198573,5,4,3:0:0:0:
312,268,198744,1,4,3:0:0:0:
317,128,198916,1,0,1:0:0:0:
470,222,199087,1,4,3:0:0:0:
292,322,199259,2,0,L|255:284,3,46.4999985809327,4|0|4|0,3:0|0:0|3:0|0:0,0:0:0:0:
228,312,199602,5,0,1:0:0:0:
290,125,199773,1,2,0:0:0:0:
118,44,199944,2,0,P|106:63|90:161,1,92.9999971618653,4|0,0:0|0:0,0:0:0:0:
35,292,200287,1,2,0:0:0:0:
35,292,200459,2,0,P|143:260|226:278,1,185.999994323731,4|0,3:0|0:0,0:0:0:0:
361,340,200973,5,0,1:0:0:0:
377,158,201144,1,2,0:0:0:0:
377,158,201230,1,0,1:0:0:0:
377,158,201316,1,0,1:0:0:0:
213,272,201487,1,4,3:0:0:0:
402,318,201659,2,0,L|448:325,1,46.4999985809327,0|0,1:0|0:0,0:0:0:0:
461,239,201830,2,0,P|474:141|401:77,1,185.999994323731,4|4,3:0|3:0,0:0:0:0:
418,82,202259,1,0,0:0:0:0:
418,82,202344,5,0,1:0:0:0:
205,96,202516,1,2,0:0:0:0:
315,242,202688,2,0,P|303:197|296:151,1,92.9999971618653,4|0,0:0|0:0,0:0:0:0:
296,151,202945,1,0,0:0:0:0:
296,151,203030,1,0,1:0:0:0:
433,247,203202,5,4,3:0:0:0:
433,247,203288,1,0,0:0:0:0:
433,247,203373,2,0,B|438:289|438:289|423:335|388:345,1,92.9999971618653,0|0,1:0|0:0,0:0:0:0:
315,242,203630,2,0,P|324:194|342:142,1,92.9999971618653,4|0,3:0|0:0,0:0:0:0:
183,272,203888,2,0,P|194:241|213:195,1,46.4999985809327,0|0,0:1|0:0,0:0:0:0:
118,213,204059,2,0,P|174:219|203:100,1,185.999994323731,4|0,1:0|0:0,0:0:0:0:
22,96,204573,1,2,0:0:0:0:
62,312,204744,2,0,L|111:321,3,46.4999985809327,0|0|0|0,1:0|1:0|1:0|1:0,0:0:0:0:
150,323,205087,1,0,1:0:0:0:
188,302,205173,1,0,1:0:0:0:
199,255,205259,1,0,1:0:0:0:
169,213,205344,1,0,1:0:0:0:
144,172,205430,6,0,P|193:254|301:237,1,201.499990776062,4|0,0:0|1:0,0:0:0:0:
435,112,205944,1,0,0:0:0:0:
435,112,206116,2,0,P|447:53|463:4,1,100.749995388031,4|0,3:0|0:0,0:0:0:0:
264,149,206459,2,0,P|278:199|293:273,1,100.749995388031,0|0,1:0|0:0,0:0:0:0:
456,313,206802,2,0,B|421:300|366:308|371:356|335:375|271:354,1,201.499990776062,4|0,3:0|1:0,0:0:0:0:
176,242,207316,1,0,0:0:0:0:
175,241,207487,6,0,P|174:196|205:136,1,100.749995388031,4|0,3:0|0:0,0:0:0:0:
316,52,207830,2,0,L|415:25,1,100.749995388031,0|0,1:0|0:0,0:0:0:0:
490,166,208173,2,0,P|441:153|390:150,1,100.749995388031,4|0,3:0|0:0,0:0:0:0:
288,227,208516,2,0,P|260:150|319:49,1,201.499990776062,0|4,1:0|3:0,0:0:0:0:
113,141,209030,1,4,3:0:0:0:
113,141,209202,2,0,P|119:209|116:276,1,100.749995388031,0|0,1:0|0:0,0:0:0:0:
40,365,209544,5,4,3:0:0:0:
40,365,209630,1,0,0:0:0:0:
40,365,209716,1,4,3:0:0:0:
113,141,209887,1,0,1:0:0:0:
224,314,210059,1,4,3:0:0:0:
291,91,210230,2,0,L|221:91,3,50.3749976940156,4|4|4|4,3:0|3:0|3:0|3:0,0:0:0:0:
209,93,210573,5,0,1:0:0:0:
209,93,210659,1,4,3:0:0:0:
209,93,210745,1,4,3:0:0:0:
328,242,210916,1,4,0:0:0:0:
380,63,211087,1,0,0:0:0:0:
188,196,211259,1,2,0:0:0:0:
187,195,211430,2,0,P|183:245|188:296,1,100.749995388031,4|0,3:0|0:0,0:0:0:0:
400,340,211773,2,0,L|461:348,2,50.3749976940156,0|0|0,0:0|0:0|1:0,0:0:0:0:
335,163,212117,1,0,0:0:0:0:
335,163,212202,1,0,1:0:0:0:
335,163,212287,5,0,1:0:0:0:
184,316,212459,1,4,3:0:0:0:
167,104,212630,2,0,P|174:78|190:32,1,50.3749976940156,0|0,1:0|0:0,0:0:0:0:
243,16,212802,2,0,B|209:29|168:49|142:-5|68:22,1,151.124993082047,4|0,3:0|0:0,0:0:0:0:
80,153,213144,5,4,3:0:0:0:
255,104,213316,1,0,1:0:0:0:
218,280,213487,1,2,0:0:0:0:
218,280,213572,1,0,0:0:0:0:
218,280,213659,2,0,P|155:267|90:268,1,100.749995388031,4|0,0:0|0:0,0:0:0:0:
123,70,214002,2,0,P|156:107|174:154,1,100.749995388031,0|0,1:0|0:0,0:0:0:0:
302,268,214344,2,0,P|319:214|348:163,1,100.749995388031,4|4,3:0|3:0,0:0:0:0:
481,28,214687,2,0,P|483:61|487:214,1,151.124993082047,0|0,1:0|0:0,0:0:0:0:
482,209,215030,6,0,P|418:209|374:220,1,100.749995388031,4|4,3:0|3:0,0:0:0:0:
193,326,215373,1,0,1:0:0:0:
206,94,215544,1,0,1:0:0:0:
382,217,215716,1,4,3:0:0:0:
193,326,215887,1,0,1:0:0:0:
175,304,215973,1,0,1:0:0:0:
167,279,216058,1,0,1:0:0:0:
170,246,216144,1,0,1:0:0:0:
185,221,216230,1,0,1:0:0:0:
213,210,216316,1,0,1:0:0:0:
242,206,216402,6,0,P|186:208|124:196,1,100.749995388031,4|0,0:0|0:0,0:0:0:0:
30,155,216744,2,0,P|27:114|15:53,1,100.749995388031,2|4,0:0|3:0,0:0:0:0:
141,201,217087,2,0,P|125:242|105:330,1,100.749995388031,0|4,1:0|3:0,0:0:0:0:
312,347,217430,2,0,L|426:343,1,100.749995388031,0|4,0:0|3:0,0:0:0:0:
487,194,217773,6,0,B|495:139|495:139|470:99,1,100.749995388031,4|0,1:0|0:0,0:0:0:0:
400,71,218030,1,4,1:0:0:0:
240,100,218288,2,0,L|226:177,1,50.3749976940156,4|0,3:0|0:0,0:0:0:0:
301,187,218459,2,0,P|207:224|119:316,1,201.499990776062,4|2,0:0|0:0,0:0:0:0:
84,340,219145,6,0,P|94:290|23:150,1,201.499990776062,4|0,0:0|1:0,0:0:0:0:
232,60,219659,1,0,0:0:0:0:
232,60,219830,2,0,P|200:95|176:158,1,100.749995388031,2|4,0:0|3:0,0:0:0:0:
265,264,220173,1,0,1:0:0:0:
329,81,220344,1,0,0:0:0:0:
329,81,220516,2,0,P|276:74|216:52,1,100.749995388031,4|4,3:0|3:0,0:0:0:0:
54,80,220859,1,0,1:0:0:0:
54,80,221030,2,0,P|84:162|62:309,1,201.499990776062,4|0,1:3|0:0,0:0:0:0:
211,384,221545,2,0,P|203:334|206:284,1,100.749995388031,2|0,0:0|0:0,0:0:0:0:
314,138,221888,6,0,P|361:109|412:96,1,100.749995388031,4|0,3:0|0:0,0:0:0:0:
511,266,222230,1,4,1:0:0:0:
511,266,222402,2,0,P|438:273|388:267,1,100.749995388031,4|0,3:0|0:0,0:0:0:0:
314,138,222745,1,4,3:0:0:0:
239,323,222916,2,0,P|310:328|372:353,1,100.749995388031,0|0,1:0|0:0,0:0:0:0:
318,284,223173,1,0,1:0:0:0:
318,284,223259,2,0,P|261:250|205:235,1,100.749995388031,4|4,0:0|3:0,0:0:0:0:
64,300,223602,1,0,1:0:0:0:
96,94,223773,1,4,0:0:0:0:
96,94,223945,2,0,P|41:134|4:178,1,100.749995388031,2|4,0:0|3:0,0:0:0:0:
208,121,224288,2,0,P|229:46|230:-2,1,100.749995388031,0|0,1:0|1:0,0:0:0:0:
440,16,224630,6,0,P|473:120|492:140,1,100.749995388031,4|0,0:0|0:0,0:0:0:0:
512,302,224973,2,0,P|486:278|399:256,1,100.749995388031,0|0,1:0|0:0,0:0:0:0:
254,191,225316,2,0,P|323:148|377:126,1,100.749995388031,2|4,0:0|3:0,0:0:0:0:
177,310,225659,2,0,P|157:264|144:216,1,100.749995388031,0|0,1:0|0:0,0:0:0:0:
164,200,225916,1,0,1:0:0:0:
164,200,226002,2,0,P|125:231|51:242,1,100.749995388031,4|0,0:0|0:0,0:0:0:0:
99,83,226345,1,0,1:0:0:0:
254,191,226516,1,4,3:0:0:0:
423,105,226688,2,0,P|413:55|393:10,1,100.749995388031,2|4,0:0|3:0,0:0:0:0:
351,200,227030,2,0,P|386:236|431:260,1,100.749995388031,0|0,1:0|0:0,0:0:0:0:
289,358,227373,5,4,3:0:0:0:
289,358,227545,1,4,3:0:0:0:
351,200,227716,1,0,1:0:0:0:
146,142,227887,1,4,0:0:0:0:
146,142,228059,2,0,P|107:223|96:278,1,100.749995388031,2|4,0:0|3:0,0:0:0:0:
350,105,228401,2,0,P|321:65|275:26,1,100.749995388031,0|0,1:0|1:0,0:0:0:0:
201,93,228745,5,4,0:0:0:0:
250,248,228916,1,4,3:0:0:0:
350,105,229088,1,0,1:0:0:0:
151,172,229259,1,4,3:0:0:0:
360,200,229430,1,0,1:0:0:0:
295,21,229602,1,0,1:0:0:0:
295,21,229688,1,0,1:0:0:0:
295,21,229773,1,0,1:0:0:0:
250,248,229945,5,4,0:0:0:0:
256,192,230030,12,0,234230,0:0:0:0:
