osu file format v14

[General]
AudioFilename: audio.mp3
AudioLeadIn: 0
PreviewTime: 53887
Countdown: 0
SampleSet: Soft
StackLeniency: 0.4
Mode: 0
LetterboxInBreaks: 0
WidescreenStoryboard: 1

[Editor]
DistanceSpacing: 1
BeatDivisor: 4
GridSize: 32
TimelineZoom: 1

[Metadata]
Title:Birth
TitleUnicode:Birth
Artist:Kitamura Eri
ArtistUnicode:喜多村英梨
Creator:Cheri
Version:Hard
Source:神さまのいない日曜日
Tags:Hailie Kamisama no Inai Nichiyoubi Opening OP Full Version Japanese Anime DJ Lucky
BeatmapID:2068141
BeatmapSetID:987593

[Difficulty]
HPDrainRate:5
CircleSize:3.3
OverallDifficulty:6
ApproachRate:8
SliderMultiplier:1.45
SliderTickRate:1

[Events]
//Background and Video events
0,0,"Webp.net-resizeimage (3).jpg",0,0
//Break Periods
2,83573,93594
2,183001,190966
//Storyboard Layer 0 (Background)
//Storyboard Layer 1 (Fail)
//Storyboard Layer 2 (Pass)
//Storyboard Layer 3 (Foreground)
//Storyboard Layer 4 (Overlay)
//Storyboard Sound Samples

[TimingPoints]
2459,342.857142857143,4,2,0,50,1,0
2459,-200,4,2,0,50,0,0
7601,-100,4,2,0,10,0,0
10687,-100,4,2,0,60,0,0
18916,-333.333333333333,4,2,0,40,0,0
20288,-100,4,2,0,60,0,0
21659,-125,4,2,0,40,0,0
31087,-333.333333333333,4,2,0,50,0,0
32630,-100,4,2,0,55,0,0
43601,-133.333333333333,4,2,0,50,0,0
49087,-100,4,2,0,60,0,0
55944,-83.3333333333333,4,2,0,70,0,1
66230,-83.3333333333333,4,2,0,70,0,0
66916,-76.9230769230769,4,2,0,80,0,1
80630,-76.9230769230769,4,2,0,60,0,0
83373,-100,4,2,0,50,0,0
94344,-142.857142857143,4,2,0,45,0,0
105316,-100,4,2,0,55,0,0
116287,-133.333333333333,4,2,0,50,0,0
121773,-100,4,2,0,60,0,0
128630,-83.3333333333333,4,2,0,70,0,1
138916,-83.3333333333333,4,2,0,70,0,0
139601,-76.9230769230769,4,2,0,80,0,1
153316,-166.666666666667,4,2,0,40,0,0
162230,-100,4,2,0,40,0,0
164288,-100,4,2,0,60,0,0
182116,-285.714285714284,4,2,0,40,0,0
193773,-100,4,2,0,50,0,0
194459,-83.3333333333333,4,2,0,75,0,1
204573,-83.3333333333333,4,2,0,75,0,0
205430,-76.9230769230769,4,2,0,85,0,1
218459,-76.9230769230769,4,2,0,80,0,0
219144,-76.9230769230769,4,2,0,90,0,1
229944,-76.9230769230769,4,2,0,90,0,0
230030,-76.9230769230769,4,2,0,10,0,0

[Colours]
Combo1 : 255,0,0
Combo2 : 255,128,64
Combo3 : 0,128,255
Combo4 : 128,64,64

[HitObjects]
256,192,7601,12,0,10001,0:0:0:0:
79,275,10687,6,0,P|29:289|-16:285,2,72.5,4|0|0,0:0|0:0|1:0,0:0:0:0:
145,202,11201,2,0,P|138:280|187:344,1,145,2|0,0:0|0:0,0:0:0:0:
270,236,11716,1,0,1:0:0:0:
270,236,11887,2,0,P|271:149|266:69,1,145,0|0,0:0|0:0,0:0:0:0:
368,11,12401,6,0,P|401:48|381:140,1,145,0|4,1:0|3:0,0:0:0:0:
465,206,12916,2,0,P|465:266|463:287,2,72.5,4|0|2,3:0|1:0|0:0,0:0:0:0:
366,117,13430,2,0,P|366:75|366:34,2,72.5,4|0|0,3:0|0:0|1:0,0:0:0:0:
271,205,13944,2,0,P|198:194|121:198,1,145,2|4,0:0|3:0,0:0:0:0:
39,289,14459,1,0,1:0:0:0:
39,289,14630,2,0,P|57:206|19:132,1,145,2|4,0:0|3:0,0:0:0:0:
179,64,15144,5,0,1:0:0:0:
179,64,15316,2,0,L|198:5,2,36.25,4|4|4,3:0|3:0|3:0,0:0:0:0:
249,131,15659,1,4,3:0:0:0:
249,131,15830,2,0,P|286:132|351:132,1,72.5,0|0,1:0|0:0,0:0:0:0:
479,121,16173,6,0,P|479:63|478:27,2,72.5,4|0|0,0:0|3:0|1:0,0:0:0:0:
433,283,16687,2,0,P|388:280|274:298,1,145,4|4,1:0|3:0,0:0:0:0:
158,372,17201,2,0,L|158:275,1,72.5,0|0,1:0|0:0,0:0:0:0:
80,168,17544,6,0,L|77:252,1,72.5,4|4,0:0|3:0,0:0:0:0:
181,175,17887,1,0,1:0:0:0:
181,175,18059,2,0,L|277:165,1,72.5,4|0,1:0|0:0,0:0:0:0:
372,96,18401,5,4,3:0:0:0:
372,96,18573,1,0,1:0:0:0:
415,220,18744,1,0,1:0:0:0:
415,220,18916,5,0,0:0:0:0:
378,261,19259,2,0,L|381:283,2,21.7499993362427,2|0|0,0:0|0:0|0:0,0:0:0:0:
305,197,19773,1,0,0:0:0:0:
305,197,19944,2,0,L|307:173,1,21.7499993362427,2|0,0:0|0:0,0:0:0:0:
198,87,20287,5,0,1:0:0:0:
198,87,20459,2,0,L|186:48,2,36.25,4|4|4,3:0|3:0|3:0,0:0:0:0:
138,215,20801,2,0,L|139:263,2,36.25,4|4|4,3:0|3:0|1:0,0:0:0:0:
59,124,21144,1,0,1:0:0:0:
59,124,21487,5,0,0:0:0:0:
59,124,21659,2,0,L|121:123,2,58,2|0|0,0:0|0:0|0:0,0:0:0:0:
137,214,22173,2,0,P|194:206|260:202,1,116,2|0,0:0|0:0,0:0:0:0:
374,150,22687,2,0,P|381:117|390:77,1,58,0|0,0:0|0:0,0:0:0:0:
449,15,23030,6,0,P|444:76|446:156,1,116,2|0,0:0|0:0,0:0:0:0:
498,232,23544,2,0,P|441:220|380:236,1,116,2|0,0:0|0:0,0:0:0:0:
301,326,24230,5,2,0:0:0:0:
301,326,24316,1,0,0:0:0:0:
301,326,24401,2,0,L|304:395,2,58,2|0|0,0:0|0:0|0:0,0:0:0:0:
209,334,24916,2,0,P|140:335|84:346,1,116,2|0,0:0|0:0,0:0:0:0:
41,267,25430,1,0,0:0:0:0:
41,267,25601,2,0,P|29:215|37:139,1,116,2|0,0:0|0:0,0:0:0:0:
122,80,26116,2,0,P|125:104|120:161,2,58,2|0|2,0:0|0:0|0:0,0:0:0:0:
231,80,26630,2,0,P|230:48|232:16,1,58,0|2,0:0|0:0,0:0:0:0:
361,62,27144,6,0,P|359:123|414:138,1,116,2|0,0:0|0:0,0:0:0:0:
481,120,27830,2,0,P|490:179|467:253,1,116,0|0,0:0|0:0,0:0:0:0:
425,356,28516,2,0,L|294:357,1,116,2|0,0:0|0:0,0:0:0:0:
233,345,29201,2,0,P|236:273|266:230,1,116,0|0,0:0|0:0,0:0:0:0:
309,79,29887,6,0,L|321:17,2,58,2|0|0,0:0|0:0|0:0,0:0:0:0:
233,147,30401,1,2,0:0:0:0:
233,147,30744,2,0,L|174:149,1,58,2|0,0:0|0:0,0:0:0:0:
79,78,31087,2,0,P|92:144|74:209,1,130.499996017456,2|0,0:0|0:0,0:0:0:0:
58,332,32459,5,0,0:0:0:0:
58,332,32630,2,0,P|89:310|130:296,2,72.5,4|0|0,3:0|0:0|1:0,0:0:0:0:
161,370,33144,2,0,P|240:348|316:343,1,145,0|2,0:0|0:0,0:0:0:0:
398,253,33659,2,0,P|396:213|394:180,1,72.5,0|0,1:0|0:0,0:0:0:0:
485,76,34001,6,0,P|469:155|459:241,1,145,4|0,3:0|1:0,0:0:0:0:
410,355,34516,2,0,P|316:342|254:343,1,145,0|4,0:0|3:0,0:0:0:0:
131,353,35030,1,0,1:0:0:0:
65,258,35201,5,4,3:0:0:0:
65,258,35287,1,4,3:0:0:0:
64,257,35373,2,0,P|62:218|61:185,1,72.5,4|0,3:0|0:0,0:0:0:0:
127,66,35716,1,0,1:0:0:0:
127,66,35887,2,0,P|181:98|281:106,1,145,0|2,0:0|0:0,0:0:0:0:
403,49,36401,1,0,1:0:0:0:
403,49,36573,2,0,P|406:137|376:212,1,145,0|0,0:0|0:0,0:0:0:0:
446,264,37087,2,0,P|468:232|491:202,1,72.5,0|0,1:0|0:0,0:0:0:0:
456,366,37430,6,0,L|375:362,1,72.5,4|4,3:0|3:0,0:0:0:0:
280,270,37773,2,0,P|289:215|297:185,1,72.5,0|4,1:0|3:0,0:0:0:0:
168,120,38116,2,0,P|182:190|116:245,1,145,4|0,3:0|1:0,0:0:0:0:
25,324,38630,1,0,0:0:0:0:
25,324,38801,2,0,P|10:270|11:227,1,72.5,4|0,3:0|0:0,0:0:0:0:
106,174,39144,2,0,P|125:211|141:260,1,72.5,0|0,1:0|0:0,0:0:0:0:
246,348,39487,6,0,P|284:342|332:344,2,72.5,4|0|0,3:0|0:0|1:0,0:0:0:0:
244,225,40001,1,0,0:0:0:0:
244,225,40173,2,0,P|310:249|401:257,1,145,4|0,3:0|1:0,0:0:0:0:
485,152,40687,5,4,3:0:0:0:
485,152,40773,1,4,3:0:0:0:
485,152,40859,2,0,P|427:77|366:68,1,145,4|0,0:0|1:0,0:0:0:0:
286,53,41373,2,0,L|266:133,1,72.5,6|0,3:0|0:0,0:0:0:0:
257,57,41716,2,0,L|256:145,1,72.5,4|0,0:0|0:0,0:0:0:0:
213,249,42059,2,0,P|129:267|59:232,1,145,4|0,1:0|0:0,0:0:0:0:
28,144,42573,2,0,L|31:45,1,72.5,0|0,1:0|0:0,0:0:0:0:
139,47,42916,1,4,3:0:0:0:
139,47,43087,2,0,L|145:92,5,36.25,4|4|4|4|4|4,3:0|3:0|3:0|3:0|3:0|3:0,0:0:0:0:
159,138,43601,6,0,P|191:90|231:50,3,108.750004148483,4|4|4|4,3:0|3:0|3:0|3:0,0:0:0:0:
159,274,44973,2,0,P|118:278|45:287,1,108.750004148483,4|4,3:0|3:0,0:0:0:0:
0,201,45487,2,0,L|-13:158,2,27.1875010371209,0|0|4,1:0|1:0|1:3,0:0:0:0:
82,183,45830,2,0,L|70:107,2,54.3750020742417,0|4|0,0:0|3:0|0:0,0:0:0:0:
159,274,46344,6,0,P|145:319|163:402,2,108.750004148483,4|4|4,0:0|3:0|3:0,0:0:0:0:
319,312,47373,2,0,P|348:330|439:335,1,108.750004148483,4|4,3:0|3:0,0:0:0:0:
499,246,47887,2,0,L|518:217,3,27.1875010371209,0|0|0|0,1:0|1:0|1:0|1:0,0:0:0:0:
497,203,48230,2,0,L|497:155,4,27.1875010371209,0|4|0|4|4,1:0|3:0|1:0|3:0|3:0,0:0:0:0:
391,84,48744,2,0,L|392:52,3,27.1875010371209,4|0|0|0,3:0|0:0|0:0|0:0,0:0:0:0:
368,38,49087,6,0,P|295:41|223:61,1,145,4|0,0:0|1:0,0:0:0:0:
145,139,49601,2,0,P|136:196|132:240,1,72.5,4|0,3:0|0:0,0:0:0:0:
245,321,49944,1,4,3:0:0:0:
245,321,50030,1,4,3:0:0:0:
245,321,50116,2,0,L|338:314,1,72.5,0|0,1:0|0:0,0:0:0:0:
466,278,50459,6,0,B|472:334|475:359|472:362,2,72.5,4|4|0,3:0|3:0|1:0,0:0:0:0:
474,130,50973,2,0,P|403:149|324:122,1,145,4|4,0:0|3:0,0:0:0:0:
248,35,51487,1,0,1:0:0:0:
127,67,51659,1,2,0:0:0:0:
127,67,51744,1,0,0:0:0:0:
127,67,51830,6,0,P|161:116|151:205,1,145,4|0,3:0|0:0,0:0:0:0:
47,304,52344,1,0,1:0:0:0:
47,304,52430,1,0,1:0:0:0:
47,304,52516,2,0,P|53:252|67:201,1,72.5,4|0,3:0|0:0,0:0:0:0:
153,197,52859,2,0,P|206:221|248:232,1,72.5,0|0,0:0|0:0,0:0:0:0:
254,125,53201,1,4,3:0:0:0:
381,139,53373,2,0,L|419:123,2,36.25,0|0|0,1:0|1:0|1:0,0:0:0:0:
327,251,53716,1,0,1:0:0:0:
327,251,53801,1,0,1:0:0:0:
327,251,53887,6,0,P|320:194|340:135,2,108.75,2|0|0,0:0|0:0|0:0,0:0:0:0:
413,328,54573,2,0,P|319:303|265:336,1,145,4|0,0:0|0:0,0:0:0:0:
279,321,55087,5,2,0:0:0:0:
279,321,55259,1,0,0:0:0:0:
279,321,55430,1,2,0:0:0:0:
279,321,55601,1,0,0:0:0:0:
168,351,55773,1,2,0:0:0:0:
172,358,55944,6,0,P|112:292|28:268,1,173.999994689942,4|0,0:0|1:0,0:0:0:0:
50,146,56459,1,0,0:0:0:0:
50,146,56630,2,0,L|69:47,1,86.9999973449708,4|0,3:0|0:0,0:0:0:0:
161,76,56973,2,0,L|147:179,1,86.9999973449708,0|0,1:0|0:0,0:0:0:0:
261,206,57316,2,0,P|301:128|395:100,1,173.999994689942,4|0,3:0|1:0,0:0:0:0:
499,129,57830,1,0,0:0:0:0:
499,129,58001,6,0,L|503:306,1,173.999994689942,4|0,3:0|1:0,0:0:0:0:
408,360,58516,1,0,0:0:0:0:
408,360,58687,2,0,P|349:357|286:360,1,86.9999973449708,4|0,3:0|0:0,0:0:0:0:
234,256,59030,2,0,P|236:159|259:87,1,173.999994689942,0|4,1:0|3:0,0:0:0:0:
124,79,59544,1,4,3:0:0:0:
124,79,59716,2,0,L|129:179,1,86.9999973449708,0|0,1:0|0:0,0:0:0:0:
77,274,60059,2,0,P|113:258|173:255,1,86.9999973449708,4|4,3:0|3:0,0:0:0:0:
303,221,60401,1,0,1:0:0:0:
303,221,60573,2,0,L|316:263,2,43.4999986724854,4|4|4,3:0|3:0|3:0,0:0:0:0:
222,92,60916,1,4,3:0:0:0:
79,187,61087,6,0,B|75:229|77:280|77:281,1,86.9999973449708,0|2,1:0|0:0,0:0:0:0:
182,359,61430,2,0,P|237:351|285:352,1,86.9999973449708,4|0,0:0|0:0,0:0:0:0:
437,358,61773,1,2,0:0:0:0:
437,358,61944,2,0,P|440:250|375:198,1,173.999994689942,4|0,3:0|0:0,0:0:0:0:
305,110,62459,5,0,1:0:0:0:
305,110,62630,2,0,L|311:45,2,43.4999986724854,2|0|0,0:0|1:0|1:0,0:0:0:0:
204,125,62973,2,0,P|216:73|229:21,1,86.9999973449708,4|0,3:0|1:0,0:0:0:0:
128,183,63316,2,0,P|217:179|314:211,1,173.999994689942,4|4,3:0|3:0,0:0:0:0:
405,284,63830,2,0,P|404:335|396:381,1,86.9999973449708,0|2,1:0|0:0,0:0:0:0:
499,301,64173,2,0,L|504:120,1,173.999994689942,4|0,0:0|1:0,0:0:0:0:
375,68,64687,5,4,3:0:0:0:
375,68,64859,2,0,P|304:72|247:49,1,130.499996017456,0|4,1:0|3:0,0:0:0:0:
99,113,65373,1,0,0:1:0:0:
99,113,65544,2,0,P|81:161|90:286,1,173.999994689942,4|0,1:0|0:0,0:0:0:0:
229,367,66059,1,2,0:0:0:0:
229,367,66230,2,0,L|279:347,3,43.4999986724854,0|0|0|0,1:0|1:0|1:0|1:0,0:0:0:0:
296,326,66573,2,0,P|289:291|282:261,3,43.4999986724854,0|0|0|0,1:0|1:0|1:0|1:0,0:0:0:0:
294,239,66916,6,0,P|388:221|501:257,1,188.499991371155,4|0,0:0|0:0,0:0:0:0:
482,150,67430,1,0,0:0:0:0:
482,150,67601,2,0,P|431:130|386:87,1,94.2499956855776,4|0,3:0|0:0,0:0:0:0:
345,11,67944,2,0,P|334:45|293:98,1,94.2499956855776,0|0,1:0|0:0,0:0:0:0:
185,79,68287,2,0,P|190:190|180:291,1,188.499991371155,4|0,3:0|0:0,0:0:0:0:
51,358,68801,1,0,0:0:0:0:
51,358,68973,6,0,L|38:232,1,94.2499956855776,4|0,3:0|0:0,0:0:0:0:
112,175,69316,2,0,L|16:181,1,94.2499956855776,0|0,1:0|0:0,0:0:0:0:
15,89,69659,2,0,L|122:86,1,94.2499956855776,4|0,3:0|0:0,0:0:0:0:
233,93,70001,2,0,P|217:161|311:213,1,188.499991371155,0|4,1:0|3:0,0:0:0:0:
469,207,70516,1,4,3:0:0:0:
469,207,70687,2,0,P|459:278|460:346,1,94.2499956855776,0|0,1:0|0:0,0:0:0:0:
323,299,71030,5,4,3:0:0:0:
323,299,71201,2,0,L|317:375,2,47.1249978427888,4|0|0,3:0|0:0|1:0,0:0:0:0:
344,154,71544,1,4,3:0:0:0:
344,154,71716,2,0,L|339:99,3,47.1249978427888,4|4|4|4,3:0|3:0|3:0|3:0,0:0:0:0:
334,71,72059,6,0,P|289:82|227:91,1,94.2499956855776,0|2,1:0|0:0,0:0:0:0:
211,198,72401,2,0,P|260:207|309:220,1,94.2499956855776,4|0,0:0|0:0,0:0:0:0:
451,209,72744,1,2,0:0:0:0:
451,209,72916,2,0,P|460:149|501:16,1,188.499991371155,4|0,3:0|0:0,0:0:0:0:
496,26,73344,1,0,0:0:0:0:
496,26,73430,5,0,1:0:0:0:
358,94,73601,1,2,0:0:0:0:
358,94,73773,2,0,P|360:143|353:198,1,94.2499956855776,0|4,1:0|3:0,0:0:0:0:
330,330,74116,1,0,1:0:0:0:
330,330,74287,2,0,P|402:314|443:315,1,94.2499956855776,4|0,3:0|0:0,0:0:0:0:
355,187,74630,6,0,B|307:203|307:203|252:194,1,94.2499956855776,4|0,3:0|1:0,0:0:0:0:
143,238,74973,1,2,0:0:0:0:
143,238,75059,1,0,0:0:0:0:
142,237,75144,2,0,P|141:139|221:91,1,188.499991371155,4|0,0:0|1:0,0:0:0:0:
361,83,75659,2,0,P|358:150|355:215,1,94.2499956855776,0|4,0:0|3:0,0:0:0:0:
398,316,76001,1,4,3:0:0:0:
398,316,76173,2,0,P|323:316|277:329,1,94.2499956855776,0|0,1:0|0:0,0:0:0:0:
224,222,76516,2,0,P|238:117|276:32,1,188.499991371155,4|0,3:0|1:0,0:0:0:0:
97,44,77030,1,0,1:0:0:0:
97,44,77201,1,4,3:0:0:0:
97,44,77373,2,0,L|105:100,3,47.1249978427888,0|0|0|0,1:0|1:0|1:0|1:0,0:0:0:0:
107,142,77716,1,0,1:0:0:0:
107,142,77801,1,0,1:0:0:0:
107,142,77887,6,0,P|189:175|309:167,2,188.499991371155,4|2|0,0:0|0:0|1:0,0:0:0:0:
102,326,78916,2,0,L|202:313,1,94.2499956855776,0|4,0:0|3:0,0:0:0:0:
337,363,79259,5,4,1:0:0:0:
337,363,79516,1,4,1:0:0:0:
337,363,79773,1,4,3:0:0:0:
423,251,79944,2,0,P|394:230|251:254,1,188.499991371155,4|2,0:0|0:0,0:0:0:0:
140,161,80630,6,0,B|126:118|126:118|133:39,2,94.2499956855776,0|4|4,1:0|3:0|3:0,0:0:0:0:
253,251,81144,2,0,B|271:294|271:294|260:369,2,94.2499956855776,4|4|4,3:0|3:0|3:0,0:0:0:0:
338,118,81659,2,0,L|446:112,2,94.2499956855776,0|4|4,1:0|3:0|3:0,0:0:0:0:
237,58,82173,1,0,1:0:0:0:
237,58,82344,2,0,P|218:124|212:180,1,94.2499956855776,4|4,3:0|3:0,0:0:0:0:
251,298,82687,2,0,L|132:297,1,94.2499956855776,0|0,1:0|1:0,0:0:0:0:
51,212,83030,2,0,P|55:180|70:130,3,47.1249978427888,2|2|2|2,0:0|0:0|0:0|0:0,0:0:0:0:
76,134,83373,5,4,3:0:0:0:
466,297,94344,6,0,P|464:325|466:350,2,50.749998451233,4|4|0,3:0|3:0|0:0,0:0:0:0:
462,195,94859,6,0,B|433:214|400:228|359:177|313:199,1,152.249995353699,2|0,0:0|0:0,0:0:0:0:
196,121,95716,2,0,P|181:63|141:32,1,101.499996902466,2|4,0:0|3:0,0:0:0:0:
65,88,96230,2,0,P|51:141|39:190,1,101.499996902466,2|0,0:0|0:0,0:0:0:0:
100,291,96916,5,2,0:0:0:0:
100,291,97001,1,2,0:0:0:0:
100,291,97087,2,0,L|101:357,2,50.749998451233,4|4|0,3:0|3:0|0:0,0:0:0:0:
194,252,97601,2,0,P|261:244|354:267,1,152.249995353699,0|4,0:0|3:0,0:0:0:0:
457,223,98287,2,0,L|467:103,1,101.499996902466,4|4,3:0|3:0,0:0:0:0:
377,104,98801,2,0,L|380:170,2,50.749998451233,0|0|0,1:0|0:0|1:0,0:0:0:0:
291,109,99316,2,0,L|295:175,1,50.749998451233,4|0,3:0|1:0,0:0:0:0:
310,280,99659,5,0,1:0:0:0:
310,280,99744,1,0,1:0:0:0:
310,280,99830,2,0,P|245:266|195:273,1,101.499996902466,4|0,0:0|0:0,0:0:0:0:
52,315,100516,2,0,L|46:376,2,50.749998451233,0|4|0,1:0|3:0|0:0,0:0:0:0:
122,228,101030,1,0,3:0:0:0:
122,228,101116,1,0,3:0:0:0:
122,228,101201,2,0,P|115:154|113:122,1,101.499996902466,4|0,3:0|0:0,0:0:0:0:
230,68,101887,2,0,P|205:122|198:172,1,101.499996902466,0|0,1:0|0:0,0:0:0:0:
327,247,102573,6,0,B|357:258|357:258|395:244,1,50.749998451233,4|4,3:0|3:0,0:0:0:0:
467,233,102916,1,0,1:0:0:0:
467,233,103087,2,0,L|474:127,1,101.499996902466,4|4,3:0|3:0,0:0:0:0:
382,60,103601,1,0,1:0:0:0:
382,60,103773,2,0,P|321:63|268:54,1,101.499996902466,4|4,3:0|3:0,0:0:0:0:
149,53,104287,1,0,0:0:0:0:
149,53,104459,2,0,L|145:118,1,50.749998451233,0|4,0:0|3:0,0:0:0:0:
149,229,104801,2,0,L|178:227,5,25.3749992256165,0|0|0|0|0|0,1:0|1:0|1:0|1:0|1:0|1:0,0:0:0:0:
222,219,105316,6,0,P|233:172|257:124,2,72.5,4|0|0,3:0|0:0|1:0,0:0:0:0:
218,325,105830,2,0,P|150:301|80:317,1,145,0|2,0:0|0:0,0:0:0:0:
11,214,106344,2,0,P|21:171|32:140,1,72.5,0|0,1:0|0:0,0:0:0:0:
113,67,106687,6,0,P|123:143|113:229,1,145,4|0,3:0|1:0,0:0:0:0:
235,143,107201,2,0,P|307:144|388:157,1,145,0|4,0:0|3:0,0:0:0:0:
462,249,107716,1,0,1:0:0:0:
470,126,107887,5,4,3:0:0:0:
470,126,107973,1,4,3:0:0:0:
469,125,108059,2,0,P|476:87|487:41,1,72.5,4|0,3:0|0:0,0:0:0:0:
379,154,108401,1,0,1:0:0:0:
379,154,108573,2,0,P|387:232|389:312,1,145,0|2,0:0|0:0,0:0:0:0:
278,363,109087,1,0,1:0:0:0:
278,363,109259,2,0,P|219:337|113:362,1,145,0|0,0:0|0:0,0:0:0:0:
0,374,109773,2,0,P|9:334|40:283,1,72.5,0|0,1:0|0:0,0:0:0:0:
112,197,110116,6,0,L|113:287,1,72.5,4|4,3:0|3:0,0:0:0:0:
212,209,110459,2,0,P|241:208|289:206,1,72.5,0|4,1:0|3:0,0:0:0:0:
422,246,110801,6,0,P|425:171|375:116,1,145,4|0,3:0|1:0,0:0:0:0:
262,71,111316,1,0,0:0:0:0:
261,70,111487,2,0,P|266:109|268:151,1,72.5,4|2,3:0|0:0,0:0:0:0:
302,252,111830,2,0,P|265:246|213:246,1,72.5,0|0,1:0|0:0,0:0:0:0:
116,284,112173,6,0,P|116:323|109:382,2,72.5,4|0|0,3:0|0:0|1:0,0:0:0:0:
40,194,112687,1,0,0:0:0:0:
40,194,112859,2,0,P|36:127|88:54,1,145,4|0,3:0|1:0,0:0:0:0:
214,84,113373,5,4,3:0:0:0:
214,84,113459,1,4,3:0:0:0:
214,84,113544,2,0,P|279:94|370:92,1,145,4|0,0:0|1:0,0:0:0:0:
493,110,114059,2,0,B|479:153|479:153|481:200,1,72.5,6|0,3:0|0:0,0:0:0:0:
389,223,114401,2,0,L|385:138,1,72.5,4|0,0:0|1:0,0:0:0:0:
214,84,114744,2,0,P|199:163|255:225,1,145,4|0,1:0|0:0,0:0:0:0:
292,323,115259,2,0,P|249:315|203:313,1,72.5,0|0,1:0|0:0,0:0:0:0:
72,296,115601,1,4,3:0:0:0:
72,296,115773,2,0,L|66:247,5,36.25,4|4|4|4|4|4,3:0|3:0|3:0|3:0|3:0|3:0,0:0:0:0:
63,228,116287,6,0,P|46:177|77:107,3,108.750004148483,4|4|4|4,3:0|3:0|3:0|3:0,0:0:0:0:
200,167,117659,6,0,P|253:160|308:154,1,108.750004148483,4|4,3:0|3:0,0:0:0:0:
341,237,118173,2,0,L|308:237,2,27.1875010371209,0|0|4,1:0|1:0|1:3,0:0:0:0:
409,166,118516,2,0,L|397:90,2,54.3750020742417,0|4|0,0:0|3:0|0:0,0:0:0:0:
490,228,119030,6,0,P|493:283|494:356,2,108.750004148483,4|4|4,0:0|3:0|3:0,0:0:0:0:
418,133,120059,2,0,P|364:130|308:141,1,108.750004148483,4|4,3:0|3:0,0:0:0:0:
216,88,120573,2,0,L|204:56,3,27.1875010371209,0|0|0|0,1:0|1:0|1:0|1:0,0:0:0:0:
179,54,120916,2,0,L|143:52,4,27.1875010371209,0|4|0|4|4,1:0|3:0|1:0|3:0|3:0,0:0:0:0:
70,126,121430,2,0,L|57:158,3,27.1875010371209,4|4|4|4,3:0|3:0|3:0|3:0,0:0:0:0:
37,187,121773,6,0,P|22:242|32:337,1,145,4|0,0:0|1:0,0:0:0:0:
146,258,122287,2,0,P|142:216|138:174,1,72.5,4|0,3:0|0:0,0:0:0:0:
243,173,122630,1,4,3:0:0:0:
243,173,122716,1,4,3:0:0:0:
243,173,122801,2,0,L|252:264,1,72.5,0|0,1:0|0:0,0:0:0:0:
415,330,123144,6,0,B|473:332|506:340,2,72.5,4|4|0,3:0|3:0|1:0,0:0:0:0:
327,254,123659,2,0,P|256:273|177:265,1,145,4|4,0:0|3:0,0:0:0:0:
72,340,124173,1,0,1:0:0:0:
66,209,124344,1,2,0:0:0:0:
66,209,124430,1,0,0:0:0:0:
65,208,124516,6,0,P|58:139|43:61,1,145,4|0,3:0|0:0,0:0:0:0:
165,43,125030,1,0,1:0:0:0:
165,43,125116,1,0,1:0:0:0:
165,43,125201,2,0,P|216:47|246:43,1,72.5,4|0,3:0|0:0,0:0:0:0:
240,151,125544,2,0,P|204:143|168:139,1,72.5,0|0,0:0|0:0,0:0:0:0:
125,250,125887,5,4,3:0:0:0:
70,95,126059,2,0,L|82:51,2,36.25,0|0|0,1:0|1:0|1:0,0:0:0:0:
213,56,126401,1,0,1:0:0:0:
213,56,126487,1,0,1:0:0:0:
213,56,126573,6,0,P|297:54|339:35,2,108.75,2|0|0,0:0|0:0|0:0,0:0:0:0:
141,184,127259,2,0,P|143:245|129:327,1,145,4|0,0:0|0:0,0:0:0:0:
128,327,127773,5,2,0:0:0:0:
128,327,127944,1,2,0:0:0:0:
128,327,128116,1,2,0:0:0:0:
128,327,128287,1,2,0:0:0:0:
213,277,128459,5,2,0:0:0:0:
213,277,128630,6,0,P|290:315|392:307,1,173.999994689942,4|0,0:0|1:0,0:0:0:0:
467,224,129144,1,0,0:0:0:0:
467,224,129316,2,0,L|481:125,1,86.9999973449708,4|0,3:0|0:0,0:0:0:0:
390,55,129659,2,0,P|343:62|292:57,1,86.9999973449708,0|0,1:0|0:0,0:0:0:0:
214,10,130001,2,0,P|244:108|203:181,1,173.999994689942,4|0,3:0|1:0,0:0:0:0:
132,275,130516,1,0,0:0:0:0:
132,275,130687,6,0,P|208:257|328:283,1,173.999994689942,4|0,3:0|1:0,0:0:0:0:
409,200,131201,1,0,0:0:0:0:
409,200,131373,2,0,P|410:159|412:102,1,86.9999973449708,4|0,3:0|0:0,0:0:0:0:
326,38,131716,2,0,P|300:121|300:207,1,173.999994689942,0|4,1:0|3:0,0:0:0:0:
362,324,132230,1,4,3:0:0:0:
362,324,132401,2,0,L|276:338,1,86.9999973449708,0|0,1:0|0:0,0:0:0:0:
181,260,132744,2,0,P|201:222|235:174,1,86.9999973449708,4|4,3:0|3:0,0:0:0:0:
145,120,133087,1,0,1:0:0:0:
145,120,133259,2,0,L|159:47,2,43.4999986724854,4|4|4,3:0|3:0|3:0,0:0:0:0:
42,99,133601,1,4,3:0:0:0:
13,215,133773,6,0,P|51:215|97:192,1,86.9999973449708,0|2,1:0|0:0,0:0:0:0:
207,77,134116,2,0,P|262:69|310:70,1,86.9999973449708,4|0,0:0|0:0,0:0:0:0:
453,67,134459,1,2,0:0:0:0:
453,67,134630,2,0,P|486:151|431:234,1,173.999994689942,4|0,3:0|0:0,0:0:0:0:
370,269,135144,5,0,1:0:0:0:
370,269,135316,2,0,L|374:334,2,43.4999986724854,2|0|0,0:0|1:0|1:0,0:0:0:0:
277,177,135659,2,0,P|275:137|270:79,1,86.9999973449708,4|0,3:0|1:0,0:0:0:0:
176,82,136001,2,0,P|196:153|134:247,1,173.999994689942,4|4,3:0|3:0,0:0:0:0:
27,170,136516,2,0,P|33:126|45:82,1,86.9999973449708,0|2,1:0|0:0,0:0:0:0:
176,82,136859,2,0,L|357:66,1,173.999994689942,4|0,0:0|1:0,0:0:0:0:
493,60,137373,5,4,3:0:0:0:
493,60,137544,2,0,P|452:105|446:193,1,130.499996017456,0|4,1:0|3:0,0:0:0:0:
488,293,138059,1,0,1:1:0:0:
488,293,138230,2,0,P|439:277|307:302,1,173.999994689942,4|0,1:0|0:0,0:0:0:0:
163,363,138744,1,2,0:0:0:0:
163,363,138916,2,0,L|170:298,3,43.4999986724854,0|0|0|0,1:0|1:0|1:0|1:0,0:0:0:0:
153,278,139259,2,0,P|125:278|91:288,3,43.4999986724854,0|0|0|0,1:0|1:0|1:0|1:0,0:0:0:0:
63,286,139601,6,0,P|86:229|51:97,1,188.499991371155,4|0,0:0|1:0,0:0:0:0:
208,69,140116,1,0,0:0:0:0:
208,69,140287,2,0,P|181:106|161:159,1,94.2499956855776,4|0,3:0|0:0,0:0:0:0:
315,83,140630,2,0,P|303:51|265:-10,1,94.2499956855776,0|0,1:0|0:0,0:0:0:0:
443,65,140973,2,0,P|426:169|457:270,1,188.499991371155,4|0,3:0|1:0,0:0:0:0:
336,333,141487,1,0,0:0:0:0:
336,333,141659,6,0,L|353:210,1,94.2499956855776,4|0,3:0|0:0,0:0:0:0:
242,223,142001,2,0,P|240:273|232:332,1,94.2499956855776,0|0,1:0|0:0,0:0:0:0:
106,372,142344,2,0,P|48:375|3:371,1,94.2499956855776,4|0,3:0|0:0,0:0:0:0:
3,212,142687,2,0,P|23:177|161:175,1,188.499991371155,0|4,1:0|3:0,0:0:0:0:
266,144,143201,1,4,3:0:0:0:
266,144,143373,2,0,P|256:215|257:283,1,94.2499956855776,0|0,1:0|0:0,0:0:0:0:
331,336,143716,5,4,3:0:0:0:
331,336,143887,2,0,L|388:337,2,47.1249978427888,4|0|0,3:0|0:0|1:0,0:0:0:0:
255,237,144230,1,4,3:0:0:0:
255,237,144401,2,0,L|201:243,3,47.1249978427888,4|4|4|4,3:0|3:0|3:0|3:0,0:0:0:0:
171,219,144744,6,0,P|177:172|189:117,1,94.2499956855776,0|2,1:0|0:0,0:0:0:0:
295,29,145087,2,0,P|311:61|326:134,1,94.2499956855776,4|0,0:0|0:0,0:0:0:0:
332,259,145430,1,2,0:0:0:0:
332,259,145601,2,0,P|394:227|521:253,1,188.499991371155,4|0,3:0|0:0,0:0:0:0:
507,244,146030,1,0,0:0:0:0:
507,244,146116,5,0,1:0:0:0:
449,139,146287,1,2,0:0:0:0:
453,143,146459,2,0,P|454:82|456:50,1,94.2499956855776,0|4,1:0|3:0,0:0:0:0:
349,122,146801,1,0,1:0:0:0:
349,122,146973,2,0,P|360:170|359:246,1,94.2499956855776,4|0,3:0|0:0,0:0:0:0:
270,314,147316,6,0,B|218:308|218:308|167:321,1,94.2499956855776,4|0,3:0|1:0,0:0:0:0:
128,204,147659,1,2,0:0:0:0:
128,204,147744,1,0,0:0:0:0:
128,204,147830,2,0,P|202:203|320:177,1,188.499991371155,4|0,0:0|1:0,0:0:0:0:
453,120,148344,2,0,P|455:72|462:20,1,94.2499956855776,0|4,0:0|3:0,0:0:0:0:
317,56,148687,1,4,3:0:0:0:
317,56,148859,2,0,P|242:56|196:69,1,94.2499956855776,0|0,1:0|0:0,0:0:0:0:
76,132,149201,2,0,P|81:229|71:323,1,188.499991371155,4|0,3:0|1:0,0:0:0:0:
190,352,149716,1,0,1:0:0:0:
190,352,149887,1,4,3:0:0:0:
190,352,150059,2,0,L|245:349,3,47.1249978427888,0|0|0|0,1:0|1:0|1:0|1:0,0:0:0:0:
276,334,150401,1,0,1:0:0:0:
276,334,150487,1,0,1:0:0:0:
276,334,150573,6,0,P|358:367|414:298,2,188.499991371155,4|2|0,0:0|0:0|1:0,0:0:0:0:
295,150,151601,2,0,L|336:48,1,94.2499956855776,0|4,0:0|3:0,0:0:0:0:
191,76,151944,5,4,1:0:0:0:
191,76,152201,1,4,1:0:0:0:
191,76,152459,1,4,3:0:0:0:
295,150,152630,6,0,P|379:114|464:149,1,188.499991371155,4|2,0:0|0:0,0:0:0:0:
464,172,153316,6,0,P|461:242|459:350,1,173.999994689942,2|0,0:0|0:0,0:0:0:0:
417,355,155030,6,0,P|418:318|373:268,1,86.9999973449708,2|0,0:0|0:0,0:0:0:0:
365,255,156401,2,0,L|263:259,2,86.9999973449708,2|0|0,0:0|0:0|0:0,0:0:0:0:
347,145,157430,2,0,P|403:169|487:93,1,173.999994689942,2|2,0:0|0:0,0:0:0:0:
484,106,158801,1,0,0:0:0:0:
397,73,159144,6,0,P|392:120|392:166,1,86.9999973449708,2|0,0:0|0:0,0:0:0:0:
394,142,160516,2,0,P|394:186|402:246,1,86.9999973449708,2|0,0:0|0:0,0:0:0:0:
451,350,161373,1,4,3:0:0:0:
451,350,161459,1,4,3:0:0:0:
451,350,161544,6,0,P|398:342|318:354,1,130.499996017456,4|0,1:0|0:0,0:0:0:0:
201,274,162230,6,0,L|98:283,2,72.5,0|0|0,1:0|1:0|1:0,0:0:0:0:
292,204,162744,2,0,L|374:214,2,72.5,0|0|0,1:0|1:0|1:0,0:0:0:0:
226,109,163259,2,0,L|145:112,1,72.5,0|0,1:0|0:0,0:0:0:0:
26,197,163601,2,0,L|9:282,1,72.5,0|0,1:0|0:0,0:0:0:0:
96,362,163944,1,0,1:0:0:0:
101,368,164116,1,0,1:0:0:0:
101,368,164287,6,0,L|184:351,2,72.5,4|0|0,1:0|0:0|0:0,0:0:0:0:
191,250,164973,2,0,P|289:282|416:272,1,217.5,4|0,3:0|1:0,0:0:0:0:
474,189,165659,1,0,1:0:0:0:
474,189,165830,2,0,L|477:140,4,36.25,4|4|4|4|0,3:0|3:0|3:0|3:0|1:0,0:0:0:0:
378,129,166344,2,0,L|381:81,3,36.25,4|4|4|4,3:0|3:0|3:0|3:0,0:0:0:0:
367,86,166687,1,0,1:0:0:0:
268,96,166859,1,2,0:0:0:0:
268,96,166944,1,2,0:0:0:0:
268,96,167030,6,0,P|206:98|165:102,1,72.5,4|0,0:0|0:0,0:0:0:0:
71,62,167373,2,0,L|69:125,3,36.25,0|0|0|0,1:0|3:0|3:0|3:0,0:0:0:0:
49,151,167716,2,0,P|50:201|46:237,1,72.5,4|4,3:0|3:0,0:0:0:0:
97,322,168059,2,0,L|146:329,3,36.25,0|0|0|0,1:0|3:0|3:0|3:0,0:0:0:0:
186,326,168401,2,0,P|273:328|410:358,1,217.5,4|0,3:0|0:0,0:0:0:0:
496,265,169087,6,0,P|505:223|479:143,1,108.75,4|2,3:0|0:0,0:0:0:0:
399,59,169601,1,2,0:0:0:0:
399,59,169773,2,0,P|381:100|369:217,1,145,4|0,0:0|1:0,0:0:0:0:
292,301,170287,2,0,P|247:304|197:319,1,72.5,0|4,3:0|3:0,0:0:0:0:
91,311,170630,2,0,L|83:378,2,36.25,4|4|0,3:0|3:0|1:0,0:0:0:0:
12,204,170973,2,0,P|13:147|19:98,1,72.5,2|4,0:0|3:0,0:0:0:0:
102,39,171316,6,0,P|162:65|257:60,1,145,2|0,3:0|0:0,0:0:0:0:
393,39,171830,2,0,L|405:87,3,36.25,4|4|4|4,3:0|3:0|3:0|3:0,0:0:0:0:
411,109,172173,2,0,L|398:194,1,72.5,0|0,1:0|0:0,0:0:0:0:
474,264,172516,6,0,L|471:367,1,72.5,4|0,3:0|0:0,0:0:0:0:
369,362,172859,2,0,P|371:317|372:266,1,72.5,0|0,1:0|3:0,0:0:0:0:
289,210,173201,1,4,3:0:0:0:
289,210,173373,2,0,L|211:203,1,72.5,4|0,3:0|1:0,0:0:0:0:
126,253,173716,2,0,L|125:317,2,36.25,0|0|0,3:0|3:0|1:0,0:0:0:0:
31,286,174059,2,0,L|36:232,2,36.25,4|4|0,3:0|3:0|1:0,0:0:0:0:
126,344,174401,6,0,P|163:343|289:360,1,145,2|4,3:0|3:0,0:0:0:0:
378,278,174916,1,0,1:0:0:0:
378,278,175087,2,0,P|386:230|400:183,1,72.5,2|4,3:0|3:0,0:0:0:0:
465,109,175430,1,4,3:0:0:0:
465,109,175601,2,0,L|469:188,1,72.5,0|4,1:0|3:0,0:0:0:0:
349,170,175944,2,0,P|287:175|248:173,1,72.5,2|2,3:0|3:0,0:0:0:0:
149,178,176287,2,0,B|144:228|141:256|141:257,1,72.5,0|0,1:0|3:0,0:0:0:0:
38,244,176630,5,4,3:0:0:0:
38,244,176801,2,0,P|38:206|36:154,1,72.5,2|4,0:0|3:0,0:0:0:0:
74,58,177144,1,2,3:0:0:0:
74,58,177230,1,2,3:0:0:0:
74,58,177316,6,0,L|246:62,1,145,2|0,3:0|1:0,0:0:0:0:
337,39,177830,1,4,3:0:0:0:
337,39,178001,2,0,P|349:102|350:122,1,72.5,0|2,1:0|3:0,0:0:0:0:
383,248,178344,2,0,B|410:252|410:252|446:251,3,36.25,0|2|2|4,1:0|3:0|3:0|3:0,0:0:0:0:
337,234,178687,6,0,P|326:271|316:321,1,72.5,0|2,1:0|3:0,0:0:0:0:
224,371,179030,2,0,L|178:373,3,36.25,0|0|0|0,1:0|1:0|1:0|1:0,0:0:0:0:
155,346,179373,6,0,P|155:330|53:273,1,145,0|4,1:0|3:0,0:0:0:0:
73,157,179887,1,0,3:0:0:0:
73,157,179973,1,0,3:0:0:0:
73,157,180059,6,0,P|109:153|159:153,1,72.5,0|0,1:0|1:0,0:0:0:0:
257,235,180401,1,0,1:0:0:0:
282,104,180573,1,0,1:0:0:0:
282,104,180744,6,0,P|315:57|375:32,1,108.75,4|4,0:0|0:0,0:0:0:0:
471,175,181259,1,4,0:0:0:0:
471,175,181430,6,0,P|446:169|382:173,3,72.5,4|0|4|0,3:0|0:0|3:0|0:0,0:0:0:0:
310,194,182116,6,0,P|252:241|226:251,1,101.499996902466,0|0,0:0|0:0,0:0:0:0:
256,192,191716,12,0,193087,0:0:0:0:
285,154,193601,5,2,0:0:0:0:
285,154,193773,2,0,P|279:191|291:251,1,72.5,0|0,3:0|0:0,0:0:0:0:
377,235,194116,1,2,0:0:0:0:
343,342,194287,1,2,0:0:0:0:
343,342,194373,1,2,0:0:0:0:
343,342,194459,6,0,P|316:334|156:368,1,173.999994689942,4|0,0:0|1:0,0:0:0:0:
58,375,194973,1,0,0:0:0:0:
58,375,195144,2,0,P|67:336|76:274,1,86.9999973449708,4|0,3:0|0:0,0:0:0:0:
166,218,195487,2,0,P|166:268|173:315,1,86.9999973449708,0|0,1:0|0:0,0:0:0:0:
293,242,195830,2,0,P|299:180|273:58,1,173.999994689942,4|0,3:0|1:0,0:0:0:0:
402,40,196344,1,0,0:0:0:0:
402,40,196516,6,0,P|388:112|450:197,1,173.999994689942,4|0,3:0|1:0,0:0:0:0:
469,310,197030,1,0,0:0:0:0:
469,310,197201,2,0,P|427:290|384:293,1,86.9999973449708,4|0,3:0|0:0,0:0:0:0:
253,349,197544,2,0,P|248:256|271:167,1,173.999994689942,0|4,1:0|3:0,0:0:0:0:
174,113,198059,1,4,3:0:0:0:
174,113,198230,2,0,L|179:222,1,86.9999973449708,0|0,1:0|0:0,0:0:0:0:
94,317,198573,5,4,3:0:0:0:
94,317,198744,1,4,3:0:0:0:
17,196,198916,2,0,P|41:148|74:109,1,86.9999973449708,0|4,1:0|3:0,0:0:0:0:
174,113,199259,2,0,L|201:154,3,43.4999986724854,4|0|0|0,3:0|0:0|0:0|0:0,0:0:0:0:
241,153,199601,6,0,P|283:148|334:159,1,86.9999973449708,0|2,1:0|0:0,0:0:0:0:
455,120,199944,2,0,P|441:164|430:227,1,86.9999973449708,4|0,0:0|0:0,0:0:0:0:
488,300,200287,1,2,0:0:0:0:
488,300,200459,2,0,P|382:283|296:294,1,173.999994689942,4|0,3:0|0:0,0:0:0:0:
192,364,200973,5,0,1:0:0:0:
192,364,201144,2,0,L|131:363,2,43.4999986724854,2|0|0,0:0|1:0|1:0,0:0:0:0:
316,289,201487,1,4,3:0:0:0:
174,211,201659,1,0,1:0:0:0:
174,211,201830,2,0,P|148:298|61:342,1,173.999994689942,4|4,3:0|3:0,0:0:0:0:
26,232,202344,2,0,L|37:118,1,86.9999973449708,0|2,1:0|0:0,0:0:0:0:
129,64,202687,2,0,P|169:66|221:78,1,86.9999973449708,4|0,0:0|0:0,0:0:0:0:
336,19,203030,1,0,1:0:0:0:
420,118,203201,5,4,3:0:0:0:
420,118,203287,1,0,0:0:0:0:
420,118,203373,2,0,B|420:160|420:160|453:215|438:264,1,130.499996017456,0|4,1:0|3:0,0:0:0:0:
319,342,203887,1,0,0:1:0:0:
311,334,204059,2,0,P|256:322|144:349,1,173.999994689942,4|0,1:0|0:0,0:0:0:0:
8,330,204573,1,2,0:0:0:0:
8,330,204744,2,0,L|2:276,3,43.4999986724854,0|0|0|0,1:0|1:0|1:0|1:0,0:0:0:0:
0,245,205087,1,0,1:0:0:0:
0,245,205173,1,0,1:0:0:0:
0,245,205259,1,0,1:0:0:0:
0,245,205344,1,0,1:0:0:0:
0,245,205430,6,0,P|95:248|163:188,1,188.499991371155,4|0,0:0|1:0,0:0:0:0:
248,101,205944,1,0,0:0:0:0:
248,101,206116,2,0,P|230:159|234:220,1,94.2499956855776,4|0,3:0|0:0,0:0:0:0:
193,305,206459,2,0,P|254:300|321:301,1,94.2499956855776,0|0,1:0|0:0,0:0:0:0:
452,260,206801,2,0,P|464:184|490:57,1,188.499991371155,4|0,3:0|1:0,0:0:0:0:
379,29,207316,1,0,0:0:0:0:
379,29,207487,6,0,P|375:74|364:147,1,94.2499956855776,4|0,3:0|0:0,0:0:0:0:
273,186,207830,2,0,L|171:177,1,94.2499956855776,0|0,1:0|0:0,0:0:0:0:
164,285,208173,2,0,P|213:286|264:294,1,94.2499956855776,4|0,3:0|0:0,0:0:0:0:
343,382,208516,2,0,P|404:306|343:232,1,188.499991371155,0|4,1:0|3:0,0:0:0:0:
470,163,209030,1,4,3:0:0:0:
470,163,209201,2,0,P|464:213|461:263,1,94.2499956855776,0|0,1:0|0:0,0:0:0:0:
367,331,209544,2,0,L|372:390,2,47.1249978427888,4|0|4,3:0|0:0|3:0,0:0:0:0:
304,225,209887,2,0,L|306:113,1,94.2499956855776,0|4,1:0|3:0,0:0:0:0:
207,81,210230,2,0,L|235:-4,3,47.1249978427888,4|4|4|4,3:0|3:0|3:0|3:0,0:0:0:0:
208,125,210573,5,0,1:0:0:0:
208,125,210659,1,4,3:0:0:0:
208,125,210744,1,4,3:0:0:0:
120,269,210916,2,0,P|81:263|19:267,2,94.2499956855776,4|0|2,0:0|0:0|0:0,0:0:0:0:
256,222,211430,2,0,P|261:167|266:121,1,94.2499956855776,4|0,3:0|0:0,0:0:0:0:
401,68,211773,2,0,L|409:13,2,47.1249978427888,0|0|0,0:0|0:0|1:0,0:0:0:0:
474,204,212116,5,2,0:0:0:0:
474,204,212201,1,0,1:0:0:0:
474,204,212287,2,0,P|459:253|446:323,1,94.2499956855776,0|4,1:0|3:0,0:0:0:0:
329,373,212630,1,0,1:0:0:0:
329,373,212801,2,0,P|259:372|206:378,1,94.2499956855776,4|0,3:0|0:0,0:0:0:0:
67,343,213144,2,0,P|52:281|38:238,1,94.2499956855776,4|0,3:0|1:0,0:0:0:0:
120,160,213487,1,2,0:0:0:0:
120,160,213573,1,0,0:0:0:0:
120,160,213659,2,0,P|131:205|146:254,1,94.2499956855776,4|0,0:0|0:0,0:0:0:0:
279,174,214001,6,0,P|325:169|465:194,1,188.499991371155,0|4,1:0|3:0,0:0:0:0:
395,64,214516,1,4,3:0:0:0:
395,64,214687,2,0,P|382:54|262:73,1,141.374993528366,0|0,1:0|0:0,0:0:0:0:
249,95,215030,6,0,P|241:139|223:217,1,94.2499956855776,4|4,3:0|3:0,0:0:0:0:
161,279,215373,2,0,P|152:229|127:168,1,94.2499956855776,0|0,1:0|1:0,0:0:0:0:
44,288,215716,1,4,3:0:0:0:
44,288,215887,2,0,L|42:353,4,47.1249978427888,0|0|0|0|0,1:0|1:0|1:0|1:0|1:0,0:0:0:0:
161,355,216401,6,0,P|232:348|369:367,1,188.499991371155,4|2,0:0|0:0,0:0:0:0:
450,311,216916,1,4,3:0:0:0:
450,311,217087,2,0,P|457:265|486:180,1,94.2499956855776,0|4,1:0|3:0,0:0:0:0:
343,267,217430,2,0,L|348:375,1,94.2499956855776,0|4,0:0|3:0,0:0:0:0:
208,284,217773,6,0,P|154:282|67:289,1,141.374993528366,4|4,1:0|1:0,0:0:0:0:
16,146,218287,1,4,3:0:0:0:
16,146,218459,2,0,P|114:119|191:77,1,188.499991371155,4|2,0:0|0:0,0:0:0:0:
234,60,219144,6,0,P|279:138|223:236,1,188.499991371155,4|0,0:0|1:0,0:0:0:0:
196,332,219659,2,0,P|241:329|300:338,2,94.2499956855776,0|2|4,0:0|0:0|3:0,0:0:0:0:
179,234,220173,2,0,P|116:238|67:227,1,94.2499956855776,0|0,1:0|0:0,0:0:0:0:
152,105,220516,2,0,P|204:118|261:148,1,94.2499956855776,4|0,3:0|0:0,0:0:0:0:
341,73,220859,1,0,1:0:0:0:
341,73,221030,2,0,P|375:182|308:252,1,188.499991371155,4|0,1:3|0:0,0:0:0:0:
306,341,221544,2,0,B|354:324|354:324|404:343,1,94.2499956855776,2|0,0:0|0:0,0:0:0:0:
485,259,221887,6,0,P|410:199|333:243,1,188.499991371155,4|4,3:0|1:0,0:0:0:0:
223,120,222401,2,0,P|219:51|207:5,1,94.2499956855776,4|0,3:0|0:0,0:0:0:0:
95,111,222744,1,4,3:0:0:0:
95,111,222916,2,0,P|95:165|110:228,1,94.2499956855776,0|0,1:0|0:0,0:0:0:0:
202,282,223259,2,0,B|248:274|248:274|315:283,1,94.2499956855776,4|4,0:0|3:0,0:0:0:0:
443,164,223601,1,0,1:0:0:0:
443,164,223773,1,4,0:0:0:0:
443,164,223944,2,0,P|461:106|382:55,1,141.374993528366,2|0,0:0|0:0,0:0:0:0:
372,65,224287,2,0,P|343:138|336:180,1,94.2499956855776,0|0,1:0|0:0,0:0:0:0:
257,252,224630,6,0,P|240:169|218:124,1,94.2499956855776,4|0,0:0|0:0,0:0:0:0:
150,313,224973,2,0,P|174:340|254:368,1,94.2499956855776,0|0,1:0|0:0,0:0:0:0:
431,308,225316,2,0,P|447:263|459:213,1,94.2499956855776,2|4,0:0|3:0,0:0:0:0:
342,119,225659,2,0,P|357:167|367:219,1,94.2499956855776,0|0,1:0|0:0,0:0:0:0:
257,252,226001,2,0,P|207:259|168:278,1,94.2499956855776,4|0,0:0|0:0,0:0:0:0:
39,377,226344,1,0,1:0:0:0:
39,377,226516,1,4,3:0:0:0:
39,377,226687,2,0,P|29:322|42:252,1,94.2499956855776,2|4,0:0|3:0,0:0:0:0:
124,156,227030,2,0,P|93:116|49:87,1,94.2499956855776,0|0,1:0|0:0,0:0:0:0:
196,37,227373,6,0,P|227:72|285:112,1,94.2499956855776,4|4,3:0|3:0,0:0:0:0:
379,41,227716,1,0,1:0:0:0:
451,161,227887,1,4,0:0:0:0:
451,161,228059,2,0,P|419:203|400:247,1,94.2499956855776,2|4,0:0|3:0,0:0:0:0:
364,368,228401,2,0,P|331:331|278:293,1,94.2499956855776,0|0,1:0|1:0,0:0:0:0:
228,170,228744,6,0,P|230:122|237:76,2,94.2499956855776,4|4|0,0:0|3:0|1:0,0:0:0:0:
147,262,229259,1,4,3:0:0:0:
86,154,229430,1,0,1:0:0:0:
228,170,229601,1,0,1:0:0:0:
228,170,229687,1,0,1:0:0:0:
228,170,229773,1,0,1:0:0:0:
147,262,229944,5,4,0:0:0:0:
256,192,230030,12,0,234230,0:0:0:0:
