osu file format v14

[General]
AudioFilename: audio.mp3
AudioLeadIn: 0
PreviewTime: 53887
Countdown: 0
SampleSet: Soft
StackLeniency: 0.2
Mode: 0
LetterboxInBreaks: 0
WidescreenStoryboard: 0

[Editor]
DistanceSpacing: 1
BeatDivisor: 4
GridSize: 32
TimelineZoom: 1.7

[Metadata]
Title:Birth
TitleUnicode:Birth
Artist:Kitamura Eri
ArtistUnicode:喜多村英梨
Creator:Cheri
Version:Expert
Source:神さまのいない日曜日
Tags:Hailie Kamisama no Inai Nichiyoubi Opening OP Full Version Japanese Anime DJ Lucky
BeatmapID:2065924
BeatmapSetID:987593

[Difficulty]
HPDrainRate:5
CircleSize:3.8
OverallDifficulty:8.7
ApproachRate:9
SliderMultiplier:1.75
SliderTickRate:1

[Events]
//Background and Video events
0,0,"Webp.net-resizeimage (3).jpg",0,0
//Break Periods
2,83573,93744
//Storyboard Layer 0 (Background)
//Storyboard Layer 1 (Fail)
//Storyboard Layer 2 (Pass)
//Storyboard Layer 3 (Foreground)
//Storyboard Layer 4 (Overlay)
//Storyboard Sound Samples

[TimingPoints]
2459,342.857142857143,4,2,0,50,1,0
2459,-200,4,2,0,50,0,0
7601,-100,4,2,0,10,0,0
10687,-100,4,2,0,60,0,0
18916,-333.333333333333,4,2,0,40,0,0
20288,-100,4,2,0,60,0,0
21659,-125,4,2,0,40,0,0
31087,-333.333333333333,4,2,0,50,0,0
32630,-100,4,2,0,55,0,0
43601,-133.333333333333,4,2,0,50,0,0
49087,-100,4,2,0,60,0,0
55944,-83.3333333333333,4,2,0,70,0,1
66230,-83.3333333333333,4,2,0,70,0,0
66916,-76.9230769230769,4,2,0,80,0,1
80630,-76.9230769230769,4,2,0,60,0,0
83373,-100,4,2,0,50,0,0
94344,-142.857142857143,4,2,0,45,0,0
105316,-100,4,2,0,55,0,0
116287,-133.333333333333,4,2,0,50,0,0
121773,-100,4,2,0,60,0,0
128630,-83.3333333333333,4,2,0,70,0,1
138916,-83.3333333333333,4,2,0,70,0,0
139601,-76.9230769230769,4,2,0,80,0,1
153316,-166.666666666667,4,2,0,40,0,0
164287,-100,4,2,0,60,0,0
182116,-285.714285714284,4,2,0,40,0,0
193773,-100,4,2,0,50,0,0
194459,-83.3333333333333,4,2,0,75,0,1
204573,-83.3333333333333,4,2,0,75,0,0
205430,-76.9230769230769,4,2,0,85,0,1
218459,-76.9230769230769,4,2,0,80,0,0
219144,-76.9230769230769,4,2,0,90,0,1
229944,-76.9230769230769,4,2,0,90,0,0
230030,-76.9230769230769,4,2,0,10,0,0

[Colours]
Combo1 : 255,0,0
Combo2 : 255,128,64
Combo3 : 0,128,255
Combo4 : 128,64,64

[HitObjects]
256,192,7601,12,0,10001,0:0:0:0:
105,262,10687,6,0,P|23:274|-10:286,2,87.5,4|0|0,0:0|0:0|1:0,0:0:0:0:
336,205,11201,2,0,P|337:123|299:-5,1,175,2|0,0:0|0:0,0:0:0:0:
471,68,11716,1,0,1:0:0:0:
471,68,11887,2,0,L|456:255,1,175,0|0,0:0|0:0,0:0:0:0:
178,355,12401,6,0,P|186:294|191:233,1,87.5,0|0,1:0|0:0,0:0:0:0:
228,32,12744,1,4,3:0:0:0:
289,199,12916,1,4,3:0:0:0:
133,108,13087,1,0,1:0:0:0:
362,86,13259,1,2,0:0:0:0:
239,343,13430,5,4,3:0:0:0:
239,343,13601,1,0,0:0:0:0:
140,220,13773,1,0,1:0:0:0:
362,86,13944,2,0,P|453:47|522:105,1,175,2|4,0:0|3:0,0:0:0:0:
228,95,14459,1,0,1:0:0:0:
228,95,14630,2,0,P|111:94|11:99,1,175,2|4,0:0|3:0,0:0:0:0:
100,186,15144,5,0,1:0:0:0:
298,162,15316,1,4,3:0:0:0:
298,162,15401,1,4,3:0:0:0:
298,162,15487,1,4,3:0:0:0:
335,49,15659,1,4,3:0:0:0:
228,95,15830,2,0,P|213:161|212:220,1,87.5,0|0,1:0|0:0,0:0:0:0:
417,132,16173,5,4,0:0:0:0:
335,49,16344,1,0,3:0:0:0:
154,260,16516,1,0,1:0:0:0:
154,260,16687,2,0,L|45:304,1,87.5,4|0,1:0|0:0,0:0:0:0:
239,231,17030,1,4,3:0:0:0:
166,161,17201,1,0,1:0:0:0:
154,260,17373,1,0,0:0:0:0:
357,215,17544,5,4,0:0:0:0:
198,33,17716,1,4,3:0:0:0:
76,319,17887,1,0,1:0:0:0:
357,215,18059,2,0,L|451:223,1,87.5,4|0,1:0|0:0,0:0:0:0:
217,327,18401,5,4,3:0:0:0:
253,73,18573,1,0,1:0:0:0:
444,222,18744,1,0,1:0:0:0:
433,208,18916,5,0,0:0:0:0:
401,229,19259,2,0,L|409:263,2,26.2499991989136,2|0|0,0:0|0:0|0:0,0:0:0:0:
323,211,19773,1,0,0:0:0:0:
326,215,19944,2,0,L|318:178,1,26.2499991989136,2|0,0:0|0:0,0:0:0:0:
87,28,20287,5,0,1:0:0:0:
27,193,20459,1,4,3:0:0:0:
27,193,20544,1,4,3:0:0:0:
27,193,20630,1,4,3:0:0:0:
326,215,20801,1,4,3:0:0:0:
326,215,20887,1,4,3:0:0:0:
326,215,20973,1,4,1:0:0:0:
87,28,21144,1,0,1:0:0:0:
87,28,21487,5,0,0:0:0:0:
87,28,21659,2,0,L|85:106,1,70,2|0,0:0|0:0,0:0:0:0:
165,94,22001,1,0,0:0:0:0:
165,94,22173,2,0,L|167:264,1,140,2|0,0:0|0:0,0:0:0:0:
233,319,22687,1,0,0:0:0:0:
233,319,22859,1,0,0:0:0:0:
233,319,23030,6,0,P|300:314|405:319,1,140,2|0,0:0|0:0,0:0:0:0:
496,191,23544,2,0,P|507:129|470:28,1,140,2|0,0:0|0:0,0:0:0:0:
105,43,24230,5,2,0:0:0:0:
105,43,24316,1,0,0:0:0:0:
105,43,24401,2,0,L|194:32,1,70,2|0,0:0|0:0,0:0:0:0:
236,131,24744,1,0,0:0:0:0:
236,131,24916,2,0,L|63:130,1,140,2|0,0:0|0:0,0:0:0:0:
204,231,25430,1,0,0:0:0:0:
204,231,25601,2,0,P|281:226|361:236,1,140,2|0,0:0|0:0,0:0:0:0:
422,227,26116,1,2,0:0:0:0:
422,227,26287,1,0,0:0:0:0:
377,144,26459,1,2,0:0:0:0:
377,144,26630,1,0,0:0:0:0:
440,94,26801,1,2,0:0:0:0:
369,64,26973,1,0,0:0:0:0:
369,64,27144,6,0,L|225:50,1,140,2|0,0:0|0:0,0:0:0:0:
300,85,27830,2,0,P|235:95|145:124,1,140
46,362,28516,2,0,L|80:216,1,140,2|0,0:0|0:0,0:0:0:0:
92,317,29201,2,0,P|130:249|177:188,1,140
440,37,29887,5,2,0:0:0:0:
383,88,30059,1,0,0:0:0:0:
434,147,30230,1,0,0:0:0:0:
500,92,30401,1,2,0:0:0:0:
500,92,30744,2,0,P|470:181|461:211,1,105,2|0,0:0|0:0,0:0:0:0:
418,274,31087,2,0,P|441:162|453:114,1,157.499995193482,2|0,0:0|0:0,0:0:0:0:
79,373,32459,5,0,0:0:0:0:
79,373,32630,2,0,P|27:358|-31:346,1,87.5,4|0,3:0|0:0,0:0:0:0:
153,178,32973,1,0,1:0:0:0:
153,178,33144,2,0,P|213:166|261:160,1,87.5,0|4,0:0|3:0,0:0:0:0:
466,75,33487,1,2,0:0:0:0:
389,31,33659,1,0,1:0:0:0:
388,117,33830,1,0,0:0:0:0:
234,337,34001,6,0,P|159:326|32:351,1,175,4|0,3:0|1:0,0:0:0:0:
274,256,34516,2,0,L|370:288,1,87.5,0|4,0:0|3:0,0:0:0:0:
203,179,34859,1,4,3:0:0:0:
81,224,35030,1,0,1:0:0:0:
203,179,35201,5,4,3:0:0:0:
203,179,35287,1,4,3:0:0:0:
203,179,35373,2,0,P|211:80|213:57,1,87.5,4|0,3:0|0:0,0:0:0:0:
371,22,35716,1,0,1:0:0:0:
375,26,35887,2,0,P|410:27|481:18,1,87.5,0|4,0:0|3:0,0:0:0:0:
261,33,36230,2,0,P|206:22|151:20,1,87.5,2|0,0:0|1:0,0:0:0:0:
43,276,36573,2,0,P|113:260|161:152,1,175
261,33,37087,2,0,P|221:86|203:123,1,87.5,0|0,1:0|0:0,0:0:0:0:
390,328,37430,6,0,L|496:325,1,87.5,4|4,3:0|3:0,0:0:0:0:
171,308,37773,2,0,L|66:318,1,87.5,0|4,1:0|3:0,0:0:0:0:
265,357,38116,6,0,P|275:264|202:213,1,175,4|0,3:0|1:0,0:0:0:0:
403,28,38630,1,0,0:0:0:0:
403,28,38801,2,0,P|378:85|363:144,1,87.5,4|2,3:0|0:0,0:0:0:0:
491,220,39144,1,0,1:0:0:0:
494,348,39316,1,0,0:0:0:0:
375,357,39487,6,0,P|303:371|283:377,1,87.5,4|0,3:0|0:0,0:0:0:0:
97,315,39830,1,0,1:0:0:0:
183,69,40001,1,0,0:0:0:0:
183,69,40173,2,0,L|127:234,1,175,4|0,3:0|1:0,0:0:0:0:
268,61,40687,5,4,3:0:0:0:
268,61,40773,1,4,3:0:0:0:
268,61,40859,2,0,P|348:35|446:25,1,175,4|0,0:0|1:0,0:0:0:0:
183,69,41373,2,0,L|78:58,1,87.5,6|0,3:0|0:0,0:0:0:0:
288,163,41716,2,0,L|404:177,1,87.5,4|0,0:0|1:0,0:0:0:0:
211,384,42059,2,0,P|140:320|56:256,1,175,4|0,1:0|0:0,0:0:0:0:
89,264,42487,1,4,3:0:0:0:
109,256,42573,2,0,L|57:170,1,87.5,0|0,1:0|0:0,0:0:0:0:
251,305,42916,1,4,3:0:0:0:
251,305,43087,1,4,3:0:0:0:
286,307,43173,1,4,3:0:0:0:
326,295,43259,1,4,3:0:0:0:
352,270,43344,1,4,3:0:0:0:
359,249,43430,1,4,3:0:0:0:
360,230,43516,1,4,3:0:0:0:
351,203,43601,6,0,P|307:180|271:168,1,65.6250025033952,4|0,3:0|0:0,0:0:0:0:
307,158,43944,2,0,P|250:170|218:184,1,65.6250025033952,4|0,3:0|0:0,0:0:0:0:
242,144,44287,2,0,P|213:187|197:224,1,65.6250025033952,4|0,3:0|0:0,0:0:0:0:
183,173,44630,2,0,P|172:222|172:253,1,65.6250025033952,4|0,3:0|0:0,0:0:0:0:
186,343,44973,6,0,P|138:333|97:330,1,65.6250025033952,4|0,3:0|0:0,0:0:0:0:
191,314,45316,1,4,3:0:0:0:
104,268,45487,1,0,1:0:0:0:
104,268,45573,1,0,1:0:0:0:
104,268,45659,1,4,1:3:0:0:
174,174,45830,1,0,0:0:0:0:
107,122,46001,1,4,3:0:0:0:
143,52,46173,1,0,0:0:0:0:
24,99,46344,6,0,P|15:150|13:188,1,65.6250025033952,4|0,0:0|0:0,0:0:0:0:
28,174,46687,2,0,P|28:221|30:263,1,65.6250025033952,4|0,3:0|0:0,0:0:0:0:
108,258,47030,2,0,P|117:304|125:337,1,65.6250025033952,4|0,3:0|0:0,0:0:0:0:
236,217,47373,2,0,P|252:252|288:293,1,65.6250025033952,4|0,3:0|0:0,0:0:0:0:
472,376,47716,1,4,3:0:0:0:
337,209,47887,1,0,1:0:0:0:
337,209,47973,1,0,1:0:0:0:
337,209,48059,1,0,1:0:0:0:
337,209,48144,1,0,1:0:0:0:
324,190,48230,1,0,1:0:0:0:
321,171,48316,1,4,3:0:0:0:
330,140,48401,1,0,1:0:0:0:
367,117,48487,1,4,3:0:0:0:
382,79,48573,1,4,3:0:0:0:
378,32,48659,1,4,3:0:0:0:
363,8,48744,1,4,3:0:0:0:
363,8,48830,1,4,3:0:0:0:
363,8,48916,1,4,3:0:0:0:
363,8,49001,1,4,3:0:0:0:
362,10,49087,6,0,L|254:2,1,87.5,4|0,0:0|0:0,0:0:0:0:
70,105,49430,1,0,1:0:0:0:
70,105,49601,2,0,P|67:168|67:232,1,87.5,4|0,3:0|0:0,0:0:0:0:
225,340,49944,1,4,3:0:0:0:
225,340,50030,1,4,3:0:0:0:
225,340,50116,2,0,L|348:359,1,87.5,0|0,1:0|0:0,0:0:0:0:
456,97,50459,5,4,3:0:0:0:
258,168,50630,1,4,3:0:0:0:
404,323,50801,1,0,1:0:0:0:
304,76,50973,2,0,P|202:53|99:37,1,175,4|4,0:0|3:0,0:0:0:0:
38,233,51487,1,0,1:0:0:0:
304,76,51659,1,2,0:0:0:0:
304,76,51744,1,0,0:0:0:0:
304,76,51830,6,0,P|356:90|403:122,1,87.5,4|0,3:0|0:0,0:0:0:0:
498,306,52087,2,0,P|442:314|375:310,1,87.5,2|0,0:0|0:0,0:0:0:0:
169,265,52344,1,0,1:0:0:0:
169,265,52430,1,0,1:0:0:0:
169,265,52516,2,0,P|169:207|177:142,1,87.5,4|0,3:0|0:0,0:0:0:0:
298,0,52773,2,0,P|359:22|404:105,1,131.25,2|0,0:0|0:0,0:0:0:0:
498,329,53201,5,4,3:0:0:0:
237,111,53373,1,0,1:0:0:0:
237,111,53459,1,0,1:0:0:0:
237,111,53544,1,0,1:0:0:0:
74,339,53716,1,0,1:0:0:0:
74,339,53801,1,0,1:0:0:0:
74,339,53887,6,0,P|60:278|39:224,1,87.5,2|0,0:0|0:0,0:0:0:0:
170,56,54144,2,0,P|156:104|153:162,1,87.5,4|0,3:0|0:0,0:0:0:0:
391,313,54401,2,0,P|375:279|350:241,1,43.75,0|0,1:0|0:0,0:0:0:0:
438,43,54573,2,0,P|341:72|318:163,1,175,4|0,0:0|0:0,0:0:0:0:
405,124,55087,5,2,0:0:0:0:
316,135,55259,1,0,0:0:0:0:
369,211,55430,1,2,0:0:0:0:
440,332,55601,1,0,0:0:0:0:
392,327,55687,1,2,0:0:0:0:
347,346,55773,1,0,0:0:0:0:
314,379,55859,1,0,0:0:0:0:
269,354,55944,6,0,P|162:346|37:357,1,209.999993591309,4|0,0:0|1:0,0:0:0:0:
310,93,56459,1,0,0:0:0:0:
310,93,56630,2,0,L|431:84,1,104.999996795654,4|0,3:0|0:0,0:0:0:0:
262,355,56973,2,0,L|147:369,1,104.999996795654,0|0,1:0|0:0,0:0:0:0:
463,212,57316,2,0,P|481:123|520:-16,1,209.999993591309,4|0,3:0|1:0,0:0:0:0:
419,270,57830,1,0,0:0:0:0:
400,273,58001,6,0,L|414:383,1,104.999996795654,4|0,3:0|0:0,0:0:0:0:
349,196,58344,2,0,L|352:61,1,104.999996795654,0|0,1:0|0:0,0:0:0:0:
179,243,58687,6,0,P|114:247|37:261,1,104.999996795654,4|0,3:0|0:0,0:0:0:0:
351,91,59030,2,0,P|431:85|498:81,1,104.999996795654,0|0,1:0|0:0,0:0:0:0:
167,124,59373,1,4,3:0:0:0:
42,85,59544,1,4,3:0:0:0:
42,85,59716,2,0,L|155:41,1,104.999996795654,0|0,1:0|0:0,0:0:0:0:
377,65,60059,5,4,3:0:0:0:
139,46,60230,1,4,3:0:0:0:
49,221,60401,1,0,1:0:0:0:
156,295,60573,1,4,3:0:0:0:
156,295,60659,1,4,3:0:0:0:
156,295,60744,1,4,3:0:0:0:
99,371,60916,1,4,3:0:0:0:
156,295,61087,5,0,1:0:0:0:
49,221,61259,1,2,0:0:0:0:
275,360,61430,2,0,P|321:319|383:279,1,104.999996795654,4|0,0:0|0:0,0:0:0:0:
37,366,61773,1,2,0:0:0:0:
37,366,61944,2,0,P|85:267|145:156,1,209.999993591309,4|0,3:0|0:0,0:0:0:0:
411,21,62459,5,0,1:0:0:0:
301,179,62630,1,2,0:0:0:0:
301,179,62716,1,0,1:0:0:0:
301,179,62801,1,0,1:0:0:0:
24,190,62973,1,4,3:0:0:0:
223,282,63144,2,0,L|211:226,1,52.4999983978272,0|0,1:0|0:0,0:0:0:0:
162,355,63316,2,0,P|245:321|366:335,1,209.999993591309,4|4,3:0|3:0,0:0:0:0:
486,77,63830,5,0,1:0:0:0:
380,16,64001,1,2,0:0:0:0:
204,85,64173,2,0,B|297:67|309:136|432:112,1,209.999993591309,4|0,0:0|1:0,0:0:0:0:
74,151,64687,5,4,3:0:0:0:
467,232,64859,2,0,L|493:340,1,104.999996795654,0|0,1:0|0:0,0:0:0:0:
408,115,65116,2,0,L|389:4,1,104.999996795654,4|0,3:0|0:0,0:0:0:0:
339,205,65373,2,0,L|355:294,1,52.4999983978272,0|0,0:1|0:0,0:0:0:0:
326,357,65544,2,0,P|313:267|264:142,1,209.999993591309,4|0,1:0|0:0,0:0:0:0:
33,195,66059,1,2,0:0:0:0:
433,316,66230,1,0,1:0:0:0:
403,319,66316,1,0,1:0:0:0:
355,301,66401,1,0,1:0:0:0:
328,257,66487,1,0,1:0:0:0:
313,198,66573,1,0,1:0:0:0:
271,155,66659,1,0,1:0:0:0:
213,154,66744,1,0,1:0:0:0:
158,180,66830,1,0,1:0:0:0:
122,218,66916,6,0,P|130:121|267:71,1,227.499989585877,4|0,0:0|1:0,0:0:0:0:
176,317,67430,1,0,0:0:0:0:
176,317,67601,2,0,P|120:359|62:369,1,113.749994792938,4|0,3:0|0:0,0:0:0:0:
330,173,67944,2,0,P|380:166|458:172,1,113.749994792938,0|0,1:0|0:0,0:0:0:0:
122,219,68287,2,0,P|85:89|55:-10,1,227.499989585877,4|0,3:0|1:0,0:0:0:0:
229,207,68801,1,0,0:0:0:0:
250,225,68973,6,0,L|249:343,1,113.749994792938,4|0,3:0|0:0,0:0:0:0:
328,115,69316,2,0,L|328:-25,1,113.749994792938,0|0,1:0|0:0,0:0:0:0:
250,225,69659,2,0,P|300:243|364:272,1,113.749994792938,4|0,3:0|0:0,0:0:0:0:
43,187,70001,2,0,P|32:113|22:42,1,113.749994792938,0|0,1:0|0:0,0:0:0:0:
353,0,70344,1,4,3:0:0:0:
483,65,70516,1,4,3:0:0:0:
152,155,70687,2,0,P|96:169|42:186,1,113.749994792938,0|0,1:0|0:0,0:0:0:0:
242,190,71030,5,4,3:0:0:0:
334,66,71201,1,4,3:0:0:0:
334,66,71287,1,4,3:0:0:0:
334,66,71373,1,0,1:0:0:0:
500,26,71544,1,4,3:0:0:0:
417,339,71716,1,4,3:0:0:0:
379,335,71801,1,4,3:0:0:0:
339,340,71887,1,4,3:0:0:0:
300,348,71973,1,4,3:0:0:0:
247,364,72059,5,0,1:0:0:0:
273,219,72230,1,2,0:0:0:0:
430,29,72401,1,4,0:0:0:0:
273,219,72573,1,0,0:0:0:0:
27,64,72744,1,2,0:0:0:0:
27,64,72916,2,0,P|104:54|177:39,1,113.749994792938,4|0,3:0|0:0,0:0:0:0:
430,29,73259,1,0,0:0:0:0:
430,29,73344,1,0,0:0:0:0:
430,29,73430,1,0,1:0:0:0:
273,219,73601,1,2,0:0:0:0:
27,64,73773,5,0,1:0:0:0:
46,325,73944,1,4,3:0:0:0:
287,121,74116,2,0,L|287:41,1,56.8749973964692,0|0,1:0|0:0,0:0:0:0:
273,219,74287,2,0,P|361:192|462:196,1,170.624992189408,4|0,3:0|0:0,0:0:0:0:
420,272,74630,5,4,3:0:0:0:
428,49,74801,1,0,1:0:0:0:
73,181,74973,1,2,0:0:0:0:
73,181,75059,1,0,0:0:0:0:
73,181,75144,2,0,P|44:126|16:74,1,113.749994792938,4|0,0:0|0:0,0:0:0:0:
195,234,75487,2,0,P|213:291|230:352,1,113.749994792938,0|0,1:0|0:0,0:0:0:0:
483,127,75830,1,4,3:0:0:0:
181,93,76001,1,4,3:0:0:0:
227,342,76173,2,0,P|309:329|392:342,1,113.749994792938,0|0,1:0|0:0,0:0:0:0:
225,10,76516,2,0,P|153:11|103:42,1,113.749994792938,4|4,3:0|3:0,0:0:0:0:
210,243,76859,1,0,1:0:0:0:
362,17,77030,1,0,1:0:0:0:
480,334,77201,1,4,3:0:0:0:
362,17,77373,1,0,1:0:0:0:
335,32,77459,1,0,1:0:0:0:
320,62,77544,1,0,1:0:0:0:
320,87,77630,1,0,1:0:0:0:
333,114,77716,1,0,1:0:0:0:
351,125,77801,1,0,1:0:0:0:
383,133,77887,6,0,L|354:252,1,113.749994792938,4|0,0:0|0:0,0:0:0:0:
108,246,78230,2,0,L|71:373,1,113.749994792938,2|4,0:0|3:0,0:0:0:0:
231,148,78573,2,0,L|230:288,1,113.749994792938,0|4,1:0|3:0,0:0:0:0:
452,15,78916,2,0,L|486:138,1,113.749994792938,0|4,0:0|3:0,0:0:0:0:
73,62,79259,5,4,1:0:0:0:
436,190,79516,1,4,1:0:0:0:
91,348,79773,1,4,3:0:0:0:
91,348,79944,2,0,P|112:288|67:130,1,227.499989585877,4|2,0:0|0:0,0:0:0:0:
93,107,80630,5,0,1:0:0:0:
201,143,80801,1,4,3:0:0:0:
313,77,80973,1,4,3:0:0:0:
380,165,81144,5,4,3:0:0:0:
201,143,81316,1,4,3:0:0:0:
128,274,81487,1,4,3:0:0:0:
426,326,81659,5,0,1:0:0:0:
353,83,81830,1,4,3:0:0:0:
110,111,82001,1,4,3:0:0:0:
216,339,82173,5,0,1:0:0:0:
256,173,82344,1,4,3:0:0:0:
110,111,82516,1,4,3:0:0:0:
448,28,82687,5,0,1:0:0:0:
408,350,82859,1,0,1:0:0:0:
408,350,83030,1,2,0:0:0:0:
386,338,83116,1,2,0:0:0:0:
374,306,83201,1,2,0:0:0:0:
380,268,83287,1,2,0:0:0:0:
410,246,83373,5,4,3:0:0:0:
455,248,94344,6,0,P|456:287|458:321,2,61.2499981307984,4|4|0,3:0|3:0|0:0,0:0:0:0:
443,157,94859,2,0,P|378:201|365:261,1,122.499996261597,2|0,0:0|0:0,0:0:0:0:
336,76,95544,1,0,0:0:0:0:
336,76,95716,2,0,P|270:91|207:97,1,122.499996261597,2|4,0:0|3:0,0:0:0:0:
144,21,96230,2,0,P|108:68|117:145,1,122.499996261597,2|0,0:0|0:0,0:0:0:0:
57,289,96916,5,2,0:0:0:0:
57,289,97001,1,2,0:0:0:0:
57,289,97087,2,0,L|138:284,2,61.2499981307984,4|4|0,3:0|3:0|0:0,0:0:0:0:
162,348,97601,2,0,P|232:341|304:353,1,122.499996261597,2|0,0:0|0:0,0:0:0:0:
396,319,98287,2,0,L|389:177,1,122.499996261597,4|4,3:0|3:0,0:0:0:0:
479,90,98801,2,0,L|476:164,2,61.2499981307984,0|0|0,1:0|0:0|1:0,0:0:0:0:
351,32,99316,1,4,3:0:0:0:
212,116,99487,1,0,1:0:0:0:
95,42,99659,5,0,1:0:0:0:
95,42,99744,1,0,1:0:0:0:
95,42,99830,2,0,P|71:112|81:179,1,122.499996261597,4|0,0:0|0:0,0:0:0:0:
219,206,100516,2,0,L|283:195,2,61.2499981307984,0|4|0,1:0|3:0|0:0,0:0:0:0:
197,317,101030,1,0,3:0:0:0:
197,317,101116,1,0,3:0:0:0:
197,317,101201,2,0,P|107:313|51:327,1,122.499996261597,4|0,3:0|0:0,0:0:0:0:
286,276,101887,2,0,P|342:283|425:268,1,122.499996261597,0|0,1:0|0:0,0:0:0:0:
463,8,102573,5,4,3:0:0:0:
270,100,102744,1,4,3:0:0:0:
407,273,102916,1,0,1:0:0:0:
407,273,103087,2,0,L|430:132,1,122.499996261597,4|4,3:0|3:0,0:0:0:0:
425,360,103601,1,0,1:0:0:0:
425,360,103773,2,0,P|361:352|295:354,1,122.499996261597,4|4,3:0|3:0,0:0:0:0:
303,353,104201,1,4,3:0:0:0:
303,353,104287,1,0,0:0:0:0:
301,108,104459,1,0,0:0:0:0:
125,214,104630,1,4,3:0:0:0:
430,189,104801,1,0,1:0:0:0:
408,160,104887,1,0,1:0:0:0:
404,120,104973,1,0,1:0:0:0:
418,86,105059,1,0,1:0:0:0:
446,67,105144,1,0,1:0:0:0:
480,63,105230,1,0,1:0:0:0:
509,67,105316,6,0,P|491:131|487:182,1,87.5,4|0,3:0|0:0,0:0:0:0:
337,344,105659,1,0,1:0:0:0:
337,344,105830,2,0,P|264:339|214:341,1,87.5,0|4,0:0|3:0,0:0:0:0:
172,76,106173,1,2,0:0:0:0:
93,125,106344,1,0,1:0:0:0:
176,180,106516,1,0,0:0:0:0:
319,28,106687,2,0,P|402:29|512:27,1,175,4|0,3:0|1:0,0:0:0:0:
387,185,107201,2,0,P|335:185|265:190,1,87.5,0|4,0:0|3:0,0:0:0:0:
57,355,107544,1,4,3:0:0:0:
33,222,107716,1,0,1:0:0:0:
202,234,107887,1,4,3:0:0:0:
202,234,107973,1,4,3:0:0:0:
202,234,108059,6,0,P|201:149|201:112,1,87.5,4|0,3:0|0:0,0:0:0:0:
438,33,108401,1,0,1:0:0:0:
438,33,108573,2,0,P|381:31|324:32,1,87.5,0|4,0:0|3:0,0:0:0:0:
400,297,108916,1,2,0:0:0:0:
504,102,109087,1,0,1:0:0:0:
188,162,109259,2,0,P|96:162|66:79,1,175,0|0,0:0|0:0,0:0:0:0:
226,76,109773,2,0,P|260:109|281:170,1,87.5,0|0,1:0|0:0,0:0:0:0:
69,373,110116,6,0,P|87:327|112:282,1,87.5,4|4,3:0|3:0,0:0:0:0:
401,211,110459,1,0,1:0:0:0:
311,45,110630,1,4,3:0:0:0:
311,45,110716,1,4,3:0:0:0:
311,45,110801,2,0,P|280:102|322:204,1,175,4|0,3:0|1:0,0:0:0:0:
455,357,111316,1,0,0:0:0:0:
455,357,111487,2,0,L|451:254,1,87.5,4|2,3:0|0:0,0:0:0:0:
216,32,111830,5,0,1:0:0:0:
133,198,112001,1,0,0:0:0:0:
340,130,112173,2,0,P|355:86|377:29,1,87.5,4|0,3:0|0:0,0:0:0:0:
496,319,112516,1,0,1:0:0:0:
223,334,112687,1,0,0:0:0:0:
370,48,112859,2,0,P|485:72|504:149,1,175,4|0,3:0|1:0,0:0:0:0:
158,204,113373,5,4,3:0:0:0:
158,204,113544,2,0,P|113:130|48:57,1,175,4|0,0:0|1:0,0:0:0:0:
244,269,114059,2,0,L|235:364,1,87.5,6|0,3:0|0:0,0:0:0:0:
358,220,114401,1,4,0:0:0:0:
189,19,114573,1,0,1:0:0:0:
189,19,114744,2,0,P|104:33|57:132,1,175,4|0,1:0|0:0,0:0:0:0:
160,363,115259,2,0,P|154:306|136:259,1,87.5,0|0,1:0|0:0,0:0:0:0:
341,41,115601,1,4,3:0:0:0:
341,41,115773,1,4,3:0:0:0:
366,67,115859,1,4,3:0:0:0:
368,102,115944,1,4,3:0:0:0:
349,135,116030,1,4,3:0:0:0:
310,140,116116,1,4,3:0:0:0:
289,133,116201,1,4,3:0:0:0:
269,109,116287,6,0,P|250:159|239:199,1,65.6250025033952,4|0,3:0|0:0,0:0:0:0:
237,131,116630,2,0,P|233:189|232:221,1,65.6250025033952,4|0,3:0|0:0,0:0:0:0:
211,164,116973,2,0,P|219:214|231:250,1,65.6250025033952,4|0,3:0|0:0,0:0:0:0:
194,215,117316,2,0,P|213:257|234:288,1,65.6250025033952,4|0,3:0|0:0,0:0:0:0:
492,249,117659,6,0,P|497:198|500:156,1,65.6250025033952,4|0,3:0|0:0,0:0:0:0:
397,149,118001,1,4,3:0:0:0:
383,48,118173,1,0,1:0:0:0:
383,48,118259,1,0,1:0:0:0:
383,48,118344,1,4,1:3:0:0:
259,97,118516,1,0,0:0:0:0:
183,110,118687,1,4,3:0:0:0:
200,31,118859,1,0,0:0:0:0:
340,47,119030,6,0,P|346:89|352:130,1,65.6250025033952,4|0,0:0|0:0,0:0:0:0:
299,191,119373,2,0,P|289:222|273:266,1,65.6250025033952,4|0,3:0|0:0,0:0:0:0:
137,274,119716,2,0,P|114:314|96:342,1,65.6250025033952,4|0,3:0|0:0,0:0:0:0:
82,146,120059,2,0,P|41:150|-10:154,1,65.6250025033952,4|0,3:0|0:0,0:0:0:0:
170,60,120401,5,4,3:0:0:0:
170,60,120573,1,0,1:0:0:0:
170,60,120659,1,0,1:0:0:0:
170,60,120744,1,0,1:0:0:0:
447,103,120916,1,0,1:0:0:0:
447,103,121001,1,4,3:0:0:0:
447,103,121087,1,0,1:0:0:0:
429,138,121173,1,4,3:0:0:0:
419,176,121259,1,4,3:0:0:0:
432,222,121344,1,4,3:0:0:0:
471,269,121430,1,4,3:0:0:0:
471,269,121516,1,4,3:0:0:0:
471,269,121601,1,4,3:0:0:0:
471,269,121687,1,4,3:0:0:0:
471,269,121773,6,0,P|479:328|486:377,1,87.5,4|0,0:0|0:0,0:0:0:0:
330,142,122116,1,0,1:0:0:0:
330,142,122287,2,0,P|340:77|347:30,1,87.5,4|0,3:0|0:0,0:0:0:0:
140,158,122630,1,4,3:0:0:0:
140,158,122801,2,0,P|74:155|19:162,1,87.5,0|0,1:0|0:0,0:0:0:0:
117,336,123144,5,4,3:0:0:0:
277,90,123316,1,4,3:0:0:0:
16,69,123487,1,0,1:0:0:0:
277,90,123659,2,0,P|325:87|404:97,1,87.5,4|0,0:0|0:0,0:0:0:0:
166,342,124001,1,4,3:0:0:0:
16,69,124173,1,0,1:0:0:0:
277,90,124344,1,2,0:0:0:0:
277,90,124430,1,0,0:0:0:0:
277,90,124516,6,0,P|309:29|345:-5,1,87.5,4|0,3:0|0:0,0:0:0:0:
232,253,124773,2,0,P|182:262|121:267,1,87.5,2|0,0:0|0:0,0:0:0:0:
210,169,125030,1,0,1:0:0:0:
210,169,125116,1,0,1:0:0:0:
210,169,125201,2,0,P|221:105|237:61,1,87.5,4|0,3:0|0:0,0:0:0:0:
385,294,125459,2,0,P|366:338|345:371,1,87.5,2|0,0:0|0:0,0:0:0:0:
366,61,125716,1,0,0:0:0:0:
39,169,125887,5,4,3:0:0:0:
39,169,126059,1,0,1:0:0:0:
82,190,126144,1,0,1:0:0:0:
126,182,126230,1,0,1:0:0:0:
157,146,126316,1,0,0:0:0:0:
159,107,126401,1,0,1:0:0:0:
130,73,126487,1,0,1:0:0:0:
93,41,126573,6,0,P|106:97|129:138,1,87.5,2|0,0:0|0:0,0:0:0:0:
237,328,126830,2,0,P|224:267|212:235,1,87.5,4|0,3:0|0:0,0:0:0:0:
436,12,127087,2,0,B|424:58|425:89|426:92,1,43.75,0|0,1:0|0:0,0:0:0:0:
486,323,127259,2,0,P|387:304|318:367,1,175,4|0,0:0|0:0,0:0:0:0:
410,384,127773,5,2,0:0:0:0:
404,178,127944,1,2,0:0:0:0:
386,169,128030,1,2,0:0:0:0:
363,173,128116,1,2,0:0:0:0:
346,184,128201,1,2,0:0:0:0:
333,210,128287,2,0,P|336:254|344:280,1,43.75,2|0,0:0|0:0,0:0:0:0:
449,54,128459,2,0,P|436:16|420:-16,1,43.75,2|0,0:0|0:0,0:0:0:0:
241,26,128630,6,0,B|190:9|145:27|128:101|52:90|10:43,1,209.999993591309,4|0,0:0|1:0,0:0:0:0:
16,279,129144,1,0,0:0:0:0:
16,279,129316,2,0,L|31:399,1,104.999996795654,4|0,3:0|0:0,0:0:0:0:
161,154,129659,2,0,L|142:5,1,104.999996795654,0|0,1:0|0:0,0:0:0:0:
283,280,130001,2,0,P|363:228|484:256,1,209.999993591309,4|0,3:0|1:0,0:0:0:0:
429,24,130516,1,0,0:0:0:0:
396,20,130687,6,0,P|328:38|281:47,1,104.999996795654,4|0,3:0|0:0,0:0:0:0:
224,258,131030,2,0,P|281:250|355:240,1,104.999996795654,0|0,1:0|0:0,0:0:0:0:
46,257,131373,6,0,L|29:398,1,104.999996795654,4|0,3:0|0:0,0:0:0:0:
115,115,131716,2,0,L|117:-16,1,104.999996795654,0|0,1:0|0:0,0:0:0:0:
334,185,132059,1,4,3:0:0:0:
512,150,132230,1,4,3:0:0:0:
512,150,132401,2,0,L|373:122,1,104.999996795654,0|0,1:0|0:0,0:0:0:0:
104,28,132744,5,4,3:0:0:0:
159,178,132916,1,4,3:0:0:0:
295,84,133087,1,0,1:0:0:0:
412,209,133259,1,4,3:0:0:0:
412,209,133344,1,4,3:0:0:0:
412,209,133430,1,4,3:0:0:0:
512,150,133601,1,4,3:0:0:0:
412,209,133773,5,0,1:0:0:0:
295,84,133944,1,2,0:0:0:0:
482,274,134116,2,0,P|441:308|400:349,1,104.999996795654,4|0,0:0|0:0,0:0:0:0:
398,90,134459,1,2,0:0:0:0:
398,90,134630,2,0,P|342:178|292:270,1,209.999993591309,4|0,3:0|0:0,0:0:0:0:
26,384,135144,5,0,1:0:0:0:
195,260,135316,1,2,0:0:0:0:
195,260,135401,1,0,1:0:0:0:
195,260,135487,1,0,1:0:0:0:
8,124,135659,1,4,3:0:0:0:
193,77,135830,2,0,L|214:17,1,52.4999983978272,0|0,1:0|0:0,0:0:0:0:
262,125,136001,2,0,P|159:110|95:203,1,209.999993591309,4|4,3:0|3:0,0:0:0:0:
394,254,136516,5,0,1:0:0:0:
446,384,136687,1,2,0:0:0:0:
214,354,136859,2,0,B|116:366|101:306|1:341,1,209.999993591309,4|0,0:0|1:0,0:0:0:0:
46,194,137373,5,4,3:0:0:0:
404,0,137544,2,0,L|391:121,1,104.999996795654,0|0,1:0|0:0,0:0:0:0:
446,333,137801,2,0,P|383:319|313:318,1,104.999996795654,4|0,3:0|0:0,0:0:0:0:
183,188,138059,2,0,B|190:164|190:164|222:137,1,52.4999983978272,0|0,1:1|0:0,0:0:0:0:
83,273,138230,2,0,P|95:181|32:62,1,209.999993591309,4|0,1:0|0:0,0:0:0:0:
424,92,138744,1,2,0:0:0:0:
259,355,138916,1,0,1:0:0:0:
237,328,139001,1,0,1:0:0:0:
234,278,139087,1,0,1:0:0:0:
260,231,139173,1,0,1:0:0:0:
298,199,139259,1,0,1:0:0:0:
302,131,139344,1,0,1:0:0:0:
251,78,139430,1,0,1:0:0:0:
178,85,139516,1,0,1:0:0:0:
107,119,139601,6,0,B|147:141|217:137|211:89|265:72|344:115,1,227.499989585877,4|0,0:0|1:0,0:0:0:0:
480,271,140116,1,0,0:0:0:0:
480,271,140287,2,0,P|490:333|486:385,1,113.749994792938,4|0,3:0|0:0,0:0:0:0:
314,167,140630,2,0,P|343:106|390:55,1,113.749994792938,0|0,1:0|0:0,0:0:0:0:
269,310,140973,2,0,P|180:296|42:387,1,227.499989585877,4|0,3:0|1:0,0:0:0:0:
106,133,141487,1,0,0:0:0:0:
147,115,141659,6,0,L|130:-3,1,113.749994792938,4|0,3:0|0:0,0:0:0:0:
228,271,142001,2,0,L|237:409,1,113.749994792938,0|0,1:0|0:0,0:0:0:0:
112,182,142344,2,0,P|57:185|-18:202,1,113.749994792938,4|0,3:0|0:0,0:0:0:0:
256,118,142687,2,0,P|266:70|280:-7,1,113.749994792938,0|0,1:0|0:0,0:0:0:0:
137,293,143030,1,4,3:0:0:0:
260,384,143201,1,4,3:0:0:0:
365,118,143373,2,0,P|365:37|363:-17,1,113.749994792938,0|0,1:0|0:0,0:0:0:0:
512,239,143716,5,4,3:0:0:0:
512,239,143801,1,4,3:0:0:0:
512,239,143887,1,4,3:0:0:0:
512,239,143973,1,4,3:0:0:0:
512,239,144059,1,0,1:0:0:0:
261,59,144230,1,4,3:0:0:0:
299,336,144401,1,4,3:0:0:0:
339,325,144487,1,4,3:0:0:0:
381,327,144573,1,4,3:0:0:0:
426,344,144659,1,4,3:0:0:0:
459,375,144744,5,0,1:0:0:0:
257,364,144916,1,2,0:0:0:0:
264,98,145087,1,4,0:0:0:0:
257,364,145259,1,0,0:0:0:0:
0,240,145430,1,2,0:0:0:0:
0,240,145601,2,0,P|4:173|-8:100,1,113.749994792938,4|0,3:0|0:0,0:0:0:0:
265,98,145944,1,0,0:0:0:0:
106,249,146116,5,0,1:0:0:0:
398,306,146287,1,2,0:0:0:0:
398,306,146373,1,0,1:0:0:0:
398,306,146459,5,0,1:0:0:0:
332,21,146630,1,4,3:0:0:0:
106,249,146801,2,0,L|24:255,1,56.8749973964692,0|0,1:0|0:0,0:0:0:0:
196,288,146973,2,0,P|203:190|264:123,1,170.624992189408,4|0,3:0|0:0,0:0:0:0:
310,236,147316,5,4,3:0:0:0:
122,67,147487,1,0,1:0:0:0:
466,32,147659,1,2,0:0:0:0:
466,32,147744,1,0,0:0:0:0:
466,32,147830,2,0,P|504:87|428:158,1,170.624992189408,4|0,0:0|0:0,0:0:0:0:
356,286,148173,2,0,P|356:234|375:149,1,113.749994792938,0|0,1:0|0:0,0:0:0:0:
146,352,148516,1,4,3:0:0:0:
290,133,148687,1,4,3:0:0:0:
443,372,148859,2,0,P|386:371|330:383,1,113.749994792938,0|0,1:0|0:0,0:0:0:0:
225,69,149201,2,0,P|276:46|332:49,1,113.749994792938,4|4,3:0|3:0,0:0:0:0:
322,289,149544,1,0,1:0:0:0:
23,225,149716,1,0,1:0:0:0:
184,9,149887,1,4,3:0:0:0:
23,225,150059,1,0,1:0:0:0:
64,210,150144,1,0,1:0:0:0:
108,217,150230,1,0,1:0:0:0:
133,250,150316,1,0,1:0:0:0:
136,299,150401,1,0,1:0:0:0:
112,321,150487,1,0,1:0:0:0:
82,327,150573,6,0,L|108:216,1,113.749994792938,4|0,0:0|0:0,0:0:0:0:
309,133,150916,2,0,L|325:21,1,113.749994792938,2|4,0:0|3:0,0:0:0:0:
257,241,151259,2,0,L|236:365,1,113.749994792938,0|4,1:0|3:0,0:0:0:0:
89,33,151601,2,0,L|67:163,1,113.749994792938,0|4,0:0|3:0,0:0:0:0:
441,58,151944,6,0,L|406:179,1,113.749994792938,4|0,1:0|0:0,0:0:0:0:
430,369,152201,2,0,P|361:344|280:339,1,113.749994792938,4|0,1:0|0:0,0:0:0:0:
185,227,152459,2,0,L|262:194,1,56.8749973964692,4|0,3:0|0:0,0:0:0:0:
380,218,152630,2,0,P|346:164|456:78,1,227.499989585877,4|2,0:0|0:0,0:0:0:0:
448,75,153316,6,0,P|441:167|439:295,1,209.999993591309,2|0,0:0|0:0,0:0:0:0:
38,57,155030,6,0,P|26:139|19:183,1,104.999996795654,2|0,0:0|0:0,0:0:0:0:
56,236,156401,2,0,L|48:358,1,104.999996795654,2|0,0:0|0:0,0:0:0:0:
124,361,157087,1,0,0:0:0:0:
124,361,157430,2,0,P|196:327|316:378,1,209.999993591309,2|2,0:0|0:0,0:0:0:0:
311,372,158801,1,0,0:0:0:0:
482,195,159144,6,0,P|477:152|461:93,1,104.999996795654,2|0,0:0|0:0,0:0:0:0:
266,27,160516,2,0,P|211:39|151:77,1,104.999996795654,2|0,0:0|0:0,0:0:0:0:
38,328,161373,1,4,3:0:0:0:
38,328,161459,1,4,3:0:0:0:
38,328,161544,6,0,P|31:248|24:201,1,104.999996795654,4|0,1:0|3:0,0:0:0:0:
37,198,162059,1,0,3:0:0:0:
128,209,162230,5,0,1:0:0:0:
148,56,162401,1,0,1:0:0:0:
283,225,162573,1,0,1:0:0:0:
291,61,162744,1,0,1:0:0:0:
99,226,162916,5,0,1:0:0:0:
125,36,163087,1,0,1:0:0:0:
298,253,163259,1,0,1:0:0:0:
315,33,163430,1,0,1:0:0:0:
73,263,163601,5,0,1:0:0:0:
108,8,163773,1,0,1:0:0:0:
316,287,163944,1,0,1:0:0:0:
343,11,164116,1,0,1:0:0:0:
2,192,164287,6,0,L|7:104,1,87.5,4|0,1:0|0:0,0:0:0:0:
13,193,164630,2,0,L|20:84,1,87.5,4|0,3:0|0:0,0:0:0:0:
229,49,164973,2,0,P|282:39|395:74,1,175,4|0,3:0|0:0,0:0:0:0:
512,97,165487,1,0,1:0:0:0:
466,345,165659,1,0,1:0:0:0:
457,218,165830,5,4,3:0:0:0:
457,218,165916,1,4,3:0:0:0:
426,211,166001,1,4,3:0:0:0:
388,234,166087,1,4,3:0:0:0:
366,310,166173,1,0,1:0:0:0:
366,310,166344,5,4,3:0:0:0:
326,320,166430,1,4,3:0:0:0:
275,304,166516,1,4,3:0:0:0:
251,259,166601,1,4,3:0:0:0:
265,208,166687,1,0,1:0:0:0:
265,208,166859,5,2,0:0:0:0:
242,136,166944,1,2,0:0:0:0:
180,88,167030,6,0,P|136:142|106:183,1,87.5,4|0,0:0|0:0,0:0:0:0:
265,367,167373,1,0,1:0:0:0:
274,361,167459,1,0,3:0:0:0:
271,346,167544,1,0,3:0:0:0:
255,337,167630,1,0,3:0:0:0:
219,352,167716,1,4,3:0:0:0:
273,62,167887,1,4,3:0:0:0:
487,193,168059,1,0,1:0:0:0:
459,178,168144,1,0,3:0:0:0:
455,151,168230,1,0,3:0:0:0:
482,132,168316,1,0,3:0:0:0:
512,151,168401,2,0,P|421:202|465:274,1,175,4|0,3:0|1:0,0:0:0:0:
41,368,168916,1,0,0:0:0:0:
41,368,169087,6,0,L|146:324,1,87.5,4|0,3:0|0:0,0:0:0:0:
225,242,169344,2,0,P|176:232|135:225,1,87.5,2|0,0:0|0:0,0:0:0:0:
65,156,169601,2,0,L|131:157,1,43.75,2|0,0:0|0:0,0:0:0:0:
343,241,169773,5,4,0:0:0:0:
443,377,169944,1,0,3:0:0:0:
343,241,170116,1,0,1:0:0:0:
73,68,170287,2,0,P|66:145|61:185,1,87.5,0|4,3:0|3:0,0:0:0:0:
399,54,170630,1,4,3:0:0:0:
411,67,170716,1,4,3:0:0:0:
412,106,170801,1,0,1:0:0:0:
260,302,170973,1,2,0:0:0:0:
3,209,171144,1,4,3:0:0:0:
164,51,171316,5,2,3:0:0:0:
170,55,171430,1,0,3:0:0:0:
82,122,171573,5,4,3:0:0:0:
78,132,171659,1,4,3:0:0:0:
99,227,171830,5,4,3:0:0:0:
116,268,171916,1,4,3:0:0:0:
139,288,172001,1,4,3:0:0:0:
169,304,172087,1,4,3:0:0:0:
201,307,172173,2,0,P|246:240|260:176,1,131.25,0|0,1:0|0:0,0:0:0:0:
116,372,172516,6,0,P|14:379|4:380,1,87.5,4|0,3:0|0:0,0:0:0:0:
18,342,172773,1,0,3:0:0:0:
18,324,172859,1,0,1:0:0:0:
46,188,173030,1,0,3:0:0:0:
46,188,173116,1,0,3:0:0:0:
46,188,173201,1,4,3:0:0:0:
132,99,173373,1,4,3:0:0:0:
139,114,173459,1,4,3:0:0:0:
147,113,173544,1,0,1:0:0:0:
254,55,173716,1,0,3:0:0:0:
267,65,173801,1,0,3:0:0:0:
297,59,173887,1,0,1:0:0:0:
473,86,174059,1,4,3:0:0:0:
486,103,174144,1,4,3:0:0:0:
482,123,174230,1,0,1:0:0:0:
474,346,174401,6,0,L|489:287,1,43.75,2|0,3:0|0:0,0:0:0:0:
396,90,174573,2,0,L|390:18,1,43.75,4|0,3:0|0:0,0:0:0:0:
297,59,174744,1,4,3:0:0:0:
371,289,174916,1,0,1:0:0:0:
111,372,175087,2,0,L|36:371,1,43.75,2|0,3:0|0:0,0:0:0:0:
5,318,175259,1,4,3:0:0:0:
166,178,175430,1,4,3:0:0:0:
166,178,175516,1,4,3:0:0:0:
247,116,175601,2,0,L|227:52,1,43.75,0|0,1:0|0:0,0:0:0:0:
119,102,175773,1,4,3:0:0:0:
371,357,175944,1,2,3:0:0:0:
483,126,176116,1,2,3:0:0:0:
482,97,176201,1,2,3:0:0:0:
456,81,176287,1,0,1:0:0:0:
151,72,176459,2,0,P|106:117|96:131,1,43.75,0|0,3:0|0:0,0:0:0:0:
272,243,176630,5,4,3:0:0:0:
272,243,176801,2,0,L|271:306,1,43.75,2|4,0:0|3:0,0:0:0:0:
251,107,176973,2,0,L|236:41,1,43.75,4|0,3:0|0:0,0:0:0:0:
292,85,177144,1,2,3:0:0:0:
292,85,177230,1,2,3:0:0:0:
291,173,177316,6,0,L|291:241,1,43.75,2|0,3:0|0:0,0:0:0:0:
239,348,177487,2,0,L|237:286,1,43.75,4|0,3:0|0:0,0:0:0:0:
204,369,177659,1,0,1:0:0:0:
361,113,177830,1,4,3:0:0:0:
355,113,177916,1,4,3:0:0:0:
190,94,178001,6,0,L|176:38,1,43.75,0|0,1:0|0:0,0:0:0:0:
190,229,178173,2,0,L|202:299,1,43.75,2|0,3:0|0:0,0:0:0:0:
358,369,178344,1,0,1:0:0:0:
383,343,178430,1,2,3:0:0:0:
383,297,178516,1,2,3:0:0:0:
356,264,178601,1,4,3:0:0:0:
301,239,178687,6,0,P|321:209|354:184,1,43.75,0|0,1:0|0:0,0:0:0:0:
142,325,178859,2,0,P|105:326|70:321,1,43.75,2|0,3:0|0:0,0:0:0:0:
45,183,179030,1,0,1:0:0:0:
38,157,179116,1,0,1:0:0:0:
38,134,179201,1,0,1:0:0:0:
48,109,179287,1,0,1:0:0:0:
102,29,179373,6,0,P|177:19|225:22,1,87.5,0|0,1:0|0:0,0:0:0:0:
449,83,179716,1,4,3:0:0:0:
451,348,179887,1,0,3:0:0:0:
441,347,179973,1,0,3:0:0:0:
411,348,180059,6,0,P|421:300|432:276,1,43.75,0|0,1:0|0:0,0:0:0:0:
362,92,180230,2,0,P|342:149|336:167,1,43.75,0|0,1:0|0:0,0:0:0:0:
244,375,180401,2,0,P|239:337|237:297,1,43.75,0|0,1:0|0:0,0:0:0:0:
166,20,180573,2,0,P|161:52|160:98,1,43.75,0|0,1:0|0:0,0:0:0:0:
77,329,180744,6,0,P|43:242|33:221,1,87.5,4|0,0:0|0:0,0:0:0:0:
279,49,181001,2,0,P|251:121|242:164,1,87.5,4|0,0:0|0:0,0:0:0:0:
402,358,181259,2,0,P|365:321|351:308,1,43.75,4|0,0:0|0:0,0:0:0:0:
396,229,181430,6,0,P|393:258|393:334,3,87.5,4|0|4|0,3:0|0:0|3:0|0:0,0:0:0:0:
475,190,182116,6,0,P|389:193|341:200,1,122.499996261597
43,359,183487,2,0,P|34:319|41:290,1,61.2499981307984,2|0,0:0|0:0,0:0:0:0:
107,131,184173,6,0,P|109:163|112:204,1,61.2499981307984,2|0,0:0|0:0,0:0:0:0:
206,188,184859,2,0,L|205:119,2,61.2499981307984,2|0|2,0:0|0:0|0:0,0:0:0:0:
241,266,185887,1,2,0:0:0:0:
241,266,186230,2,0,P|281:262|341:263,1,91.8749971961976,2|2,0:0|0:0,0:0:0:0:
450,46,187259,5,2,0:0:0:0:
450,46,187430,1,2,0:0:0:0:
450,46,187601,2,0,L|410:34,2,30.6249990653992,2|0|0,0:0|0:0|0:0,0:0:0:0:
446,129,188116,2,0,P|384:124|374:123,1,61.2499981307984,2|0,0:0|0:0,0:0:0:0:
262,262,188630,5,2,0:0:0:0:
262,262,188801,1,2,0:0:0:0:
262,262,188973,2,0,L|304:257,2,30.6249990653992,2|0|0,0:0|0:0|0:0,0:0:0:0:
287,351,189487,2,0,P|333:345|356:341,1,61.2499981307984,2|0,0:0|0:0,0:0:0:0:
448,246,190001,1,2,0:0:0:0:
448,246,190173,1,0,0:0:0:0:
448,246,190344,2,0,P|446:172|448:143,1,91.8749971961976,2|0,0:0|0:0,0:0:0:0:
476,76,191030,5,2,0:0:0:0:
476,76,191287,1,2,0:0:0:0:
476,76,191544,1,0,0:0:0:0:
476,76,191716,2,0,P|419:87|391:113,1,91.8749971961976,2|0,0:0|0:0,0:0:0:0:
384,134,192316,2,0,P|339:191|224:153,1,199.062493925095,2|0,3:0|0:0,0:0:0:0:
300,112,193601,5,2,0:0:0:0:
271,324,193773,2,0,P|267:329|186:373,1,87.5,0|0,3:0|0:0,0:0:0:0:
300,112,194116,2,0,P|330:85|364:65,1,43.75,2|0,0:0|0:0,0:0:0:0:
478,130,194287,1,2,0:0:0:0:
509,205,194373,1,2,0:0:0:0:
501,327,194459,6,0,P|428:360|325:259,1,209.999993591309,4|0,0:0|1:0,0:0:0:0:
358,85,194973,1,0,0:0:0:0:
358,85,195144,2,0,P|383:38|423:-2,1,104.999996795654,4|0,3:0|0:0,0:0:0:0:
330,291,195487,2,0,P|265:329|207:342,1,104.999996795654,0|0,1:0|0:0,0:0:0:0:
56,106,195830,2,0,B|79:179|36:219|21:269|42:342,1,209.999993591309,4|0,3:0|1:0,0:0:0:0:
239,116,196344,1,0,0:0:0:0:
262,104,196516,6,0,P|261:51|261:-14,1,104.999996795654,4|0,3:0|0:0,0:0:0:0:
212,245,196859,2,0,P|213:303|212:354,1,104.999996795654,0|0,1:0|0:0,0:0:0:0:
378,172,197201,6,0,P|458:168|531:173,1,104.999996795654,4|0,3:0|0:0,0:0:0:0:
212,245,197544,2,0,L|101:225,1,104.999996795654,0|0,1:0|0:0,0:0:0:0:
413,24,197887,1,4,3:0:0:0:
489,141,198059,1,4,3:0:0:0:
489,141,198230,2,0,L|511:262,1,104.999996795654,0|0,1:0|0:0,0:0:0:0:
334,366,198573,5,4,3:0:0:0:
422,237,198744,1,4,3:0:0:0:
199,230,198916,1,0,1:0:0:0:
306,7,199087,1,4,3:0:0:0:
486,139,199259,1,4,3:0:0:0:
438,139,199344,1,0,0:0:0:0:
386,157,199430,1,4,3:0:0:0:
351,189,199516,1,0,0:0:0:0:
333,236,199601,5,0,1:0:0:0:
377,100,199773,1,2,0:0:0:0:
286,329,199944,2,0,P|344:329|409:343,1,104.999996795654,4|0,0:0|0:0,0:0:0:0:
210,74,200287,1,2,0:0:0:0:
210,74,200459,2,0,P|159:170|116:280,1,209.999993591309,4|0,3:0|0:0,0:0:0:0:
401,158,200973,5,0,1:0:0:0:
159,66,201144,1,2,0:0:0:0:
159,66,201230,1,0,1:0:0:0:
159,66,201316,1,0,1:0:0:0:
135,325,201487,1,4,3:0:0:0:
343,112,201659,2,0,L|346:59,1,52.4999983978272,0|0,1:0|0:0,0:0:0:0:
288,188,201830,2,0,P|387:157|444:246,1,209.999993591309,4|4,3:0|3:0,0:0:0:0:
443,232,202259,1,0,0:0:0:0:
443,232,202344,5,0,1:0:0:0:
249,66,202516,1,2,0:0:0:0:
94,350,202687,2,0,P|82:276|57:205,1,104.999996795654,4|0,0:0|0:0,0:0:0:0:
73,247,202944,1,0,0:0:0:0:
73,247,203030,1,0,1:0:0:0:
384,134,203201,5,4,3:0:0:0:
384,134,203287,1,0,0:0:0:0:
383,133,203373,2,0,B|377:87|377:87|399:22,1,104.999996795654,0|0,1:0|0:0,0:0:0:0:
456,332,203630,2,0,P|397:342|331:333,1,104.999996795654,4|0,3:0|0:0,0:0:0:0:
137,152,203887,2,0,P|170:115|200:96,1,52.4999983978272,0|0,1:1|0:0,0:0:0:0:
79,254,204059,2,0,P|91:162|18:70,1,209.999993591309,4|0,1:0|0:0,0:0:0:0:
383,50,204573,1,2,0:0:0:0:
436,337,204744,1,0,1:0:0:0:
383,345,204830,1,0,1:0:0:0:
335,331,204916,1,0,1:0:0:0:
302,287,205001,1,0,1:0:0:0:
265,229,205087,1,0,1:0:0:0:
194,214,205173,1,0,1:0:0:0:
126,249,205259,1,0,1:0:0:0:
108,320,205344,1,0,1:0:0:0:
164,384,205430,6,0,P|156:301|23:260,1,227.499989585877,4|0,0:0|1:0,0:0:0:0:
339,16,205944,1,0,0:0:0:0:
339,16,206116,2,0,P|313:70|309:135,1,113.749994792938,4|0,3:0|0:0,0:0:0:0:
469,343,206459,2,0,P|451:277|419:225,1,113.749994792938,0|0,1:0|0:0,0:0:0:0:
221,74,206801,2,0,B|167:70|127:91|132:161|69:181|-3:173,1,227.499989585877,4|0,3:0|1:0,0:0:0:0:
333,111,207316,1,0,0:0:0:0:
373,103,207487,6,0,P|368:51|334:-14,1,113.749994792938,4|0,3:0|0:0,0:0:0:0:
406,288,207830,2,0,L|522:297,1,113.749994792938,0|0,1:0|0:0,0:0:0:0:
192,348,208173,2,0,P|132:344|51:319,1,113.749994792938,4|0,3:0|0:0,0:0:0:0:
274,65,208516,2,0,P|338:98|391:143,1,113.749994792938,0|0,1:0|0:0,0:0:0:0:
38,370,208859,1,4,3:0:0:0:
86,223,209030,1,4,3:0:0:0:
464,152,209201,2,0,P|466:76|461:2,1,113.749994792938,0|0,1:0|0:0,0:0:0:0:
274,65,209544,5,4,3:0:0:0:
274,65,209630,1,4,3:0:0:0:
274,65,209716,1,4,3:0:0:0:
500,172,209887,1,0,1:0:0:0:
187,362,210059,1,4,3:0:0:0:
114,37,210230,1,4,3:0:0:0:
145,26,210316,1,4,3:0:0:0:
194,24,210401,1,4,3:0:0:0:
239,35,210487,1,4,3:0:0:0:
274,65,210573,5,0,1:0:0:0:
279,88,210659,1,4,3:0:0:0:
274,156,210744,1,4,3:0:0:0:
268,175,210830,1,0,0:0:0:0:
210,246,210916,1,4,0:0:0:0:
43,96,211087,1,0,0:0:0:0:
396,32,211259,1,2,0:0:0:0:
396,32,211430,2,0,P|400:99|386:188,1,113.749994792938,4|0,3:0|0:0,0:0:0:0:
93,235,211773,1,0,0:0:0:0:
100,242,211859,1,0,0:0:0:0:
113,254,211944,5,0,1:0:0:0:
455,122,212116,1,0,0:0:0:0:
455,122,212201,1,0,1:0:0:0:
455,122,212287,5,0,1:0:0:0:
137,44,212459,1,4,3:0:0:0:
175,307,212630,2,0,L|197:232,1,56.8749973964692,0|0,1:0|0:0,0:0:0:0:
116,336,212801,2,0,B|181:317|193:362|228:359|310:330,1,170.624992189408,4|0,3:0|0:0,0:0:0:0:
228,212,213144,5,4,3:0:0:0:
452,309,213316,1,0,1:0:0:0:
460,20,213487,1,2,0:0:0:0:
460,20,213573,1,0,0:0:0:0:
460,20,213659,2,0,P|379:51|338:155,1,170.624992189408,4|0,0:0|0:0,0:0:0:0:
323,285,214001,2,0,P|302:233|252:182,1,113.749994792938,0|0,1:0|0:0,0:0:0:0:
26,89,214344,1,4,3:0:0:0:
50,361,214516,1,4,3:0:0:0:
379,173,214687,2,0,P|377:136|352:45,1,113.749994792938,0|0,1:0|0:0,0:0:0:0:
3,268,215030,2,0,P|69:262|136:296,1,113.749994792938,4|0,3:0|0:0,0:0:0:0:
436,164,215373,1,0,1:0:0:0:
148,37,215544,1,0,1:0:0:0:
196,361,215716,1,4,3:0:0:0:
148,37,215887,1,0,1:0:0:0:
143,87,215973,1,0,1:0:0:0:
168,125,216059,1,0,1:0:0:0:
208,138,216144,1,0,1:0:0:0:
251,127,216230,1,0,1:0:0:0:
265,92,216316,1,0,1:0:0:0:
280,60,216401,6,0,P|342:58|410:71,1,113.749994792938,4|0,0:0|0:0,0:0:0:0:
251,363,216744,2,0,P|189:362|124:350,1,113.749994792938,2|4,0:0|3:0,0:0:0:0:
95,106,217087,2,0,L|156:-13,1,113.749994792938,0|4,1:0|3:0,0:0:0:0:
90,264,217430,2,0,L|92:378,1,113.749994792938,0|4,0:0|3:0,0:0:0:0:
448,108,217773,6,0,B|452:48|452:48|412:-27,1,113.749994792938,4|0,1:0|0:0,0:0:0:0:
142,46,218030,2,0,P|111:109|92:187,1,113.749994792938,4|0,1:0|0:0,0:0:0:0:
373,354,218287,2,0,L|449:343,1,56.8749973964692,4|0,3:0|0:0,0:0:0:0:
416,244,218459,2,0,P|368:169|256:219,1,227.499989585877,4|2,0:0|0:0,0:0:0:0:
251,168,219144,6,0,P|262:100|281:23,1,113.749994792938,4|4,0:0|3:0,0:0:0:0:
399,343,219487,2,0,P|336:359|256:358,1,113.749994792938,0|0,1:0|0:0,0:0:0:0:
271,56,219830,2,0,P|323:67|398:93,1,113.749994792938,2|4,0:0|3:0,0:0:0:0:
399,94,220087,1,4,3:0:0:0:
427,114,220173,1,0,1:0:0:0:
145,250,220344,1,0,0:0:0:0:
13,77,220516,2,0,P|71:22|137:0,1,113.749994792938,4|4,3:0|3:0,0:0:0:0:
227,343,220859,2,0,P|167:351|137:348,1,56.8749973964692,0|0,1:0|0:0,0:0:0:0:
59,203,221030,2,0,P|94:135|241:69,1,227.499989585877,4|0,1:3|0:0,0:0:0:0:
462,264,221544,2,0,P|465:207|456:151,1,113.749994792938,2|0,0:0|0:0,0:0:0:0:
83,91,221887,6,0,P|62:182|54:235,1,113.749994792938,4|0,3:0|0:0,0:0:0:0:
400,52,222230,2,0,P|341:-21|334:-29,1,56.8749973964692,4|0,1:0|0:0,0:0:0:0:
222,102,222401,2,0,P|197:197|191:257,1,113.749994792938,4|0,3:0|0:0,0:0:0:0:
442,277,222744,1,4,3:0:0:0:
281,25,222916,2,0,P|202:19|132:62,1,113.749994792938,0|0,1:0|0:0,0:0:0:0:
103,90,223173,1,0,1:0:0:0:
64,194,223259,2,0,P|100:261|134:300,1,113.749994792938,4|4,0:0|3:0,0:0:0:0:
442,71,223601,1,0,1:0:0:0:
190,140,223773,2,0,P|197:188|211:224,1,56.8749973964692,4|0,0:0|0:0,0:0:0:0:
373,333,223944,2,0,P|427:294|474:240,1,113.749994792938,2|4,0:0|3:0,0:0:0:0:
150,22,224287,2,0,P|116:92|98:159,1,113.749994792938,0|0,1:0|1:0,0:0:0:0:
105,228,224544,1,0,1:0:0:0:
214,245,224630,6,0,P|177:130|149:118,1,113.749994792938,4|0,0:0|0:0,0:0:0:0:
375,334,224973,2,0,P|404:360|500:385,1,113.749994792938,0|0,1:0|0:0,0:0:0:0:
289,100,225316,2,0,P|195:172|184:196,1,113.749994792938,2|4,0:0|3:0,0:0:0:0:
62,372,225659,2,0,P|49:322|20:258,1,113.749994792938,0|0,1:0|0:0,0:0:0:0:
67,177,225916,1,0,1:0:0:0:
139,102,226001,2,0,P|183:68|257:47,1,113.749994792938,4|0,0:0|0:0,0:0:0:0:
482,357,226344,1,0,1:0:0:0:
440,176,226516,1,4,3:0:0:0:
78,286,226687,2,0,P|46:196|43:136,1,113.749994792938,2|4,0:0|3:0,0:0:0:0:
423,68,227030,2,0,P|473:94|530:168,1,113.749994792938,0|0,1:0|0:0,0:0:0:0:
146,358,227373,5,4,3:0:0:0:
78,286,227544,1,4,3:0:0:0:
345,9,227716,1,0,1:0:0:0:
486,191,227887,2,0,P|498:242|505:288,1,56.8749973964692,4|0,0:0|0:0,0:0:0:0:
294,110,228059,2,0,P|337:20|375:-31,1,113.749994792938,2|4,0:0|3:0,0:0:0:0:
246,342,228401,2,0,P|187:353|147:354,1,56.8749973964692,0|0,1:0|0:0,0:0:0:0:
78,286,228573,1,0,1:0:0:0:
344,8,228744,5,4,0:0:0:0:
369,234,228916,1,4,3:0:0:0:
165,55,229087,1,0,1:0:0:0:
64,373,229259,1,4,3:0:0:0:
263,255,229430,1,0,1:0:0:0:
239,0,229601,1,0,1:0:0:0:
187,22,229687,1,0,1:0:0:0:
165,55,229773,1,0,1:0:0:0:
155,348,229944,5,4,0:0:0:0:
256,192,230030,12,0,234230,0:0:0:0:
