osu file format v14

[General]
AudioFilename: audio.mp3
AudioLeadIn: 0
PreviewTime: 62323
Countdown: 0
SampleSet: Soft
StackLeniency: 0.7
Mode: 3
LetterboxInBreaks: 0
SpecialStyle: 0
WidescreenStoryboard: 0

[Editor]
DistanceSpacing: 0.9
BeatDivisor: 4
GridSize: 4
TimelineZoom: 1.3

[Metadata]
Title:Be Starters! (TV Size)
TitleUnicode:Be Starters! (TV Size)
Artist:Kitamura Eri
ArtistUnicode:喜多村英梨
Creator:SReisen
Version:HD
Source:まよチキ!
Tags:cyberyuki ShikiNoHollow japanese j-pop jpop pop anime op opening female vocal Mayo Chiki! Akihiko Yamaguchi Eiji Kawai Shoko Omori Tomoki Kikuya Daisensei Muroya Strings Toshino Tanabe 山口朗彦 河合英嗣 大森祥子 菊谷知樹 大先生室屋ストリングス 田辺トシノ King Record Co., Ltd. キングレコード株式会社 KICA-3159
BeatmapID:4415338
BeatmapSetID:2104289

[Difficulty]
HPDrainRate:7.5
CircleSize:4
OverallDifficulty:8
ApproachRate:5
SliderMultiplier:1.4
SliderTickRate:1

[Events]
//Background and Video events
Video,930,"intro.mp4"
0,0,"bg.jpg",0,0
//Break Periods
//Storyboard Layer 0 (Background)
//Storyboard Layer 1 (Fail)
//Storyboard Layer 2 (Pass)
//Storyboard Layer 3 (Foreground)
//Storyboard Layer 4 (Overlay)
//Storyboard Sound Samples

[TimingPoints]
1252,357.142857142857,4,2,1,50,1,0
13751,-66.6666666666667,4,2,1,50,0,0
13930,-133.333333333333,4,2,1,50,0,0
14109,-100,4,2,1,50,0,0
62323,-66.6666666666667,4,2,1,50,0,0
62501,-133.333333333333,4,2,1,50,0,0
62680,-100,4,2,1,50,0,1
85537,-100,4,2,1,50,0,0

[HitObjects]
448,192,1252,128,0,2680:0:0:0:93:
64,192,2680,1,0,0:0:0:46:
192,192,2680,1,0,0:0:0:46:
320,192,2859,1,0,0:0:0:93:
192,192,3037,1,0,0:0:0:93:
448,192,3216,1,0,0:0:0:93:
320,192,3573,1,0,0:0:0:93:
192,192,3751,1,0,0:0:0:93:
320,192,3930,1,0,0:0:0:93:
64,192,4109,1,0,0:0:0:46:
448,192,4109,1,0,0:0:0:46:
192,192,4287,1,0,0:0:0:93:
448,192,4644,1,0,0:0:0:93:
320,192,4823,1,0,0:0:0:93:
192,192,5001,1,0,0:0:0:93:
64,192,5180,1,0,0:0:0:93:
192,192,5359,1,0,0:0:0:93:
320,192,5537,1,0,0:0:0:46:
448,192,5537,1,0,0:0:0:46:
64,192,5716,1,0,0:0:0:93:
448,192,5894,1,0,0:0:0:93:
192,192,6073,1,0,0:0:0:93:
320,192,6430,1,0,0:0:0:93:
192,192,6609,1,0,0:0:0:93:
448,192,6787,1,0,0:0:0:93:
64,192,6966,1,0,0:0:0:46:
192,192,6966,1,0,0:0:0:46:
320,192,7144,1,0,0:0:0:93:
64,192,7323,1,0,0:0:0:93:
448,192,7501,1,0,0:0:0:93:
192,192,7680,1,0,0:0:0:46:
320,192,7680,1,0,0:0:0:46:
448,192,8037,128,0,8394:0:0:0:93:
320,192,8305,1,0,0:0:0:93:
192,192,8350,1,0,0:0:0:93:
64,192,8394,128,0,9466:0:0:0:93:
320,192,8573,1,0,0:0:0:93:
192,192,8751,1,0,0:0:0:93:
448,192,8930,1,0,0:0:0:93:
320,192,9109,1,0,0:0:0:93:
448,192,9287,1,0,0:0:0:93:
192,192,9466,1,0,0:0:0:93:
320,192,9644,1,0,0:0:0:93:
448,192,9823,128,0,10537:0:0:0:46:
64,192,9823,1,0,0:0:0:46:
192,192,10001,1,0,0:0:0:93:
64,192,10180,1,0,0:0:0:93:
320,192,10359,1,0,0:0:0:93:
192,192,10537,1,0,0:0:0:46:
64,192,10537,128,0,10894:0:0:0:46:
320,192,10716,1,0,0:0:0:93:
448,192,10894,1,0,0:0:0:46:
192,192,10894,128,0,11251:0:0:0:46:
64,192,11073,1,0,0:0:0:93:
320,192,11251,1,0,0:0:0:46:
448,192,11251,128,0,12680:0:0:0:46:
64,192,11430,1,0,0:0:0:93:
320,192,11609,1,0,0:0:0:93:
64,192,11787,1,0,0:0:0:93:
192,192,11966,1,0,0:0:0:93:
320,192,12144,1,0,0:0:0:93:
64,192,12323,1,0,0:0:0:93:
320,192,12501,1,0,0:0:0:93:
64,192,12680,1,2,0:0:0:46:
192,192,12680,1,0,0:0:0:46:
320,192,12859,1,0,0:0:0:93:
64,192,13037,1,8,0:0:0:46:
448,192,13037,1,0,0:0:0:46:
192,192,13216,1,0,0:0:0:93:
320,192,13305,1,0,0:0:0:46:
448,192,13305,1,2,0:0:0:46:
64,192,13394,1,0,0:0:0:93:
192,192,13484,1,0,0:0:0:93:
448,192,13573,1,0,0:0:0:46:
64,192,13573,1,2,0:0:0:46:
320,192,13662,1,0,0:0:0:93:
192,192,13751,1,2,0:0:0:46:
448,192,13751,1,8,0:0:0:46:
64,192,14109,128,0,14287:0:0:0:31:
192,192,14109,1,4,0:0:0:31:
448,192,14109,1,2,0:0:0:31:
320,192,14287,128,0,14466:0:0:0:93:
192,192,14466,128,0,14644:0:0:0:46:
64,192,14466,1,8,0:0:0:46:
448,192,14644,128,0,15359:0:0:0:93:
320,192,14823,1,2,0:0:0:93:
64,192,15001,1,2,0:0:0:93:
320,192,15180,1,0,0:0:0:46:
192,192,15180,1,8,0:0:0:46:
64,192,15359,128,0,15894:0:0:0:93:
192,192,15537,1,2,0:0:0:93:
320,192,15894,128,0,16251:0:0:0:46:
448,192,15894,1,8,0:0:0:46:
64,192,16073,1,2,0:0:0:93:
192,192,16251,128,0,16609:0:0:0:93:
320,192,16430,1,2,0:0:0:93:
64,192,16609,1,8,0:0:0:46:
448,192,16609,128,0,16966:0:0:0:46:
320,192,16966,128,0,17144:0:0:0:46:
64,192,16966,1,2,0:0:0:46:
192,192,17144,128,0,17323:0:0:0:93:
448,192,17323,128,0,17501:0:0:0:46:
320,192,17323,1,8,0:0:0:46:
64,192,17501,128,0,18216:0:0:0:93:
192,192,17680,1,2,0:0:0:93:
320,192,17859,1,2,0:0:0:93:
192,192,18037,1,0,0:0:0:46:
448,192,18037,1,8,0:0:0:46:
320,192,18216,128,0,18751:0:0:0:93:
448,192,18394,1,2,0:0:0:93:
192,192,18751,128,0,19109:0:0:0:46:
64,192,18751,1,8,0:0:0:46:
320,192,18930,1,2,0:0:0:93:
448,192,19109,128,0,19466:0:0:0:93:
192,192,19287,1,2,0:0:0:93:
320,192,19466,1,8,0:0:0:46:
64,192,19466,1,4,0:0:0:46:
192,192,19644,1,8,0:0:0:93:
320,192,19734,1,8,0:0:0:93:
64,192,19823,1,4,0:0:0:46:
448,192,19823,128,2,20537:0:0:0:46:
192,192,20180,1,8,0:0:0:46:
320,192,20180,1,0,0:0:0:46:
192,192,20537,128,0,20716:0:0:0:46:
64,192,20537,1,2,0:0:0:46:
320,192,20716,128,0,20894:0:0:0:46:
448,192,20716,1,2,0:0:0:46:
64,192,20894,128,0,21073:0:0:0:46:
192,192,20894,1,8,0:0:0:46:
448,192,21073,128,0,21966:0:0:0:93:
320,192,21251,1,2,0:0:0:93:
64,192,21609,1,8,0:0:0:46:
192,192,21609,1,0,0:0:0:46:
320,192,21966,128,0,22144:0:0:0:46:
192,192,21966,1,2,0:0:0:46:
64,192,22144,128,0,22323:0:0:0:46:
448,192,22144,1,2,0:0:0:46:
192,192,22323,128,0,22501:0:0:0:46:
320,192,22323,1,8,0:0:0:46:
448,192,22501,128,0,22680:0:0:0:93:
320,192,22680,128,0,23216:0:0:0:31:
64,192,22680,1,4,0:0:0:31:
192,192,22680,1,2,0:0:0:31:
64,192,23037,1,8,0:0:0:46:
448,192,23037,1,0,0:0:0:46:
192,192,23216,128,0,23751:0:0:0:31:
448,192,23216,1,2,0:0:0:31:
64,192,23216,1,4,0:0:0:31:
320,192,23573,1,8,0:0:0:46:
448,192,23573,1,0,0:0:0:46:
64,192,23751,128,0,25537:0:0:0:31:
448,192,23751,1,2,0:0:0:31:
320,192,23751,1,4,0:0:0:31:
448,192,24109,1,8,0:0:0:46:
192,192,24109,1,0,0:0:0:0:
320,192,24287,1,2,0:0:0:93:
320,192,24644,1,2,0:0:0:93:
192,192,24823,1,8,0:0:0:46:
448,192,24823,1,0,0:0:0:0:
320,192,25001,1,0,0:0:0:93:
448,192,25180,1,2,0:0:0:93:
320,192,25269,1,2,0:0:0:0:
192,192,25359,1,2,0:0:0:0:
448,192,25537,1,2,0:0:0:46:
320,192,25537,1,4,0:0:0:46:
192,192,25716,1,0,0:0:0:93:
448,192,25894,1,0,0:0:0:46:
64,192,25894,1,8,0:0:0:46:
320,192,26073,1,0,0:0:0:93:
192,192,26251,1,0,0:0:0:93:
448,192,26430,1,8,0:0:0:46:
320,192,26430,1,0,0:0:0:46:
64,192,26609,1,0,0:0:0:93:
192,192,26698,1,0,0:0:0:93:
64,192,26787,1,0,0:0:0:93:
192,192,26876,1,0,0:0:0:93:
320,192,26966,1,0,0:0:0:93:
64,192,27144,1,0,0:0:0:93:
448,192,27323,1,8,0:0:0:46:
320,192,27323,1,0,0:0:0:46:
192,192,27501,1,0,0:0:0:93:
320,192,27680,1,0,0:0:0:93:
192,192,27859,1,0,0:0:0:46:
64,192,27859,1,8,0:0:0:46:
448,192,28037,1,0,0:0:0:93:
320,192,28126,1,0,0:0:0:93:
448,192,28216,1,0,0:0:0:93:
320,192,28305,1,0,0:0:0:93:
192,192,28394,1,0,0:0:0:93:
448,192,28573,1,0,0:0:0:93:
64,192,28751,1,8,0:0:0:46:
320,192,28751,1,0,0:0:0:46:
448,192,28930,1,0,0:0:0:93:
192,192,29109,1,0,0:0:0:93:
320,192,29287,1,0,0:0:0:46:
448,192,29287,1,8,0:0:0:46:
64,192,29466,1,0,0:0:0:93:
192,192,29555,1,0,0:0:0:93:
64,192,29644,1,0,0:0:0:93:
192,192,29734,1,0,0:0:0:93:
320,192,29823,1,0,0:0:0:93:
448,192,30001,1,0,0:0:0:93:
320,192,30180,1,0,0:0:0:46:
64,192,30180,1,8,0:0:0:46:
448,192,30359,1,0,0:0:0:93:
192,192,30537,1,0,0:0:0:93:
320,192,30716,1,8,0:0:0:93:
448,192,30716,1,0,0:0:0:0:
448,192,30894,1,0,0:0:0:0:
64,192,30894,1,0,0:0:0:93:
192,192,31073,1,0,0:0:0:0:
448,192,31251,128,0,31609:0:0:0:93:
320,192,31251,1,0,0:0:0:0:
192,192,31430,1,0,0:0:0:0:
320,192,31609,1,8,0:0:0:46:
64,192,31609,1,0,0:0:0:0:
448,192,31787,1,0,0:0:0:93:
192,192,31966,1,0,0:0:0:0:
64,192,32144,1,8,0:0:0:46:
448,192,32144,1,0,0:0:0:0:
320,192,32323,1,0,0:0:0:93:
192,192,32412,1,0,0:0:0:93:
320,192,32501,1,0,0:0:0:93:
192,192,32591,1,0,0:0:0:93:
64,192,32680,128,0,33037:0:0:0:93:
448,192,32680,1,0,0:0:0:0:
320,192,32859,1,0,0:0:0:93:
448,192,33037,1,0,0:0:0:46:
192,192,33037,1,8,0:0:0:46:
320,192,33216,1,0,0:0:0:93:
448,192,33394,128,0,33751:0:0:0:0:
192,192,33573,1,0,0:0:0:46:
64,192,33573,1,8,0:0:0:46:
320,192,33751,1,0,0:0:0:93:
64,192,33930,1,0,0:0:0:93:
320,192,34109,128,0,34466:0:0:0:46:
448,192,34109,1,0,0:0:0:46:
192,192,34287,1,0,0:0:0:93:
64,192,34466,1,8,0:0:0:46:
448,192,34466,1,0,0:0:0:46:
192,192,34644,1,0,0:0:0:93:
448,192,34823,1,0,0:0:0:93:
192,192,35001,1,0,0:0:0:46:
64,192,35001,1,8,0:0:0:46:
448,192,35180,1,0,0:0:0:0:
320,192,35269,1,0,0:0:0:0:
192,192,35359,1,0,0:0:0:0:
64,192,35448,1,0,0:0:0:0:
320,192,35537,128,0,35894:0:0:0:0:
448,192,35537,1,0,0:0:0:0:
320,192,36251,1,0,0:0:0:46:
448,192,36251,1,0,0:0:0:46:
64,192,36430,1,0,0:0:0:93:
192,192,36519,1,0,0:0:0:93:
448,192,36609,1,0,0:0:0:93:
320,192,36787,1,0,0:0:0:93:
192,192,36876,1,0,0:0:0:93:
64,192,36966,1,0,0:0:0:31:
320,192,36966,1,4,0:0:0:31:
448,192,36966,1,2,0:0:0:31:
192,192,37144,1,0,0:0:0:93:
320,192,37323,1,0,0:0:0:46:
448,192,37323,1,2,0:0:0:46:
64,192,37501,1,0,0:0:0:93:
192,192,37680,1,2,0:0:0:46:
320,192,37680,1,0,0:0:0:46:
448,192,37859,1,0,0:0:0:93:
192,192,38037,1,0,0:0:0:46:
64,192,38037,1,2,0:0:0:46:
320,192,38216,1,0,0:0:0:93:
448,192,38394,1,0,0:0:0:46:
64,192,38394,1,2,0:0:0:46:
192,192,38573,1,0,0:0:0:93:
448,192,38751,1,0,0:0:0:46:
320,192,38751,1,2,0:0:0:46:
192,192,38930,1,0,0:0:0:93:
320,192,39109,1,0,0:0:0:46:
64,192,39109,1,2,0:0:0:46:
448,192,39287,1,0,0:0:0:93:
64,192,39466,1,0,0:0:0:46:
192,192,39466,1,2,0:0:0:46:
448,192,39644,1,0,0:0:0:93:
320,192,39823,1,0,0:0:0:46:
64,192,39823,1,2,0:0:0:46:
192,192,40001,1,0,0:0:0:93:
448,192,40180,1,0,0:0:0:46:
320,192,40180,1,2,0:0:0:46:
64,192,40359,1,0,0:0:0:93:
192,192,40537,1,2,0:0:0:46:
320,192,40537,1,0,0:0:0:46:
448,192,40716,1,0,0:0:0:93:
192,192,40894,1,0,0:0:0:46:
64,192,40894,1,2,0:0:0:46:
320,192,41073,1,0,0:0:0:93:
64,192,41251,1,0,0:0:0:46:
448,192,41251,1,2,0:0:0:46:
192,192,41430,1,0,0:0:0:93:
448,192,41609,1,0,0:0:0:46:
64,192,41609,1,2,0:0:0:46:
320,192,41787,1,0,0:0:0:93:
448,192,41966,1,2,0:0:0:46:
192,192,41966,1,0,0:0:0:46:
192,192,42144,1,8,0:0:0:46:
64,192,42144,1,0,0:0:0:46:
320,192,42323,1,0,0:0:0:46:
448,192,42323,1,2,0:0:0:46:
64,192,42501,1,8,0:0:0:46:
448,192,42501,1,0,0:0:0:46:
192,192,42680,1,4,0:0:0:31:
320,192,42680,1,2,0:0:0:31:
64,192,42680,1,0,0:0:0:31:
448,192,42859,1,0,0:0:0:93:
64,192,43037,1,0,0:0:0:46:
320,192,43037,1,2,0:0:0:46:
192,192,43216,1,0,0:0:0:93:
320,192,43394,1,0,0:0:0:46:
448,192,43394,1,2,0:0:0:46:
64,192,43573,128,0,43751:0:0:0:93:
192,192,43751,1,8,0:0:0:46:
448,192,43751,1,2,0:0:0:46:
320,192,43930,1,0,0:0:0:93:
448,192,44109,1,0,0:0:0:46:
64,192,44109,1,2,0:0:0:46:
192,192,44287,1,0,0:0:0:93:
320,192,44466,1,0,0:0:0:46:
64,192,44466,1,2,0:0:0:46:
448,192,44644,1,0,0:0:0:93:
320,192,44823,1,2,0:0:0:46:
192,192,44823,1,0,0:0:0:46:
64,192,45001,1,0,0:0:0:46:
448,192,45001,1,2,0:0:0:46:
448,192,45180,1,8,0:0:0:46:
320,192,45180,1,0,0:0:0:46:
64,192,45359,1,2,0:0:0:93:
192,192,45359,1,0,0:0:0:0:
448,192,45537,1,0,0:0:0:46:
320,192,45537,1,2,0:0:0:46:
64,192,45716,1,0,0:0:0:93:
192,192,45894,1,0,0:0:0:46:
448,192,45894,1,8,0:0:0:46:
64,192,46073,1,0,0:0:0:93:
448,192,46251,1,2,0:0:0:46:
320,192,46251,1,0,0:0:0:46:
192,192,46430,1,0,0:0:0:93:
320,192,46609,1,0,0:0:0:46:
64,192,46609,1,8,0:0:0:46:
448,192,46787,1,0,0:0:0:31:
64,192,46787,1,0,0:0:0:31:
192,192,46787,1,4,0:0:0:31:
320,192,47144,1,2,0:0:0:46:
192,192,47144,1,0,0:0:0:46:
448,192,47323,1,0,0:0:0:46:
64,192,47323,1,8,0:0:0:46:
320,192,47501,1,0,0:0:0:46:
448,192,47501,1,2,0:0:0:46:
192,192,47680,1,0,0:0:0:46:
64,192,47680,1,8,0:0:0:46:
320,192,47859,128,0,48037:0:0:0:0:
448,192,47859,1,2,0:0:0:0:
64,192,48037,1,0,0:0:0:93:
192,192,48126,1,0,0:0:0:93:
448,192,48216,1,8,0:0:0:46:
320,192,48305,1,8,0:0:0:46:
64,192,48394,1,4,0:0:0:46:
192,192,48394,1,8,0:0:0:46:
448,192,48394,1,0,0:0:0:0:
320,192,48751,1,0,0:0:0:46:
64,192,48751,1,8,0:0:0:46:
192,192,49109,1,8,0:0:0:46:
448,192,49109,1,0,0:0:0:46:
320,192,49466,1,0,0:0:0:93:
192,192,49644,1,0,0:0:0:93:
64,192,49823,1,0,0:0:0:46:
320,192,49823,1,2,0:0:0:46:
448,192,50001,1,8,0:0:0:46:
64,192,50001,1,0,0:0:0:46:
192,192,50180,1,0,0:0:0:46:
320,192,50180,1,2,0:0:0:46:
448,192,50537,1,8,0:0:0:46:
64,192,50537,1,0,0:0:0:46:
192,192,50716,1,2,0:0:0:93:
64,192,50716,1,0,0:0:0:0:
320,192,50894,1,2,0:0:0:93:
448,192,50894,1,0,0:0:0:0:
64,192,51073,1,2,0:0:0:93:
192,192,51073,1,0,0:0:0:0:
64,192,51251,1,2,0:0:0:31:
448,192,51251,1,4,0:0:0:31:
320,192,51251,1,0,0:0:0:31:
192,192,51609,1,8,0:0:0:46:
448,192,51609,1,0,0:0:0:46:
320,192,51966,1,0,0:0:0:46:
64,192,51966,1,8,0:0:0:46:
192,192,52323,1,0,0:0:0:93:
320,192,52501,1,0,0:0:0:93:
192,192,52680,1,0,0:0:0:93:
64,192,52859,1,8,0:0:0:46:
448,192,52859,1,0,0:0:0:46:
448,192,53037,1,0,0:0:0:46:
192,192,53037,1,2,0:0:0:46:
320,192,53216,1,0,0:0:0:93:
448,192,53394,1,0,0:0:0:46:
64,192,53394,1,8,0:0:0:46:
192,192,53573,1,2,0:0:0:46:
64,192,53573,1,0,0:0:0:46:
448,192,53751,1,8,0:0:0:46:
320,192,53751,1,0,0:0:0:46:
192,192,53930,1,4,0:0:0:31:
448,192,53930,1,2,0:0:0:31:
64,192,53930,128,0,54823:0:0:0:31:
192,192,54287,1,2,0:0:0:93:
320,192,54466,1,0,0:0:0:46:
448,192,54466,1,8,0:0:0:46:
320,192,54823,128,0,55001:0:0:0:46:
448,192,54823,1,2,0:0:0:46:
192,192,55001,128,0,55180:0:0:0:93:
448,192,55180,128,0,55359:0:0:0:46:
64,192,55180,1,8,0:0:0:46:
192,192,55359,128,0,56251:0:0:0:31:
320,192,55359,1,2,0:0:0:31:
64,192,55359,1,4,0:0:0:31:
320,192,55716,1,2,0:0:0:93:
448,192,55894,1,8,0:0:0:46:
64,192,55894,1,0,0:0:0:46:
320,192,56251,128,0,56609:0:0:0:46:
448,192,56251,1,2,0:0:0:46:
64,192,56609,128,0,56966:0:0:0:46:
192,192,56609,1,8,0:0:0:46:
448,192,56966,128,0,58394:0:0:0:31:
192,192,56966,1,2,0:0:0:31:
320,192,56966,1,4,0:0:0:31:
64,192,57323,1,8,0:0:0:46:
320,192,57323,1,0,0:0:0:46:
192,192,57680,1,2,0:0:0:93:
64,192,57859,1,2,0:0:0:93:
192,192,58037,1,8,0:0:0:46:
320,192,58037,1,0,0:0:0:46:
64,192,58394,128,0,59109:0:0:0:46:
320,192,58394,1,2,0:0:0:46:
448,192,58751,1,8,0:0:0:46:
192,192,58751,1,0,0:0:0:46:
448,192,59109,128,0,59466:0:0:0:46:
320,192,59109,1,2,0:0:0:46:
192,192,59287,1,2,0:0:0:93:
64,192,59466,1,8,0:0:0:46:
320,192,59466,128,0,59644:0:0:0:0:
192,192,59644,1,4,0:0:0:31:
448,192,59644,1,0,0:0:0:31:
64,192,59644,1,2,0:0:0:31:
320,192,59823,1,0,0:0:0:93:
192,192,59912,1,0,0:0:0:93:
64,192,60001,1,0,0:0:0:46:
448,192,60001,1,2,0:0:0:46:
320,192,60091,1,0,0:0:0:93:
64,192,60180,1,0,0:0:0:46:
192,192,60180,1,8,0:0:0:46:
320,192,60269,1,0,0:0:0:93:
192,192,60359,1,0,0:0:0:46:
448,192,60359,1,2,0:0:0:46:
64,192,60537,1,0,0:0:0:46:
320,192,60537,1,8,0:0:0:46:
192,192,60716,1,2,0:0:0:46:
448,192,60716,1,0,0:0:0:46:
64,192,60894,1,8,0:0:0:46:
320,192,60894,1,0,0:0:0:46:
192,192,61073,1,8,0:0:0:46:
320,192,61162,1,8,0:0:0:46:
64,192,61251,1,2,0:0:0:46:
448,192,61251,1,0,0:0:0:46:
320,192,61430,1,0,0:0:0:93:
192,192,61519,1,0,0:0:0:93:
448,192,61609,1,0,0:0:0:46:
64,192,61609,1,8,0:0:0:46:
320,192,61698,1,0,0:0:0:93:
192,192,61787,1,0,0:0:0:46:
320,192,61876,1,0,0:0:0:46:
448,192,61876,1,2,0:0:0:46:
64,192,61966,1,0,0:0:0:93:
192,192,62055,1,0,0:0:0:93:
448,192,62144,1,0,0:0:0:46:
320,192,62144,1,8,0:0:0:46:
192,192,62234,1,0,0:0:0:93:
448,192,62323,1,0,0:0:0:46:
64,192,62323,1,8,0:0:0:46:
64,192,62680,128,0,63751:0:0:0:31:
192,192,62680,1,4,0:0:0:31:
448,192,62680,1,2,0:0:0:31:
320,192,63037,1,8,0:0:0:46:
192,192,63037,1,0,0:0:0:46:
448,192,63394,1,2,0:0:0:93:
320,192,63573,1,2,0:0:0:93:
448,192,63751,1,8,0:0:0:46:
192,192,63751,1,0,0:0:0:46:
320,192,64109,128,0,64466:0:0:0:46:
64,192,64109,1,2,0:0:0:46:
192,192,64287,1,2,0:0:0:93:
64,192,64466,128,0,64823:0:0:0:46:
448,192,64466,1,8,0:0:0:46:
320,192,64823,128,0,65180:0:0:0:46:
448,192,64823,1,2,0:0:0:46:
192,192,65001,1,2,0:0:0:93:
448,192,65180,128,0,65537:0:0:0:46:
64,192,65180,1,8,0:0:0:46:
192,192,65537,128,0,66609:0:0:0:46:
64,192,65537,1,2,0:0:0:46:
448,192,65894,1,0,0:0:0:46:
320,192,65894,1,8,0:0:0:46:
64,192,66251,1,2,0:0:0:93:
320,192,66430,1,2,0:0:0:93:
448,192,66609,1,8,0:0:0:46:
64,192,66609,1,0,0:0:0:46:
448,192,66966,128,0,67680:0:0:0:46:
192,192,66966,1,2,0:0:0:46:
320,192,67144,1,2,0:0:0:93:
192,192,67323,1,8,0:0:0:46:
64,192,67323,1,0,0:0:0:46:
64,192,67680,128,0,68037:0:0:0:46:
320,192,67680,1,2,0:0:0:46:
192,192,67859,1,2,0:0:0:93:
448,192,68037,1,8,0:0:0:46:
320,192,68037,1,0,0:0:0:46:
192,192,68216,1,8,0:0:0:93:
320,192,68305,1,8,0:0:0:93:
448,192,68394,128,0,69466:0:0:0:46:
64,192,68394,1,12,0:0:0:46:
64,192,68751,1,8,0:0:0:46:
320,192,68751,1,0,0:0:0:46:
192,192,69109,1,2,0:0:0:93:
320,192,69287,1,2,0:0:0:93:
192,192,69466,1,8,0:0:0:46:
64,192,69466,1,0,0:0:0:46:
64,192,69823,128,0,70894:0:0:0:46:
320,192,69823,1,2,0:0:0:46:
448,192,70180,1,8,0:0:0:46:
192,192,70180,1,0,0:0:0:46:
320,192,70359,1,2,0:0:0:93:
320,192,70716,1,2,0:0:0:93:
448,192,70894,1,0,0:0:0:46:
192,192,70894,1,8,0:0:0:46:
448,192,71251,128,0,71966:0:0:0:31:
64,192,71251,1,2,0:0:0:31:
192,192,71251,1,4,0:0:0:31:
192,192,71609,1,8,0:0:0:46:
320,192,71609,1,0,0:0:0:46:
320,192,71966,1,2,0:0:0:93:
64,192,71966,1,0,0:0:0:0:
192,192,72144,128,0,72323:0:0:0:46:
64,192,72144,1,2,0:0:0:46:
320,192,72323,128,0,72501:0:0:0:46:
448,192,72323,1,8,0:0:0:46:
64,192,72501,128,0,72859:0:0:0:31:
192,192,72501,1,4,0:0:0:31:
448,192,72501,1,2,0:0:0:31:
320,192,72859,1,0,0:0:0:46:
192,192,72859,1,2,0:0:0:46:
448,192,73037,1,0,0:0:0:46:
320,192,73037,1,8,0:0:0:46:
192,192,73216,1,0,0:0:0:46:
64,192,73216,1,2,0:0:0:46:
448,192,73394,1,8,0:0:0:46:
64,192,73394,1,0,0:0:0:46:
192,192,73484,1,8,0:0:0:93:
320,192,73573,1,8,0:0:0:93:
64,192,73662,1,8,0:0:0:93:
448,192,73751,1,8,0:0:0:93:
192,192,73841,1,8,0:0:0:93:
320,192,73930,1,8,0:0:0:93:
192,192,74019,1,8,0:0:0:93:
448,192,74109,128,0,75180:0:0:0:31:
320,192,74109,1,4,0:0:0:31:
64,192,74109,1,8,0:0:0:31:
320,192,74466,1,8,0:0:0:46:
192,192,74466,1,0,0:0:0:46:
64,192,74823,1,2,0:0:0:93:
192,192,75001,1,2,0:0:0:93:
64,192,75180,1,8,0:0:0:46:
320,192,75180,1,0,0:0:0:46:
320,192,75537,128,0,75894:0:0:0:46:
448,192,75537,1,2,0:0:0:46:
192,192,75716,1,2,0:0:0:93:
448,192,75894,128,0,76251:0:0:0:46:
64,192,75894,1,8,0:0:0:46:
192,192,76251,128,0,76609:0:0:0:46:
64,192,76251,1,2,0:0:0:46:
320,192,76430,1,2,0:0:0:93:
64,192,76609,128,0,76966:0:0:0:46:
448,192,76609,1,8,0:0:0:46:
320,192,76966,128,0,78037:0:0:0:46:
448,192,76966,1,2,0:0:0:46:
64,192,77323,1,0,0:0:0:46:
192,192,77323,1,8,0:0:0:46:
448,192,77680,1,2,0:0:0:93:
192,192,77859,1,2,0:0:0:93:
64,192,78037,1,8,0:0:0:46:
448,192,78037,1,0,0:0:0:46:
64,192,78394,128,0,79109:0:0:0:46:
192,192,78394,1,2,0:0:0:46:
448,192,78573,1,2,0:0:0:93:
320,192,78751,1,8,0:0:0:46:
192,192,78751,1,0,0:0:0:46:
448,192,79109,1,2,0:0:0:46:
320,192,79109,1,0,0:0:0:46:
192,192,79287,1,2,0:0:0:46:
64,192,79287,1,0,0:0:0:46:
320,192,79466,1,8,0:0:0:46:
448,192,79466,1,0,0:0:0:46:
192,192,79644,1,8,0:0:0:46:
320,192,79734,1,8,0:0:0:46:
64,192,79823,1,4,0:0:0:46:
448,192,79823,1,8,0:0:0:46:
448,192,80180,1,8,0:0:0:46:
192,192,80180,1,0,0:0:0:46:
64,192,80359,1,0,0:0:0:93:
320,192,80537,1,2,0:0:0:46:
448,192,80537,1,0,0:0:0:46:
64,192,80716,1,2,0:0:0:46:
192,192,80716,1,0,0:0:0:46:
320,192,80894,1,8,0:0:0:46:
448,192,80894,1,0,0:0:0:46:
320,192,81251,1,2,0:0:0:46:
192,192,81251,1,0,0:0:0:46:
448,192,81430,1,2,0:0:0:46:
64,192,81430,1,0,0:0:0:46:
192,192,81609,1,8,0:0:0:46:
320,192,81609,1,0,0:0:0:46:
64,192,81966,1,2,0:0:0:46:
448,192,81966,128,0,82323:0:0:0:46:
192,192,82144,1,2,0:0:0:46:
320,192,82144,1,0,0:0:0:46:
320,192,82323,1,8,0:0:0:46:
64,192,82323,128,0,82680:0:0:0:46:
448,192,82680,1,2,0:0:0:31:
320,192,82680,1,4,0:0:0:31:
192,192,82680,1,0,0:0:0:31:
64,192,82769,1,0,0:0:0:93:
192,192,82859,1,0,0:0:0:93:
320,192,82948,1,0,0:0:0:93:
448,192,83037,1,8,0:0:0:46:
64,192,83037,1,0,0:0:0:46:
192,192,83216,1,0,0:0:0:93:
64,192,83394,1,2,0:0:0:46:
448,192,83394,128,0,83573:0:0:0:46:
192,192,83573,1,2,0:0:0:46:
320,192,83573,128,0,83751:0:0:0:0:
64,192,83751,128,0,83930:0:0:0:46:
448,192,83751,1,8,0:0:0:46:
192,192,83930,128,0,84287:0:0:0:31:
320,192,83930,1,4,0:0:0:31:
448,192,83930,1,2,0:0:0:31:
448,192,84287,1,0,0:0:0:46:
320,192,84287,1,2,0:0:0:46:
64,192,84466,1,0,0:0:0:46:
192,192,84466,1,8,0:0:0:46:
320,192,84644,1,0,0:0:0:46:
448,192,84644,1,2,0:0:0:46:
448,192,84823,1,8,0:0:0:46:
64,192,84823,1,0,0:0:0:46:
192,192,84912,1,8,0:0:0:93:
320,192,85001,1,8,0:0:0:93:
64,192,85091,1,8,0:0:0:93:
448,192,85180,1,8,0:0:0:46:
320,192,85269,1,8,0:0:0:46:
192,192,85359,1,8,0:0:0:46:
64,192,85448,1,8,0:0:0:46:
448,192,85537,128,4,86073:0:0:0:31:
320,192,85537,1,2,0:0:0:31:
64,192,85894,1,8,0:0:0:46:
192,192,85894,1,0,0:0:0:46:
320,192,86251,1,0,0:0:0:46:
192,192,86251,1,2,0:0:0:46:
320,192,86430,1,0,0:0:0:46:
448,192,86430,1,2,0:0:0:46:
64,192,86609,1,8,0:0:0:46:
192,192,86609,1,0,0:0:0:46:
64,192,86966,128,0,87501:0:0:0:46:
320,192,86966,1,2,0:0:0:46:
192,192,87323,1,8,0:0:0:46:
448,192,87323,1,0,0:0:0:46:
320,192,87501,1,2,0:0:0:93:
192,192,87591,1,2,0:0:0:93:
64,192,87680,1,4,0:0:0:31:
320,192,87680,1,8,0:0:0:31:
448,192,87680,1,0,0:0:0:31:
192,192,87859,1,8,0:0:0:31:
448,192,87859,1,0,0:0:0:31:
64,192,87859,1,4,0:0:0:31:
320,192,88037,1,0,0:0:0:93:
64,192,88216,128,0,89466:0:0:0:0:
192,192,88216,128,2,89466:0:0:0:0:
448,192,88216,128,4,89466:0:0:0:0:
