osu file format v14

[General]
AudioFilename: audio.mp3
AudioLeadIn: 0
PreviewTime: 60496
Countdown: 0
SampleSet: Soft
StackLeniency: 0.3
Mode: 0
LetterboxInBreaks: 0
WidescreenStoryboard: 1

[Editor]
DistanceSpacing: 2.1
BeatDivisor: 4
GridSize: 32
TimelineZoom: 2.3

[Metadata]
Title:specialist ("NEVER MORE" P4D-EDIT ver.)
TitleUnicode:specialist ("NEVER MORE" P4D-EDIT ver.)
Artist:Kitajoh Atsushi
ArtistUnicode:喜多條敦志
Creator:FinnaDie
Version:Insane
Source:ペルソナ4 ダンシング・オールナイト
Tags:persona 4 p4 p4d dancing all night never more reincarnation video game ost jazz instrumental arrange version alternate alternator akane-_ akane potatodew Shoji Meguro 目黒将司 Ryuta Kozuka 小塚良太 meme dance
BeatmapID:2724231
BeatmapSetID:1305930

[Difficulty]
HPDrainRate:5
CircleSize:4
OverallDifficulty:8
ApproachRate:9
SliderMultiplier:3
SliderTickRate:1

[Events]
//Background and Video events
0,0,"p4.jpg",0,0
Video,-927,"Project 6 (5).mp4"
//Break Periods
2,121466,123712
2,125216,127462
2,128966,131212
//Storyboard Layer 0 (Background)
//Storyboard Layer 1 (Fail)
//Storyboard Layer 2 (Pass)
//Storyboard Layer 3 (Foreground)
//Storyboard Layer 4 (Overlay)
//Storyboard Sound Samples

[TimingPoints]
-609,468.75,4,2,1,40,1,0
561,-117.647058823529,4,2,1,40,0,0
1266,-117.647058823529,4,2,1,65,0,0
1734,-83.3333333333333,4,2,1,65,0,0
1969,-117.647058823529,4,2,1,65,0,0
9234,-83.3333333333333,4,2,1,65,0,0
9469,-117.647058823529,4,2,1,65,0,0
14156,-105.263157894737,4,2,1,65,0,0
14391,-95.2380952380952,4,2,1,75,0,0
15562,-90.9090909090909,4,2,1,75,0,0
16266,-83.3333333333333,4,2,1,85,0,1
16500,-83.3333333333333,4,2,1,85,0,0
16734,-64.5161290322581,4,2,1,95,0,1
16851,-83.3333333333333,4,2,1,85,0,1
24000,-83.3333333333333,4,2,1,85,0,0
24234,-64.5161290322581,4,2,1,95,0,1
24351,-83.3333333333333,4,2,1,85,0,1
31266,-111.111111111111,4,2,1,65,0,0
46266,-100,4,2,1,70,0,0
60562,-90.9090909090909,4,2,1,75,0,0
61266,-83.3333333333333,4,2,1,85,0,1
61500,-83.3333333333333,4,2,1,85,0,0
61734,-64.5161290322581,4,2,1,95,0,1
61851,-83.3333333333333,4,2,1,85,0,1
69000,-83.3333333333333,4,2,1,85,0,0
69234,-64.5161290322581,4,2,1,95,0,1
69351,-83.3333333333333,4,2,1,85,0,1
76500,-83.3333333333333,4,2,1,85,0,0
76734,-64.5161290322581,4,2,1,95,0,1
76851,-83.3333333333333,4,2,1,85,0,1
84000,-83.3333333333333,4,2,1,85,0,0
84234,-64.5161290322581,4,2,1,95,0,1
84351,-83.3333333333333,4,2,1,85,0,1
91266,-105.263157894737,4,2,1,65,0,0
106266,-95.2380952380952,4,2,1,70,0,0
121266,-117.647058823529,4,2,1,60,0,0
121383,-117.647058823529,4,2,1,25,0,0
124078,-117.647058823529,4,2,1,5,0,0
124312,-117.647058823529,4,2,1,60,0,0
125133,-117.647058823529,4,2,1,25,0,0
127828,-117.647058823529,4,2,1,5,0,0
128062,-117.647058823529,4,2,1,60,0,0
128883,-117.647058823529,4,2,1,25,0,0
131578,-117.647058823529,4,2,1,5,0,0
131812,-117.647058823529,4,2,1,60,0,0
134273,-117.647058823529,4,2,1,25,0,0
135328,-117.647058823529,4,2,1,5,0,0

[Colours]
Combo1 : 217,217,0
Combo2 : 255,100,100
Combo3 : 255,150,45
Combo4 : 192,192,192

[HitObjects]
99,19,562,6,0,L|162:26,1,63.7500012159348,2|0,0:0|0:0,0:0:0:0:
235,103,797,1,2,0:0:0:0:
235,103,914,2,0,L|172:111,1,63.7500012159348,2|0,0:0|0:0,0:0:0:0:
292,38,1148,1,2,0:0:0:0:
292,38,1266,6,0,P|323:91|306:151,1,127.50000243187,6|0,1:2|0:0,0:0:0:0:
46,223,1734,6,0,B|94:190|94:190|214:204,1,179.999994506836,2|0,1:2|0:0,0:0:0:0:
336,355,2203,2,0,L|343:292,1,63.7500012159348,2|0,1:2|0:0,0:0:0:0:
420,219,2437,1,2,0:0:0:0:
420,219,2554,2,0,L|428:282,1,63.7500012159348,2|0,0:0|1:2,0:0:0:0:
250,344,2906,2,0,L|122:329,1,127.50000243187,2|0,0:0|1:2,0:0:0:0:
37,157,3375,6,0,L|100:150,1,63.7500012159348,2|0,0:0|0:0,0:0:0:0:
190,75,3609,2,0,L|127:68,1,63.7500012159348,2|0,1:2|0:0,0:0:0:0:
216,156,3844,2,0,L|279:149,1,63.7500012159348,2|0,0:0|0:0,0:0:0:0:
324,17,4078,2,0,L|331:80,1,63.7500012159348,2|0,1:2|0:0,0:0:0:0:
409,175,4312,1,2,0:0:0:0:
409,175,4429,2,0,L|417:112,1,63.7500012159348,2|0,0:0|1:2,0:0:0:0:
370,251,4664,2,0,P|399:261|431:258,1,63.7500012159348,2|0,0:0|0:0,0:0:0:0:
279,148,4898,1,2,0:0:0:0:
279,148,5016,6,0,L|264:276,1,127.50000243187,2|0,1:2|0:0,0:0:0:0:
88,349,5484,2,0,L|73:221,1,127.50000243187,2|0,1:2|0:0,0:0:0:0:
313,343,5953,2,0,P|253:360|199:329,1,127.50000243187,2|0,1:2|0:0,0:0:0:0:
8,167,6422,2,0,P|62:136|122:154,1,127.50000243187,2|2,1:2|0:0,0:0:0:0:
203,243,6773,1,2,0:0:0:0:
203,243,6891,6,0,L|218:115,1,127.50000243187,2|0,1:2|0:0,0:0:0:0:
406,38,7359,2,0,L|421:166,1,127.50000243187,2|0,1:2|0:0,0:0:0:0:
203,243,7828,2,0,L|218:115,1,127.50000243187,2|0,1:2|0:0,0:0:0:0:
320,48,8180,1,2,0:0:0:0:
320,48,8297,2,0,L|328:111,1,63.7500012159348,2|0,1:2|0:0,0:0:0:0:
288,232,8531,1,2,0:0:0:0:
50,62,8766,6,0,P|103:31|163:48,1,127.50000243187,6|0,1:2|0:0,0:0:0:0:
231,305,9234,6,0,B|198:256|198:256|212:136,1,179.999994506836,2|0,1:2|0:0,0:0:0:0:
436,62,9703,2,0,L|373:69,1,63.7500012159348,2|0,1:2|0:0,0:0:0:0:
300,146,9937,1,2,0:0:0:0:
300,146,10054,2,0,L|363:154,1,63.7500012159348,2|0,0:0|1:2,0:0:0:0:
444,333,10406,2,0,L|429:205,1,127.50000243187,2|0,0:0|1:2,0:0:0:0:
218,88,10875,2,0,L|203:216,1,127.50000243187,2|0,0:0|1:2,0:0:0:0:
94,295,11226,5,2,0:0:0:0:
94,295,11343,2,0,L|157:287,1,63.7500012159348,2|2,0:0|0:0,0:0:0:0:
251,352,11578,2,0,L|243:289,1,63.7500012159348,2|0,1:2|0:0,0:0:0:0:
211,151,11812,1,2,0:0:0:0:
211,151,11929,2,0,L|203:214,1,63.7500012159348,2|0,0:0|1:2,0:0:0:0:
62,132,12164,2,0,L|125:140,1,63.7500012159348,2|0,0:0|0:0,0:0:0:0:
261,69,12398,1,2,0:0:0:0:
261,69,12516,6,0,L|133:54,1,127.50000243187,2|0,1:2|0:0,0:0:0:0:
283,208,12984,2,0,L|411:193,1,127.50000243187,2|0,1:2|0:0,0:0:0:0:
512,52,13453,6,0,P|450:56|410:103,1,127.50000243187,2|0,1:2|0:0,0:0:0:0:
498,198,13805,1,2,0:0:0:0:
498,198,13922,2,0,L|490:135,1,63.7500012159348,2|0,1:2|0:0,0:0:0:0:
378,281,14156,2,0,L|448:272,1,71.2499980974198,6|0,1:2|0:0,0:0:0:0:
290,184,14391,6,0,L|211:174,1,78.7499975967408,10|0,0:0|0:0,0:0:0:0:
162,350,14625,1,10,0:0:0:0:
164,328,14742,2,0,L|173:249,1,78.7499975967408,10|0,0:0|1:2,0:0:0:0:
282,384,14976,1,2,0:0:0:0:
280,362,15093,2,0,L|271:283,1,78.7499975967408,10|0,0:0|0:0,0:0:0:0:
94,240,15328,2,0,L|173:249,1,78.7499975967408,2|8,1:2|0:0,0:0:0:0:
11,270,15562,6,0,P|3:229|20:192,1,82.5000025177003,2|0,1:2|1:2,0:0:0:0:
191,86,15797,1,2,1:2:0:0:
191,86,15914,2,0,P|199:127|182:164,1,82.5000025177003,2|0,0:0|1:2,0:0:0:0:
10,18,16148,1,2,0:0:0:0:
10,18,16266,6,0,B|58:-14|58:-14|178:0,1,179.999994506836,6|0,1:2|0:0,0:0:0:0:
483,69,16734,2,0,L|367:83,1,116.250000886917,10|0,0:0|0:0,0:0:0:0:
311,231,16969,6,0,L|300:141,1,89.9999972534181,2|0,0:0|0:0,0:0:0:0:
242,288,17203,2,0,P|322:319|392:268,1,179.999994506836,2|0,1:2|0:0,0:0:0:0:
492,188,17555,1,2,0:0:0:0:
492,188,17672,2,0,L|402:177,1,89.9999972534181,10|0,0:0|0:0,0:0:0:0:
210,152,17906,2,0,L|300:141,1,89.9999972534181,2|0,0:0|0:0,0:0:0:0:
166,231,18141,6,0,P|131:204|120:162,1,89.9999972534181,2|0,1:2|0:0,0:0:0:0:
19,60,18375,1,2,0:0:0:0:
19,60,18492,1,2,0:0:0:0:
19,60,18609,2,0,L|109:71,1,89.9999972534181,10|0,0:0|0:0,0:0:0:0:
30,172,18844,2,0,L|120:161,1,89.9999972534181,2|0,0:0|0:0,0:0:0:0:
194,18,19078,5,2,1:2:0:0:
196,40,19195,1,10,0:0:0:0:
199,62,19312,2,0,L|210:152,1,89.9999972534181,2|0,0:0|0:0,0:0:0:0:
364,239,19547,2,0,L|375:149,1,89.9999972534181,10|0,0:0|0:0,0:0:0:0:
281,27,19781,2,0,L|292:117,1,89.9999972534181,2|0,0:0|0:0,0:0:0:0:
444,296,20016,6,0,L|465:118,1,179.999994506836,2|0,1:2|0:0,0:0:0:0:
386,16,20367,1,2,0:0:0:0:
386,16,20484,2,0,L|476:27,1,89.9999972534181,10|0,0:0|0:0,0:0:0:0:
374,149,20719,2,0,L|284:160,1,89.9999972534181,2|0,0:0|0:0,0:0:0:0:
94,48,20953,6,0,L|272:69,1,179.999994506836,2|0,1:2|0:0,0:0:0:0:
295,249,21305,1,2,0:0:0:0:
295,249,21422,2,0,L|284:159,1,89.9999972534181,10|0,0:0|0:0,0:0:0:0:
83,137,21656,2,0,L|72:227,1,89.9999972534181,2|0,0:0|0:0,0:0:0:0:
211,282,21891,6,0,L|200:192,1,89.9999972534181,2|0,1:2|0:0,0:0:0:0:
181,367,22125,2,0,P|224:375|263:355,1,89.9999972534181,2|0,0:0|0:0,0:0:0:0:
377,237,22359,2,0,P|333:228|294:248,1,89.9999972534181,10|0,0:0|0:0,0:0:0:0:
473,354,22594,2,0,L|462:264,1,89.9999972534181,2|0,0:0|0:0,0:0:0:0:
397,71,22828,5,2,1:2:0:0:
392,109,22945,1,10,0:0:0:0:
387,147,23062,2,0,L|376:237,1,89.9999972534181,2|0,0:0|1:2,0:0:0:0:
181,280,23297,1,10,0:0:0:0:
176,242,23414,2,0,L|165:152,1,89.9999972534181,2|0,0:0|1:2,0:0:0:0:
14,24,23648,1,10,0:0:0:0:
52,29,23766,6,0,L|230:50,1,179.999994506836,6|0,1:2|0:0,0:0:0:0:
502,133,24234,2,0,L|386:147,1,116.250000886917,10|0,0:0|0:0,0:0:0:0:
286,225,24469,6,0,L|376:236,1,89.9999972534181,2|0,0:0|0:0,0:0:0:0:
249,143,24703,2,0,P|197:212|228:293,1,179.999994506836,2|0,1:2|0:0,0:0:0:0:
161,351,25055,1,2,0:0:0:0:
161,351,25172,2,0,P|194:379|238:381,1,89.9999972534181,10|0,0:0|0:0,0:0:0:0:
399,337,25406,2,0,L|309:326,1,89.9999972534181,2|0,0:0|0:0,0:0:0:0:
465,276,25641,6,0,L|476:186,1,89.9999972534181,2|0,1:2|0:0,0:0:0:0:
324,109,25875,1,2,0:0:0:0:
324,109,25992,1,2,0:0:0:0:
324,109,26109,2,0,L|414:120,1,89.9999972534181,10|0,0:0|0:0,0:0:0:0:
256,170,26344,2,0,L|166:181,1,89.9999972534181,2|0,0:0|0:0,0:0:0:0:
60,57,26578,5,2,1:2:0:0:
62,79,26695,1,10,0:0:0:0:
65,101,26812,2,0,L|76:191,1,89.9999972534181,2|0,0:0|0:0,0:0:0:0:
119,352,27047,2,0,L|130:262,1,89.9999972534181,10|0,0:0|0:0,0:0:0:0:
256,170,27281,2,0,L|166:181,1,89.9999972534181,2|0,0:0|0:0,0:0:0:0:
328,117,27516,6,0,P|348:156|341:200,1,89.9999972534181,2|0,1:2|0:0,0:0:0:0:
245,80,27750,2,0,P|268:42|310:27,1,89.9999972534181,2|0,0:0|0:0,0:0:0:0:
484,65,27984,2,0,L|394:54,1,89.9999972534181,10|0,0:0|0:0,0:0:0:0:
340,200,28219,2,0,L|430:189,1,89.9999972534181,2|0,0:0|0:0,0:0:0:0:
255,169,28453,6,0,P|247:213|268:253,1,89.9999972534181,2|0,1:2|0:0,0:0:0:0:
396,359,28687,2,0,P|385:316|350:289,1,89.9999972534181,2|0,0:0|0:0,0:0:0:0:
127,346,28922,1,10,0:0:0:0:
127,346,29156,6,0,L|305:367,1,179.999994506836,6|0,1:2|0:0,0:0:0:0:
75,101,29625,2,0,L|86:191,1,89.9999972534181,2|0,1:2|0:0,0:0:0:0:
127,346,29859,2,0,L|138:256,1,89.9999972534181,10|0,0:0|0:0,0:0:0:0:
258,190,30094,2,0,L|168:179,1,89.9999972534181,2|0,1:2|0:0,0:0:0:0:
330,243,30328,5,2,1:2:0:0:
330,243,30445,2,0,P|350:204|343:160,1,89.9999972534181,10|2,0:0|1:2,0:0:0:0:
423,115,30680,1,2,1:2:0:0:
423,115,30797,2,0,P|395:80|352:69,1,89.9999972534181,10|0,0:0|0:0,0:0:0:0:
438,208,31031,2,0,P|480:195|507:159,1,89.9999972534181,2|0,1:2|0:0,0:0:0:0:
342,159,31266,1,6,1:2:0:0:
342,159,31734,6,0,L|358:292,1,134.999995880127,10|0,0:0|0:0,0:0:0:0:
171,374,32203,2,0,L|187:240,1,134.999995880127,2|0,1:2|0:0,0:0:0:0:
32,113,32672,2,0,P|74:163|139:167,1,134.999995880127,10|0,0:0|0:0,0:0:0:0:
331,73,33141,1,2,1:2:0:0:
331,73,33375,6,0,L|322:139,1,67.4999979400635,2|0,0:0|0:0,0:0:0:0:
416,215,33609,2,0,L|407:149,1,67.4999979400635,10|0,0:0|0:0,0:0:0:0:
311,225,33844,2,0,L|302:291,1,67.4999979400635,2|0,0:0|0:0,0:0:0:0:
448,322,34078,5,2,1:2:0:0:
448,322,34195,1,10,0:0:0:0:
448,322,34312,2,0,P|416:310|383:313,1,67.4999979400635,2|0,0:0|0:0,0:0:0:0:
259,366,34547,1,10,0:0:0:0:
259,366,34664,2,0,P|291:378|324:375,1,67.4999979400635,2|0,0:0|0:0,0:0:0:0:
216,281,34898,1,2,0:0:0:0:
216,281,35016,1,2,1:2:0:0:
50,371,35250,6,0,L|41:305,1,67.4999979400635,2|0,0:0|0:0,0:0:0:0:
147,219,35484,1,10,0:0:0:0:
147,219,35601,2,0,L|81:228,1,67.4999979400635,2|0,0:0|0:0,0:0:0:0:
157,133,35836,1,2,0:0:0:0:
157,133,35953,2,0,L|223:142,1,67.4999979400635,2|0,1:2|0:0,0:0:0:0:
345,69,36187,2,0,P|312:67|281:79,1,67.4999979400635,2|0,0:0|0:0,0:0:0:0:
406,130,36422,2,0,P|425:102|430:69,1,67.4999979400635,10|0,0:0|0:0,0:0:0:0:
324,154,36656,2,0,L|333:220,1,67.4999979400635,2|0,0:0|0:0,0:0:0:0:
408,296,36891,6,0,L|417:230,1,67.4999979400635,2|0,1:2|0:0,0:0:0:0:
340,349,37125,1,2,0:0:0:0:
340,349,37242,1,2,0:0:0:0:
340,349,37359,2,0,L|206:333,1,134.999995880127,10|0,0:0|0:0,0:0:0:0:
91,178,37828,5,2,1:2:0:0:
91,178,37945,1,10,0:0:0:0:
91,178,38062,2,0,L|82:244,1,67.4999979400635,2|0,0:0|1:2,0:0:0:0:
185,146,38297,1,10,0:0:0:0:
185,146,38414,2,0,L|194:212,1,67.4999979400635,2|0,0:0|1:2,0:0:0:0:
71,330,38648,1,2,0:0:0:0:
71,330,38766,1,6,1:2:0:0:
38,111,39000,6,0,P|67:94|100:92,1,67.4999979400635,2|0,0:0|0:0,0:0:0:0:
134,13,39234,1,10,0:0:0:0:
134,13,39351,1,2,0:0:0:0:
134,13,39469,2,0,P|162:31|179:59,1,67.4999979400635,2|0,0:0|0:0,0:0:0:0:
251,155,39703,2,0,L|185:146,1,67.4999979400635,2|0,1:2|0:0,0:0:0:0:
264,54,39937,2,0,L|330:45,1,67.4999979400635,2|0,0:0|0:0,0:0:0:0:
424,100,40172,2,0,L|415:34,1,67.4999979400635,10|0,0:0|0:0,0:0:0:0:
340,129,40406,2,0,L|331:195,1,67.4999979400635,2|0,0:0|0:0,0:0:0:0:
462,259,40641,6,0,P|430:246|397:248,1,67.4999979400635,2|0,1:2|0:0,0:0:0:0:
291,354,40875,1,2,0:0:0:0:
291,354,40992,2,0,P|318:332|333:303,1,67.4999979400635,2|8,0:0|0:0,0:0:0:0:
183,268,41226,1,2,0:0:0:0:
183,268,41344,2,0,L|249:277,1,67.4999979400635,2|0,0:0|0:0,0:0:0:0:
110,331,41578,1,2,1:2:0:0:
135,133,41812,6,0,L|126:199,1,67.4999979400635,10|0,0:0|0:0,0:0:0:0:
36,82,42047,2,0,L|45:148,1,67.4999979400635,10|0,0:0|0:0,0:0:0:0:
214,16,42281,1,2,0:0:0:0:
214,16,42398,1,2,0:0:0:0:
214,16,42516,6,0,L|205:82,1,67.4999979400635,2|0,1:2|0:0,0:0:0:0:
297,166,42750,1,2,0:0:0:0:
297,166,42867,2,0,L|288:100,1,67.4999979400635,2|8,0:0|0:0,0:0:0:0:
476,23,43219,6,0,L|467:89,1,67.4999979400635,2|2,0:0|0:0,0:0:0:0:
350,233,43453,2,0,L|416:224,1,67.4999979400635,2|0,1:2|0:0,0:0:0:0:
297,166,43687,2,0,L|231:157,1,67.4999979400635,2|0,0:0|0:0,0:0:0:0:
186,22,43922,2,0,L|177:88,1,67.4999979400635,10|0,0:0|0:0,0:0:0:0:
154,235,44156,2,0,L|145:169,1,67.4999979400635,2|0,0:0|0:0,0:0:0:0:
221,288,44391,6,0,P|164:321|101:303,1,134.999995880127,2|0,1:2|0:0,0:0:0:0:
0,233,44742,1,2,0:0:0:0:
0,233,44859,2,0,L|66:224,1,67.4999979400635,10|0,0:0|0:0,0:0:0:0:
211,177,45094,1,2,0:0:0:0:
211,177,45211,2,0,L|145:168,1,67.4999979400635,2|0,0:0|1:2,0:0:0:0:
67,64,45445,5,10,0:0:0:0:
67,64,45562,2,0,L|58:130,1,67.4999979400635,2|0,0:0|1:2,0:0:0:0:
158,18,45797,1,10,0:0:0:0:
158,18,45914,1,2,0:0:0:0:
158,18,46031,2,0,L|167:84,1,67.4999979400635,2|0,1:2|0:0,0:0:0:0:
200,262,46266,1,4,1:2:0:0:
200,262,46734,6,0,L|348:280,1,150,10|0,0:0|0:0,0:0:0:0:
463,91,47203,2,0,L|314:109,1,150,2|0,1:2|0:0,0:0:0:0:
433,324,47672,2,0,L|451:175,1,150,10|0,0:0|0:0,0:0:0:0:
219,44,48141,1,2,1:2:0:0:
219,44,48375,6,0,L|228:118,1,75,2|0,0:0|0:0,0:0:0:0:
68,137,48609,2,0,L|142:127,1,75,10|0,0:0|0:0,0:0:0:0:
226,221,48844,2,0,L|151:211,1,75,2|0,0:0|0:0,0:0:0:0:
308,196,49078,5,2,1:2:0:0:
308,196,49195,1,10,0:0:0:0:
308,196,49312,2,0,P|312:232|298:267,1,75,2|0,0:0|0:0,0:0:0:0:
368,315,49547,1,10,0:0:0:0:
368,315,49664,2,0,P|342:340|306:351,1,75,2|0,0:0|0:0,0:0:0:0:
215,306,49898,1,2,0:0:0:0:
215,306,50016,1,2,1:2:0:0:
393,206,50250,6,0,L|468:216,1,75,2|0,0:0|0:0,0:0:0:0:
371,100,50484,2,0,L|296:110,2,75,10|2|2,0:0|0:0|0:0,0:0:0:0:
457,290,50953,6,0,L|467:215,1,75,2|0,1:2|0:0,0:0:0:0:
393,347,51187,2,0,L|318:337,1,75,2|2,0:0|0:0,0:0:0:0:
200,269,51422,2,0,L|125:279,2,75,10|2|2,0:0|0:0|0:0,0:0:0:0:
371,100,51891,6,0,L|381:175,1,75,2|0,1:2|0:0,0:0:0:0:
430,34,52125,1,2,0:0:0:0:
430,34,52242,1,2,0:0:0:0:
430,34,52359,2,0,P|359:13|296:50,1,150,10|0,0:0|0:0,0:0:0:0:
114,173,52828,5,2,1:2:0:0:
114,173,52945,1,10,0:0:0:0:
114,173,53062,2,0,L|189:183,1,75,2|0,0:0|0:0,0:0:0:0:
272,257,53297,1,10,0:0:0:0:
272,257,53414,2,0,L|197:267,1,75,2|0,0:0|1:2,0:0:0:0:
48,284,53648,1,2,0:0:0:0:
48,284,53766,1,6,1:2:0:0:
282,342,54000,6,0,L|357:352,1,75,2|0,0:0|0:0,0:0:0:0:
424,214,54234,2,0,L|414:289,1,75,10|0,0:0|0:0,0:0:0:0:
434,371,54469,1,2,0:0:0:0:
338,203,54703,6,0,L|328:128,1,75,2|0,1:2|0:0,0:0:0:0:
386,63,54937,1,2,0:0:0:0:
386,63,55055,2,0,P|355:44|317:42,1,75,2|8,0:0|0:0,0:0:0:0:
253,138,55289,2,0,L|328:128,1,75,2|0,0:0|0:0,0:0:0:0:
188,80,55523,1,2,0:0:0:0:
188,80,55641,6,0,P|169:111|167:149,1,75,2|0,1:2|0:0,0:0:0:0:
263,223,55875,1,2,0:0:0:0:
101,318,56109,1,10,0:0:0:0:
101,318,56226,2,0,L|91:243,1,75,2|0,0:0|0:0,0:0:0:0:
6,167,56461,2,0,L|81:157,1,75,2|0,0:0|1:2,0:0:0:0:
165,253,56695,2,0,L|90:243,1,75,10|0,0:0|0:0,0:0:0:0:
247,228,56930,2,0,P|251:264|237:299,1,75,2|8,0:0|0:0,0:0:0:0:
182,167,57164,2,0,P|211:145|248:140,1,75,2|0,0:0|0:0,0:0:0:0:
348,59,57398,1,2,0:0:0:0:
348,59,57516,6,0,L|330:208,1,150,2|0,1:2|0:0,0:0:0:0:
497,357,57984,1,10,0:0:0:0:
497,357,58219,6,0,L|487:282,1,75,2|0,0:0|0:0,0:0:0:0:
326,301,58453,2,0,L|401:291,1,75,2|0,1:2|0:0,0:0:0:0:
286,200,58687,1,2,0:0:0:0:
286,200,58805,1,2,1:2:0:0:
286,200,58922,2,8,L|361:210,1,75,10|0,0:0|0:0,0:0:0:0:
379,49,59156,6,0,L|369:124,1,75,6|0,1:2|0:0,0:0:0:0:
197,189,59391,2,0,P|208:154|235:128,1,75,2|0,0:0|0:0,0:0:0:0:
326,301,59625,2,0,L|251:311,1,75,2|0,1:2|0:0,0:0:0:0:
88,366,59859,5,2,1:2:0:0:
92,329,59976,1,2,0:0:0:0:
97,292,60094,1,10,0:0:0:0:
101,255,60211,1,2,0:0:0:0:
106,219,60328,2,0,L|116:144,1,75,2|2,1:2|0:0,0:0:0:0:
16,13,60562,6,0,L|97:23,1,82.5000025177003,2|0,0:0|1:2,0:0:0:0:
297,64,60797,1,10,0:0:0:0:
297,64,60914,2,0,L|215:74,1,82.5000025177003,2|0,0:0|1:2,0:0:0:0:
402,4,61148,1,2,0:0:0:0:
402,4,61266,6,0,B|433:52|433:52|419:172,1,179.999994506836,6|0,1:2|0:0,0:0:0:0:
129,248,61734,2,0,L|245:262,1,116.250000886917,10|0,0:0|0:0,0:0:0:0:
359,336,61969,6,0,L|269:347,1,89.9999972534181,2|0,0:0|0:0,0:0:0:0:
70,316,62203,2,0,P|39:235|91:166,1,179.999994506836,2|0,1:2|0:0,0:0:0:0:
168,65,62555,1,2,0:0:0:0:
168,65,62672,2,0,L|179:155,1,89.9999972534181,10|0,0:0|0:0,0:0:0:0:
295,259,62906,2,0,L|306:169,1,89.9999972534181,2|0,0:0|0:0,0:0:0:0:
477,192,63141,6,0,P|434:200|395:180,1,89.9999972534181,2|0,1:2|0:0,0:0:0:0:
458,17,63375,1,2,0:0:0:0:
458,17,63492,1,2,0:0:0:0:
458,17,63609,2,0,L|447:107,1,89.9999972534181,10|0,0:0|0:0,0:0:0:0:
295,80,63844,2,0,L|306:170,1,89.9999972534181,2|0,0:0|0:0,0:0:0:0:
449,274,64078,5,2,1:2:0:0:
427,272,64195,1,10,0:0:0:0:
405,269,64312,2,0,L|315:258,1,89.9999972534181,2|0,0:0|0:0,0:0:0:0:
152,321,64547,2,0,L|242:310,1,89.9999972534181,10|0,0:0|0:0,0:0:0:0:
395,180,64781,2,0,L|305:169,1,89.9999972534181,2|0,0:0|0:0,0:0:0:0:
53,243,65016,6,0,L|231:222,1,179.999994506836,2|0,1:2|0:0,0:0:0:0:
209,42,65367,1,2,0:0:0:0:
209,42,65484,2,0,L|220:132,1,89.9999972534181,10|0,0:0|0:0,0:0:0:0:
395,180,65719,2,0,L|406:90,1,89.9999972534181,2|0,0:0|0:0,0:0:0:0:
320,231,65953,6,0,P|396:270|471:227,1,179.999994506836,2|0,1:2|0:0,0:0:0:0:
495,79,66305,1,2,0:0:0:0:
495,79,66422,2,0,L|405:90,1,89.9999972534181,10|0,0:0|0:0,0:0:0:0:
230,220,66656,2,0,L|320:231,1,89.9999972534181,2|0,0:0|0:0,0:0:0:0:
186,141,66891,6,0,P|151:168|140:210,1,89.9999972534181,2|0,1:2|0:0,0:0:0:0:
267,295,67125,2,0,P|261:251|230:220,1,89.9999972534181,2|0,0:0|0:0,0:0:0:0:
85,301,67359,2,0,L|175:290,1,89.9999972534181,10|0,0:0|0:0,0:0:0:0:
304,380,67594,2,0,L|214:369,1,89.9999972534181,2|0,0:0|0:0,0:0:0:0:
9,311,67828,5,2,1:2:0:0:
47,306,67945,1,10,0:0:0:0:
85,301,68062,2,0,L|175:290,1,89.9999972534181,2|0,0:0|1:2,0:0:0:0:
299,146,68297,1,10,0:0:0:0:
304,184,68414,2,0,L|315:274,1,89.9999972534181,2|0,0:0|1:2,0:0:0:0:
80,339,68648,1,10,0:0:0:0:
85,301,68766,6,0,L|106:123,1,179.999994506836,6|0,1:2|0:0,0:0:0:0:
403,69,69234,2,0,L|287:55,1,116.250000886917,10|0,0:0|0:0,0:0:0:0:
106,122,69469,6,0,L|196:111,1,89.9999972534181,2|0,0:0|0:0,0:0:0:0:
47,54,69703,2,0,P|17:135|69:204,1,179.999994506836,2|0,1:2|0:0,0:0:0:0:
168,289,70055,1,2,0:0:0:0:
168,289,70172,2,0,L|157:199,1,89.9999972534181,10|0,0:0|0:0,0:0:0:0:
138,374,70406,2,0,P|181:382|220:362,1,89.9999972534181,2|0,0:0|0:0,0:0:0:0:
339,265,70641,6,0,P|296:257|257:277,1,89.9999972534181,2|0,1:2|0:0,0:0:0:0:
438,364,70875,1,2,0:0:0:0:
438,364,70992,1,2,0:0:0:0:
438,364,71109,2,0,L|427:274,1,89.9999972534181,10|0,0:0|0:0,0:0:0:0:
505,173,71344,2,0,L|415:184,1,89.9999972534181,2|0,0:0|0:0,0:0:0:0:
324,53,71578,1,2,1:2:0:0:
324,53,71812,6,0,L|335:143,1,89.9999972534181,10|0,0:0|0:0,0:0:0:0:
436,4,72047,2,0,L|425:94,1,89.9999972534181,10|0,0:0|0:0,0:0:0:0:
241,65,72281,2,0,P|280:44|323:52,1,89.9999972534181,2|0,0:0|0:0,0:0:0:0:
386,214,72516,6,0,P|347:234|304:227,1,89.9999972534181,2|0,1:2|0:0,0:0:0:0:
164,112,72750,2,0,L|175:202,1,89.9999972534181,2|0,0:0|0:0,0:0:0:0:
292,315,72984,2,0,L|303:225,1,89.9999972534181,10|0,0:0|0:0,0:0:0:0:
118,295,73218,2,0,L|208:284,1,89.9999972534181,2|0,0:0|0:0,0:0:0:0:
74,374,73453,6,0,P|39:347|28:305,1,89.9999972534181,2|0,1:2|0:0,0:0:0:0:
174,201,73687,2,0,L|84:212,1,89.9999972534181,2|0,0:0|0:0,0:0:0:0:
34,18,73922,1,10,0:0:0:0:
34,18,74156,6,0,L|212:39,1,179.999994506836,2|0,0:0|1:2,0:0:0:0:
444,211,74625,2,0,L|433:121,1,89.9999972534181,2|0,0:0|0:0,0:0:0:0:
301,49,74859,2,0,L|290:139,1,89.9999972534181,10|0,0:0|0:0,0:0:0:0:
189,216,75094,2,0,L|279:227,1,89.9999972534181,2|0,0:0|0:0,0:0:0:0:
454,300,75328,5,2,1:2:0:0:
416,305,75445,1,10,0:0:0:0:
378,310,75562,2,0,L|288:321,1,89.9999972534181,2|0,0:0|1:2,0:0:0:0:
99,205,75797,1,10,0:0:0:0:
94,243,75914,2,0,L|83:333,1,89.9999972534181,2|0,0:0|1:2,0:0:0:0:
293,358,76148,1,10,0:0:0:0:
288,320,76266,6,0,L|267:142,1,179.999994506836,6|0,1:2|0:0,0:0:0:0:
18,58,76734,2,0,L|134:72,1,116.250000886917,10|0,0:0|0:0,0:0:0:0:
266,141,76969,6,0,L|176:152,1,89.9999972534181,2|0,0:0|0:0,0:0:0:0:
308,61,77203,2,0,L|486:82,1,179.999994506836,2|0,1:2|0:0,0:0:0:0:
443,168,77555,1,2,0:0:0:0:
443,168,77672,2,0,L|353:157,1,89.9999972534181,10|0,0:0|0:0,0:0:0:0:
273,297,77906,2,0,L|363:286,1,89.9999972534181,2|0,0:0|0:0,0:0:0:0:
229,376,78141,6,0,P|194:349|183:307,1,89.9999972534181,2|0,1:2|0:0,0:0:0:0:
82,226,78375,1,2,0:0:0:0:
82,226,78492,1,2,0:0:0:0:
82,226,78609,2,0,L|172:215,1,89.9999972534181,10|0,0:0|0:0,0:0:0:0:
271,136,78844,2,0,L|181:125,1,89.9999972534181,2|0,0:0|0:0,0:0:0:0:
55,3,79078,5,2,1:2:0:0:
57,25,79195,1,10,0:0:0:0:
60,47,79312,2,0,L|71:137,1,89.9999972534181,2|0,0:0|0:0,0:0:0:0:
239,41,79547,2,0,L|149:30,1,89.9999972534181,10|0,0:0|0:0,0:0:0:0:
82,226,79781,2,0,L|172:215,1,89.9999972534181,2|0,0:0|0:0,0:0:0:0:
328,30,80016,6,0,L|307:208,1,179.999994506836,2|0,1:2|0:0,0:0:0:0:
406,286,80367,1,2,0:0:0:0:
406,286,80484,2,0,L|316:297,1,89.9999972534181,10|0,0:0|0:0,0:0:0:0:
185,365,80719,2,0,L|275:376,1,89.9999972534181,2|0,0:0|0:0,0:0:0:0:
464,353,80953,6,0,P|494:272|443:204,1,179.999994506836,2|0,1:2|0:0,0:0:0:0:
268,187,81305,1,2,0:0:0:0:
268,187,81422,2,0,P|309:203|351:192,1,89.9999972534181,10|0,0:0|0:0,0:0:0:0:
490,125,81656,2,0,P|448:108|406:119,1,89.9999972534181,2|0,0:0|0:0,0:0:0:0:
341,280,81891,6,0,L|352:190,1,89.9999972534181,2|0,1:2|0:0,0:0:0:0:
167,86,82125,2,0,L|178:176,1,89.9999972534181,2|0,0:0|0:0,0:0:0:0:
326,20,82359,2,0,L|315:110,1,89.9999972534181,10|0,0:0|0:0,0:0:0:0:
114,13,82594,2,0,P|153:-6|197:1,1,89.9999972534181,2|0,0:0|0:0,0:0:0:0:
45,189,82828,5,2,1:2:0:0:
40,151,82945,1,10,0:0:0:0:
35,113,83062,2,0,L|24:23,1,89.9999972534181,2|0,0:0|1:2,0:0:0:0:
244,77,83297,1,10,0:0:0:0:
239,115,83414,2,0,L|228:205,1,89.9999972534181,2|0,0:0|1:2,0:0:0:0:
22,319,83648,1,10,0:0:0:0:
60,314,83766,6,0,L|238:293,1,179.999994506836,6|0,1:2|0:0,0:0:0:0:
419,90,84234,2,0,L|405:206,1,116.250000886917,10|0,0:0|0:0,0:0:0:0:
333,330,84469,6,0,L|322:240,1,89.9999972534181,2|0,0:0|0:0,0:0:0:0:
472,263,84703,2,0,P|391:293|323:242,1,179.999994506836,2|0,1:2|0:0,0:0:0:0:
221,161,85055,1,2,0:0:0:0:
221,161,85172,2,0,L|311:150,1,89.9999972534181,10|0,0:0|0:0,0:0:0:0:
177,240,85406,2,0,P|142:213|131:171,1,89.9999972534181,2|0,0:0|0:0,0:0:0:0:
202,11,85641,6,0,P|196:54|165:85,1,89.9999972534181,2|0,1:2|0:0,0:0:0:0:
22,1,85875,1,2,0:0:0:0:
22,1,85992,1,2,0:0:0:0:
22,1,86109,2,0,L|112:12,1,89.9999972534181,10|0,0:0|0:0,0:0:0:0:
254,75,86344,2,0,L|164:86,1,89.9999972534181,2|0,0:0|0:0,0:0:0:0:
58,229,86578,5,2,1:2:0:0:
60,207,86695,1,10,0:0:0:0:
63,185,86812,2,0,L|74:95,1,89.9999972534181,2|0,0:0|0:0,0:0:0:0:
149,217,87047,2,0,L|160:307,1,89.9999972534181,10|0,0:0|0:0,0:0:0:0:
7,381,87281,2,0,L|97:370,1,89.9999972534181,2|0,0:0|0:0,0:0:0:0:
249,317,87516,6,0,L|159:306,1,89.9999972534181,2|0,1:2|0:0,0:0:0:0:
333,286,87750,2,0,P|341:330|321:370,1,89.9999972534181,2|0,0:0|0:0,0:0:0:0:
266,227,87984,2,0,P|300:198|344:196,1,89.9999972534181,10|0,0:0|0:0,0:0:0:0:
443,117,88219,2,0,L|432:207,1,89.9999972534181,2|0,0:0|0:0,0:0:0:0:
495,44,88453,6,0,P|455:24|412:33,1,89.9999972534181,2|0,1:2|0:0,0:0:0:0:
270,94,88687,2,0,P|309:113|353:105,1,89.9999972534181,2|0,0:0|0:0,0:0:0:0:
189,5,88922,1,10,0:0:0:0:
189,5,89156,6,0,L|168:183,1,179.999994506836,6|0,1:2|0:0,0:0:0:0:
470,344,89625,2,0,L|459:254,1,89.9999972534181,2|0,1:2|0:0,0:0:0:0:
418,99,89859,2,0,L|407:189,1,89.9999972534181,10|0,0:0|0:0,0:0:0:0:
287,255,90094,2,0,L|377:266,1,89.9999972534181,0|0,1:2|0:0,0:0:0:0:
276,344,90328,5,2,1:2:0:0:
238,349,90446,2,0,L|148:360,1,89.9999972534181,10|2,0:0|1:2,0:0:0:0:
59,226,90679,1,2,1:2:0:0:
97,231,90796,1,10,0:0:0:0:
135,236,90913,1,2,0:0:0:0:
173,241,91031,2,0,L|263:252,1,89.9999972534181,2|0,1:2|0:0,0:0:0:0:
365,354,91266,5,6,1:2:0:0:
365,354,91500,2,0,L|373:283,1,71.2499980974198,2|0,0:0|0:0,0:0:0:0:
499,226,91734,2,0,L|428:218,1,71.2499980974198,10|0,0:0|0:0,0:0:0:0:
347,140,91969,2,0,L|418:132,1,71.2499980974198,2|0,0:0|0:0,0:0:0:0:
281,84,92203,2,0,P|263:114|261:149,1,71.2499980974198,2|0,1:2|0:0,0:0:0:0:
361,55,92437,1,2,0:0:0:0:
361,55,92555,2,0,P|343:24|313:4,1,71.2499980974198,2|8,0:0|0:0,0:0:0:0:
210,91,92789,2,0,L|281:83,1,71.2499980974198,2|0,0:0|0:0,0:0:0:0:
178,11,93023,1,2,0:0:0:0:
178,11,93141,6,0,L|107:3,1,71.2499980974198,2|0,1:2|0:0,0:0:0:0:
19,105,93375,2,0,L|27:34,1,71.2499980974198,2|0,0:0|0:0,0:0:0:0:
137,136,93609,2,0,L|145:207,1,71.2499980974198,10|0,0:0|0:0,0:0:0:0:
88,272,93844,2,0,P|118:290|153:292,1,71.2499980974198,2|0,0:0|0:0,0:0:0:0:
293,232,94078,2,0,L|222:240,1,71.2499980974198,2|8,1:2|0:0,0:0:0:0:
343,162,94312,1,2,0:0:0:0:
343,162,94430,1,2,0:0:0:0:
343,162,94547,2,0,P|378:221|358:288,1,142.49999619484,10|2,0:0|0:0,0:0:0:0:
163,376,95016,5,2,1:2:0:0:
163,376,95250,2,0,L|234:384,1,71.2499980974198,2|0,0:0|0:0,0:0:0:0:
362,292,95484,1,10,0:0:0:0:
362,292,95601,2,0,L|291:300,1,71.2499980974198,2|0,0:0|0:0,0:0:0:0:
444,314,95836,1,2,0:0:0:0:
444,314,95953,6,0,P|447:279|434:246,1,71.2499980974198,2|0,1:2|0:0,0:0:0:0:
502,193,96187,2,0,P|476:169|442:159,1,71.2499980974198,2|0,0:0|0:0,0:0:0:0:
364,77,96422,1,10,0:0:0:0:
364,77,96539,2,0,L|356:148,1,71.2499980974198,2|0,0:0|0:0,0:0:0:0:
278,227,96773,2,0,L|270:156,1,71.2499980974198,2|0,0:0|1:2,0:0:0:0:
364,77,97008,6,0,L|435:69,2,71.2499980974198,2|2|2,0:0|0:0|0:0,0:0:0:0:
270,156,97359,2,0,L|128:138,1,142.49999619484,10|0,0:0|0:0,0:0:0:0:
52,373,97828,5,2,1:2:0:0:
52,373,97945,1,10,0:0:0:0:
52,373,98062,2,0,L|60:302,1,71.2499980974198,2|0,0:0|1:2,0:0:0:0:
138,223,98297,2,0,L|146:294,1,71.2499980974198,10|0,0:0|0:0,0:0:0:0:
55,146,98531,2,0,L|47:217,1,71.2499980974198,2|0,0:0|0:0,0:0:0:0:
196,128,98766,6,0,L|54:146,1,142.49999619484,6|0,1:2|0:0,0:0:0:0:
273,47,99234,1,10,0:0:0:0:
273,47,99469,2,0,L|281:118,1,71.2499980974198,2|0,0:0|0:0,0:0:0:0:
357,197,99703,2,0,L|365:126,1,71.2499980974198,2|0,1:2|0:0,0:0:0:0:
434,73,99937,1,2,0:0:0:0:
434,73,100055,2,0,P|408:48|375:38,1,71.2499980974198,2|8,0:0|0:0,0:0:0:0:
444,158,100289,2,0,P|478:146|502:122,1,71.2499980974198,2|0,0:0|0:0,0:0:0:0:
364,126,100523,1,2,0:0:0:0:
364,126,100641,6,0,L|346:268,1,142.49999619484,2|2,1:2|0:0,0:0:0:0:
152,176,101109,1,10,0:0:0:0:
299,338,101344,1,2,0:0:0:0:
299,338,101461,1,2,0:0:0:0:
299,338,101578,6,0,P|332:351|368:349,1,71.2499980974198,2|0,1:2|0:0,0:0:0:0:
354,196,101812,2,0,L|346:267,1,71.2499980974198,10|0,0:0|0:0,0:0:0:0:
440,161,102047,2,0,L|448:232,1,71.2499980974198,10|0,0:0|0:0,0:0:0:0:
298,130,102281,2,0,P|328:112|363:110,1,71.2499980974198,2|0,0:0|0:0,0:0:0:0:
270,212,102516,6,0,P|239:195|220:165,1,71.2499980974198,2|0,1:2|0:0,0:0:0:0:
157,72,102750,2,0,L|228:80,1,71.2499980974198,2|0,0:0|0:0,0:0:0:0:
135,153,102984,2,0,L|64:161,1,71.2499980974198,10|0,0:0|0:0,0:0:0:0:
26,302,103219,2,0,L|18:231,1,71.2499980974198,2|0,0:0|0:0,0:0:0:0:
96,348,103453,2,0,L|167:340,1,71.2499980974198,2|0,1:2|0:0,0:0:0:0:
212,270,103687,1,2,0:0:0:0:
212,270,103805,2,0,L|283:278,1,71.2499980974198,2|8,0:0|0:0,0:0:0:0:
359,359,104039,2,0,L|367:288,1,71.2499980974198,2|0,0:0|0:0,0:0:0:0:
437,243,104273,1,2,0:0:0:0:
437,243,104391,6,0,L|419:101,1,142.49999619484,2|2,1:2|0:0,0:0:0:0:
183,0,104859,1,10,0:0:0:0:
183,0,105094,2,0,L|254:8,1,71.2499980974198,2|0,0:0|0:0,0:0:0:0:
336,85,105328,1,2,1:2:0:0:
336,85,105445,1,10,0:0:0:0:
336,85,105562,2,0,L|265:93,1,71.2499980974198,2|0,0:0|1:2,0:0:0:0:
204,214,105797,2,0,L|196:143,1,71.2499980974198,10|0,0:0|0:0,0:0:0:0:
96,33,106031,2,0,L|88:104,1,71.2499980974198,2|0,1:2|0:0,0:0:0:0:
66,281,106266,5,6,1:2:0:0:
66,281,106383,2,0,B|110:310|110:310|219:297,1,157.499995193482,2|0,0:0|0:0,0:0:0:0:
307,207,106734,2,0,L|298:285,1,78.7499975967408,10|0,0:0|0:0,0:0:0:0:
413,374,106969,2,0,L|404:296,1,78.7499975967408,2|0,0:0|0:0,0:0:0:0:
470,201,107203,2,0,L|392:210,1,78.7499975967408,2|0,1:2|0:0,0:0:0:0:
279,125,107437,1,2,0:0:0:0:
279,125,107555,2,0,P|317:119|354:134,1,78.7499975967408,2|8,0:0|0:0,0:0:0:0:
222,195,107789,2,0,P|196:165|189:126,1,78.7499975967408,2|0,0:0|0:0,0:0:0:0:
307,207,108023,2,0,L|302:246,1,39.3749987983704,2|2,0:0|0:0,0:0:0:0:
279,277,108141,6,0,L|288:355,1,78.7499975967408,2|0,1:2|0:0,0:0:0:0:
124,375,108375,2,0,L|202:366,1,78.7499975967408,2|0,0:0|0:0,0:0:0:0:
88,253,108609,1,10,0:0:0:0:
88,253,108726,2,0,L|166:262,1,78.7499975967408,2|0,0:0|0:0,0:0:0:0:
7,281,108961,2,0,P|1:242|16:206,1,78.7499975967408,2|0,0:0|1:2,0:0:0:0:
89,89,109195,2,0,L|98:167,1,78.7499975967408,10|0,0:0|0:0,0:0:0:0:
191,59,109430,2,0,L|182:137,1,78.7499975967408,2|8,0:0|0:0,0:0:0:0:
117,8,109664,2,0,P|79:4|42:16,2,78.7499975967408,2|2|2,0:0|0:0|0:0,0:0:0:0:
181,137,110016,6,0,P|216:152|255:147,1,78.7499975967408,2|0,1:2|0:0,0:0:0:0:
348,56,110250,2,0,L|339:134,1,78.7499975967408,2|0,0:0|0:0,0:0:0:0:
473,205,110484,1,10,0:0:0:0:
473,205,110601,2,0,L|395:196,1,78.7499975967408,2|0,0:0|0:0,0:0:0:0:
304,289,110836,2,0,L|382:280,1,78.7499975967408,2|0,0:0|1:2,0:0:0:0:
471,372,111070,2,0,L|393:363,1,78.7499975967408,2|0,0:0|0:0,0:0:0:0:
219,300,111305,1,2,0:0:0:0:
219,300,111422,1,10,0:0:0:0:
219,300,111539,2,0,L|228:378,1,78.7499975967408,2|0,0:0|0:0,0:0:0:0:
134,288,111773,6,0,L|143:210,1,78.7499975967408,2|0,0:0|1:2,0:0:0:0:
217,166,112008,1,2,0:0:0:0:
217,166,112125,2,0,P|190:137|153:124,1,78.7499975967408,2|0,0:0|0:0,0:0:0:0:
59,34,112359,2,0,L|68:112,1,78.7499975967408,10|0,0:0|0:0,0:0:0:0:
143,209,112594,1,2,0:0:0:0:
246,11,112828,5,2,1:2:0:0:
246,11,112945,1,10,0:0:0:0:
246,11,113062,2,0,L|324:2,1,78.7499975967408,2|0,0:0|1:2,0:0:0:0:
454,78,113297,2,0,L|376:69,1,78.7499975967408,10|0,0:0|0:0,0:0:0:0:
285,161,113531,2,0,L|363:152,1,78.7499975967408,2|0,0:0|0:0,0:0:0:0:
452,267,113766,6,0,L|374:258,1,78.7499975967408,6|0,1:2|0:0,0:0:0:0:
279,346,114000,1,2,0:0:0:0:
279,346,114117,2,0,L|288:268,1,78.7499975967408,2|8,0:0|0:0,0:0:0:0:
188,379,114351,2,0,L|179:301,1,78.7499975967408,2|0,0:0|0:0,0:0:0:0:
36,238,114586,6,0,P|71:253|110:248,1,78.7499975967408,2|0,0:0|1:2,0:0:0:0:
191,178,114820,1,2,0:0:0:0:
191,178,114937,2,0,L|230:183,2,39.3749987983704,2|2|2,0:0|0:0|0:0,0:0:0:0:
160,155,115172,6,0,L|82:164,1,78.7499975967408,10|0,0:0|0:0,0:0:0:0:
13,69,115406,2,0,L|91:78,1,78.7499975967408,2|0,0:0|0:0,0:0:0:0:
220,59,115640,2,0,L|226:6,2,52.4999983978272,2|2|2,1:2|0:0|0:0,0:0:0:0:
247,85,115875,6,0,L|325:76,1,78.7499975967408,2|0,0:0|0:0,0:0:0:0:
417,192,116109,2,0,L|339:183,1,78.7499975967408,10|0,0:0|0:0,0:0:0:0:
498,164,116344,2,0,P|504:203|489:239,1,78.7499975967408,2|0,0:0|0:0,0:0:0:0:
402,355,116578,5,2,1:2:0:0:
402,355,116695,1,10,0:0:0:0:
402,355,116812,2,0,L|411:277,1,78.7499975967408,2|0,0:0|0:0,0:0:0:0:
259,222,117047,2,0,L|252:169,2,52.4999983978272,10|2|2,0:0|0:0|0:0,0:0:0:0:
237,253,117281,1,2,0:0:0:0:
22,181,117516,6,0,L|31:103,1,78.7499975967408,2|0,1:2|0:0,0:0:0:0:
105,12,117750,1,2,0:0:0:0:
105,12,117867,2,0,L|114:90,1,78.7499975967408,2|8,0:0|0:0,0:0:0:0:
203,165,118101,2,0,L|125:174,1,78.7499975967408,2|0,0:0|0:0,0:0:0:0:
214,80,118336,1,2,0:0:0:0:
214,80,118453,6,0,L|292:89,1,78.7499975967408,2|0,1:2|0:0,0:0:0:0:
433,28,118687,2,0,P|395:22|358:37,1,78.7499975967408,2|0,0:0|0:0,0:0:0:0:
414,188,118922,2,0,L|405:110,1,78.7499975967408,10|0,0:0|0:0,0:0:0:0:
257,208,119156,2,0,L|413:188,1,157.499995193482,6|0,1:2|0:0,0:0:0:0:
236,364,119625,6,0,L|158:355,1,78.7499975967408,2|0,1:2|0:0,0:0:0:0:
94,228,119859,2,0,L|172:219,1,78.7499975967408,10|0,0:0|0:0,0:0:0:0:
20,273,120094,2,0,P|6:237|12:199,1,78.7499975967408,2|0,1:2|0:0,0:0:0:0:
134,136,120328,5,2,1:2:0:0:
134,136,120445,1,10,0:0:0:0:
134,136,120562,2,0,L|56:127,1,78.7499975967408,2|0,0:0|1:2,0:0:0:0:
145,51,120797,1,10,0:0:0:0:
145,51,120914,2,0,L|223:42,1,78.7499975967408,2|0,0:0|1:2,0:0:0:0:
366,118,121148,1,2,0:0:0:0:
366,118,121266,1,6,1:2:0:0:
96,128,124312,6,0,L|88:191,1,63.7500012159348,2|0,0:0|0:0,0:0:0:0:
179,264,124547,1,2,0:0:0:0:
179,264,124664,2,0,L|171:200,1,63.7500012159348,2|0,0:0|0:0,0:0:0:0:
197,105,124898,1,2,0:0:0:0:
197,105,125016,1,6,1:2:0:0:
400,256,128062,6,0,L|337:248,1,63.7500012159348,2|0,0:0|0:0,0:0:0:0:
264,339,128297,1,2,0:0:0:0:
264,339,128414,2,0,L|328:331,1,63.7500012159348,2|0,0:0|0:0,0:0:0:0:
423,357,128648,1,2,0:0:0:0:
423,357,128766,1,6,1:2:0:0:
104,64,131812,6,0,L|96:127,1,63.7500012159348,2|0,0:0|0:0,0:0:0:0:
187,200,132047,2,0,L|179:136,1,63.7500012159348,2|0,0:0|0:0,0:0:0:0:
84,211,132281,2,0,L|76:275,1,63.7500012159348,2|0,0:0|0:0,0:0:0:0:
204,343,132516,5,6,1:2:0:0:
202,320,132867,1,2,1:2:0:0:
94,29,133453,5,2,1:2:0:0:
71,27,133804,1,2,1:2:0:0:
400,80,134156,1,4,1:2:0:0:
256,192,134273,12,0,135328,0:0:0:0:
