osu file format v14

[General]
AudioFilename: audio.mp3
AudioLeadIn: 0
PreviewTime: 60032
Countdown: 0
SampleSet: Soft
StackLeniency: 0.4
Mode: 0
LetterboxInBreaks: 0
WidescreenStoryboard: 1

[Editor]
DistanceSpacing: 0.9
BeatDivisor: 4
GridSize: 32
TimelineZoom: 1.8

[Metadata]
Title:Us! (TV Size)
TitleUnicode:あーーっす! (TV Size)
Artist:Kitadani Hiroshi
ArtistUnicode:きただにひろし
Creator:Smoke
Version:Hard!
Source:ONE PIECE
Tags:anime japanese male vocals rock j-rock jrock pop jpop j-pop opening op 26 egghead arc alevi -lian- lian2002
BeatmapID:4445388
BeatmapSetID:2116784

[Difficulty]
HPDrainRate:4.5
CircleSize:3.5
OverallDifficulty:6.5
ApproachRate:8
SliderMultiplier:1.3
SliderTickRate:1

[Events]
//Background and Video events
Video,0,"op.mp4"
0,0,"egghead.jpg",0,0
//Break Periods
//Storyboard Layer 0 (Background)
//Storyboard Layer 1 (Fail)
//Storyboard Layer 2 (Pass)
//Storyboard Layer 3 (Foreground)
//Storyboard Layer 4 (Overlay)
//Storyboard Sound Samples

[TimingPoints]
731,329.67032967033,4,2,1,55,1,0
731,-111.111111111111,4,2,1,55,0,0
4851,-111.111111111111,4,2,1,5,0,0
5016,-111.111111111111,4,2,1,55,0,0
6005,-99.9999999999999,4,2,1,60,0,0
6169,-99.9999999999999,4,2,1,5,0,0
6335,-99.9999999999999,4,2,1,60,0,0
6499,-99.9999999999999,4,2,1,5,0,0
6665,-99.9999999999999,4,2,1,60,0,0
6829,-99.9999999999999,4,2,1,5,0,0
6995,-99.9999999999999,4,2,1,60,0,0
7159,-99.9999999999999,4,2,1,5,0,0
7324,-99.9999999999999,4,2,1,65,0,0
8313,322.58064516129,4,2,1,65,1,0
8313,-99.9999999999999,4,2,1,65,0,0
8635,329.67032967033,4,2,1,70,1,0
8635,-90.9090909090909,4,2,1,70,0,0
9788,-90.9090909090909,4,2,1,5,0,0
9953,-90.9090909090909,4,2,1,70,0,0
10117,-90.9090909090909,4,2,1,5,0,0
10283,-90.9090909090909,4,2,1,70,0,0
10447,-90.9090909090909,4,2,1,5,0,0
10613,-90.9090909090909,4,2,1,70,0,0
12508,-90.9090909090909,4,2,1,5,0,0
12591,331.491712707182,4,2,1,70,1,0
12591,-90.9090909090909,4,2,1,70,0,0
13916,329.67032967033,4,2,1,70,1,0
13916,-100,4,2,1,55,0,0
16381,-100,4,2,1,5,0,0
16547,-100,4,2,1,55,0,0
20503,-100,4,2,1,60,0,0
21821,-100,4,2,1,65,0,0
21985,-100,4,2,1,5,0,0
22151,-100,4,2,1,65,0,0
23304,-100,4,2,1,5,0,0
23470,-100,4,2,1,65,0,0
23634,-100,4,2,1,5,0,0
23799,-100,4,2,1,65,0,0
26601,-100,4,2,1,5,0,0
26684,-100,4,2,1,65,0,0
27096,-111.111111111111,4,2,1,50,0,0
28421,327.868852459016,4,2,1,70,1,0
28421,-111.111111111111,4,2,1,50,0,0
29404,340.909090909091,4,2,1,55,1,0
29404,-111.111111111111,4,2,1,55,0,0
29744,337.078651685393,4,2,1,70,1,0
29744,-100,4,2,1,70,0,0
30418,322.58064516129,4,2,1,70,1,0
30418,-100,4,2,1,70,0,0
31063,329.67032967033,4,2,1,75,1,0
31063,-90.9090909090909,4,2,1,75,0,0
31310,-90.9090909090909,4,2,1,5,0,0
31392,326.086956521739,4,2,1,80,1,0
31392,-90.9090909090909,4,2,1,80,0,0
31555,-90.9090909090909,4,2,1,5,0,0
31718,-90.9090909090909,4,2,1,80,0,0
32207,329.67032967033,4,2,1,80,1,0
32207,-90.9090909090909,4,2,1,80,0,0
32371,329.67032967033,4,2,1,80,1,0
32371,-90.9090909090909,4,2,1,80,0,0
33936,-90.9090909090909,4,2,1,5,0,0
34019,-90.9090909090909,4,2,1,80,0,0
34183,-90.9090909090909,4,2,1,5,0,0
34349,-90.9090909090909,4,2,1,80,0,0
36820,-90.9090909090909,4,2,1,5,0,0
36986,-90.9090909090909,4,2,1,80,0,0
38964,335.195530726257,4,2,1,80,1,0
38964,-90.9090909090909,4,2,1,80,0,0
39215,-90.9090909090909,4,2,1,5,0,0
39299,329.67032967033,4,2,1,80,1,0
39299,-90.9090909090909,4,2,1,80,0,0
39463,-90.9090909090909,4,2,1,5,0,0
39628,-90.9090909090909,4,2,1,80,0,0
40288,329.67032967033,4,2,1,80,1,0
40288,-90.9090909090909,4,2,1,80,0,0
41524,-90.9090909090909,4,2,1,5,0,0
41606,-90.9090909090909,4,2,1,80,0,0
45392,-90.9090909090909,4,2,1,5,0,0
45557,-90.9090909090909,4,2,1,80,0,0
48359,-90.9090909090909,4,2,1,5,0,0
48524,-90.9090909090909,4,2,1,80,0,0
48688,-90.9090909090909,4,2,1,5,0,0
48854,-90.9090909090909,4,2,1,80,0,0
49348,-90.9090909090909,4,2,1,5,0,0
49513,-90.9090909090909,4,2,1,80,0,0
52151,-125,4,2,1,50,0,0
57430,330.578512396694,4,2,1,60,1,0
57430,-111.111111111111,4,2,1,60,0,0
57756,-111.111111111111,4,2,1,30,0,0
58087,-111.111111111111,4,2,1,45,0,0
58419,-100,4,2,1,60,0,0
58750,-100,4,2,1,70,0,0
59082,327.868852459016,4,2,1,75,1,0
59082,-100,4,2,1,75,0,0
60065,329.67032967033,4,2,1,80,1,0
60065,-90.9090909090909,4,2,1,80,0,0
60312,-90.9090909090909,4,2,1,5,0,0
60394,-90.9090909090909,4,2,1,80,0,0
60558,-90.9090909090909,4,2,1,5,0,0
60724,-90.9090909090909,4,2,1,80,0,0
66493,-90.9090909090909,4,2,1,5,0,0
66658,-90.9090909090909,4,2,1,80,0,0
69460,-90.9090909090909,4,2,1,5,0,0
69625,-90.9090909090909,4,2,1,80,0,0
69789,-90.9090909090909,4,2,1,5,0,0
69955,-90.9090909090909,4,2,1,80,0,0
70449,-90.9090909090909,4,2,1,5,0,0
70614,-90.9090909090909,4,2,1,80,0,0
72592,333.333333333333,4,2,1,80,1,0
72592,-90.9090909090909,4,2,1,80,0,0
73258,329.67032967033,4,2,1,70,1,0
73258,-90.9090909090909,4,2,1,70,0,0
73422,-90.9090909090909,4,2,1,5,0,0
73587,-90.9090909090909,4,2,1,70,0,0
73751,-90.9090909090909,4,2,1,5,0,0
73917,-90.9090909090909,4,2,1,70,0,0
75812,-90.9090909090909,4,2,1,5,0,0
75895,-90.9090909090909,4,2,1,70,0,0
77214,326.086956521739,4,2,1,70,1,0
77214,-90.9090909090909,4,2,1,70,0,0
78518,346.820809248555,4,2,1,80,1,0
78518,-90.9090909090909,4,2,1,80,0,0
79038,322.58064516129,4,2,1,80,1,0
79038,-90.9090909090909,4,2,1,80,0,0
79268,-90.9090909090909,4,2,1,5,0,0
79351,-90.9090909090909,4,2,1,80,0,0
79521,331.858407079646,4,2,1,80,1,0
79521,-90.9090909090909,4,2,1,80,0,0
80184,329.67032967033,4,2,1,80,1,0
80184,-90.9090909090909,4,2,1,80,0,0
81173,331.491712707182,4,2,1,80,1,0
81173,-90.9090909090909,4,2,1,80,0,0
81670,320.855614973262,4,2,1,80,1,0
81670,-90.9090909090909,4,2,1,80,0,0
81906,-90.9090909090909,4,2,1,5,0,0
81988,-90.9090909090909,4,2,1,80,0,0
82151,331.491712707182,4,2,1,80,1,0
82151,-90.9090909090909,4,2,1,80,0,0
82482,331.491712707182,4,2,1,80,1,0
82482,-90.9090909090909,4,2,1,80,0,0
83144,324.324324324324,4,2,1,80,1,0
83144,-90.9090909090909,4,2,1,80,0,0
83792,350.877192982456,4,2,1,80,1,0
83792,-90.9090909090909,4,2,1,80,0,0
83968,-90.9090909090909,4,2,1,5,0,0
84142,328.767123287671,4,2,1,80,1,0
84142,-90.9090909090909,4,2,1,80,0,0
84470,-86.9565217391304,4,2,1,85,0,0
85128,329.67032967033,4,2,1,90,1,0
85128,-86.9565217391304,4,2,1,90,0,0
88259,-111.111111111111,4,2,1,50,0,0

[Colours]
Combo1 : 72,176,210
Combo2 : 241,217,160
Combo3 : 221,60,13
Combo4 : 90,225,51

[HitObjects]
46,109,731,6,0,B|165:96|126:165|265:147,1,204.749993751526,4|2,3:1|0:0,0:0:0:0:
427,61,1720,2,0,B|437:274|437:274|441:223|495:197,1,292.499991073609,6|2,0:0|0:0,0:0:0:0:
475,208,3368,6,0,P|378:189|292:226,1,175.499994644165,2|2,3:2|0:0,0:0:0:0:
86,320,4357,2,0,B|101:250|101:250|81:216|81:216|91:152,1,175.499994644165,6|0,3:2|2:0,0:0:0:0:
66,74,5016,1,2,0:0:0:0:
219,15,5346,2,0,P|272:6|342:37,1,116.999996429443,2|0,0:0|0:0,0:0:0:0:
392,88,5840,1,2,0:0:0:0:
392,88,6005,6,0,L|383:164,1,65,6|0,3:2|2:0,0:0:0:0:
447,218,6335,2,0,L|438:294,1,65,0|0,3:2|2:0,0:0:0:0:
377,350,6665,2,0,L|301:359,1,65,0|0,3:2|2:0,0:0:0:0:
247,295,6994,2,0,L|171:304,1,65,0|0,3:2|2:0,0:0:0:0:
117,366,7324,6,0,P|75:370|26:344,1,97.5,8|0,3:2|1:2,0:0:0:0:
3,305,7654,2,0,L|16:199,1,97.5,8|0,0:0|1:2,0:0:0:0:
24,163,7983,1,8,0:0:0:0:
101,111,8148,1,0,1:2:0:0:
101,111,8231,1,0,1:2:0:0:
101,111,8313,2,0,L|160:114,3,32.5,8|0|0|0,0:0|1:2|1:2|1:2,0:0:0:0:
166,149,8635,6,0,B|255:137|222:181|317:166,1,143.000004364014,6|8,3:1|0:0,0:0:0:0:
378,100,9129,2,0,P|417:96|475:115,1,71.5000021820069,2|0,0:0|3:2,0:0:0:0:
503,193,9459,1,0,3:2:0:0:
503,193,9624,2,0,L|493:267,1,71.5000021820069,8|0,0:0|2:0,0:0:0:0:
422,334,9953,6,0,P|387:336|335:322,1,71.5000021820069,2|0,3:2|2:0,0:0:0:0:
259,369,10283,2,0,P|251:334|253:298,1,71.5000021820069,10|0,0:2|2:0,0:0:0:0:
330,232,10613,2,0,P|331:196|324:161,1,71.5000021820069,2|0,3:2|3:2,0:0:0:0:
298,64,10942,1,10,0:2:0:0:
210,112,11107,1,2,0:2:0:0:
146,34,11272,6,0,P|88:27|9:63,1,143.000004364014,6|8,3:2|0:2,0:0:0:0:
0,159,11766,2,0,L|10:236,1,71.5000021820069,2|0,0:2|0:0,0:0:0:0:
30,337,12096,1,0,3:2:0:0:
30,337,12178,1,0,3:2:0:0:
30,337,12261,2,0,B|95:321|69:359|136:342,1,107.25000327301,12|0,0:2|2:0,0:0:0:0:
171,308,12591,6,0,P|219:301|277:325,2,107.25000327301,2|8|8,0:2|3:3|3:3,0:0:0:0:
111,226,13253,2,0,L|121:147,1,71.5000021820069,8|10,3:2|0:0,0:0:0:0:
208,106,13585,1,10,0:0:0:0:
281,172,13751,1,10,0:0:0:0:
371,127,13916,6,0,L|361:51,1,65,6|0,3:2|2:0,0:0:0:0:
446,26,14245,2,0,L|464:169,1,130,10|0,0:0|3:2,0:0:0:0:
478,244,14740,1,2,3:2:0:0:
411,306,14905,2,0,P|378:310|342:298,1,65,10|2,0:0|0:0,0:0:0:0:
267,344,15235,6,0,P|234:340|198:352,1,65,2|0,3:2|2:0,0:0:0:0:
117,379,15565,2,0,P|87:326|96:237,1,130,10|0,0:0|3:2,0:0:0:0:
42,185,16059,1,2,3:2:0:0:
42,185,16224,2,0,L|32:102,1,65,10|0,0:0|2:0,0:0:0:0:
101,58,16554,5,2,3:2:0:0:
101,58,16718,2,0,L|184:68,1,65,2|8,0:2|0:2,0:0:0:0:
228,131,17048,1,2,0:2:0:0:
307,87,17213,2,0,P|336:77|387:81,1,65,2|2,3:2|3:2,0:0:0:0:
448,28,17543,2,0,P|458:57|454:108,1,65,10|2,0:2|0:2,0:0:0:0:
499,171,17872,6,0,B|421:175|460:207|355:211,2,130,2|8|0,3:2|0:2|3:2,0:0:0:0:
500,262,18696,1,2,3:2:0:0:
428,317,18861,1,10,0:2:0:0:
428,317,19026,6,0,L|281:305,1,130,2|2,0:2|3:2,0:0:0:0:
222,356,19521,1,14,0:2:0:0:
222,356,19685,2,0,L|135:363,1,65,2|0,0:2|3:2,0:0:0:0:
86,302,20015,1,2,3:2:0:0:
145,233,20180,1,8,0:2:0:0:
80,168,20345,1,2,0:2:0:0:
142,102,20510,6,0,P|178:98|221:115,1,65,2|2,3:3|3:2,0:0:0:0:
265,174,20839,2,0,P|330:151|416:160,1,130,14|8,0:2|3:3,0:0:0:0:
466,99,21334,1,0,0:0:0:0:
466,99,21416,1,8,0:2:0:0:
466,99,21499,2,0,L|457:12,1,65,10|2,0:2|3:2,0:0:0:0:
374,1,21828,6,0,P|349:15|293:15,1,65,6|0,3:2|2:0,0:0:0:0:
237,71,22158,2,0,P|182:50|106:57,1,130,10|0,0:2|3:2,0:0:0:0:
40,111,22652,1,2,3:2:0:0:
85,190,22817,2,0,P|94:226|91:264,1,65,10|2,0:2|0:2,0:0:0:0:
65,341,23147,6,0,L|151:349,1,65,2|0,3:2|2:0,0:0:0:0:
182,271,23477,2,0,L|260:265,1,65,10|0,0:2|2:0,0:0:0:0:
315,326,23806,2,0,P|351:334|387:328,1,65,2|0,3:2|3:2,0:0:0:0:
452,275,24136,1,10,0:2:0:0:
452,275,24301,2,0,L|492:279,2,32.5,10|8|8,0:2|0:2|0:2,0:0:0:0:
404,196,24631,5,6,3:2:0:0:
499,41,24960,1,6,3:2:0:0:
404,196,25290,1,6,3:2:0:0:
269,89,25620,1,8,3:3:0:0:
269,89,25702,1,8,3:3:0:0:
269,89,25784,2,0,L|189:96,1,65,10|12,3:2|3:3,0:0:0:0:
137,157,26114,1,12,3:3:0:0:
58,110,26279,6,0,P|21:150|14:227,1,130,4|8,3:2|2:0,0:0:0:0:
25,266,26691,1,8,0:2:0:0:
109,330,26883,2,0,L|174:336,1,43.3333333333333,8|8,3:3|3:3,0:0:0:0:
199,361,27103,6,0,P|237:342|320:346,1,116.999996429443,2|2,3:2|0:0,0:0:0:0:
470,377,27762,2,0,L|482:301,1,58.4999982147217,2|0,0:0|0:0,0:0:0:0:
499,282,28010,2,0,P|505:239|480:185,1,87.7499973220826,2|0,0:0|2:0,0:0:0:0:
471,168,28339,1,0,0:0:0:0:
471,168,28421,2,0,L|391:179,1,58.4999982147217,2|2,0:0|0:0,0:0:0:0:
353,232,28748,2,0,L|273:221,1,58.4999982147217,2|2,0:0|0:0,0:0:0:0:
220,259,29076,1,10,0:0:0:0:
148,219,29240,1,0,0:0:0:0:
83,265,29404,1,2,3:2:0:0:
25,90,29744,6,0,P|21:41|48:-7,2,97.5,14|10|10,0:2|3:3|3:2,0:0:0:0:
115,119,30418,2,0,L|191:112,1,65,10|0,3:3|3:2,0:0:0:0:
250,56,30740,2,0,L|326:63,1,65,8|0,0:2|3:2,0:0:0:0:
409,37,31063,6,0,B|419:100|393:90|406:150,1,107.25000327301,6|0,3:1|2:0,0:0:0:0:
435,183,31392,2,0,L|426:263,1,71.5000021820069,10|0,0:0|2:0,0:0:0:0:
471,343,31718,2,0,P|441:353|379:341,1,71.5000021820069,2|0,3:2|3:2,0:0:0:0:
331,279,32044,1,10,0:2:0:0:
244,326,32207,6,0,P|177:301|107:311,1,143.000004364014,6|2,3:2|3:2,0:0:0:0:
25,367,32700,2,0,P|11:339|14:281,1,71.5000021820069,10|2,0:2|0:2,0:0:0:0:
72,222,33030,1,2,3:2:0:0:
72,222,33195,1,0,3:2:0:0:
16,138,33360,2,0,L|28:54,1,71.5000021820069,10|0,0:2|1:2,0:0:0:0:
68,39,33607,1,0,1:2:0:0:
68,39,33689,6,0,B|120:27|120:27|180:52,1,107.25000327301,6|0,3:2|2:0,0:0:0:0:
213,73,34019,2,0,L|223:143,1,71.5000021820069,10|0,0:2|2:0,0:0:0:0:
176,233,34349,2,0,L|168:306,1,71.5000021820069,2|0,3:2|3:2,0:0:0:0:
233,379,34678,1,10,0:2:0:0:
319,328,34843,6,0,P|375:305|461:322,1,143.000004364014,6|2,3:2|3:2,0:0:0:0:
512,237,35338,2,0,L|501:157,1,71.5000021820069,10|2,0:2|0:2,0:0:0:0:
485,67,35667,1,2,3:2:0:0:
402,132,35832,1,0,1:2:0:0:
402,132,35914,1,0,1:2:0:0:
402,132,35997,2,0,L|395:187,2,35.7500010910034,2|0|0,1:2|1:2|3:2,0:0:0:0:
341,50,36327,1,2,3:2:0:0:
262,110,36491,5,10,0:2:0:0:
262,110,36656,2,0,L|185:118,1,71.5000021820069,10|0,0:2|2:0,0:0:0:0:
94,127,36986,1,10,0:2:0:0:
94,127,37151,2,0,L|17:135,1,71.5000021820069,10|0,0:2|0:0,0:0:0:0:
5,236,37480,5,10,0:2:0:0:
5,236,37645,2,0,L|76:243,1,71.5000021820069,10|0,0:2|3:2,0:0:0:0:
180,258,37975,1,10,0:2:0:0:
180,258,38140,2,0,L|251:265,1,71.5000021820069,2|0,0:2|3:2,0:0:0:0:
323,349,38469,1,2,3:2:0:0:
323,349,38552,1,8,3:3:0:0:
323,349,38634,2,0,L|403:340,1,71.5000021820069,8|0,3:2|3:2,0:0:0:0:
512,377,38964,6,0,P|490:330|498:266,1,107.25000327301,6|0,3:1|2:0,0:0:0:0:
507,227,39299,2,0,L|500:146,1,71.5000021820069,10|0,0:2|2:0,0:0:0:0:
433,81,39628,2,0,L|352:88,1,71.5000021820069,2|0,3:2|3:2,0:0:0:0:
272,129,39958,1,10,0:2:0:0:
272,129,40123,6,0,P|241:116|186:121,1,71.5000021820069,2|0,0:2|3:2,0:0:0:0:
111,154,40452,1,2,0:2:0:0:
171,232,40617,2,0,L|163:305,1,71.5000021820069,10|2,0:2|0:2,0:0:0:0:
66,332,40947,2,0,L|58:260,1,71.5000021820069,2|0,3:2|3:2,0:0:0:0:
4,175,41277,2,0,P|-1:123|33:57,1,107.25000327301,10|0,0:2|2:0,0:0:0:0:
54,37,41606,6,0,L|145:47,1,71.5000021820069,10|0,0:2|3:2,0:0:0:0:
204,115,41936,1,10,0:2:0:0:
204,115,42101,1,0,3:2:0:0:
278,48,42266,2,0,L|349:40,1,71.5000021820069,10|0,0:2|3:2,0:0:0:0:
452,35,42595,1,10,0:2:0:0:
452,35,42760,1,0,3:2:0:0:
504,120,42925,6,0,L|493:198,1,71.5000021820069,10|0,0:2|3:2,0:0:0:0:
490,244,43172,1,0,3:2:0:0:
490,244,43255,2,0,B|402:236|442:281|352:271,2,143.000004364014,14|8|8,3:2|3:3|3:3,0:0:0:0:
411,148,44079,1,8,3:3:0:0:
301,182,44244,6,0,P|227:158|145:173,1,143.000004364014,6|8,3:1|0:2,0:0:0:0:
114,251,44738,1,2,0:2:0:0:
193,318,44903,1,2,3:2:0:0:
193,318,45068,1,0,3:2:0:0:
112,378,45233,2,0,L|25:383,1,71.5000021820069,8|0,0:2|2:0,0:0:0:0:
6,256,45562,6,0,B|11:192|11:192|18:187|18:187|25:116,1,143.000004364014,6|8,3:2|0:2,0:0:0:0:
35,16,46057,1,2,0:2:0:0:
125,80,46222,1,2,3:2:0:0:
125,80,46386,1,0,3:2:0:0:
207,22,46551,2,0,P|246:20|284:35,1,71.5000021820069,10|0,0:2|1:2,0:0:0:0:
324,59,46798,1,0,1:2:0:0:
324,59,46881,6,0,B|410:52|371:101|465:94,1,143.000004364014,6|8,3:2|0:2,0:0:0:0:
506,183,47375,1,2,0:2:0:0:
427,244,47540,2,0,B|341:237|380:286|286:279,1,143.000004364014,2|8,3:2|0:2,0:0:0:0:
204,323,48035,1,2,0:2:0:0:
204,323,48200,6,0,L|196:223,1,71.5000021820069,2|0,3:2|2:0,0:0:0:0:
270,181,48529,2,0,L|278:81,1,71.5000021820069,10|0,0:2|2:0,0:0:0:0:
206,36,48859,2,0,P|170:27|117:43,1,71.5000021820069,2|0,3:2|3:2,0:0:0:0:
55,92,49189,2,0,P|46:128|62:181,1,71.5000021820069,10|0,0:2|2:0,0:0:0:0:
0,285,49518,6,0,P|59:261|161:281,1,143.000004364014,6|8,3:2|3:2,0:0:0:0:
229,330,50013,1,0,1:2:0:0:
229,330,50095,1,0,1:2:0:0:
229,330,50178,2,0,B|313:322|285:363|368:353,1,143.000004364014,10|8,3:2|3:2,0:0:0:0:
452,297,50672,5,0,1:2:0:0:
452,297,50755,1,0,1:2:0:0:
452,297,50837,1,8,3:2:0:0:
390,217,51002,2,0,L|336:221,2,35.7500010910034,0|0|8,1:2|1:2|3:2,0:0:0:0:
446,136,51331,1,0,1:2:0:0:
446,136,51414,1,0,1:2:0:0:
446,136,51496,2,0,P|456:105|448:51,1,71.5000021820069,8|8,3:2|3:3,0:0:0:0:
369,11,51826,2,0,L|323:17,3,35.7500010910034,8|8|8|8,3:3|3:3|3:3|3:3,0:0:0:0:
294,52,52156,6,0,B|235:49|261:80|187:76,1,104,6|2,3:1|0:0,0:0:0:0:
51,15,52815,1,10,0:0:0:0:
9,168,53145,1,2,0:0:0:0:
9,168,53309,2,0,P|60:179|121:161,1,104,2|2,3:2|0:0,0:0:0:0:
181,197,53804,2,0,L|242:207,1,52,2|2,0:0|0:0,0:0:0:0:
294,252,54134,1,10,0:0:0:0:
245,104,54463,1,8,3:3:0:0:
389,44,54793,6,0,P|415:96|410:158,1,104,6|2,3:2|0:0,0:0:0:0:
503,269,55452,1,10,0:0:0:0:
367,343,55782,1,2,0:0:0:0:
367,343,55947,2,0,P|320:321|256:326,1,104,2|2,0:0|0:0,0:0:0:0:
194,346,56441,2,0,L|131:350,1,52,2|8,0:0|3:3,0:0:0:0:
74,309,56771,2,0,L|67:244,1,52,12|8,3:3|3:3,0:0:0:0:
61,179,57101,1,12,3:3:0:0:
172,20,57430,5,12,3:3:0:0:
172,20,57760,2,0,L|245:26,1,58.4999982147217,2|0,1:2|1:2,0:0:0:0:
283,87,58091,2,0,L|356:82,1,58.4999982147217,0|0,1:2|1:2,0:0:0:0:
420,37,58421,2,0,P|432:75|426:115,1,65,8|8,0:2|0:2,0:0:0:0:
485,172,58752,5,10,0:2:0:0:
417,233,58917,1,0,3:2:0:0:
452,318,59082,2,0,L|369:324,1,65,12|0,0:2|1:2,0:0:0:0:
345,331,59327,1,0,1:2:0:0:
345,331,59409,2,0,L|299:325,3,32.5,10|8|8|8,0:2|0:2|0:2|0:2,0:0:0:0:
272,348,59737,2,0,L|226:342,3,32.5,8|8|8|8,0:2|0:2|0:2|0:2,0:0:0:0:
194,352,60065,6,0,P|185:323|202:238,1,107.25000327301,6|0,3:1|2:0,0:0:0:0:
237,220,60394,2,0,P|242:184|233:150,1,71.5000021820069,10|0,0:2|2:0,0:0:0:0:
175,67,60724,2,0,L|94:74,1,71.5000021820069,2|0,3:2|3:2,0:0:0:0:
28,139,61054,1,10,0:2:0:0:
28,139,61218,6,0,P|15:170|20:225,1,71.5000021820069,2|0,0:2|3:2,0:0:0:0:
57,298,61548,1,2,0:2:0:0:
153,272,61713,2,0,L|145:345,1,71.5000021820069,10|2,0:2|0:2,0:0:0:0:
242,368,62043,2,0,L|250:296,1,71.5000021820069,2|0,3:2|3:2,0:0:0:0:
326,232,62372,1,10,0:2:0:0:
424,282,62537,1,0,3:2:0:0:
424,282,62619,1,0,3:2:0:0:
424,282,62702,6,0,L|434:191,1,71.5000021820069,10|0,0:2|3:2,0:0:0:0:
449,114,63032,1,10,0:2:0:0:
449,114,63196,1,0,3:2:0:0:
369,53,63361,2,0,L|298:61,1,71.5000021820069,10|0,0:2|3:2,0:0:0:0:
215,117,63691,1,10,0:2:0:0:
139,51,63856,1,0,3:2:0:0:
59,112,64021,6,0,L|48:190,1,71.5000021820069,10|0,0:2|3:2,0:0:0:0:
47,236,64268,1,0,3:2:0:0:
47,236,64350,6,0,B|76:210|116:215|116:215|164:274|96:348,1,214.500006546021,14|0,3:2|3:2,0:0:0:0:
75,375,64927,1,0,3:2:0:0:
75,375,65010,2,0,P|43:359|-6:357,1,71.5000021820069,8|0,3:3|0:0,0:0:0:0:
169,271,65339,6,0,P|239:263|306:287,1,143.000004364014,4|8,3:2|0:2,0:0:0:0:
400,341,65834,1,2,0:2:0:0:
485,282,65999,1,2,3:2:0:0:
485,282,66163,1,0,3:2:0:0:
438,193,66328,2,0,L|452:106,1,71.5000021820069,8|0,0:2|2:0,0:0:0:0:
378,16,66658,6,0,B|314:21|314:21|309:28|309:28|238:35,1,143.000004364014,6|8,3:2|0:2,0:0:0:0:
154,95,67152,1,2,0:2:0:0:
76,40,67317,1,2,3:2:0:0:
76,40,67482,1,0,3:2:0:0:
1,106,67647,2,0,P|-1:145|14:183,1,71.5000021820069,10|0,0:2|1:2,0:0:0:0:
51,213,67894,1,0,1:2:0:0:
51,213,67977,6,0,B|134:191|104:246|195:222,1,143.000004364014,6|8,3:2|0:2,0:0:0:0:
274,170,68471,1,2,0:2:0:0:
337,247,68636,2,0,B|421:268|391:213|475:235,1,143.000004364014,2|8,3:2|0:2,0:0:0:0:
498,337,69130,1,2,0:2:0:0:
498,337,69295,6,0,L|398:345,1,71.5000021820069,2|0,3:2|2:0,0:0:0:0:
331,375,69625,2,0,L|231:367,1,71.5000021820069,10|0,0:2|2:0,0:0:0:0:
212,280,69955,2,0,P|176:271|123:287,1,71.5000021820069,2|0,3:2|3:2,0:0:0:0:
45,302,70284,2,0,P|39:266|48:232,1,71.5000021820069,10|0,0:2|2:0,0:0:0:0:
16,105,70614,6,0,P|73:90|153:116,1,143.000004364014,6|8,3:2|0:2,0:0:0:0:
228,178,71108,1,2,0:2:0:0:
311,121,71273,2,0,L|302:35,1,71.5000021820069,2|0,3:2|3:2,0:0:0:0:
396,6,71603,1,8,0:2:0:0:
396,6,71768,6,0,L|406:90,1,71.5000021820069,2|2,0:2|0:2,0:0:0:0:
483,140,72097,1,0,3:2:0:0:
405,202,72262,1,10,0:2:0:0:
405,202,72427,1,0,3:2:0:0:
466,279,72592,2,0,L|459:359,1,71.5000021820069,12|8,0:2|0:2,0:0:0:0:
414,367,72842,1,8,0:2:0:0:
414,367,72925,2,0,P|365:348|305:354,1,107.25000327301,8|8,0:2|0:2,0:0:0:0:
262,366,73258,6,0,L|254:263,1,71.5000021820069,6|0,3:1|2:0,0:0:0:0:
324,220,73587,2,0,L|331:124,1,71.5000021820069,10|0,0:2|2:0,0:0:0:0:
266,69,73917,2,0,P|228:82|183:74,1,71.5000021820069,2|0,3:2|3:2,0:0:0:0:
112,34,74247,1,10,0:2:0:0:
112,34,74411,6,0,P|70:87|70:159,1,143.000004364014,2|2,0:2|0:2,0:0:0:0:
136,236,74906,2,0,L|125:319,1,71.5000021820069,10|2,0:2|0:2,0:0:0:0:
206,368,75236,2,0,L|289:357,1,71.5000021820069,2|0,3:2|3:2,0:0:0:0:
359,302,75565,2,0,P|415:301|466:326,1,107.25000327301,10|0,0:2|2:0,0:0:0:0:
504,347,75895,6,0,L|495:191,1,143.000004364014,4|8,3:2|0:2,0:0:0:0:
406,158,76389,2,0,L|415:2,1,143.000004364014,0|2,0:0|3:2,0:0:0:0:
313,24,76884,2,0,L|225:32,1,71.5000021820069,10|2,0:2|0:2,0:0:0:0:
165,82,77214,6,0,L|101:79,1,47.6666681213379,6|0,3:2|3:2,0:0:0:0:
57,130,77431,1,8,3:3:0:0:
47,139,77540,2,0,L|-20:135,2,47.6666681213379,2|0|8,3:2|3:2|3:2,0:0:0:0:
100,199,77866,2,0,L|168:194,1,47.6666681213379,2|0,3:2|3:2,0:0:0:0:
213,242,78083,1,8,3:3:0:0:
224,249,78192,2,0,L|285:244,2,47.6666681213379,10|8|8,3:3|3:3|3:3,0:0:0:0:
181,328,78518,6,0,B|245:336|245:336|247:344|247:344|319:353,1,143.000004364014,6|8,3:1|0:2,0:0:0:0:
415,367,79038,2,0,P|437:317|432:251,1,107.25000327301,6|0,3:2|2:0,0:0:0:0:
408,223,79360,1,0,3:2:0:0:
477,151,79521,2,0,B|504:87|504:87|458:10,1,143.000004364014,14|0,0:2|0:0,0:0:0:0:
377,60,80018,1,0,3:2:0:0:
377,60,80101,1,0,3:2:0:0:
377,60,80184,2,0,L|319:65,3,35.7500010910034,8|8|0|0,0:2|0:2|3:2|3:2,0:0:0:0:
308,100,80513,2,0,L|250:95,3,35.7500010910034,8|8|0|0,3:3|3:3|3:2|3:2,0:0:0:0:
233,129,80843,2,0,L|175:134,3,35.7500010910034,8|8|0|0,3:3|3:3|3:2|3:2,0:0:0:0:
161,95,81173,6,0,B|114:66|114:66|2:96,1,143.000004364014,6|8,3:1|0:2,0:0:0:0:
0,184,81670,2,0,B|52:192|52:192|54:199|54:199|105:207,1,107.25000327301,6|0,3:2|2:0,0:0:0:0:
149,217,81990,1,0,3:2:0:0:
120,325,82151,2,0,P|173:304|274:317,1,143.000004364014,14|0,0:2|0:0,0:0:0:0:
449,364,82813,2,0,L|458:290,1,71.5000021820069,2|8,3:2|0:2,0:0:0:0:
490,255,83062,1,8,0:2:0:0:
490,255,83144,2,0,L|481:181,1,71.5000021820069,8|0,0:2|3:2,0:0:0:0:
471,84,83468,1,8,3:2:0:0:
381,129,83630,1,8,3:3:0:0:
303,66,83792,6,0,P|268:57|225:63,1,71.5000021820069,6|0,3:1|2:0,0:0:0:0:
153,132,84142,2,0,P|144:166|147:201,1,71.5000021820069,0|0,3:2|3:2,0:0:0:0:
217,296,84470,1,0,3:2:0:0:
217,296,84635,1,0,3:2:0:0:
133,370,84799,2,0,L|58:363,1,74.7500014257431,0|8,3:2|3:2,0:0:0:0:
8,262,85128,5,8,3:2:0:0:
99,198,85292,1,8,3:2:0:0:
8,131,85457,2,0,P|1:94|19:39,1,74.7500014257431,8|8,3:2|3:2,0:0:0:0:
109,7,85787,1,8,3:2:0:0:
207,81,85952,1,8,0:2:0:0:
207,81,86034,1,8,0:2:0:0:
207,81,86117,2,0,L|276:85,3,37.3750007128716,8|8|8|8,3:2|0:2|0:2|0:2,0:0:0:0:
299,87,86446,5,6,3:1:0:0:
256,192,86529,12,0,88259,0:0:0:0:
