osu file format v14

[General]
AudioFilename: audio.mp3
AudioLeadIn: 0
PreviewTime: 66601
Countdown: 0
SampleSet: None
StackLeniency: 0.7
Mode: 0
LetterboxInBreaks: 0
WidescreenStoryboard: 1

[Editor]
Bookmarks: 23135,34044,44954,55863,64044,66772,88590
DistanceSpacing: 1
BeatDivisor: 4
GridSize: 16
TimelineZoom: 1

[Metadata]
Title:Soul Phrase
TitleUnicode:Soul Phrase
Artist:Kita Shuuhei
ArtistUnicode:喜多修平
Creator:Shirahane Suou
Version:Normal
Source:ペルソナ3 ポータブル
Tags:persona 3 portable p3p opening 目黒将司 meguro shoji reisevia roda totsuki japanese video game rock jrock j-rock
BeatmapID:2895241
BeatmapSetID:1403712

[Difficulty]
HPDrainRate:3
CircleSize:3
OverallDifficulty:4
ApproachRate:5
SliderMultiplier:0.999999999999999
SliderTickRate:1

[Events]
//Background and Video events
0,0,"soul.jpg",0,0
Video,-1625,"Persona 3 Portable Op-1.m4v"
//Break Periods
//Storyboard Layer 0 (Background)
//Storyboard Layer 1 (Fail)
//Storyboard Layer 2 (Pass)
//Storyboard Layer 3 (Foreground)
//Storyboard Layer 4 (Overlay)
//Storyboard Sound Samples

[TimingPoints]
-46,340.909090909091,4,2,1,60,1,0
23135,-100,4,2,1,40,0,0
44954,-100,4,2,1,50,0,0
64044,-100,4,2,1,60,0,0
66772,-100,4,2,1,70,0,1
87056,-100,4,2,1,60,0,0

[Colours]
Combo1 : 102,168,213
Combo2 : 194,76,102
Combo3 : 151,156,162
Combo4 : 224,95,98

[HitObjects]
211,306,635,6,0,L|218:190,1,99.9999999999999,2|2,0:2|0:2,0:0:0:0:
226,106,1317,6,0,P|261:89|336:105,1,99.9999999999999,6|0,3:2|0:0,0:0:0:0:
359,126,1829,1,2,0:2:0:0:
359,126,1999,1,10,0:2:0:0:
320,218,2340,2,0,L|321:286,1,50,2|2,3:2|3:2,0:0:0:0:
257,345,2851,2,0,L|157:340,1,99.9999999999999,2|2,3:2|0:2,0:0:0:0:
109,322,3363,1,10,0:2:0:0:
80,186,3874,6,0,L|31:193,1,50,2|2,3:2|3:2,0:0:0:0:
16,144,4215,2,0,L|45:37,1,99.9999999999999,2|2,3:2|0:2,0:0:0:0:
87,26,4726,1,10,0:2:0:0:
161,93,5067,2,0,L|230:82,1,50,2|2,3:2|3:2,0:0:0:0:
309,72,5579,2,0,L|319:184,1,99.9999999999999,2|6,3:2|3:2,0:0:0:0:
321,221,6090,1,10,0:2:0:0:
235,272,6431,2,0,L|176:278,1,50,2|0,0:2|3:2,0:0:0:0:
137,260,6772,6,0,L|157:146,1,99.9999999999999,6|0,3:2|0:0,0:0:0:0:
165,116,7283,1,2,0:2:0:0:
165,116,7454,1,10,0:2:0:0:
248,61,7794,2,0,L|242:1,1,50,2|2,3:2|3:2,0:0:0:0:
343,3,8306,2,0,L|354:113,1,99.9999999999999,2|2,3:2|0:2,0:0:0:0:
364,151,8817,1,10,0:2:0:0:
246,244,9329,6,0,L|192:236,1,50,2|6,3:2|3:2,0:0:0:0:
159,203,9669,2,0,P|116:194|54:236,1,99.9999999999999,2|2,3:2|0:2,0:0:0:0:
40,260,10181,1,10,0:2:0:0:
106,334,10522,2,0,L|165:335,1,50,2|2,3:2|3:2,0:0:0:0:
245,380,11033,2,0,L|346:381,1,99.9999999999999,2|2,3:2|3:2,0:0:0:0:
395,380,11544,1,14,0:2:0:0:
450,296,11885,1,2,3:2:0:0:
381,222,12226,6,0,P|360:187|378:119,1,99.9999999999999,6|0,3:2|0:0,0:0:0:0:
424,46,12908,1,10,0:2:0:0:
330,9,13249,2,0,L|261:19,1,50,2|2,3:2|3:2,0:0:0:0:
207,85,13760,2,0,L|107:70,1,99.9999999999999,2|2,3:2|0:2,0:0:0:0:
58,60,14272,1,10,0:2:0:0:
15,203,14783,6,0,L|71:191,1,50,2|2,3:2|3:2,0:0:0:0:
109,212,15124,2,0,B|91:257|91:257|119:321,1,99.9999999999999,2|2,3:2|0:2,0:0:0:0:
139,346,15635,1,8,0:2:0:0:
229,302,15976,2,0,L|292:304,1,50,2|2,3:2|3:2,0:0:0:0:
371,342,16488,2,0,P|387:305|358:237,1,99.9999999999999,2|6,3:2|3:2,0:0:0:0:
339,211,16999,1,10,0:2:0:0:
406,137,17340,2,0,L|462:127,1,50,2|0,0:2|3:2,0:0:0:0:
504,119,17681,6,0,L|492:222,1,99.9999999999999,6|0,3:2|0:0,0:0:0:0:
482,267,18192,1,2,0:2:0:0:
482,267,18363,1,10,0:2:0:0:
398,322,18704,2,0,L|343:315,1,50,2|2,3:2|3:2,0:0:0:0:
255,279,19215,2,0,B|277:234|277:234|267:177,1,99.9999999999999,2|2,3:2|0:2,0:0:0:0:
258,135,19726,1,10,0:2:0:0:
103,218,20238,1,2,3:2:0:0:
103,218,20408,6,0,B|38:143|104:61|104:61|110:104|141:131,1,250,6|2,3:2|0:2,0:0:0:0:
222,181,21601,2,0,L|287:173,1,50,2|0,3:2|3:2,0:0:0:0:
321,169,21942,1,10,0:2:0:0:
396,103,22283,1,10,0:2:0:0:
396,103,22454,1,14,0:2:0:0:
450,186,22794,2,0,L|449:248,1,50,0|8,3:2|0:2,0:0:0:0:
448,286,23135,5,0,3:2:0:0:
261,359,23817,2,0,L|159:348,1,99.9999999999999,2|2,0:2|0:2,0:0:0:0:
114,340,24329,2,0,P|134:312|104:193,1,150,2|0,0:2|0:0,0:0:0:0:
52,128,25181,1,2,0:2:0:0:
140,78,25522,1,2,3:2:0:0:
140,78,25692,6,0,L|291:87,1,150,2|0,3:2|3:2,0:0:0:0:
349,167,26544,2,0,L|353:286,1,99.9999999999999,2|2,0:2|0:2,0:0:0:0:
279,336,27226,2,0,L|214:332,1,50,2|0,0:2|3:2,0:0:0:0:
183,311,27567,2,0,P|202:287|188:219,1,99.9999999999999,2|2,0:2|3:2,0:0:0:0:
116,155,28249,1,2,0:2:0:0:
192,90,28590,6,0,L|352:88,1,150,2|0,3:2|0:0,0:0:0:0:
463,176,29613,1,2,0:2:0:0:
247,360,30976,2,0,L|235:305,1,50,2|2,3:2|3:2,0:0:0:0:
208,269,31317,6,0,L|230:158,1,99.9999999999999,2|2,0:2|0:2,0:0:0:0:
264,136,31829,1,2,0:2:0:0:
249,37,32169,1,2,0:2:0:0:
150,55,32510,2,0,L|42:41,1,99.9999999999999,2|0,0:2|0:0,0:0:0:0:
5,133,33192,1,0,3:2:0:0:
5,133,33363,2,0,L|9:183,1,50,0|0,1:2|0:0,0:0:0:0:
16,232,33704,1,0,3:2:0:0:
110,263,34044,6,0,L|224:243,1,99.9999999999999,0|0,3:2|0:0,0:0:0:0:
249,216,34556,1,2,0:2:0:0:
249,216,34726,1,0,1:2:0:0:
350,244,35067,1,2,0:2:0:0:
350,244,35238,2,0,B|367:197|367:197|346:130,1,99.9999999999999,2|0,3:2|3:2,0:0:0:0:
313,62,35919,1,2,0:2:0:0:
313,62,36090,2,0,L|423:47,1,99.9999999999999,2|2,1:2|0:2,0:0:0:0:
491,109,36772,6,0,L|479:219,1,99.9999999999999,2|2,3:2|0:2,0:0:0:0:
497,307,37454,1,2,1:2:0:0:
421,371,37794,1,0,3:2:0:0:
421,371,37965,2,0,L|305:347,1,99.9999999999999,0|0,3:2|3:2,0:0:0:0:
173,367,38817,2,0,P|204:327|188:270,1,99.9999999999999,2|0,1:2|3:2,0:0:0:0:
134,202,39499,6,0,B|207:183|207:183|255:204|255:204|348:182,1,200,2|0,3:2|1:2,0:0:0:0:
339,88,40522,2,0,P|301:41|159:61,1,200,0|2,3:2|0:2,0:0:0:0:
127,62,41374,1,0,3:2:0:0:
127,62,41544,1,2,1:2:0:0:
116,164,41885,6,0,B|92:285|92:285|121:318|171:302,1,200,2|2,3:2|3:2,0:0:0:0:
244,248,42908,1,2,1:2:0:0:
332,305,43249,1,2,3:2:0:0:
332,305,43419,2,0,L|442:284,1,99.9999999999999,0|0,3:2|3:2,0:0:0:0:
494,150,44272,1,0,1:2:0:0:
413,91,44613,1,0,3:2:0:0:
324,138,44954,6,0,L|208:137,1,99.9999999999999,4|0,3:2|0:0,0:0:0:0:
182,120,45465,1,2,0:2:0:0:
182,120,45635,1,10,0:2:0:0:
112,192,45976,1,2,0:2:0:0:
112,192,46147,2,0,L|115:301,1,99.9999999999999,2|0,0:2|0:0,0:0:0:0:
196,349,46829,1,2,0:2:0:0:
196,349,46999,2,0,P|229:335|292:356,1,99.9999999999999,10|2,0:2|0:2,0:0:0:0:
336,367,47510,6,0,L|336:210,1,150,2|0,0:2|0:0,0:0:0:0:
395,136,48363,1,10,0:2:0:0:
326,63,48704,1,2,0:2:0:0:
243,118,49044,2,0,L|132:120,1,99.9999999999999,2|2,3:2|0:2,0:0:0:0:
54,166,49726,2,0,P|26:138|36:66,1,99.9999999999999,10|2,0:2|0:2,0:0:0:0:
99,12,50408,6,0,L|218:8,1,99.9999999999999,2|0,3:2|0:0,0:0:0:0:
244,40,50919,1,2,0:2:0:0:
244,40,51090,2,0,L|363:36,1,99.9999999999999,8|2,0:2|0:2,0:0:0:0:
437,74,51772,2,0,L|426:178,1,99.9999999999999,2|2,3:2|0:2,0:0:0:0:
361,249,52454,1,10,0:2:0:0:
273,201,52794,2,0,L|216:201,1,50,2|2,0:2|0:2,0:0:0:0:
187,236,53135,6,0,P|158:250|90:234,1,99.9999999999999,2|2,3:2|0:2,0:0:0:0:
55,204,53647,1,2,0:2:0:0:
55,204,53817,2,0,L|56:83,1,99.9999999999999,8|0,0:2|0:0,0:0:0:0:
127,33,54499,2,0,L|234:30,1,99.9999999999999,2|2,3:2|0:2,0:0:0:0:
301,97,55181,1,10,0:2:0:0:
379,34,55522,1,2,0:2:0:0:
448,105,55863,6,0,L|449:224,1,99.9999999999999,2|0,3:2|0:0,0:0:0:0:
458,309,56545,1,10,0:2:0:0:
458,309,56715,1,2,0:2:0:0:
360,332,57056,2,0,L|357:389,2,50,2|0|8,3:2|3:2|0:2,0:0:0:0:
330,291,57567,1,2,0:2:0:0:
238,251,57908,2,0,L|231:148,1,99.9999999999999,10|2,0:2|0:2,0:0:0:0:
192,58,58590,6,0,L|85:60,1,99.9999999999999,0|0,3:2|0:0,0:0:0:0:
45,63,59101,1,0,3:2:0:0:
45,63,59272,2,0,L|45:126,1,50,8|0,0:2|3:2,0:0:0:0:
48,163,59613,1,10,0:2:0:0:
137,208,59954,2,0,L|134:270,1,50,2|8,3:2|0:2,0:0:0:0:
124,306,60294,2,0,L|231:289,1,99.9999999999999,2|10,0:2|0:2,0:0:0:0:
274,204,60976,1,2,0:2:0:0:
352,265,61317,6,0,L|343:328,2,50,2|8|0,3:2|0:2|3:2,0:0:0:0:
421,193,61999,1,8,0:2:0:0:
421,193,62169,1,0,3:2:0:0:
495,268,62510,1,0,3:2:0:0:
495,268,62681,2,0,L|486:331,1,50,0|8,3:2|0:2,0:0:0:0:
512,361,63022,2,0,L|403:376,1,99.9999999999999,2|10,3:2|0:2,0:0:0:0:
317,345,63704,1,10,0:2:0:0:
317,245,64044,6,0,L|317:183,1,50,14|2,0:2|3:2,0:0:0:0:
233,139,64556,2,0,L|233:77,1,50,10|2,0:2|3:2,0:0:0:0:
134,74,65067,2,0,L|134:124,1,50,10|2,0:2|3:2,0:0:0:0:
99,160,65408,5,8,0:2:0:0:
99,160,65579,1,0,3:2:0:0:
161,244,65919,1,8,0:2:0:0:
161,244,66090,1,0,3:2:0:0:
234,175,66431,1,8,0:2:0:0:
295,254,66772,6,0,P|355:270|405:248,1,99.9999999999999,6|10,3:2|0:2,0:0:0:0:
464,191,67454,2,0,L|462:127,1,50,2|0,3:2|3:2,0:0:0:0:
461,91,67794,1,8,0:2:0:0:
461,91,67965,2,0,P|425:101|349:82,1,99.9999999999999,2|0,0:2|0:0,0:0:0:0:
327,56,68476,1,8,0:2:0:0:
246,116,68817,2,0,L|235:227,1,99.9999999999999,2|8,3:2|0:2,0:0:0:0:
228,265,69329,6,0,P|281:247|334:273,1,99.9999999999999,2|0,0:2|0:0,0:0:0:0:
361,290,69840,1,10,0:2:0:0:
294,364,70181,2,0,L|224:378,1,50,2|0,3:2|3:2,0:0:0:0:
200,366,70522,1,10,0:2:0:0:
200,366,70692,2,0,L|87:387,1,99.9999999999999,2|0,0:2|0:0,0:0:0:0:
52,374,71204,1,10,0:2:0:0:
6,285,71544,2,0,L|18:218,1,50,2|0,3:2|3:2,0:0:0:0:
22,186,71885,1,10,0:2:0:0:
98,121,72226,6,0,P|147:110|193:132,1,99.9999999999999,6|10,3:2|0:2,0:0:0:0:
237,149,72738,2,0,L|220:257,1,99.9999999999999,2|0,0:2|3:2,0:0:0:0:
218,297,73249,1,8,0:2:0:0:
308,335,73590,2,0,L|414:312,1,99.9999999999999,2|10,3:2|0:2,0:0:0:0:
467,234,74272,2,0,L|449:166,1,50,2|0,3:2|3:2,0:0:0:0:
425,144,74613,1,10,0:2:0:0:
331,180,74954,6,0,L|216:175,1,99.9999999999999,6|8,3:2|0:2,0:0:0:0:
134,200,75635,2,0,L|123:147,1,50,0|2,3:2|3:2,0:0:0:0:
112,102,75976,1,8,0:2:0:0:
196,48,76317,2,0,L|207:-5,2,50,14|0|2,0:2|3:2|3:2,0:0:0:0:
238,74,76829,2,0,P|274:53|348:73,1,99.9999999999999,2|2,3:2|3:2,0:0:0:0:
370,89,77340,1,8,0:2:0:0:
317,174,77681,6,0,L|337:292,1,99.9999999999999,6|10,3:2|0:2,0:0:0:0:
263,343,78363,2,0,L|208:333,1,50,2|0,3:2|3:2,0:0:0:0:
167,314,78704,1,8,0:2:0:0:
167,314,78874,2,0,B|190:268|190:268|173:209,1,99.9999999999999,2|0,0:2|0:0,0:0:0:0:
144,183,79385,1,8,0:2:0:0:
205,104,79726,2,0,L|310:88,1,99.9999999999999,2|8,3:2|0:2,0:0:0:0:
341,55,80238,6,0,P|379:38|445:65,1,99.9999999999999,6|0,0:2|0:0,0:0:0:0:
471,85,80749,1,10,0:2:0:0:
423,173,81090,2,0,L|425:232,1,50,2|0,3:2|3:2,0:0:0:0:
449,266,81431,1,10,0:2:0:0:
449,266,81601,2,0,L|346:288,1,99.9999999999999,2|0,0:2|0:0,0:0:0:0:
304,304,82113,1,10,0:2:0:0:
242,225,82454,2,0,L|255:157,1,50,2|0,3:2|3:2,0:0:0:0:
264,127,82794,1,10,0:2:0:0:
194,55,83135,6,0,P|142:49|88:86,1,99.9999999999999,6|10,3:2|0:2,0:0:0:0:
74,113,83647,2,0,L|90:221,1,99.9999999999999,2|0,0:2|3:2,0:0:0:0:
100,260,84158,1,8,0:2:0:0:
194,291,84499,2,0,L|293:264,1,99.9999999999999,2|8,3:2|0:2,0:0:0:0:
334,174,85181,2,0,L|321:114,1,50,2|0,3:2|3:2,0:0:0:0:
304,78,85522,1,10,0:2:0:0:
388,25,85863,6,0,L|449:40,1,50,14|0,0:2|3:2,0:0:0:0:
480,62,86204,1,2,3:2:0:0:
480,62,86374,2,0,L|457:167,1,99.9999999999999,10|2,0:2|3:2,0:0:0:0:
454,209,86885,1,8,0:2:0:0:
454,209,87056,1,10,0:2:0:0:
302,340,87738,2,0,L|290:284,1,50,0|8,3:2|0:2,0:0:0:0:
270,245,88079,1,0,3:2:0:0:
157,146,88590,6,0,L|99:163,1,50,12|8,0:2|0:2,0:0:0:0:
54,243,89101,2,0,L|112:260,1,50,8|8,0:2|0:2,0:0:0:0:
144,347,89613,2,0,L|86:364,1,50,8|8,0:2|0:2,0:0:0:0:
