osu file format v14

[General]
AudioFilename: audio.mp3
AudioLeadIn: 0
PreviewTime: 52282
Countdown: 0
SampleSet: None
StackLeniency: 0.4
Mode: 0
LetterboxInBreaks: 0
WidescreenStoryboard: 0

[Editor]
DistanceSpacing: 2
BeatDivisor: 4
GridSize: 8
TimelineZoom: 1.5

[Metadata]
Title:Sekai de Ichiban Koishiteru (TV Size)
TitleUnicode:世界で一番恋してる (TV Size)
Artist:Kita Shuuhei
ArtistUnicode:喜多修平
Creator:Yahuri
Version:Insane
Source:世界一初恋
Tags:gay ichi hatsukoi yaoi bl boys love 小野寺 律 onodera ritsu 高野政宗 takano masamune anime opening 宮崎誠 miyazaki makoto こだまさおり koda masaori japanese
BeatmapID:1271298
BeatmapSetID:483506

[Difficulty]
HPDrainRate:6
CircleSize:3.8
OverallDifficulty:7
ApproachRate:8.5
SliderMultiplier:1.6
SliderTickRate:1

[Events]
//Background and Video events
0,0,"sekaiichihatsukoibg.jpg",0,0
Video,90,"HATSUKOI.avi"
//Break Periods
//Storyboard Layer 0 (Background)
//Storyboard Layer 1 (Fail)
//Storyboard Layer 2 (Pass)
//Storyboard Layer 3 (Foreground)
//Storyboard Sound Samples

[TimingPoints]
472,324.324324324324,4,3,1,60,1,0
634,-100,4,3,1,50,0,0
4363,-100,4,3,1,45,0,0
4688,-100,4,3,1,50,0,0
5012,-100,4,3,1,55,0,0
5661,-100,4,3,1,60,0,0
13607,-100,4,3,1,40,0,0
15715,-100,4,3,1,50,0,0
16039,-100,4,3,2,60,0,0
26417,-100,4,3,2,70,0,0
36796,-133.333333333333,4,3,1,40,0,0
44580,-111.111111111111,4,3,1,70,0,0
47174,-100,4,3,1,70,0,0
52363,-90.9090909090909,4,3,3,80,0,1
73120,-100,4,3,1,70,0,0
81066,-100,4,3,1,50,0,0
82850,-100,4,3,1,70,0,0

[Colours]
Combo1 : 240,128,232
Combo2 : 248,236,92
Combo3 : 254,165,75
Combo4 : 254,173,200
SliderBorder : 255,255,255

[HitObjects]
28,78,472,6,0,L|107:85,1,80,4|0,0:0|0:0,0:0:0:0:
196,121,796,2,0,P|207:159|201:198,1,80,8|0,0:0|0:0,0:0:0:0:
174,291,1120,1,0,0:0:0:0:
267,269,1282,2,0,L|346:276,1,80,8|0,0:0|0:0,0:0:0:0:
443,278,1607,6,0,L|449:199,2,80,4|0|0,0:2|0:0|0:0,0:0:0:0:
394,360,2093,2,0,P|357:371|288:352,1,80,8|0,0:0|0:0,0:0:0:0:
251,282,2417,1,0,0:0:0:0:
346,276,2580,1,8,0:0:0:0:
370,183,2742,1,0,0:0:0:0:
288,131,2904,1,4,0:2:0:0:
251,282,3066,5,6,0:0:0:0:
226,356,4363,6,0,B|265:359|265:359|303:347,1,80,10|0,0:0|0:0,0:0:0:0:
256,263,4688,2,0,B|216:259|216:259|178:271,1,80,10|0,0:0|0:0,0:0:0:0:
80,322,5012,2,0,L|80:371,3,40,10|0|0|0,0:0|0:0|0:0|0:0,0:0:0:0:
95,285,5336,1,10,0:0:0:0:
99,246,5417,1,0,0:0:0:0:
91,207,5498,1,0,0:0:0:0:
73,171,5579,1,0,0:0:0:0:
46,143,5661,6,0,B|6:118|4:78|4:78|19:42|66:29,2,160,6|8|2,0:0|0:0|0:0,0:0:0:0:
130,99,6471,2,0,L|210:112,1,80,8|8,0:0|0:0,0:0:0:0:
381,74,6796,6,0,L|302:87,1,80,4|2,0:2|0:0,0:0:0:0:
278,180,7120,1,0,0:0:0:0:
312,270,7282,2,0,L|297:351,1,80,8|0,0:0|0:0,0:0:0:0:
205,376,7607,2,0,P|167:377|105:340,1,80,2|8,0:0|0:0,0:0:0:0:
50,307,7931,1,8,0:0:0:0:
136,266,8093,1,4,0:2:0:0:
58,210,8255,6,0,B|31:133|31:133|31:52,2,160,2|8|2,0:0|0:0|0:0,0:0:0:0:
146,171,9066,2,0,L|224:157,1,80,8|8,0:0|0:0,0:0:0:0:
332,38,9390,6,0,L|410:52,1,80,4|2,0:2|0:0,0:0:0:0:
355,131,9715,1,0,0:0:0:0:
410,209,9877,2,0,L|425:290,1,80,8|0,0:0|0:0,0:0:0:0:
355,354,10201,2,0,P|315:356|278:342,1,80,2|8,0:0|0:0,0:0:0:0:
211,272,10526,1,2,0:0:0:0:
144,341,10688,1,4,0:2:0:0:
15,272,10850,6,0,B|9:230|37:194|37:194|46:158|24:117,2,160,6|8|2,0:0|0:0|0:0,0:0:0:0:
65,355,11661,2,0,L|146:340,1,80,8|8,0:0|0:0,0:0:0:0:
181,185,11985,6,0,B|190:146|190:146|214:114,1,80,4|2,0:2|0:0,0:0:0:0:
262,31,12309,1,0,0:0:0:0:
310,114,12471,2,0,B|334:146|334:146|344:185,1,80,8|0,0:0|0:0,0:0:0:0:
351,281,12796,1,2,0:0:0:0:
444,304,12958,1,8,0:0:0:0:
495,222,13120,1,10,0:0:0:0:
433,149,13282,1,4,0:2:0:0:
351,281,13444,6,0,B|322:309|322:309|247:336|247:336|210:372,2,160,6|0|0,0:0|0:0|0:0,0:0:0:0:
344,185,14255,2,0,P|366:152|401:133,1,80
428,225,14580,6,0,P|486:174|489:97,1,160
413,37,15066,2,0,P|373:39|339:59,1,80
271,126,15390,2,0,P|231:124|197:104,1,80
111,59,15715,1,8,0:0:0:0:
72,66,15796,1,8,0:0:0:0:
42,89,15877,1,8,0:0:0:0:
19,123,15958,1,8,0:0:0:0:
15,161,16039,6,0,B|12:242|12:242|53:310,1,160,6|8,0:0|0:0,0:0:0:0:
143,273,16526,2,0,L|237:294,1,80,0|2,0:0|0:0,0:0:0:0:
288,222,16850,2,0,L|209:204,1,80,0|8,0:0|0:0,0:0:0:0:
122,166,17174,6,0,P|113:126|121:87,1,80,0|2,0:0|0:0,0:0:0:0:
209,126,17499,2,0,P|218:166|210:205,1,80,0|10,0:0|0:0,0:0:0:0:
301,229,17823,1,0,0:0:0:0:
393,205,17985,2,0,B|400:165|400:165|393:126,1,80,2|0,0:0|0:0,0:0:0:0:
432,39,18309,2,0,B|392:31|392:31|353:38,1,80,8|0,0:0|0:0,0:0:0:0:
262,7,18634,5,2,0:0:0:0:
192,72,18796,2,0,L|99:105,1,80,0|8,0:0|0:0,0:0:0:0:
184,168,19120,2,0,L|121:243,1,80,0|2,0:0|0:0,0:0:0:0:
225,255,19444,2,0,L|207:351,1,80,0|8,0:0|0:0,0:0:0:0:
305,311,19769,1,0,0:0:0:0:
389,264,19931,6,0,P|429:255|468:263,1,80,2|0,0:0|0:0,0:0:0:0:
466,358,20255,2,0,P|426:367|387:359,1,80,8|0,0:0|0:0,0:0:0:0:
305,311,20580,1,2,0:0:0:0:
211,333,20742,1,0,0:0:0:0:
118,311,20904,2,0,B|111:271|111:271|118:232,1,80,8|0,0:0|0:0,0:0:0:0:
168,147,21228,6,0,B|285:122|285:122|326:136,1,160,2|8,0:0|0:0,0:0:0:0:
408,179,21715,1,0,0:0:0:0:
402,80,21877,1,2,0:0:0:0:
323,135,22039,2,0,P|312:172|318:211,1,80,0|8,0:0|0:0,0:0:0:0:
274,296,22363,6,0,P|312:306|351:300,1,80,0|2,0:0|0:0,0:0:0:0:
434,345,22688,2,0,P|444:306|438:267,1,80,0|8,0:0|0:0,0:0:0:0:
484,184,23012,2,0,P|445:173|406:179,1,80,0|2,0:0|0:0,0:0:0:0:
319,212,23336,1,0,0:0:0:0:
336,117,23499,1,8,0:0:0:0:
225,208,23661,6,0,B|141:209|162:151|78:153,1,160,6|2,0:0|0:0,0:0:0:0:
218,113,24147,2,0,P|233:77|233:37,1,80,8|2,0:0|0:0,0:0:0:0:
314,174,24471,2,0,P|350:159|378:131,1,80,8|2,0:0|0:0,0:0:0:0:
283,282,24796,2,0,P|318:297|358:297,1,80,8|2,0:0|0:0,0:0:0:0:
481,159,25120,6,0,B|482:117|482:117|471:80,1,80,6|0,0:0|0:0,0:0:0:0:
378,130,25444,1,8,0:0:0:0:
436,297,25607,1,6,0:0:0:0:
436,297,25931,6,0,P|398:288|359:296,1,80,14|2,0:0|0:0,0:0:0:0:
327,321,26174,1,2,0:0:0:0:
291,338,26255,1,2,0:0:0:0:
251,343,26336,1,2,0:0:0:0:
212,335,26417,6,0,P|153:344|169:254,1,160,6|8,0:0|0:0,0:0:0:0:
100,179,26904,2,0,L|88:91,1,80,0|2,0:0|0:0,0:0:0:0:
186,99,27228,2,0,L|196:177,1,80,0|8,0:0|0:0,0:0:0:0:
285,216,27553,6,0,P|323:224|362:216,1,80,0|2,0:0|0:0,0:0:0:0:
401,128,27877,2,0,P|362:120|323:128,1,80,0|8,0:0|0:0,0:0:0:0:
235,91,28201,1,0,0:0:0:0:
196,179,28363,2,0,B|189:218|189:218|197:258,1,80,2|0,0:0|0:0,0:0:0:0:
290,282,28688,2,4,B|297:321|297:321|289:361,1,80,8|0,0:0|0:0,0:0:0:0:
193,353,29012,6,0,L|101:336,1,80,2|0,0:0|0:0,0:0:0:0:
62,258,29336,1,8,0:0:0:0:
110,175,29498,2,0,P|118:135|109:96,1,80,0|2,0:0|0:0,0:0:0:0:
202,83,29823,2,0,P|234:61|255:27,1,80,0|8,0:0|0:0,0:0:0:0:
347,56,30147,1,0,0:0:0:0:
426,108,30309,6,0,B|432:144|432:144|438:147|438:147|447:203,1,80,2|0,0:0|0:0,0:0:0:0:
340,151,30634,2,0,B|339:187|339:187|345:191|345:191|344:248,1,80,8|0,0:0|0:0,0:0:0:0:
254,194,30958,2,0,B|253:230|253:230|259:234|259:234|258:291,1,80,2|0,0:0|0:0,0:0:0:0:
168,237,31282,2,0,B|161:272|161:272|165:277|165:277|155:333,1,80,8|0,0:0|0:0,0:0:0:0:
254,366,31607,6,0,B|332:354|332:354|398:308,1,160,2|8,0:0|0:0,0:0:0:0:
462,237,32093,2,4,B|454:197|454:197|461:158,1,80,0|2,0:0|0:0,0:0:0:0:
405,80,32417,2,8,B|366:87|366:87|326:79,1,80,0|8,0:0|0:0,0:0:0:0:
254,14,32742,6,0,P|213:14|177:30,1,80,0|2,0:0|0:0,0:0:0:0:
88,60,33066,2,0,P|107:94|139:117,1,80,0|8,0:0|0:0,0:0:0:0:
212,181,33390,2,0,P|231:146|235:107,1,80,0|2,0:0|0:0,0:0:0:0:
178,30,33715,1,8,0:0:0:0:
139,117,33877,1,8,0:0:0:0:
327,78,34039,6,0,P|384:69|378:157,1,160,6|2,0:0|0:0,0:0:0:0:
305,237,34526,2,8,B|297:277|297:277|304:316,1,80,8|2,0:0|0:0,0:0:0:0:
192,273,34850,2,8,B|199:234|199:234|191:194,1,80,8|2,0:0|0:0,0:0:0:0:
80,155,35174,2,8,B|72:195|72:195|79:234,1,80,8|2,0:0|0:0,0:0:0:0:
164,369,35499,6,0,P|206:372|289:297,1,160,6|8,0:0|0:0,0:0:0:0:
239,128,35985,2,0,B|224:84|249:52|249:52|283:34|328:54,1,160,6|2,0:0|0:0,0:0:0:0:
437,98,36471,1,2,0:0:0:0:
449,138,36553,1,2,0:0:0:0:
461,176,36634,1,2,0:0:0:0:
472,214,36715,1,2,0:0:0:0:
484,252,36796,6,0,B|495:310|495:310|484:369,1,120.000004577637,6|8,0:0|0:0,0:0:0:0:
405,370,37282,1,2,0:0:0:0:
351,313,37444,2,0,L|351:253,1,60.0000022888184,0|10,0:0|0:0,0:0:0:0:
297,196,37769,1,8,0:0:0:0:
244,253,37931,6,0,L|244:313,1,60.0000022888184,2|8,0:0|0:0,0:0:0:0:
166,313,38255,2,0,L|166:253,1,60.0000022888184,2|8,0:0|0:0,0:0:0:0:
111,196,38580,1,2,0:0:0:0:
111,196,38742,2,0,L|111:136,1,60.0000022888184,0|8,0:0|0:0,0:0:0:0:
173,88,39066,2,0,L|261:88,1,60.0000022888184,8|0,0:0|0:0,0:0:0:0:
296,134,39390,6,0,B|355:145|355:145|429:131,1,120.000004577637,2|8,0:0|0:0,0:0:0:0:
492,134,39877,1,2,0:0:0:0:
492,134,40039,2,0,L|492:210,1,60.0000022888184,2|8,0:0|0:0,0:0:0:0:
456,263,40363,1,8,0:0:0:0:
414,329,40526,6,0,L|338:329,1,60.0000022888184,2|0,0:0|0:0,0:0:0:0:
287,288,40850,1,2,0:0:0:0:
221,329,41012,1,8,0:0:0:0:
154,288,41174,2,0,L|154:212,1,60.0000022888184,2|0,0:0|0:0,0:0:0:0:
220,187,41499,1,8,0:0:0:0:
286,146,41661,1,8,0:0:0:0:
352,105,41823,1,8,0:0:0:0:
218,109,41985,6,0,B|157:108|157:108|88:80,1,120.000004577637,6|8,0:0|0:0,0:0:0:0:
27,109,42471,1,2,0:0:0:0:
27,109,42634,2,0,L|27:181,1,60.0000022888184,0|8,0:0|0:0,0:0:0:0:
70,234,42958,1,8,0:0:0:0:
119,294,43120,6,0,L|119:366,1,60.0000022888184,2|8,0:0|0:0,0:0:0:0:
196,354,43444,2,0,L|196:294,1,60.0000022888184,2|8,0:0|0:0,0:0:0:0:
247,235,43769,1,2,0:0:0:0:
247,235,43931,2,0,L|307:235,1,60.0000022888184,0|8,0:0|0:0,0:0:0:0:
351,170,44255,2,0,L|411:170,1,60.0000022888184,8|0,0:0|0:0,0:0:0:0:
439,323,44580,6,0,P|452:290|452:254,1,71.9999978027344,14|2,0:0|0:0,0:0:0:0:
393,78,44904,1,8,0:0:0:0:
411,170,45066,1,2,0:0:0:0:
287,262,45228,2,0,L|358:250,1,71.9999978027344,8|2,0:0|0:0,0:0:0:0:
314,100,45553,2,0,L|243:112,1,71.9999978027344,8|2,0:0|0:0,0:0:0:0:
176,228,45877,5,8,0:0:0:0:
194,320,46039,1,2,0:0:0:0:
255,182,46201,2,0,B|255:146|255:146|237:98,1,71.9999978027344,8|2,0:0|0:0,0:0:0:0:
61,63,46526,2,0,L|132:75,1,71.9999978027344,8|2,0:0|0:0,0:0:0:0:
176,228,46850,2,0,L|105:240,1,71.9999978027344,8|2,0:0|0:0,0:0:0:0:
242,112,47174,6,0,B|248:148|248:148|253:153|253:153|261:198,1,80,8|2,0:0|0:0,0:0:0:0:
295,361,47499,1,8,0:0:0:0:
313,269,47661,1,2,0:0:0:0:
460,330,47823,2,0,L|475:244,1,80,8|2,0:0|0:0,0:0:0:0:
422,89,48147,2,0,L|437:174,1,80,8|2,0:0|0:0,0:0:0:0:
281,297,48471,5,8,0:0:0:0:
176,169,48633,1,2,0:0:0:0:
338,141,48796,1,8,0:0:0:0:
192,264,48958,1,2,0:0:0:0:
248,108,49120,1,8,0:0:0:0:
355,236,49282,1,2,0:0:0:0:
176,169,49444,1,8,0:0:0:0:
418,317,49769,5,6,0:0:0:0:
497,178,49931,1,6,0:0:0:0:
356,247,50255,5,6,0:0:0:0:
383,78,50417,1,6,0:0:0:0:
418,317,50742,5,6,0:0:0:0:
383,78,50904,1,6,0:0:0:0:
356,247,51228,5,6,0:0:0:0:
383,78,51390,1,6,0:0:0:0:
293,113,51553,1,0,0:0:0:0:
208,68,51715,2,0,P|121:100|98:172,1,160,10|14,0:0|0:0,0:0:0:0:
105,196,52120,1,8,0:0:0:0:
124,230,52201,1,8,0:0:0:0:
157,251,52282,1,8,0:0:0:0:
198,260,52363,6,0,B|240:264|278:231|278:231|297:189|343:175,1,176.000005371094,6|8,0:0|0:0,0:0:0:0:
364,62,52850,2,0,P|319:59|280:78,1,88.000002685547,0|2,0:0|0:0,0:0:0:0:
204,4,53174,2,0,P|180:40|175:85,1,88.000002685547,0|8,0:0|0:0,0:0:0:0:
74,113,53499,6,0,P|94:151|129:178,1,88.000002685547,0|2,0:0|0:0,0:0:0:0:
104,279,53823,2,0,P|147:279|187:262,1,88.000002685547,0|8,0:0|0:0,0:0:0:0:
239,170,54147,1,0,0:0:0:0:
339,201,54309,2,0,B|440:184,1,88.000002685547,2|0,0:0|0:0,0:0:0:0:
437,50,54634,2,0,P|396:65|366:97,1,88.000002685547,8|0,0:0|0:0,0:0:0:0:
399,290,54958,6,0,B|354:297|354:297|272:270|272:270|206:282,1,176.000005371094,2|8,0:0|0:0,0:0:0:0:
127,308,55444,2,0,L|40:292,2,88.000002685547,0|2|0,0:0|0:0|0:0,0:0:0:0:
202,382,55931,1,8,0:0:0:0:
153,204,56093,6,0,P|163:118|248:67,1,176.000005371094,6|2,0:0|0:0,0:0:0:0:
323,123,56580,2,0,P|293:155|253:172,1,88.000002685547,8|2,0:0|0:0,0:0:0:0:
232,69,56904,1,0,0:0:0:0:
324,16,57066,1,2,0:0:0:0:
414,70,57228,2,0,B|457:71|457:71|498:54,1,88.000002685547,8|2,0:0|0:0,0:0:0:0:
397,199,57553,6,0,B|360:278|360:278|369:389,1,176.000005371094,6|8,0:0|0:0,0:0:0:0:
264,341,58039,2,0,P|247:300|251:257,1,88.000002685547,0|2,0:0|0:0,0:0:0:0:
155,210,58363,2,0,P|181:175|222:155,1,88.000002685547,0|8,0:0|0:0,0:0:0:0:
213,51,58688,6,0,P|256:57|294:81,1,88.000002685547,0|2,0:0|0:0,0:0:0:0:
379,23,59012,2,0,P|394:64|392:107,1,88.000002685547,0|8,0:0|0:0,0:0:0:0:
486,152,59336,2,0,P|458:186|419:206,1,88.000002685547,0|2,0:0|0:0,0:0:0:0:
427,309,59661,2,0,P|383:302|347:278,1,88.000002685547,0|8,0:0|0:0,0:0:0:0:
317,177,59985,1,0,0:0:0:0:
144,213,60147,6,0,P|82:150|150:109,2,176.000005371094,2|8|2,0:0|0:0|0:0,0:0:0:0:
230,152,60958,1,0,0:0:0:0:
240,257,61120,1,8,0:0:0:0:
115,367,61282,6,0,P|96:283|158:206,1,176.000005371094,6|2,0:0|0:0,0:0:0:0:
230,152,61769,1,8,0:0:0:0:
198,51,61931,1,8,0:0:0:0:
92,50,62093,1,0,0:0:0:0:
58,150,62255,1,2,0:0:0:0:
145,213,62417,1,8,0:0:0:0:
173,245,62499,1,8,0:0:0:0:
186,286,62580,1,10,0:0:0:0:
181,330,62661,1,8,0:0:0:0:
160,367,62742,6,0,B|197:386|245:372|245:372|281:341|329:348,2,176.000005371094,6|8|2,0:0|0:0|0:0,0:0:0:0:
86,301,63553,2,0,L|-4:285,1,88.000002685547,0|8,0:0|0:0,0:0:0:0:
58,197,63877,2,0,L|148:212,2,88.000002685547,0|2|0,0:0|0:0|0:0,0:0:0:0:
14,101,64363,2,0,P|10:57|29:18,1,88.000002685547,8|0,0:0|0:0,0:0:0:0:
118,76,64688,2,0,P|161:79|200:60,1,88.000002685547,2|0,0:0|0:0,0:0:0:0:
288,2,65012,2,0,B|285:46|285:46|304:92,1,88.000002685547,8|0,0:0|0:0,0:0:0:0:
341,257,65336,6,0,B|297:264|297:264|215:237|215:237|171:245,1,176.000005371094,2|8,0:0|0:0,0:0:0:0:
82,304,65823,2,0,B|84:259|84:259|68:220,1,88.000002685547,0|2,0:0|0:0,0:0:0:0:
30,121,66147,1,2,0:0:0:0:
78,27,66309,1,8,0:0:0:0:
213,141,66471,6,0,P|297:155|371:89,1,176.000005371094,6|2,0:0|0:0,0:0:0:0:
461,146,66958,2,0,P|470:188|460:231,1,88.000002685547,8|2,0:0|0:0,0:0:0:0:
418,327,67282,1,0,0:0:0:0:
356,241,67444,1,2,0:0:0:0:
295,327,67607,2,0,B|252:337|252:337|203:326,1,88.000002685547,8|2,0:0|0:0,0:0:0:0:
89,198,67931,6,0,B|174:176|174:176|281:204,1,176.000005371094,6|8,0:0|0:0,0:0:0:0:
349,144,68417,2,0,L|361:51,2,88.000002685547,0|2|0,0:0|0:0|0:0,0:0:0:0:
248,111,68904,2,0,L|259:198,1,88.000002685547,8|0,0:0|0:0,0:0:0:0:
270,303,69228,6,0,P|191:337|113:302,1,176.000005371094,2|8,0:0|0:0,0:0:0:0:
51,216,69715,1,0,0:0:0:0:
8,312,69877,2,0,P|19:354|48:387,1,88.000002685547,2|2,0:0|0:0,0:0:0:0:
113,302,70201,2,0,P|143:270|156:228,1,88.000002685547,8|0,0:0|0:0,0:0:0:0:
116,55,70526,6,0,B|151:32|200:42|200:42|238:70|285:59,1,176.000005371094,6|8,0:0|0:0,0:0:0:0:
384,93,71012,2,0,B|391:50|391:50|375:2,2,88.000002685547,0|2|0,0:0|0:0|0:0,0:0:0:0:
359,196,71499,2,0,B|315:190|315:190|273:203,1,88.000002685547,8|0,0:0|0:0,0:0:0:0:
120,246,71823,6,0,P|101:170|179:157,1,176.000005371094,6|8,0:0|0:0,0:0:0:0:
330,294,72309,2,0,P|351:218|274:204,1,176.000005371094,6|8,0:0|0:0,0:0:0:0:
120,246,72796,1,2,0:0:0:0:
88,215,72877,1,2,0:0:0:0:
72,174,72958,1,2,0:0:0:0:
74,131,73039,1,2,0:0:0:0:
93,92,73120,5,6,0:0:0:0:
256,192,73201,12,2,75715,0:0:0:0:
418,90,76039,6,0,B|337:103|337:103|260:90,1,160,8|2,0:0|0:0,0:0:0:0:
173,48,76526,2,0,B|134:40|134:40|94:47,1,80,8|8,0:0|0:0,0:0:0:0:
13,184,76850,6,0,L|21:264,1,80,4|2,0:2|0:0,0:0:0:0:
33,357,77174,1,0,0:0:0:0:
128,374,77336,1,8,0:0:0:0:
174,288,77499,1,0,0:0:0:0:
105,218,77661,2,0,P|106:179|125:144,1,80,2|8,0:0|0:0,0:0:0:0:
215,111,77985,1,2,0:0:0:0:
305,144,78147,1,8,0:0:0:0:
414,27,78309,6,0,B|385:104|446:104|416:183,2,160,6|8|0,0:0|0:0|0:0,0:0:0:0:
318,36,79120,2,0,L|237:44,1,80,8|8,0:0|0:0,0:0:0:0:
91,106,79444,6,0,B|131:102|131:102|169:113,1,80,4|2,0:2|0:0,0:0:0:0:
231,188,79769,2,0,B|190:191|190:191|154:209,1,80,0|8,0:0|0:0,0:0:0:0:
108,293,80093,2,0,B|148:289|148:289|186:300,1,80,0|2,0:0|0:0,0:0:0:0:
271,345,80417,1,8,0:0:0:0:
352,293,80580,1,10,0:0:0:0:
231,188,80742,1,4,0:2:0:0:
308,45,80904,6,0,B|348:45|348:45|420:79|420:79|472:79,2,160,6|0|0,0:0|0:0|0:0,0:0:0:0:
234,110,81715,2,0,P|224:148|230:187,1,80
320,153,82039,6,0,P|315:230|255:279,1,160
162,254,82526,2,0,P|159:294|174:331,1,80
230,187,82850,5,10,0:0:0:0:
74,225,83012,1,2,0:0:0:0:
181,107,83174,1,8,0:0:0:0:
174,330,83336,1,6,0:0:0:0:
