osu file format v14

[General]
AudioFilename: Kita Shuuhei - Mirai mo Kimi no Te no Naka de (TV Size).mp3
AudioLeadIn: 0
PreviewTime: 46776
Countdown: 0
SampleSet: Soft
StackLeniency: 0.2
Mode: 0
LetterboxInBreaks: 0
WidescreenStoryboard: 1

[Editor]
DistanceSpacing: 1.2
BeatDivisor: 4
GridSize: 32
TimelineZoom: 1.9

[Metadata]
Title:Mirai mo Kimi no Te no Naka de (TV Size)
TitleUnicode:未来もキミの手の中で (TV Size)
Artist:Kita Shuuhei
ArtistUnicode:喜多修平
Creator:Kyouren
Version:Affection
Source:世界一初恋~プロポーズ編~
Tags:Sekaiichi Sekai Ichi Hatsukoi Propose hen propose-hen world worlds greatest first love the future is also in your hand hands theme song Anime Movie OVA original video animation Japanese JP ED Ending J-Rock JRock Rock J-Pop JPop Pop Male vocalist Vocal Vocals yaoi bl boys boy love shounen ai gay drama romance gokugohan12468 KittyAdventure rew0825 [_lost_] conner c_o_n_n_e_r sarawatlism -_ascended_- -ascended- ascended addy2607 kaedeharakazuha kaedehara kazuha arronchu1207 chu 宮崎 誠 Makoto Miyazaki (K)NoW_NAME know name know_name knowname こだま さおり Saori Codama Kodama homosexual gay lgbt lgbtqia+ pride ボーイズ ラブ ビーエル やおい 少年愛 shōnen-ai shounen-ai japan short version
BeatmapID:3919436
BeatmapSetID:1898592

[Difficulty]
HPDrainRate:5.4
CircleSize:4.3
OverallDifficulty:8.8
ApproachRate:9
SliderMultiplier:1.73
SliderTickRate:1

[Events]
//Background and Video events
Video,-440,"Kita Shuuhei - Mirai mo Kimi no Te no Naka de (TV Size).m4v"
0,0,"BG1.jpg",0,0
//Break Periods
//Storyboard Layer 0 (Background)
//Storyboard Layer 1 (Fail)
//Storyboard Layer 2 (Pass)
//Storyboard Layer 3 (Foreground)
//Storyboard Layer 4 (Overlay)
//Storyboard Sound Samples

[TimingPoints]
301,327.868852459016,4,2,10,55,1,0
301,-153.846153846154,4,2,10,55,0,0
464,-153.846153846154,4,2,11,55,0,0
628,-153.846153846154,4,2,12,55,0,0
792,-153.846153846154,4,2,13,55,0,0
1120,-153.846153846154,4,2,14,55,0,0
1448,-153.846153846154,4,2,15,55,0,0
1776,-153.846153846154,4,2,16,55,0,0
1940,-153.846153846154,4,2,11,55,0,0
2104,-153.846153846154,4,2,17,55,0,0
2596,-153.846153846154,4,2,18,55,0,0
2760,-153.846153846154,4,2,19,55,0,0
2923,-153.846153846154,4,2,20,55,0,0
3087,-153.846153846154,4,2,21,55,0,0
3251,-153.846153846154,4,2,22,55,0,0
3415,-153.846153846154,4,2,23,55,0,0
3743,-153.846153846154,4,2,24,55,0,0
3907,-153.846153846154,4,2,25,55,0,0
4071,-400,4,2,26,55,0,0
5382,-400,4,2,1,65,0,0
5546,-117.647058823529,4,2,1,65,0,0
7514,-83.3333333333333,4,2,1,55,0,0
7677,-83.3333333333333,4,2,1,43,0,0
7786,-83.3333333333333,4,2,1,31,0,0
7896,-83.3333333333333,4,2,1,19,0,0
8169,-100,4,2,1,70,0,0
12923,-100,4,2,1,55,0,0
13415,-117.647058823529,4,2,1,55,0,0
23907,-100,4,2,1,60,0,0
31448,-80,4,2,1,60,0,0
31776,-111.111111111111,4,2,1,60,0,0
32104,-100,4,2,1,60,0,0
32432,-90.9090909090909,4,2,1,60,0,0
32760,-83.3333333333333,4,2,1,60,0,0
33087,-76.9230769230769,4,2,1,60,0,0
33415,-71.4285714285714,4,2,1,60,0,0
33743,-66.6666666666667,4,2,1,60,0,0
34071,-80,4,2,1,60,0,0
34235,-68.9655172413793,4,2,1,60,0,0
34399,-117.647058823529,4,2,1,65,0,0
42268,-100,4,2,1,70,0,0
44891,-1000,4,2,1,70,0,0
46202,-83.3333333333333,4,2,1,70,0,0
46858,-1000,4,2,1,55,0,0
47432,-250,4,2,1,55,0,0
47514,-166.666666666667,4,2,1,55,0,0
48169,-125,4,2,1,55,0,0
48825,-90.9090909090909,4,2,1,75,0,1
57841,-76.9230769230769,4,2,1,75,0,1
58169,-90.9090909090909,4,2,1,75,0,1
59317,-117.647058823529,4,2,1,70,0,0
64563,-83.3333333333333,4,2,1,70,0,0
64891,-83.3333333333333,4,2,1,45,0,0
65874,-83.3333333333333,4,2,1,55,0,0
66530,-83.3333333333333,4,2,1,65,0,0
67186,-66.6666666666667,4,2,1,75,0,0
67514,-83.3333333333333,4,2,1,45,0,0
68497,-83.3333333333333,4,2,1,65,0,0
69153,-83.3333333333333,4,2,1,75,0,0
69481,-83.3333333333333,4,2,1,55,0,0
69809,-153.846153846153,4,2,1,75,0,0
70464,-66.6666666666667,4,2,1,55,0,0
70546,-66.6666666666667,4,2,1,43,0,0
70628,-66.6666666666667,4,2,1,31,0,0
70710,-66.6666666666667,4,2,1,19,0,0
71120,-76.9230769230769,4,2,1,75,0,0
72432,-83.3333333333333,4,2,1,70,0,0
77350,-250,4,2,1,70,0,0
77678,-83.3333333333333,4,2,1,70,0,0
81448,-231.21387283237,4,2,1,70,0,0
81530,-231.21387283237,4,2,1,30,0,0
86776,-231.21387283237,4,2,1,20,0,0

[Colours]
Combo1 : 240,150,150
Combo2 : 130,120,120
Combo3 : 175,150,125
Combo4 : 180,70,75

[HitObjects]
150,220,301,5,2,0:0:0:0:
155,141,464,1,2,0:0:0:0:
210,84,628,1,2,0:0:0:0:
288,76,792,1,2,0:0:0:0:
353,120,1120,5,2,0:0:0:0:
375,196,1448,5,2,0:0:0:0:
343,268,1776,5,2,0:0:0:0:
272,302,1940,1,2,0:0:0:0:
196,283,2104,1,2,0:0:0:0:
196,283,2596,5,2,0:0:0:0:
272,302,2760,1,2,0:0:0:0:
343,268,2923,1,2,0:0:0:0:
375,196,3087,1,2,0:0:0:0:
353,120,3251,1,2,0:0:0:0:
288,76,3415,1,2,0:0:0:0:
210,84,3743,5,2,0:0:0:0:
155,141,3907,1,2,0:0:0:0:
150,220,4071,6,0,B|78:213|93:173|12:164,1,151.375,2|0,0:0|0:0,0:0:0:0:
288,76,5382,5,0,1:2:0:0:
283,87,5464,1,0,1:2:0:0:
285,100,5546,2,0,P|215:96|192:30,1,147.050002804756,12|0,1:2|1:2,0:0:0:0:
428,192,6038,5,12,0:0:0:0:
450,275,6202,1,0,1:2:0:0:
225,310,6366,2,0,B|302:300|282:263|358:254,1,147.050002804756,12|0,0:0|1:2,0:0:0:0:
358,253,6776,1,0,1:2:0:0:
358,253,6858,5,8,0:0:0:0:
307,323,7022,1,8,0:0:0:0:
225,310,7186,1,8,2:3:0:0:
200,230,7350,1,0,1:2:0:0:
250,160,7514,6,0,L|284:155,9,34.5999989440918,10|2|2|2|2|2|2|2|2|2,0:0|0:0|0:0|0:0|0:0|0:0|0:0|0:0|0:0|0:0,0:0:0:0:
340,95,8169,6,0,B|438:107|404:150|495:163,1,173,6|8,1:2|0:0,0:0:0:0:
307,323,8661,1,2,0:0:0:0:
358,254,8825,2,0,P|399:264|441:276,1,86.5,0|2,1:2|0:0,0:0:0:0:
200,230,9153,1,8,0:0:0:0:
340,95,9317,1,2,0:0:0:0:
285,35,9481,6,0,B|217:42|237:76|169:85,1,129.75,0|0,1:2|0:0,0:0:0:0:
115,145,9809,2,0,P|87:112|91:70,1,86.5,10|0,0:0|0:0,0:0:0:0:
200,230,10137,2,0,P|137:225|91:268,1,129.75,2|0,1:2|0:0,0:0:0:0:
80,270,10464,2,0,P|70:311|88:350,1,86.5,10|0,0:0|0:0,0:0:0:0:
307,323,10792,5,10,0:0:0:0:
375,280,10956,2,0,P|380:258|386:238,1,43.25,10|0,2:3|0:0,0:0:0:0:
285,35,11284,2,0,P|290:55|296:76,1,43.25,6|0,1:2|0:0,0:0:0:0:
465,235,11612,2,0,P|470:214|476:193,1,43.25,6|0,1:2|0:0,0:0:0:0:
450,10,11940,6,0,P|407:20|366:32,1,86.5,14|0,1:2|0:0,0:0:0:0:
180,235,12268,1,8,0:0:0:0:
120,185,12432,1,10,2:3:0:0:
160,115,12596,1,2,1:2:0:0:
370,205,12760,1,4,1:2:0:0:
255,365,12923,5,10,0:0:0:0:
271,333,13005,1,8,0:0:0:0:
297,308,13087,1,10,0:0:0:0:
330,294,13169,1,8,0:0:0:0:
366,292,13251,1,8,0:0:0:0:
400,303,13333,1,8,0:0:0:0:
428,324,13415,6,0,P|464:329|500:338,1,73.5250014023781,6|0,1:2|0:0,0:0:0:0:
370,205,13743,2,0,P|375:168|384:132,1,73.5250014023781,2|0,1:2|0:0,0:0:0:0:
330,60,14071,2,0,P|278:109|208:102,1,147.050002804756,2|2,1:2|1:2,0:0:0:0:
150,45,14563,1,2,0:0:0:0:
5,190,14727,6,0,P|40:199|67:223,1,73.5250014023781,2|2,1:2|0:0,0:0:0:0:
140,190,15055,2,0,P|176:251|161:321,1,147.050002804756,2|0,1:2|1:2,0:0:0:0:
225,365,15546,1,0,0:0:0:0:
300,340,15710,2,0,P|335:332|359:304,1,73.5250014023781,0|2,1:2|0:0,0:0:0:0:
510,190,16038,6,0,B|434:180|460:142|379:128,1,147.050002804756,2|2,1:2|1:2,0:0:0:0:
315,80,16530,2,0,P|292:108|260:124,1,73.5250014023781,2|0,0:0|1:2,0:0:0:0:
295,260,16858,2,0,P|304:224|312:188,1,73.5250014023781,2|2,0:0|1:2,0:0:0:0:
205,195,17186,5,2,0:0:0:0:
205,195,17268,1,2,0:0:0:0:
205,195,17350,2,0,P|153:145|82:151,1,147.050002804756,2|2,1:2|1:2,0:0:0:0:
15,195,17841,1,0,0:0:0:0:
60,260,18005,2,0,P|52:295|43:331,1,73.5250014023781,0|0,1:2|0:0,0:0:0:0:
205,195,18333,2,0,P|213:230|221:266,1,73.5250014023781,0|4,1:2|0:0,0:0:0:0:
190,340,18661,6,0,P|244:293|315:302,1,147.050002804756,4|2,1:2|1:2,0:0:0:0:
495,235,19153,1,2,0:0:0:0:
475,155,19317,1,2,1:2:0:0:
415,215,19481,1,2,0:0:0:0:
280,130,19645,1,2,1:2:0:0:
420,50,19809,1,2,0:0:0:0:
325,5,19973,6,0,P|347:75|363:146,2,147.050002804756,2|2|2,1:2|1:2|1:2,0:0:0:0:
50,250,20956,1,2,1:2:0:0:
0,190,21120,1,2,0:0:0:0:
65,135,21284,6,0,P|136:151|207:171,1,147.050002804756,2|0,1:2|1:2,0:0:0:0:
390,50,21776,1,2,0:0:0:0:
320,0,21940,2,0,P|300:70|283:142,1,147.050002804756,2|0,1:2|1:2,0:0:0:0:
320,210,22432,5,2,0:0:0:0:
325,215,22514,1,2,0:0:0:0:
330,220,22596,2,0,B|413:227|385:259|467:265,1,147.050002804756,2|0,1:2|1:2,0:0:0:0:
270,350,23087,2,0,P|265:313|260:277,1,73.5250014023781,14|2,0:0|1:2,0:0:0:0:
345,305,23415,1,8,2:3:0:0:
160,190,23579,1,8,1:3:0:0:
227,137,23743,5,2,1:2:0:0:
227,137,23825,1,2,1:2:0:0:
227,137,23907,2,0,P|233:94|239:51,1,86.5,6|0,1:2|0:0,0:0:0:0:
160,190,24235,2,0,P|117:196|74:202,1,86.5,0|2,1:2|0:0,0:0:0:0:
315,65,24563,2,0,P|309:108|303:151,1,86.5,0|0,1:2|0:0,0:0:0:0:
270,350,24891,1,2,1:2:0:0:
258,264,25055,1,2,0:0:0:0:
330,230,25219,6,0,P|373:236|416:242,1,86.5,0|0,1:2|0:0,0:0:0:0:
470,300,25546,1,0,1:2:0:0:
303,150,25710,1,8,0:0:0:0:
258,264,25874,1,0,1:2:0:0:
190,215,26038,1,8,2:3:0:0:
330,230,26202,1,8,1:3:0:0:
155,285,26366,5,2,1:2:0:0:
160,290,26448,1,2,1:2:0:0:
155,295,26530,2,0,P|75:278|69:198,1,173,6|0,1:2|1:2,0:0:0:0:
192,70,27022,1,2,0:0:0:0:
266,33,27186,2,0,P|286:85|272:120,1,86.5,0|0,1:2|0:0,0:0:0:0:
190,215,27514,1,2,1:2:0:0:
120,30,27678,1,2,0:0:0:0:
192,70,27841,6,0,P|127:77|64:93,1,129.75,0|0,1:2|0:0,0:0:0:0:
50,85,28169,1,8,1:2:0:0:
258,264,28415,1,0,1:0:0:0:
260,250,28497,1,8,1:2:0:0:
320,195,28661,1,8,2:3:0:0:
405,205,28825,1,8,1:3:0:0:
460,270,28989,1,4,2:3:0:0:
435,350,29153,6,0,B|360:312|342:381|269:370,1,173,6|2,1:2|1:2,0:0:0:0:
165,225,29645,1,2,0:0:0:0:
320,195,29809,2,0,P|277:185|235:174,1,86.5,2|2,1:2|0:0,0:0:0:0:
120,30,30137,2,0,P|58:37|39:96,1,129.75,2|0,1:2|0:0,0:0:0:0:
30,105,30464,6,0,P|44:144|83:157,1,86.5,2|0,1:2|0:0,0:0:0:0:
255,0,30792,2,0,P|247:42|242:85,1,86.5,2|0,1:2|0:0,0:0:0:0:
165,225,31120,2,0,P|172:267|177:310,1,86.5,2|0,1:2|0:0,0:0:0:0:
236,174,31448,2,0,P|316:180|396:196,1,162.1875,10|0,1:2|0:0,0:0:0:0:
470,160,31776,6,0,P|478:104|437:66,1,116.77499643631,6|0,1:2|0:0,0:0:0:0:
362,41,32104,6,0,B|294:47|309:78|243:85,1,129.75,4|0,1:2|0:0,0:0:0:0:
175,40,32432,6,0,P|126:89|56:89,1,142.725004355621,6|0,1:2|0:0,0:0:0:0:
5,25,32760,6,0,P|27:99|37:176,1,155.699995248413,4|0,1:2|0:0,0:0:0:0:
25,265,33087,6,0,B|116:252|80:205|173:193,1,168.674992278672,12|0,1:2|0:0,0:0:0:0:
250,165,33415,6,0,B|349:177|310:228|408:242,1,181.649994456482,12|0,1:2|0:0,0:0:0:0:
475,190,33743,6,0,B|522:146|485:91|425:89|405:138|405:138|406:150|401:158,1,194.625007424355,12|0,1:2|0:0,0:0:0:0:
295,280,34071,6,0,P|299:306|304:333,1,54.0625,10|0,1:2|0:0,0:0:0:0:
220,260,34235,6,0,L|160:280,1,62.7125019138337,8|0,0:0|0:0,0:0:0:0:
95,235,34399,6,0,B|86:160|54:170|48:96,1,147.050002804756,6|2,1:2|1:2,0:0:0:0:
105,45,34891,1,2,0:0:0:0:
225,85,35055,2,0,P|215:120|205:155,1,73.5250014023781,8|2,0:0|1:2,0:0:0:0:
280,180,35382,2,0,P|289:144|299:109,1,73.5250014023781,2|0,1:2|0:0,0:0:0:0:
500,60,35710,5,0,1:2:0:0:
440,5,35874,1,8,0:0:0:0:
370,50,36038,2,0,P|379:85|389:120,1,73.5250014023781,2|0,1:2|0:0,0:0:0:0:
450,215,36366,2,0,P|459:179|469:144,1,73.5250014023781,10|0,0:0|1:2,0:0:0:0:
280,180,36694,2,0,P|289:215|299:250,1,73.5250014023781,2|0,1:2|0:0,0:0:0:0:
380,280,37022,6,0,P|310:294|279:358,1,147.050002804756,2|2,1:2|1:2,0:0:0:0:
98,237,37514,1,2,0:0:0:0:
150,295,37678,2,0,P|185:292|209:265,1,73.5250014023781,8|2,0:0|1:2,0:0:0:0:
180,110,38005,2,0,P|125:117|72:132,1,110.287502103567,2|0,1:2|0:0,0:0:0:0:
10,85,38333,6,0,P|3:48|1:12,1,73.5250014023781,0|8,1:2|0:0,0:0:0:0:
255,75,38661,2,0,P|265:128|265:184,1,110.287502103567,0|0,1:2|0:0,0:0:0:0:
265,184,38989,1,8,0:0:0:0:
460,130,39153,1,8,0:0:0:0:
440,220,39317,1,10,2:3:0:0:
350,245,39481,1,6,2:3:0:0:
255,75,39645,6,0,B|326:81|320:35|395:44,1,147.050002804756,6|2,1:2|1:2,0:0:0:0:
195,15,40137,1,2,0:0:0:0:
135,65,40300,2,0,P|124:100|112:135,1,73.5250014023781,8|0,0:0|1:2,0:0:0:0:
350,245,40628,2,0,P|340:209|328:174,1,73.5250014023781,2|2,1:2|0:0,0:0:0:0:
328,175,40956,5,2,1:2:0:0:
135,215,41120,1,8,0:0:0:0:
260,370,41284,2,0,P|271:335|281:299,1,73.5250014023781,2|10,1:2|0:0,0:0:0:0:
281,299,41530,5,10,0:0:0:0:
281,299,41612,1,8,0:0:0:0:
225,140,41776,1,4,1:3:0:0:
185,305,41940,1,12,0:0:0:0:
328,175,42104,6,0,L|364:181,1,36.7625007011891,2|2,1:2|1:2,0:0:0:0:
434,138,42268,5,14,0:0:0:0:
397,13,42432,1,0,1:2:0:0:
434,138,42596,1,0,1:2:0:0:
225,140,42760,5,14,0:0:0:0:
360,90,42923,1,0,1:2:0:0:
260,10,43087,1,0,1:2:0:0:
0,190,43251,5,14,0:0:0:0:
80,215,43415,1,0,1:2:0:0:
155,255,43579,1,0,1:2:0:0:
320,370,43743,5,8,2:3:0:0:
400,350,43907,1,0,1:2:0:0:
380,270,44071,1,0,1:2:0:0:
260,10,44235,6,0,P|254:52|247:95,1,86.5,4|4,2:3|2:3,0:0:0:0:
230,355,44563,2,0,P|238:290|247:226,1,129.75,8|0,0:0|0:0,0:0:0:0:
200,160,44891,6,0,L|136:171,1,64.875,6|0,1:2|0:0,0:0:0:0:
75,120,46202,5,8,0:0:0:0:
380,270,46366,6,0,L|389:218,1,51.8999984161377,4|0,1:2|0:0,0:0:0:0:
460,180,46858,6,0,L|497:175,2,34.6,2|2|2,0:0|0:0|0:0,0:0:0:0:
255,25,48825,5,6,1:2:0:0:
310,190,48989,1,2,0:0:0:0:
165,125,49153,1,10,0:0:0:0:
335,55,49317,2,0,P|380:67|427:76,1,95.1500029037476,2|0,0:0|1:2,0:0:0:0:
250,285,49645,2,0,P|236:239|218:195,1,95.1500029037476,2|8,0:0|0:0,0:0:0:0:
465,155,49973,6,0,P|448:199|434:244,1,95.1500029037476,2|0,0:0|1:2,0:0:0:0:
310,190,50300,1,2,0:0:0:0:
195,355,50464,1,10,0:0:0:0:
42,272,50628,1,2,1:2:0:0:
42,272,50710,1,2,1:2:0:0:
42,272,50792,2,0,P|88:280|134:294,1,95.1500029037476,0|0,1:2|0:0,0:0:0:0:
260,115,51120,1,10,0:0:0:0:
97,37,51284,5,2,1:2:0:0:
97,37,51366,1,2,1:2:0:0:
97,37,51448,2,0,P|111:82|119:129,1,95.1500029037476,2|0,1:2|0:0,0:0:0:0:
310,190,51776,2,0,P|327:173|339:153,1,47.5750014518738,8|0,0:0|0:0,0:0:0:0:
410,110,51940,2,0,P|453:129|483:165,1,95.1500029037476,2|0,0:0|1:2,0:0:0:0:
260,370,52268,5,2,0:0:0:0:
330,330,52432,1,10,0:0:0:0:
260,370,52596,6,0,P|237:362|214:356,1,47.5750014518738,2|2,0:0|0:0,0:0:0:0:
165,290,52760,1,0,1:2:0:0:
310,190,52923,1,0,0:0:0:0:
119,129,53087,1,8,0:0:0:0:
220,0,53251,6,0,P|212:46|200:93,1,95.1500029037476,2|0,0:0|1:2,0:0:0:0:
410,110,53579,1,2,0:0:0:0:
310,190,53743,2,0,P|302:143|290:96,1,95.1500029037476,10|2,0:0|1:2,0:0:0:0:
344,34,53989,5,2,1:2:0:0:
344,34,54071,2,0,P|390:23|436:11,1,95.1500029037476,6|2,1:2|0:0,0:0:0:0:
340,280,54399,1,10,0:0:0:0:
310,190,54563,2,0,P|356:201|402:213,1,95.1500029037476,2|0,0:0|1:2,0:0:0:0:
480,190,54891,2,0,P|499:147|490:101,1,95.1500029037476,2|10,0:0|0:0,0:0:0:0:
235,225,55219,6,0,B|240:305|201:286|206:362,1,142.725004355621,2|0,0:0|0:0,0:0:0:0:
285,340,55546,1,2,0:0:0:0:
155,245,55710,1,10,0:0:0:0:
85,275,55874,1,2,0:0:0:0:
30,220,56038,2,0,P|19:173|14:126,1,95.1500029037476,0|0,1:2|0:0,0:0:0:0:
210,15,56366,1,10,0:0:0:0:
142,62,56530,5,2,1:2:0:0:
142,62,56612,1,2,1:2:0:0:
142,62,56694,2,0,B|217:45|217:87|280:81,1,142.725004355621,6|0,1:2|0:0,0:0:0:0:
345,40,57022,1,10,0:0:0:0:
255,195,57186,2,0,P|208:206|163:219,1,95.1500029037476,2|0,0:0|1:2,0:0:0:0:
355,370,57514,6,0,L|360:322,1,47.5750014518738,10|0,0:0|0:0,0:0:0:0:
360,175,57678,2,0,L|354:222,1,47.5750014518738,10|0,2:3|0:0,0:0:0:0:
285,305,57841,6,0,B|374:298|340:245|434:237,1,168.674992278672,6|0,1:2|0:0,0:0:0:0:
480,175,58169,1,0,1:2:0:0:
345,40,58333,1,12,0:0:0:0:
255,195,58497,1,0,1:2:0:0:
115,75,58661,1,8,2:3:0:0:
189,31,58907,5,8,0:0:0:0:
190,40,58989,2,0,L|196:87,1,47.5750014518738,8|0,0:0|0:0,0:0:0:0:
255,195,59153,5,8,0:0:0:0:
236,184,59235,1,8,0:0:0:0:
235,205,59317,2,0,B|161:195|168:242|93:231,1,147.050002804756,6|2,1:2|1:2,0:0:0:0:
290,360,59809,1,2,1:2:0:0:
215,325,59973,1,8,0:0:0:0:
359,218,60137,2,0,P|423:189|430:120,1,147.050002804756,2|8,0:0|0:0,0:0:0:0:
370,70,60628,5,2,1:2:0:0:
236,184,60792,2,0,P|199:179|163:174,1,73.5250014023781,8|2,0:0|1:2,0:0:0:0:
105,120,61120,1,2,1:2:0:0:
35,160,61284,2,0,P|25:232|12:305,1,147.050002804756,8|10,0:0|0:0,0:0:0:0:
236,184,61776,5,6,1:2:0:0:
225,270,61940,2,0,B|299:265|280:224|359:218,1,147.050002804756,6|0,1:2|1:2,0:0:0:0:
510,155,62432,1,0,1:2:0:0:
445,110,62596,2,0,P|409:111|383:136,1,73.5250014023781,10|0,0:0|1:2,0:0:0:0:
430,270,62923,2,0,P|435:233|442:197,1,73.5250014023781,12|2,0:0|0:0,0:0:0:0:
235,180,63251,5,2,1:2:0:0:
359,218,63415,1,8,0:0:0:0:
325,80,63579,1,10,0:0:0:0:
310,155,63743,1,10,0:0:0:0:
100,155,63907,5,8,0:0:0:0:
160,205,64071,1,10,2:3:0:0:
235,180,64235,1,8,2:3:0:0:
250,105,64399,1,4,2:3:0:0:
10,280,64563,6,0,B|98:289|69:332|149:339,1,155.699995248413,6|0,1:2|0:0,0:0:0:0:
215,375,64891,1,8,0:0:0:0:
290,335,65055,1,8,0:0:0:0:
310,245,65219,1,8,0:0:0:0:
235,180,65382,5,8,0:0:0:0:
175,130,65546,1,8,0:0:0:0:
190,55,65710,1,8,0:0:0:0:
275,15,65874,5,8,0:0:0:0:
390,90,66038,1,8,0:0:0:0:
310,245,66202,1,8,0:0:0:0:
162,204,66366,1,8,0:0:0:0:
115,80,66530,5,8,0:0:0:0:
250,105,66694,1,8,0:0:0:0:
310,245,66858,1,8,0:0:0:0:
215,375,67022,1,8,0:0:0:0:
10,280,67186,6,0,B|9:237|56:217|89:222|108:247|89:268|133:285|162:281,1,194.625007424355,14|0,1:2|0:0,0:0:0:0:
161,281,67514,1,8,0:0:0:0:
310,245,67678,1,8,0:0:0:0:
375,285,67841,5,8,0:0:0:0:
510,190,68005,1,8,0:0:0:0:
365,75,68169,1,8,0:0:0:0:
430,230,68333,1,8,0:0:0:0:
365,190,68497,5,8,0:0:0:0:
230,215,68661,1,8,0:0:0:0:
365,75,68825,1,8,0:0:0:0:
510,190,68989,1,8,0:0:0:0:
255,35,69153,5,8,0:0:0:0:
210,15,69262,5,8,0:0:0:0:
170,50,69372,5,8,0:0:0:0:
165,65,69481,5,12,2:3:0:0:
185,100,69590,5,12,2:3:0:0:
145,135,69700,5,12,2:3:0:0:
100,115,69809,6,0,P|197:118|289:152,1,196.787490991784,6|0,1:2|0:0,0:0:0:0:
365,130,70464,6,0,L|369:97,8,32.4375012373925,2|2|2|2|2|2|2|2|2,0:0|0:0|0:0|0:0|0:0|0:0|0:0|0:0|0:0,0:0:0:0:
100,115,71120,5,8,0:0:0:0:
115,195,71284,1,0,1:2:0:0:
40,175,71448,1,12,2:3:0:0:
365,130,71612,6,0,P|392:123|420:118,1,56.2249974262239,8|0,0:0|0:0,0:0:0:0:
255,5,72432,6,0,P|246:56|236:107,1,103.799996832275,14|0,0:0|1:2,0:0:0:0:
385,260,72760,1,8,0:0:0:0:
320,215,72923,2,0,P|271:232|221:246,1,103.799996832275,2|8,0:0|0:0,0:0:0:0:
1,146,73251,2,0,P|50:129|100:115,1,103.799996832275,2|8,1:2|0:0,0:0:0:0:
147,327,73579,5,2,1:2:0:0:
147,327,73661,1,2,1:2:0:0:
147,327,73743,2,0,P|138:276|128:225,1,103.799996832275,8|0,0:0|1:2,0:0:0:0:
345,28,74071,2,0,P|355:80|365:131,1,103.799996832275,10|0,0:0|0:0,0:0:0:0:
320,215,74399,1,10,0:0:0:0:
250,180,74563,1,0,1:2:0:0:
440,120,74727,2,0,P|430:69|420:18,1,103.799996832275,10|2,0:0|1:2,0:0:0:0:
335,20,74973,5,2,1:2:0:0:
345,28,75055,2,0,P|355:80|365:131,1,103.799996832275,14|0,0:0|1:2,0:0:0:0:
175,145,75382,1,8,0:0:0:0:
250,180,75546,2,0,P|260:232|270:283,1,103.799996832275,2|8,0:0|0:0,0:0:0:0:
75,375,75874,5,2,1:2:0:0:
5,350,76038,1,8,0:0:0:0:
37,282,76202,1,2,1:2:0:0:
37,282,76284,1,2,1:2:0:0:
37,282,76366,1,12,0:0:0:0:
225,345,76530,5,0,1:2:0:0:
250,180,76694,2,0,B|165:186|195:228|109:235,1,155.699995248413,10|4,0:0|2:3,0:0:0:0:
108,235,77022,1,6,2:3:0:0:
370,30,77186,6,0,P|362:54|357:80,1,51.8999984161377,12|0,0:0|0:0,0:0:0:0:
295,10,77350,6,0,P|289:35|282:60,1,51.8999984161377,14|0,0:0|0:0,0:0:0:0:
205,95,77678,6,0,B|120:101|150:143|64:150,1,155.699995248413,14|0,0:0|0:0,0:0:0:0:
63,150,78005,1,8,0:0:0:0:
250,180,78169,2,0,P|238:230|230:281,1,103.799996832275,2|8,0:0|0:0,0:0:0:0:
455,90,78497,2,0,P|443:140|435:191,1,103.799996832275,2|8,1:2|0:0,0:0:0:0:
295,10,78825,5,2,1:2:0:0:
288,12,78907,1,2,1:2:0:0:
281,14,78989,2,0,P|229:7|177:2,1,103.799996832275,8|0,0:0|1:2,0:0:0:0:
332,180,79317,2,0,P|384:187|436:192,1,103.799996832275,10|0,0:0|0:0,0:0:0:0:
230,281,79645,2,0,P|155:280|119:345,1,155.699995248413,10|0,0:0|0:0,0:0:0:0:
125,355,79973,2,0,P|141:307|119:262,1,103.799996832275,10|2,0:0|1:2,0:0:0:0:
90,190,80219,5,2,1:2:0:0:
85,185,80300,2,0,L|33:193,1,51.8999984161377,10|0,0:0|0:0,0:0:0:0:
210,92,80464,2,0,L|158:83,1,51.8999984161377,10|0,2:3|0:0,0:0:0:0:
383,172,80792,2,0,L|331:180,1,51.8999984161377,4|0,1:2|0:0,0:0:0:0:
512,8,81120,2,0,L|460:0,1,51.8999984161377,4|0,1:2|0:0,0:0:0:0:
160,270,81448,6,0,B|165:209|123:164|56:228|-12:168|-17:109|7:58|45:28|97:17|135:35|159:84|159:84|172:34|244:6|299:23|334:89|294:158|270:186|270:186|345:96|421:149|447:182|455:211|442:265|422:319|359:324|319:305|282:277|229:291|207:358,1,1234.5712801409,6|0,1:2|0:0,0:0:0:0:
