osu file format v14

[General]
AudioFilename: audio.mp3
AudioLeadIn: 0
PreviewTime: 75843
Countdown: 0
SampleSet: Soft
StackLeniency: 0.2
Mode: 0
LetterboxInBreaks: 0
WidescreenStoryboard: 0

[Editor]
Bookmarks: 468,12468,25968,37968,49968,61968,76968,88968,100968,109968,121968,133968,145968,157968,172968,184968,196968,205968,217968,232968,247968,259968,271968,283968,295968,307968,316968,328968,344699
DistanceSpacing: 1.4
BeatDivisor: 4
GridSize: 4
TimelineZoom: 1.7

[Metadata]
Title:Sekai wa Futari no Tame ni
TitleUnicode:世界はふたりのために
Artist:Kisumi Reika
ArtistUnicode:木須実怜花
Creator:Andrea
Version:Affection
Source:ハッピーライヴ ショウアップ!
Tags:osuplayer111 Sekaii Sekai-nyan midorijeon Collab Collaboration Eroge Full Version Japanese Pop JPop J-Pop Ray Video Game Ending ED Theme Galge Visual Novel VN HAPPY LIVE SHOW UP! Favorite ハラショウ!Harashow! Harashou
BeatmapID:3237213
BeatmapSetID:1584826

[Difficulty]
HPDrainRate:6.5
CircleSize:4.5
OverallDifficulty:8
ApproachRate:8.8
SliderMultiplier:1.6
SliderTickRate:1

[Events]
//Background and Video events
0,0,"BG.jpg",0,0
//Break Periods
//Storyboard Layer 0 (Background)
//Storyboard Layer 1 (Fail)
//Storyboard Layer 2 (Pass)
//Storyboard Layer 3 (Foreground)
//Storyboard Layer 4 (Overlay)
//Storyboard Sound Samples

[TimingPoints]
375,375,4,2,1,50,1,0
420,-100,4,2,2,50,0,0
468,375,4,2,3,50,1,0
468,-125,4,2,3,50,0,0
843,-125,4,2,1,50,0,0
1030,-125,4,2,2,50,0,0
1406,-125,4,2,4,50,0,0
1593,-125,4,2,5,50,0,0
1968,-125,4,2,6,50,0,0
2156,-125,4,2,7,50,0,0
2530,-125,4,2,8,50,0,0
2906,-125,4,2,9,50,0,0
3093,-125,4,2,4,50,0,0
3374,-125,4,2,10,50,0,0
3421,-125,4,2,9,50,0,0
3468,-125,4,2,11,50,0,0
3656,-125,4,2,7,50,0,0
3843,-125,4,2,10,50,0,0
4030,-125,4,2,8,50,0,0
4406,-125,4,2,2,50,0,0
4593,-125,4,2,9,50,0,0
4968,-125,4,2,12,50,0,0
5343,-125,4,2,13,50,0,0
5530,-125,4,2,14,50,0,0
5906,-125,4,2,15,50,0,0
6374,-125,4,2,1,50,0,0
6421,-125,4,2,4,50,0,0
6468,-125,4,2,16,50,0,0
6843,-125,4,2,102,50,0,0
7030,-125,4,2,17,50,0,0
7406,-125,4,2,4,50,0,0
7593,-125,4,2,5,50,0,0
7968,-125,4,2,18,50,0,0
8343,-125,4,2,4,50,0,0
8530,-125,4,2,19,50,0,0
8906,-125,4,2,4,50,0,0
9093,-125,4,2,20,50,0,0
9468,-125,4,2,21,50,0,0
9843,-125,4,2,21,50,0,0
10030,-125,4,2,22,50,0,0
10218,-125,4,2,23,50,0,0
10593,-125,4,2,23,50,0,0
10780,-125,4,2,23,50,0,0
10968,-125,4,2,24,50,0,0
11343,-125,4,2,24,50,0,0
11530,-125,4,2,24,50,0,0
11718,-125,4,2,25,50,0,0
12093,-125,4,2,25,50,0,0
12468,-125,4,2,26,70,0,0
12843,-125,4,2,27,70,0,0
13030,-125,4,2,28,70,0,0
13406,-125,4,2,29,70,0,0
13780,-125,4,2,5,70,0,0
13968,-125,4,2,30,70,0,0
14530,-125,4,2,31,70,0,0
14906,-125,4,2,7,70,0,0
15093,-125,4,2,32,70,0,0
15468,-125,4,2,33,70,0,0
15843,-125,4,2,27,70,0,0
16030,-125,4,2,34,70,0,0
16406,-125,4,2,29,70,0,0
16780,-125,4,2,35,70,0,0
16968,-125,4,2,12,70,0,0
17156,-125,4,2,1,70,0,0
17530,-125,4,2,36,70,0,0
17906,-125,4,2,15,70,0,0
18093,-125,4,2,1,70,0,0
18468,-111.111111111111,4,2,37,70,0,0
18843,-111.111111111111,4,2,38,70,0,0
19030,-111.111111111111,4,2,39,70,0,0
19218,-111.111111111111,4,2,37,70,0,0
19780,-111.111111111111,4,2,29,70,0,0
20343,-111.111111111111,4,2,27,70,0,0
20718,-111.111111111111,4,2,29,70,0,0
21093,-111.111111111111,4,2,35,70,0,0
21656,-111.111111111111,4,2,1,70,0,0
22406,-111.111111111111,4,2,40,70,0,0
22593,-111.111111111111,4,2,41,70,0,0
22780,-111.111111111111,4,2,42,70,0,0
22968,-111.111111111111,4,2,43,70,0,0
24374,-111.111111111111,4,2,8,70,0,0
24421,-111.111111111111,4,2,9,70,0,0
24468,-111.111111111111,4,2,44,70,0,0
25406,-111.111111111111,4,2,2,70,0,0
25593,-111.111111111111,4,2,1,70,0,0
25780,-111.111111111111,4,2,45,70,0,0
28593,-111.111111111111,4,2,45,70,0,0
30749,-111.111111111111,4,2,45,5,0,0
30843,-111.111111111111,4,2,45,70,0,0
33093,-111.111111111111,4,2,45,70,0,0
35156,-111.111111111111,4,2,9,70,0,0
35343,-111.111111111111,4,2,4,70,0,0
35530,-111.111111111111,4,2,5,70,0,0
35811,-111.111111111111,4,2,5,5,0,0
35906,-111.111111111111,4,2,4,70,0,0
36093,-111.111111111111,4,2,8,70,0,0
36280,-125,4,2,45,70,0,0
36749,-125,4,2,45,5,0,0
36843,-125,4,2,45,70,0,0
37124,-125,4,2,45,5,0,0
37218,-111.111111111111,4,2,45,70,0,0
37968,-100,4,2,46,70,0,0
40968,-100,4,2,46,70,0,0
43968,-100,4,2,47,70,0,0
46593,-100,4,2,47,70,0,0
48843,-100,4,2,46,70,0,0
49218,-100,4,2,46,70,0,0
49593,-100,4,2,47,70,0,0
49968,-111.111111111111,4,2,46,70,0,0
50718,-111.111111111111,4,2,46,70,0,0
51561,-111.111111111111,4,2,46,5,0,0
51655,-111.111111111111,4,2,46,70,0,0
52874,-111.111111111111,4,2,46,5,0,0
52968,-111.111111111111,4,2,46,70,0,0
54561,-111.111111111111,4,2,46,5,0,0
54655,-111.111111111111,4,2,46,70,0,0
56718,-111.111111111111,4,2,46,70,0,0
57561,-111.111111111111,4,2,46,5,0,0
57655,-111.111111111111,4,2,46,70,0,0
58874,-111.111111111111,4,2,46,5,0,0
58968,-111.111111111111,4,2,46,70,0,0
59436,-111.111111111111,4,2,46,5,0,0
59530,-111.111111111111,4,2,46,70,0,0
60656,-111.111111111111,4,2,1,70,0,0
61218,-111.111111111111,4,2,46,70,0,0
61968,-100,4,2,46,70,0,0
66749,-100,4,2,46,5,0,0
66843,-100,4,2,47,70,0,0
67218,-100,4,2,46,70,0,0
67687,-100,4,2,1,70,0,0
67968,-100,4,2,46,70,0,0
71530,-100,4,2,2,70,0,0
71624,-100,4,2,1,70,0,0
72468,-100,4,2,1,70,0,0
72843,-100,4,2,45,70,0,0
73030,-100,4,2,2,70,0,0
73124,-100,4,2,1,70,0,0
73218,-100,4,2,48,70,0,0
73593,-100,4,2,46,70,0,0
75280,-100,4,2,48,70,0,0
75843,-125,4,2,48,70,0,0
76593,-66.6666666666667,4,2,49,70,0,0
76874,-66.6666666666667,4,2,49,5,0,0
76968,-90.9090909090909,4,2,49,80,0,1
77343,-90.9090909090909,4,2,46,80,0,1
79499,-90.9090909090909,4,2,46,5,0,1
79593,-90.9090909090909,4,2,46,80,0,1
80343,-90.9090909090909,4,2,46,80,0,1
82593,-90.9090909090909,4,2,46,80,0,1
83249,-90.9090909090909,4,2,46,5,0,1
83343,-90.9090909090909,4,2,46,80,0,1
84749,-90.9090909090909,4,2,46,5,0,1
84843,-90.9090909090909,4,2,46,80,0,1
85593,-90.9090909090909,4,2,46,80,0,1
86249,-90.9090909090909,4,2,46,5,0,1
86343,-90.9090909090909,4,2,46,80,0,1
87468,-90.9090909090909,4,2,46,80,0,1
87749,-90.9090909090909,4,2,46,5,0,1
87843,-90.9090909090909,4,2,47,80,0,1
88218,-90.9090909090909,4,2,46,80,0,1
88593,-90.9090909090909,4,2,47,80,0,1
88968,-90.9090909090909,4,2,46,80,0,1
89343,-90.9090909090909,4,2,46,80,0,1
91218,-90.9090909090909,4,2,46,80,0,1
91499,-90.9090909090909,4,2,46,5,0,1
91593,-90.9090909090909,4,2,46,80,0,1
92343,-90.9090909090909,4,2,46,80,0,1
94030,-90.9090909090909,4,2,47,80,0,1
94405,-90.9090909090909,4,2,47,80,0,1
94687,-90.9090909090909,4,2,1,80,0,1
94780,-90.9090909090909,4,2,50,80,0,1
94874,-90.9090909090909,4,2,1,80,0,1
94968,-111.111111111111,4,2,46,80,0,0
96280,-111.111111111111,4,2,46,80,0,0
98530,-111.111111111111,4,2,46,80,0,0
99280,-111.111111111111,4,2,46,80,0,0
100030,-111.111111111111,4,2,47,80,0,0
100687,-111.111111111111,4,2,1,80,0,0
100968,-100,4,2,46,80,0,0
102843,-100,4,2,46,80,0,0
104343,-100,4,2,46,80,0,0
105843,-100,4,2,46,80,0,0
106687,-100,4,2,2,80,0,0
106780,-100,4,2,1,80,0,0
106968,-100,4,2,45,80,0,0
108468,-100,4,2,46,80,0,0
109030,-100,4,2,46,50,0,0
109968,-125,4,2,51,70,0,0
110343,-125,4,2,52,70,0,0
110530,-125,4,2,53,70,0,0
110906,-125,4,2,38,70,0,0
111280,-125,4,2,54,70,0,0
111468,-125,4,2,55,70,0,0
112030,-125,4,2,56,70,0,0
112406,-125,4,2,1,70,0,0
112968,-125,4,2,57,70,0,0
113343,-125,4,2,52,70,0,0
113530,-125,4,2,58,70,0,0
113906,-125,4,2,59,70,0,0
114093,-125,4,2,60,70,0,0
114280,-125,4,2,61,70,0,0
114468,-125,4,2,62,70,0,0
114656,-125,4,2,1,70,0,0
115030,-125,4,2,63,70,0,0
115406,-125,4,2,64,70,0,0
115593,-125,4,2,1,70,0,0
115968,-111.111111111111,4,2,65,70,0,0
116343,-111.111111111111,4,2,37,70,0,0
116530,-111.111111111111,4,2,66,70,0,0
116718,-111.111111111111,4,2,29,70,0,0
117468,-111.111111111111,4,2,67,70,0,0
117843,-111.111111111111,4,2,54,70,0,0
118030,-111.111111111111,4,2,68,70,0,0
118218,-111.111111111111,4,2,29,70,0,0
118593,-111.111111111111,4,2,38,70,0,0
118968,-111.111111111111,4,2,69,70,0,0
119156,-111.111111111111,4,2,38,70,0,0
120468,-111.111111111111,4,2,70,70,0,0
120843,-111.111111111111,4,2,71,70,0,0
121218,-111.111111111111,4,2,40,70,0,0
121406,-111.111111111111,4,2,1,70,0,0
121593,-111.111111111111,4,2,41,70,0,0
121780,-111.111111111111,4,2,46,70,0,0
126749,-111.111111111111,4,2,46,5,0,0
126843,-111.111111111111,4,2,46,70,0,0
127124,-111.111111111111,4,2,46,5,0,0
127218,-111.111111111111,4,2,46,70,0,0
127874,-111.111111111111,4,2,46,5,0,0
127968,-111.111111111111,4,2,46,70,0,0
128249,-111.111111111111,4,2,46,5,0,0
128343,-111.111111111111,4,2,46,70,0,0
129093,-111.111111111111,4,2,46,70,0,0
129749,-111.111111111111,4,2,46,5,0,0
129843,-111.111111111111,4,2,46,70,0,0
130968,-111.111111111111,4,2,5,70,0,0
131156,-111.111111111111,4,2,4,70,0,0
131249,-111.111111111111,4,2,4,5,0,0
131343,-111.111111111111,4,2,72,70,0,0
131718,-111.111111111111,4,2,4,70,0,0
131905,-111.111111111111,4,2,8,70,0,0
132093,-111.111111111111,4,2,5,70,0,0
132280,-111.111111111111,4,2,45,70,0,0
132468,-111.111111111111,4,2,20,70,0,0
132749,-111.111111111111,4,2,20,5,0,0
132843,-111.111111111111,4,2,23,70,0,0
133218,-111.111111111111,4,2,4,70,0,0
133593,-111.111111111111,4,2,103,70,0,0
133780,-111.111111111111,4,2,46,70,0,0
133968,-100,4,2,46,70,0,0
136874,-100,4,2,46,5,0,0
136968,-100,4,2,46,70,0,0
141093,-100,4,2,46,70,0,0
142593,-100,4,2,46,70,0,0
145593,-100,4,2,47,70,0,0
145968,-111.111111111111,4,2,46,70,0,0
146718,-111.111111111111,4,2,46,70,0,0
148874,-111.111111111111,4,2,46,5,0,0
148968,-111.111111111111,4,2,46,70,0,0
151124,-111.111111111111,4,2,46,5,0,0
151218,-111.111111111111,4,2,46,70,0,0
152718,-111.111111111111,4,2,46,70,0,0
156561,-111.111111111111,4,2,46,5,0,0
156656,-111.111111111111,4,2,1,70,0,0
157218,-111.111111111111,4,2,46,70,0,0
157968,-100,4,2,46,70,0,0
162093,-100,4,2,46,70,0,0
162468,-100,4,2,46,70,0,0
162843,-100,4,2,47,70,0,0
163218,-100,4,2,46,70,0,0
163687,-100,4,2,1,70,0,0
163968,-100,4,2,46,70,0,0
167530,-100,4,2,2,70,0,0
167624,-100,4,2,1,70,0,0
168843,-100,4,2,45,70,0,0
169030,-100,4,2,2,70,0,0
169124,-100,4,2,1,70,0,0
169218,-100,4,2,48,70,0,0
169593,-100,4,2,46,70,0,0
171656,-100,4,2,50,70,0,0
171749,-100,4,2,2,70,0,0
171843,-125,4,2,50,70,0,0
172030,-125,4,2,2,70,0,0
172218,-125,4,2,73,70,0,0
172406,-125,4,2,1,70,0,0
172593,-66.6666666666667,4,2,49,70,0,0
172874,-66.6666666666667,4,2,49,5,0,0
172968,-90.9090909090909,4,2,49,80,0,1
173343,-90.9090909090909,4,2,46,80,0,1
175124,-90.9090909090909,4,2,46,5,0,1
175218,-90.9090909090909,4,2,46,80,0,1
176249,-90.9090909090909,4,2,46,5,0,1
176343,-90.9090909090909,4,2,46,80,0,1
178124,-90.9090909090909,4,2,46,5,0,1
178218,-90.9090909090909,4,2,46,80,0,1
179249,-90.9090909090909,4,2,46,5,0,1
179343,-90.9090909090909,4,2,46,80,0,1
181499,-90.9090909090909,4,2,46,80,0,1
182249,-90.9090909090909,4,2,46,5,0,1
182343,-90.9090909090909,4,2,46,80,0,1
183749,-90.9090909090909,4,2,46,5,0,1
183843,-90.9090909090909,4,2,47,80,0,1
184218,-90.9090909090909,4,2,46,80,0,1
184593,-90.9090909090909,4,2,47,80,0,1
184968,-90.9090909090909,4,2,46,80,0,1
185343,-90.9090909090909,4,2,46,80,0,1
187124,-90.9090909090909,4,2,46,5,0,1
187218,-90.9090909090909,4,2,46,80,0,1
190030,-90.9090909090909,4,2,47,80,0,1
190687,-90.9090909090909,4,2,1,80,0,1
190780,-90.9090909090909,4,2,50,80,0,1
190874,-90.9090909090909,4,2,1,80,0,1
190968,-111.111111111111,4,2,46,80,0,0
192280,-111.111111111111,4,2,46,80,0,0
196030,-111.111111111111,4,2,47,80,0,0
196311,-111.111111111111,4,2,47,5,0,0
196405,-111.111111111111,4,2,47,80,0,0
196687,-111.111111111111,4,2,1,80,0,0
196968,-100,4,2,46,80,0,0
202687,-100,4,2,2,80,0,0
202780,-100,4,2,1,80,0,0
202968,-100,4,2,45,80,0,0
204468,-100,4,2,46,80,0,0
205030,-100,4,2,46,50,0,0
205968,-125,4,2,73,70,0,0
217030,-125,4,2,50,65,0,0
217124,-125,4,2,2,65,0,0
217406,-125,4,2,73,65,0,0
217499,-125,4,2,2,65,0,0
217593,-125,4,2,48,65,0,0
217968,-111.111111111111,4,2,46,65,0,0
219093,-111.111111111111,4,2,46,65,0,0
220030,-111.111111111111,4,2,50,65,0,0
220406,-111.111111111111,4,2,1,65,0,0
220593,-111.111111111111,4,2,45,65,0,0
221906,-111.111111111111,4,2,2,65,0,0
222093,-111.111111111111,4,2,73,65,0,0
222656,-111.111111111111,4,2,1,65,0,0
223593,-111.111111111111,4,2,46,65,0,0
223968,-100,4,2,46,65,0,0
224155,-100,4,2,46,40,0,0
224530,-100,4,2,46,41,0,0
224718,-100,4,2,46,44,0,0
224905,-100,4,2,46,47,0,0
225093,-100,4,2,46,50,0,0
225280,-100,4,2,46,53,0,0
225468,-100,4,2,46,56,0,0
225655,-100,4,2,46,59,0,0
225843,-100,4,2,46,62,0,0
226030,-100,4,2,46,65,0,0
226218,-100,4,2,46,68,0,0
226405,-100,4,2,46,71,0,0
226593,-100,4,2,46,74,0,0
226780,-100,4,2,46,77,0,0
226968,-100,4,2,46,80,0,0
227530,-100,4,2,1,65,0,0
228093,-100,4,2,47,65,0,0
228656,-100,4,2,2,65,0,0
229030,-100,4,2,1,65,0,0
229124,-100,4,2,1,5,0,0
229218,-100,4,2,46,65,0,0
229874,-100,4,2,46,5,0,0
229968,-100,4,2,47,65,0,0
230530,-100,4,2,2,65,0,0
231093,-100,4,2,47,65,0,0
231468,-100,4,2,45,65,0,0
232968,-100,4,2,74,75,0,0
233343,-100,4,2,74,75,0,0
234093,-100,4,2,74,75,0,0
234468,-100,4,2,75,75,0,0
235030,-100,4,2,74,75,0,0
235593,-100,4,2,76,75,0,0
235968,-100,4,2,77,75,0,0
237093,-100,4,2,77,75,0,0
237280,-100,4,2,42,75,0,0
237468,-100,4,2,77,75,0,0
237843,-100,4,2,40,75,0,0
238218,-100,4,2,41,75,0,0
238593,-100,4,2,40,75,0,0
238968,-100,4,2,77,75,0,0
239530,-100,4,2,78,75,0,0
239718,-100,4,2,77,75,0,0
240093,-100,4,2,77,75,0,0
240843,-100,4,2,76,75,0,0
241218,-100,4,2,74,75,0,0
241593,-100,4,2,79,75,0,0
242343,-100,4,2,74,75,0,0
242530,-100,4,2,80,75,0,0
243093,-100,4,2,81,75,0,0
243468,-100,4,2,80,75,0,0
243843,-100,4,2,78,75,0,0
244218,-100,4,2,81,75,0,0
244593,-100,4,2,82,75,0,0
244780,-100,4,2,1,75,0,0
244968,-100,4,2,75,75,0,0
246093,-100,4,2,75,75,0,0
246280,-100,4,2,78,75,0,0
246468,-100,4,2,80,75,0,0
246843,-100,4,2,78,75,0,0
247030,-100,4,2,79,75,0,0
247406,-100,4,2,80,75,0,0
247780,-100,4,2,81,75,0,0
248343,-100,4,2,81,75,0,0
249093,-100,4,2,80,75,0,0
249280,-100,4,2,79,75,0,0
249468,-100,4,2,74,75,0,0
249843,-100,4,2,79,75,0,0
250030,-100,4,2,76,75,0,0
250406,-100,4,2,74,75,0,0
250780,-100,4,2,76,75,0,0
250968,-100,4,2,77,75,0,0
252093,-100,4,2,76,75,0,0
252280,-100,4,2,74,75,0,0
252468,-100,4,2,80,75,0,0
252749,-100,4,2,80,5,0,0
252843,-100,4,2,75,75,0,0
253218,-100,4,2,74,75,0,0
253593,-100,4,2,76,75,0,0
253968,-100,4,2,79,75,0,0
255280,-100,4,2,74,75,0,0
255468,-100,4,2,76,75,0,0
255749,-100,4,2,76,5,0,0
255843,-100,4,2,74,75,0,0
256218,-100,4,2,76,75,0,0
256593,-100,4,2,77,75,0,0
256968,-100,4,2,42,75,0,0
257906,-100,4,2,2,75,0,0
258280,-100,4,2,1,75,0,0
258843,-125,4,2,45,60,0,0
262218,-125,4,2,45,5,0,0
262499,-125,4,2,45,5,0,0
262593,-125,4,2,45,60,0,0
262874,-125,4,2,45,5,0,0
262968,-125,4,2,45,60,0,0
263905,-125,4,2,45,5,0,0
264186,-125,4,2,45,5,0,0
264280,-125,4,2,45,60,0,0
265874,-125,4,2,45,5,0,0
265968,-125,4,2,45,60,0,0
266343,-125,4,2,45,5,0,0
266436,-125,4,2,45,5,0,0
266530,-125,4,2,45,60,0,0
266905,-125,4,2,45,5,0,0
266998,-125,4,2,45,5,0,0
267093,-125,4,2,45,60,0,0
267374,-125,4,2,45,5,0,0
267468,-125,4,2,45,60,0,0
268593,-125,4,2,45,60,0,0
270468,-125,4,2,45,60,0,0
271406,-125,4,2,2,60,0,0
271593,-125,4,2,48,60,0,0
271874,-125,4,2,48,5,0,0
271968,-111.111111111111,4,2,48,70,0,0
281249,-111.111111111111,4,2,2,70,0,0
281718,-111.111111111111,4,2,1,70,0,0
282280,-111.111111111111,4,2,4,70,0,0
282843,-125,4,2,49,70,0,0
283874,-125,4,2,49,5,0,0
283968,-90.9090909090909,4,2,49,80,0,1
284343,-90.9090909090909,4,2,46,80,0,1
286124,-90.9090909090909,4,2,46,5,0,1
286218,-90.9090909090909,4,2,46,80,0,1
286593,-90.9090909090909,4,2,46,80,0,1
289124,-90.9090909090909,4,2,46,5,0,1
289218,-90.9090909090909,4,2,46,80,0,1
289593,-90.9090909090909,4,2,46,80,0,1
294749,-90.9090909090909,4,2,46,5,0,1
294843,-90.9090909090909,4,2,47,80,0,1
295218,-90.9090909090909,4,2,46,80,0,1
295593,-90.9090909090909,4,2,47,80,0,1
295968,-90.9090909090909,4,2,46,80,0,1
296343,-90.9090909090909,4,2,46,80,0,1
298124,-90.9090909090909,4,2,46,5,0,1
298218,-90.9090909090909,4,2,46,80,0,1
299249,-90.9090909090909,4,2,46,5,0,1
299343,-90.9090909090909,4,2,46,80,0,1
300093,-90.9090909090909,4,2,46,80,0,1
300749,-90.9090909090909,4,2,46,5,0,1
300843,-90.9090909090909,4,2,46,80,0,1
301030,-90.9090909090909,4,2,47,80,0,1
301311,-90.9090909090909,4,2,47,5,0,1
301405,-90.9090909090909,4,2,47,80,0,1
301687,-90.9090909090909,4,2,1,80,0,1
301780,-90.9090909090909,4,2,50,80,0,1
301874,-90.9090909090909,4,2,1,80,0,1
301968,-111.111111111111,4,2,46,80,0,0
303280,-111.111111111111,4,2,46,80,0,0
307030,-111.111111111111,4,2,47,80,0,0
307311,-111.111111111111,4,2,47,5,0,0
307405,-111.111111111111,4,2,47,80,0,0
307687,-111.111111111111,4,2,1,80,0,0
307968,-100,4,2,46,80,0,0
313687,-100,4,2,2,80,0,0
313780,-100,4,2,1,80,0,0
313968,-100,4,2,45,80,0,0
315468,-100,4,2,49,80,0,0
316030,-100,4,2,49,50,0,0
316968,-111.111111111111,4,2,51,70,0,0
317343,-111.111111111111,4,2,52,70,0,0
317530,-111.111111111111,4,2,53,70,0,0
317906,-111.111111111111,4,2,38,70,0,0
318280,-111.111111111111,4,2,54,70,0,0
318468,-111.111111111111,4,2,55,70,0,0
318843,-111.111111111111,4,2,55,70,0,0
319030,-111.111111111111,4,2,56,70,0,0
319406,-111.111111111111,4,2,1,70,0,0
319874,-111.111111111111,4,2,1,5,0,0
319968,-111.111111111111,4,2,57,70,0,0
320343,-111.111111111111,4,2,52,70,0,0
320530,-111.111111111111,4,2,58,70,0,0
320906,-111.111111111111,4,2,59,70,0,0
321093,-111.111111111111,4,2,60,70,0,0
321280,-111.111111111111,4,2,61,70,0,0
321468,-111.111111111111,4,2,83,70,0,0
321656,-111.111111111111,4,2,1,70,0,0
321843,-111.111111111111,4,2,84,70,0,0
322030,-111.111111111111,4,2,85,70,0,0
322406,-111.111111111111,4,2,84,70,0,0
322593,-111.111111111111,4,2,1,70,0,0
322874,-111.111111111111,4,2,1,5,0,0
322968,-111.111111111111,4,2,86,70,0,0
323343,-111.111111111111,4,2,37,70,0,0
323530,-111.111111111111,4,2,35,70,0,0
323906,-111.111111111111,4,2,87,70,0,0
324280,-111.111111111111,4,2,37,70,0,0
324468,-111.111111111111,4,2,62,70,0,0
324749,-111.111111111111,4,2,62,5,0,0
324843,-111.111111111111,4,2,52,70,0,0
325030,-111.111111111111,4,2,2,70,0,0
325218,-111.111111111111,4,2,38,70,0,0
325406,-111.111111111111,4,2,2,70,0,0
325593,-111.111111111111,4,2,37,70,0,0
325874,-111.111111111111,4,2,37,5,0,0
325968,-111.111111111111,4,2,88,70,0,0
326343,-111.111111111111,4,2,88,5,0,0
326530,-111.111111111111,4,2,89,70,0,0
327374,-111.111111111111,4,2,89,5,0,0
327468,-111.111111111111,4,2,90,70,0,0
327843,-111.111111111111,4,2,91,70,0,0
328030,-111.111111111111,4,2,16,70,0,0
328218,-111.111111111111,4,2,16,70,0,0
328593,-111.111111111111,4,2,54,70,0,0
328874,-111.111111111111,4,2,54,5,0,0
328968,-125,4,2,92,50,0,0
329343,-125,4,2,93,50,0,0
329530,-125,4,2,23,50,0,0
329906,-125,4,2,72,50,0,0
330280,-125,4,2,2,50,0,0
330468,-125,4,2,94,50,0,0
330656,-125,4,2,56,50,0,0
330843,-125,4,2,95,50,0,0
331030,-125,4,2,10,50,0,0
331406,-125,4,2,95,50,0,0
331968,-125,4,2,96,50,0,0
332343,-125,4,2,93,50,0,0
332530,-125,4,2,23,50,0,0
332906,-125,4,2,72,50,0,0
333280,-125,4,2,54,50,0,0
333468,-125,4,2,97,50,0,0
333656,-125,4,2,56,50,0,0
333843,-125,4,2,95,50,0,0
334030,-125,4,2,10,50,0,0
334406,-125,4,2,95,50,0,0
334968,397.350993377483,4,2,98,50,1,0
334968,-125,4,2,98,50,0,0
335365,-100,4,2,56,50,0,0
335564,413.793103448276,4,2,10,50,1,8
335564,-125,4,2,10,50,0,8
335770,413.793103448276,4,2,95,50,1,8
335770,-125,4,2,95,50,0,8
335976,-125,4,2,99,50,0,8
336183,-125,4,2,63,50,0,8
336597,451.127819548872,4,2,10,50,1,0
336597,-125,4,2,98,50,0,0
337499,588.235294117647,4,2,101,50,1,8
337499,-125,4,2,101,50,0,8
338087,759.493670886076,4,2,100,50,1,8
338087,-125,4,2,100,50,0,8
338846,731.70731707317,4,2,95,50,1,0
338846,-125,4,2,95,50,0,0
339028,-125,4,2,95,45,0,0
340309,-125,4,2,95,40,0,0
341772,-125,4,2,95,30,0,0
343236,-125,4,2,95,20,0,0
343967,-125,4,2,95,10,0,0
344699,-125,4,2,95,5,0,0

[Colours]
Combo1 : 255,255,128
Combo2 : 254,103,118
SliderBorder : 254,103,118
SliderTrackOverride : 255,187,193

[HitObjects]
112,108,374,6,0,L|92:96,2,20,2|2|2,2:2|2:2|2:2,0:0:0:0:
252,172,843,1,2,2:2:0:0:
252,172,1030,2,0,P|304:140|356:172,1,128,2|2,2:2|2:2,0:0:0:0:
400,236,1593,1,2,2:2:0:0:
460,96,1968,1,2,2:2:0:0:
460,96,2155,2,0,L|508:216,2,128,2|2|2,2:2|2:2|2:2,0:0:0:0:
428,24,3093,1,2,2:2:0:0:
304,52,3374,6,0,L|276:60,2,16,2|2|2,2:2|2:2|2:2,0:0:0:0:
335,133,3655,2,0,P|348:161|335:189,1,64,2|2,2:2|2:2,0:0:0:0:
256,220,4030,2,0,B|204:216|204:216|184:196|184:196|136:192,1,128,2|2,2:2|2:2,0:0:0:0:
54,185,4593,1,2,2:2:0:0:
160,304,4968,5,2,2:2:0:0:
256,112,5343,1,2,2:2:0:0:
256,112,5530,1,2,2:2:0:0:
352,304,5905,1,2,2:2:0:0:
256,112,6374,6,0,L|256:84,2,16,2|2|2,2:2|2:2|2:2,0:0:0:0:
256,268,6843,1,2,0:0:0:0:
308,324,7030,2,0,P|255:355|204:323,1,128,2|2,2:2|2:2,0:0:0:0:
256,268,7593,1,2,2:2:0:0:
316,220,7780,1,0,0:0:0:0:
316,220,7874,1,0,0:0:0:0:
316,220,7968,6,0,B|380:196|380:240|440:220,1,128,2|2,2:2|2:2,0:0:0:0:
412,148,8530,2,0,B|392:88|436:88|412:24,1,128,2|2,2:2|2:2,0:0:0:0:
411,23,9093,1,2,2:2:0:0:
300,128,9468,2,0,B|248:128|248:128|224:144|224:144|176:144,1,128,2|0,2:2|0:0,0:0:0:0:
116,192,10030,1,2,2:2:0:0:
176,240,10218,2,0,B|224:240|224:240|248:256|248:256|300:256,1,128,2|0,2:2|0:0,0:0:0:0:
400,304,10780,1,0,0:0:0:0:
400,304,10874,1,0,0:0:0:0:
400,304,10968,6,0,L|456:180,1,128,6|0,2:2|0:0,0:0:0:0:
351,139,11530,1,0,0:0:0:0:
351,139,11718,2,0,L|295:263,1,128,2|0,2:2|0:0,0:0:0:0:
298,255,12468,5,6,3:2:0:0:
114,193,12843,1,2,2:2:0:0:
114,193,13030,2,0,B|178:169|178:213|238:193,1,128,2|2,2:2|2:2,0:0:0:0:
431,86,13780,1,2,2:2:0:0:
335,135,13968,1,2,3:2:0:0:
257,314,14530,1,6,2:3:0:0:
335,135,14905,1,10,2:3:0:0:
297,223,15093,1,10,2:3:0:0:
297,223,15468,6,0,P|246:232|182:191,1,128,6|2,3:2|2:2,0:0:0:0:
223,85,16030,2,0,P|274:76|338:117,2,128,2|2|2,2:2|2:2|2:2,0:0:0:0:
255,155,16968,5,10,3:3:0:0:
171,19,17155,1,4,2:3:0:0:
88,156,17530,1,10,2:3:0:0:
255,155,17905,1,2,3:2:0:0:
255,155,17999,1,0,3:3:0:0:
255,155,18093,1,12,2:2:0:0:
255,155,18468,6,0,B|279:223|231:223|255:295,1,143.999995605469,2|2,3:2|3:2,0:0:0:0:
255,155,19030,1,2,2:2:0:0:
288,71,19218,2,0,B|256:55|256:55|224:71,1,71.9999978027344,0|2,3:3|2:2,0:0:0:0:
345,168,19593,1,0,3:3:0:0:
366,26,19780,1,2,2:2:0:0:
366,26,19874,1,0,0:0:0:0:
366,26,19968,6,0,L|345:170,2,143.999995605469,0|2|2,3:3|3:2|3:2,0:0:0:0:
446,66,20905,1,0,0:0:0:0:
264,179,21093,2,0,L|276:100,1,71.9999978027344,2|0,3:2|0:0,0:0:0:0:
279,79,21374,1,0,0:0:0:0:
279,79,21468,1,2,3:2:0:0:
446,66,21655,1,8,2:2:0:0:
376,242,21843,5,8,3:2:0:0:
412,234,21936,1,8,2:2:0:0:
440,257,22030,1,8,2:2:0:0:
440,293,22124,1,8,2:2:0:0:
412,315,22218,1,8,3:2:0:0:
376,307,22311,1,8,2:2:0:0:
361,275,22405,2,0,P|325:271|310:263,1,35.9999989013672,10|8,2:2|2:2,0:0:0:0:
250,184,22593,2,0,P|286:188|301:196,1,35.9999989013672,10|8,3:2|2:2,0:0:0:0:
194,264,22780,2,0,P|158:260|143:252,1,35.9999989013672,10|8,2:2|2:2,0:0:0:0:
112,168,22968,5,6,2:2:0:0:
347,77,23530,1,2,2:2:0:0:
347,77,23905,1,0,0:0:0:0:
324,192,24093,1,2,2:2:0:0:
199,123,24374,2,0,L|183:107,2,17.9999994506836,2|2|2,2:2|2:2|2:2,0:0:0:0:
448,255,25405,5,4,2:3:0:0:
484,153,25593,1,8,2:3:0:0:
383,116,25780,1,2,2:2:0:0:
346,218,25968,6,0,P|286:251|226:217,1,143.999995605469,2|0,3:2|3:3,0:0:0:0:
156,144,26530,1,0,0:0:0:0:
226,217,26718,1,0,3:3:0:0:
156,144,26905,2,0,P|142:112|156:80,1,71.9999978027344,2|2,2:2|3:2,0:0:0:0:
220,4,27280,1,2,2:2:0:0:
220,4,27468,2,0,L|344:80,1,143.999995605469,0|0,3:3|3:3,0:0:0:0:
432,128,28030,2,0,B|465:192|465:192|432:256,1,143.999995605469,0|0,0:0|0:0,0:0:0:0:
364,364,28593,1,8,3:2:0:0:
364,364,28780,1,2,2:2:0:0:
252,272,28968,6,0,B|184:296|184:248|112:272,1,143.999995605469,2|0,3:2|3:3,0:0:0:0:
216,196,29530,2,0,P|182:136|216:76,1,143.999995605469,0|2,0:0|2:2,0:0:0:0:
300,20,30093,1,2,3:2:0:0:
216,76,30280,1,2,2:2:0:0:
300,132,30468,2,0,B|332:160|332:160|340:192|340:192|364:216,1,107.999996704102,0|0,3:3|0:0,0:0:0:0:
392,244,30843,2,0,P|406:276|392:308,1,71.9999978027344,2|0,3:2|0:0,0:0:0:0:
288,348,31218,2,0,P|274:316|288:284,1,71.9999978027344,2|0,3:2|0:0,0:0:0:0:
300,132,31593,1,10,3:2:0:0:
300,132,31780,1,0,0:0:0:0:
168,176,31968,6,0,B|114:176|114:176|86:196|86:196|30:196,1,143.999995605469,2|2,3:2|3:2,0:0:0:0:
148,260,32530,2,0,B|201:260|201:260|229:240|229:240|285:240,1,143.999995605469,2|0,2:2|0:0,0:0:0:0:
352,316,33093,1,0,3:3:0:0:
416,240,33280,1,2,2:2:0:0:
352,160,33468,2,0,B|284:126|318:92|253:61,1,143.999995605469,2|2,3:2|3:2,0:0:0:0:
380,84,34030,2,0,B|447:117|413:151|478:182,1,143.999995605469,2|2,2:2|2:2,0:0:0:0:
432,320,34593,1,8,3:2:0:0:
432,320,34780,6,0,B|400:336|400:336|368:320,1,71.9999978027344,2|0,2:2|3:3,0:0:0:0:
264,272,35155,1,2,2:2:0:0:
204,368,35343,1,2,3:2:0:0:
144,272,35530,2,0,L|88:176,1,107.999996704102,2|0,2:2|0:0,0:0:0:0:
64,144,35905,1,10,2:3:0:0:
168,88,36093,1,6,2:3:0:0:
168,88,36280,1,2,2:2:0:0:
238,195,36468,6,0,P|274:195|319:143,1,96,6|0,3:2|0:0,0:0:0:0:
337,112,36843,2,0,L|438:145,1,96,2|0,2:2|0:0,0:0:0:0:
472,156,37218,1,2,2:2:0:0:
436,296,37405,1,0,3:3:0:0:
472,156,37593,1,10,2:2:0:0:
472,156,37968,6,0,B|363:140|420:200|302:175,1,160,4|10,3:2|3:2,0:0:0:0:
217,92,38530,1,0,0:0:0:0:
170,190,38718,2,0,B|153:226|153:226|170:262,1,80,0|2,3:3|2:2,0:0:0:0:
275,337,39093,2,0,B|292:301|292:301|275:265,1,80,10|2,3:2|2:2,0:0:0:0:
217,92,39468,5,0,3:3:0:0:
253,180,39655,1,0,0:0:0:0:
217,92,39843,2,0,P|137:83|74:141,1,160,8|2,3:2|3:2,0:0:0:0:
253,180,40405,1,0,0:0:0:0:
318,91,40593,2,0,P|333:54|318:18,1,80,10|0,3:2|0:0,0:0:0:0:
408,179,40968,2,0,B|328:151|328:207|252:179,1,160,2|10,3:2|3:2,0:0:0:0:
356,250,41530,1,2,2:2:0:0:
440,106,41718,1,0,3:3:0:0:
356,250,41905,1,2,2:2:0:0:
440,106,42093,2,0,L|334:69,1,80,8|2,3:2|2:2,0:0:0:0:
356,250,42468,6,0,P|288:286|220:250,1,160,0|10,3:3|3:2,0:0:0:0:
90,155,43030,1,0,0:0:0:0:
140,309,43218,1,2,3:2:0:0:
190,155,43405,1,0,0:0:0:0:
59,250,43593,1,14,3:2:0:0:
220,250,43780,1,0,0:0:0:0:
90,155,43968,6,0,P|81:116|94:69,2,80,6|0|10,3:2|0:0|3:2,0:0:0:0:
190,155,44530,1,2,2:2:0:0:
136,249,44718,2,0,P|97:258|50:245,2,80,0|0|8,3:3|0:0|3:2,0:0:0:0:
190,155,45280,1,2,2:2:0:0:
329,193,45468,6,0,B|409:165|409:221|485:193,1,160,2|10,3:2|3:2,0:0:0:0:
370,267,46030,1,2,2:2:0:0:
288,127,46218,2,0,L|362:87,1,80,0|0,3:3|0:0,0:0:0:0:
370,267,46593,2,0,L|299:305,1,80,8|2,3:2|2:2,0:0:0:0:
206,192,46968,6,0,B|154:192|138:159|138:159|122:192|70:192,1,160,2|10,3:2|3:2,0:0:0:0:
136,295,47530,1,2,2:2:0:0:
70,191,47718,1,0,3:3:0:0:
206,192,47905,1,2,2:2:0:0:
70,191,48093,2,0,P|54:233|62:274,1,80,10|2,3:2|2:2,0:0:0:0:
206,192,48468,2,0,P|222:150|214:109,1,80,0|2,3:3|2:2,0:0:0:0:
88,18,48843,2,0,P|72:60|80:101,1,80,12|0,3:2|0:0,0:0:0:0:
256,29,49218,5,10,2:2:0:0:
256,29,49311,1,8,2:2:0:0:
256,29,49405,1,0,3:3:0:0:
331,147,49593,1,14,2:2:0:0:
414,25,49780,1,0,0:0:0:0:
331,147,49968,5,6,3:2:0:0:
420,236,50155,2,0,P|400:288|320:320,1,143.999995605469,0|0,3:3|0:0,0:0:0:0:
256,236,50718,1,8,2:2:0:0:
190,320,50905,1,2,2:2:0:0:
124,236,51093,1,2,2:2:0:0:
56,320,51280,2,0,L|24:204,1,107.999996704102,2|0,3:2|0:0,0:0:0:0:
16,172,51655,1,0,3:3:0:0:
72,80,51843,6,0,P|104:66|136:80,1,71.9999978027344,2|0,2:2|3:3,0:0:0:0:
212,156,52218,1,10,2:2:0:0:
288,80,52405,1,0,0:0:0:0:
288,80,52499,1,0,0:0:0:0:
288,80,52593,2,0,P|340:80|380:40,1,107.999996704102,2|0,2:2|0:0,0:0:0:0:
416,16,52968,5,2,3:2:0:0:
504,112,53155,1,0,3:3:0:0:
504,112,53343,2,0,L|476:180,1,71.9999978027344,2|2,2:2|2:2,0:0:0:0:
352,188,53718,2,0,L|380:120,1,71.9999978027344,8|0,2:2|0:0,0:0:0:0:
416,16,54093,1,2,2:2:0:0:
296,64,54280,6,0,B|244:48|244:84|188:64,1,107.999996704102,2|0,3:2|0:0,0:0:0:0:
148,64,54655,1,0,3:3:0:0:
80,148,54843,1,0,0:0:0:0:
148,64,55030,1,0,3:3:0:0:
64,168,55218,2,0,P|50:200|64:232,1,71.9999978027344,10|0,2:2|0:0,0:0:0:0:
124,324,55593,1,2,2:2:0:0:
124,324,55686,1,0,0:0:0:0:
124,324,55780,1,0,0:0:0:0:
216,232,55968,5,2,3:2:0:0:
308,324,56155,2,0,P|380:324|424:272,1,143.999995605469,0|0,3:3|0:0,0:0:0:0:
312,192,56718,1,8,2:2:0:0:
312,192,56905,2,0,L|348:256,1,71.9999978027344,2|2,2:2|2:2,0:0:0:0:
408,172,57280,6,0,B|385:139|385:139|382:107|382:107|361:77,1,107.999996704102,2|0,3:2|0:0,0:0:0:0:
336,44,57655,1,0,3:3:0:0:
256,116,57843,1,2,2:2:0:0:
176,44,58030,1,0,3:3:0:0:
256,144,58218,1,10,2:2:0:0:
336,44,58405,1,0,0:0:0:0:
336,44,58499,1,0,0:0:0:0:
336,44,58593,2,0,B|376:44|376:44|404:60|404:60|440:60,1,107.999996704102,2|0,2:2|0:0,0:0:0:0:
480,60,58968,5,2,3:2:0:0:
440,184,59155,2,0,P|448:240|416:276,1,107.999996704102,0|0,3:3|0:0,0:0:0:0:
376,296,59530,1,2,2:2:0:0:
304,188,59718,1,10,2:2:0:0:
188,248,59905,1,0,0:0:0:0:
260,356,60093,1,0,3:3:0:0:
304,188,60280,6,0,P|337:128|303:68,1,143.999995605469,4|4,3:2|3:3,0:0:0:0:
180,8,60843,1,4,3:3:0:0:
180,8,61030,1,4,3:3:0:0:
56,68,61218,1,10,2:2:0:0:
56,68,61311,1,8,2:2:0:0:
56,68,61405,1,0,3:3:0:0:
180,128,61593,1,10,2:2:0:0:
56,188,61780,1,8,2:2:0:0:
56,188,61874,1,8,2:2:0:0:
56,188,61968,6,0,P|97:196|141:180,1,80,6|2,3:2|2:2,0:0:0:0:
132,65,62343,2,0,P|91:57|47:73,1,80,10|2,2:2|2:2,0:0:0:0:
180,128,62718,2,0,L|260:92,1,80,0|2,3:3|2:2,0:0:0:0:
368,41,63093,1,10,2:2:0:0:
252,95,63280,1,2,2:2:0:0:
368,41,63468,6,0,P|393:116|352:182,2,160,0|8|2,3:3|2:2|3:2,0:0:0:0:
252,95,64405,1,0,0:0:0:0:
368,41,64593,1,10,2:2:0:0:
257,102,64780,1,0,0:0:0:0:
257,102,64874,1,0,0:0:0:0:
257,102,64968,6,0,L|108:168,1,160,2|10,3:2|2:2,0:0:0:0:
87,308,65530,1,2,2:2:0:0:
188,207,65718,1,0,3:3:0:0:
47,230,65905,1,0,0:0:0:0:
174,294,66093,1,10,2:2:0:0:
109,167,66280,1,0,0:0:0:0:
174,294,66468,6,0,L|296:237,1,120,0|0,3:3|0:0,0:0:0:0:
319,227,66843,1,14,2:2:0:0:
443,163,67030,1,0,0:0:0:0:
337,124,67218,1,6,3:2:0:0:
396,271,67405,1,8,2:2:0:0:
396,271,67499,1,8,2:2:0:0:
396,271,67593,1,10,2:2:0:0:
337,124,67780,1,4,2:3:0:0:
337,124,67874,1,4,2:3:0:0:
337,124,67968,6,0,P|300:108|264:123,1,80,12|0,2:2|3:3,0:0:0:0:
175,260,68343,2,0,P|211:275|247:259,1,80,10|2,2:2|3:2,0:0:0:0:
342,100,68718,2,0,P|305:84|269:99,1,80,8|0,2:2|3:3,0:0:0:0:
135,192,69093,1,8,2:2:0:0:
192,41,69280,1,2,3:2:0:0:
192,41,69374,1,0,0:0:0:0:
192,41,69468,6,0,L|285:15,1,80,10|0,2:2|3:3,0:0:0:0:
419,121,69843,2,0,L|326:95,1,80,10|2,2:2|3:2,0:0:0:0:
220,228,70218,2,0,L|313:202,1,80,8|2,2:2|3:2,0:0:0:0:
419,121,70593,1,10,2:2:0:0:
347,278,70780,1,10,2:2:0:0:
347,278,70874,1,8,2:2:0:0:
347,278,70968,5,4,3:2:0:0:
256,141,71155,1,2,2:2:0:0:
165,278,71343,1,10,2:2:0:0:
346,191,71530,1,4,2:3:0:0:
346,191,71624,1,8,2:3:0:0:
346,191,71718,1,8,3:3:0:0:
255,328,71905,1,8,2:3:0:0:
166,191,72093,2,0,P|151:155|166:119,1,80,8|0,2:2|0:0,0:0:0:0:
10,118,72468,6,0,B|90:90|90:146|166:118,1,160,0|10,3:3|2:2,0:0:0:0:
312,36,73030,1,4,2:3:0:0:
312,36,73124,1,8,2:3:0:0:
312,36,73218,1,10,3:2:0:0:
165,118,73405,1,10,2:3:0:0:
317,192,73593,1,8,2:2:0:0:
317,192,73686,1,8,2:2:0:0:
317,192,73780,1,2,3:2:0:0:
165,266,73968,1,4,3:2:0:0:
317,192,74155,5,10,2:2:0:0:
359,201,74249,1,8,2:2:0:0:
394,174,74343,1,10,3:2:0:0:
394,130,74436,1,8,2:2:0:0:
359,102,74530,1,8,2:2:0:0:
317,112,74624,1,8,2:2:0:0:
297,152,74718,6,0,P|266:144|248:143,1,40,8|8,3:2|2:2,0:0:0:0:
117,134,74905,2,0,P|128:162|138:177,1,40,8|8,2:2|2:2,0:0:0:0:
164,303,75093,2,0,P|192:289|206:278,1,40,8|8,3:2|2:2,0:0:0:0:
207,195,75280,5,6,3:2:0:0:
438,49,75655,1,6,3:2:0:0:
483,152,75843,6,0,B|403:136|434:184|346:157,1,128,2|2,2:2|2:2,0:0:0:0:
438,49,76405,1,0,3:3:0:0:
326,184,76593,6,0,B|440:219|393:146|514:170,1,180.000006866455,10|0,2:2|0:0,0:0:0:0:
462,245,76968,5,6,3:2:0:0:
372,116,77155,1,0,0:0:0:0:
276,244,77343,1,10,2:2:0:0:
184,116,77530,1,2,2:2:0:0:
184,116,77624,1,0,0:0:0:0:
184,116,77718,2,0,P|168:75|183:35,1,88.000002685547,0|2,3:3|2:2,0:0:0:0:
329,35,78093,1,8,2:2:0:0:
184,116,78280,6,0,P|199:156|184:196,1,88.000002685547,2|0,2:2|3:3,0:0:0:0:
96,308,78655,1,2,2:2:0:0:
184,196,78843,1,10,2:2:0:0:
228,328,79030,1,0,0:0:0:0:
316,216,79218,2,0,B|364:228|364:228|388:260|388:260|428:272,1,132.00000402832,0|0,3:3|0:0,0:0:0:0:
472,280,79593,1,10,2:2:0:0:
320,300,79780,1,0,0:0:0:0:
360,144,79968,6,0,B|378:104|378:104|360:64,1,88.000002685547,2|0,3:2|0:0,0:0:0:0:
256,168,80343,1,10,2:2:0:0:
152,64,80530,1,2,2:2:0:0:
152,64,80624,1,0,0:0:0:0:
152,64,80718,2,0,B|134:104|134:104|152:144,1,88.000002685547,0|2,3:3|2:2,0:0:0:0:
256,248,81093,1,8,2:2:0:0:
256,92,81280,1,2,2:2:0:0:
164,232,81468,5,0,3:3:0:0:
256,92,81655,1,2,2:2:0:0:
348,232,81843,1,8,2:2:0:0:
256,372,82030,1,0,0:0:0:0:
256,372,82124,1,0,0:0:0:0:
256,372,82218,2,0,P|215:387|175:372,1,88.000002685547,2|0,3:2|0:0,0:0:0:0:
60,276,82593,1,10,2:2:0:0:
175,372,82780,1,0,0:0:0:0:
200,192,82968,6,0,P|256:162|312:192,1,132.00000402832,6|0,3:2|0:0,0:0:0:0:
336,232,83343,1,10,2:2:0:0:
256,80,83530,1,2,2:2:0:0:
256,80,83624,1,0,0:0:0:0:
256,80,83718,1,0,3:3:0:0:
176,232,83905,1,2,2:2:0:0:
352,136,84093,1,10,2:2:0:0:
160,136,84280,1,2,2:2:0:0:
160,136,84374,1,0,0:0:0:0:
160,136,84468,6,0,B|120:120|120:120|96:80|96:80|56:64,1,132.00000402832,0|0,3:3|0:0,0:0:0:0:
16,48,84843,1,8,2:2:0:0:
104,224,85030,1,0,0:0:0:0:
104,224,85124,1,0,0:0:0:0:
104,224,85218,2,0,P|89:264|104:304,1,88.000002685547,2|0,3:2|0:0,0:0:0:0:
132,340,85499,1,2,2:2:0:0:
132,340,85593,1,8,2:2:0:0:
320,276,85780,1,2,2:2:0:0:
320,276,85874,1,0,0:0:0:0:
320,276,85968,6,0,P|349:220|319:164,1,132.00000402832,2|0,3:2|0:0,0:0:0:0:
288,132,86343,1,8,2:2:0:0:
200,24,86530,1,2,2:2:0:0:
84,104,86718,1,2,3:2:0:0:
172,212,86905,1,0,0:0:0:0:
288,132,87093,2,0,L|360:80,1,88.000002685547,8|0,2:2|0:0,0:0:0:0:
496,172,87468,2,0,L|389:250,1,132.00000402832,0|0,3:3|0:0,0:0:0:0:
352,276,87843,5,14,2:2:0:0:
352,276,88030,1,0,0:0:0:0:
160,276,88218,1,6,3:2:0:0:
160,276,88405,1,0,0:0:0:0:
256,380,88593,1,14,2:2:0:0:
256,192,88780,1,8,2:2:0:0:
256,192,88874,1,8,2:2:0:0:
256,192,88968,6,0,B|216:174|216:174|176:192,1,88.000002685547,6|0,3:2|0:0,0:0:0:0:
271,276,89343,2,0,B|311:294|311:294|351:276,1,88.000002685547,10|2,2:2|2:2,0:0:0:0:
421,148,89718,1,0,3:3:0:0:
499,248,89905,1,2,2:2:0:0:
351,275,90093,1,8,2:2:0:0:
413,125,90280,1,2,2:2:0:0:
407,107,90374,1,0,0:0:0:0:
401,89,90468,6,0,P|348:91|312:115,1,88.000002685547,0|2,3:3|2:2,0:0:0:0:
210,223,90843,2,0,P|263:221|299:197,1,88.000002685547,10|0,2:2|0:0,0:0:0:0:
156,105,91218,2,0,P|89:106|35:152,1,132.00000402832,0|0,3:3|0:0,0:0:0:0:
27,180,91593,1,10,2:2:0:0:
210,223,91780,1,0,0:0:0:0:
109,331,91968,6,0,L|105:234,1,88.000002685547,2|0,3:2|0:0,0:0:0:0:
267,144,92343,1,10,2:2:0:0:
359,271,92530,1,2,2:2:0:0:
210,223,92718,1,0,3:3:0:0:
359,174,92905,1,0,0:0:0:0:
267,301,93093,1,8,2:2:0:0:
359,174,93280,1,2,2:2:0:0:
370,160,93374,1,0,0:0:0:0:
382,147,93468,6,0,B|424:113|417:68|417:68|495:20,1,176.000005371094,6|10,3:2|2:2,0:0:0:0:
336,84,94030,2,0,B|296:66|296:66|256:84,1,88.000002685547,6|0,3:2|0:0,0:0:0:0:
148,192,94405,1,10,2:2:0:0:
148,192,94499,1,8,2:2:0:0:
148,192,94593,1,8,2:2:0:0:
90,80,94780,1,6,2:3:0:0:
90,80,94874,1,4,2:3:0:0:
90,80,94968,6,0,L|233:15,1,143.999995605469,4|2,3:2|2:2,0:0:0:0:
90,80,95530,1,0,3:3:0:0:
148,192,95718,2,0,P|181:251|147:311,1,143.999995605469,8|0,2:2|0:0,0:0:0:0:
52,253,96280,1,2,3:2:0:0:
288,191,96468,6,0,B|220:215|220:167|148:191,1,143.999995605469,2|2,3:2|2:2,0:0:0:0:
215,79,97030,1,2,3:2:0:0:
215,79,97218,1,8,2:2:0:0:
340,120,97405,2,0,L|295:261,1,143.999995605469,2|2,3:2|3:2,0:0:0:0:
184,330,97968,6,0,B|256:306|256:354|324:330,1,143.999995605469,4|0,3:2|0:0,0:0:0:0:
446,275,98530,1,0,3:3:0:0:
324,329,98718,2,0,B|252:305|252:353|184:329,1,143.999995605469,10|0,2:2|0:0,0:0:0:0:
66,275,99280,1,2,3:2:0:0:
196,192,99468,6,0,B|244:192|256:162|256:162|268:192|316:192,1,143.999995605469,6|10,3:2|2:2,0:0:0:0:
287,75,100030,2,0,B|255:59|255:59|223:75,1,71.9999978027344,6|0,3:2|0:0,0:0:0:0:
389,194,100405,1,8,2:2:0:0:
399,182,100499,1,8,2:2:0:0:
409,171,100593,1,10,2:2:0:0:
419,161,100686,1,8,2:3:0:0:
429,150,100780,1,4,2:3:0:0:
256,253,100968,5,14,2:2:0:0:
156,128,101155,1,0,0:0:0:0:
192,304,101343,5,10,2:2:0:0:
92,179,101530,1,2,3:2:0:0:
128,356,101718,5,8,2:2:0:0:
28,231,101905,1,2,3:2:0:0:
156,128,102093,5,8,2:2:0:0:
256,253,102280,1,2,3:2:0:0:
156,128,102468,6,0,L|216:72,1,80,10|0,2:2|0:0,0:0:0:0:
368,20,102843,5,10,2:2:0:0:
214,73,103030,1,2,3:2:0:0:
452,64,103218,5,8,2:2:0:0:
290,46,103405,1,2,3:2:0:0:
354,157,103593,5,10,2:2:0:0:
214,73,103780,1,0,3:3:0:0:
280,196,103968,6,0,L|320:268,1,80,10|0,2:2|0:0,0:0:0:0:
180,344,104343,5,10,2:2:0:0:
318,265,104530,1,2,3:2:0:0:
122,210,104718,5,8,2:2:0:0:
280,196,104905,1,2,3:2:0:0:
160,64,105093,5,8,2:2:0:0:
309,118,105280,1,2,3:2:0:0:
200,240,105468,6,0,L|180:320,1,80,8|0,2:2|0:0,0:0:0:0:
356,256,105843,5,10,2:2:0:0:
200,240,106030,1,0,3:3:0:0:
309,118,106218,5,10,2:2:0:0:
372,280,106405,1,8,2:2:0:0:
372,280,106499,1,8,2:2:0:0:
372,280,106593,1,10,2:2:0:0:
176,260,106780,1,8,2:3:0:0:
176,260,106874,1,8,2:3:0:0:
176,260,106968,5,14,3:2:0:0:
124,152,107155,1,8,3:2:0:0:
252,232,107343,1,8,3:2:0:0:
192,104,107530,1,10,3:2:0:0:
324,204,107718,1,10,3:2:0:0:
252,48,107905,5,8,3:2:0:0:
274,39,107998,1,8,2:2:0:0:
298,37,108092,1,8,3:2:0:0:
321,42,108186,1,8,2:2:0:0:
342,54,108280,1,8,3:2:0:0:
358,72,108373,1,8,2:2:0:0:
368,94,108467,1,4,3:2:0:0:
256,304,109030,5,2,2:2:0:0:
204,240,109218,2,0,P|256:215|308:240,2,120,2|2|2,2:2|2:2|2:2,0:0:0:0:
196,149,109968,6,0,P|255:129|318:148,1,128,6|2,3:2|2:2,0:0:0:0:
317,57,110530,2,0,P|256:39|196:59,2,128,2|2|2,2:2|2:2|3:2,0:0:0:0:
448,204,111468,1,2,3:2:0:0:
448,204,112030,2,0,B|388:224|388:180|324:204,1,128,2|0,2:2|3:3,0:0:0:0:
258,288,112593,1,8,2:2:0:0:
136,132,112968,6,0,B|200:108|200:152|260:132,1,128,6|2,3:2|2:2,0:0:0:0:
354,55,113530,2,0,B|294:75|294:31|230:55,2,128,2|2|2,2:2|2:2|3:2,0:0:0:0:
450,41,114468,1,2,3:2:0:0:
476,132,114655,2,0,B|496:192|452:192|476:256,2,128,4|6|6,2:3|2:2|3:2,0:0:0:0:
368,193,115593,1,8,2:2:0:0:
368,193,115968,6,0,P|326:187|288:206,1,71.9999978027344,2|0,3:2|0:0,0:0:0:0:
208,298,116343,2,0,P|250:304|288:285,1,71.9999978027344,2|2,3:2|2:2,0:0:0:0:
176,200,116718,2,0,P|135:196|96:217,1,71.9999978027344,0|2,3:3|2:2,0:0:0:0:
57,308,117093,1,0,3:2:0:0:
23,164,117280,1,2,2:2:0:0:
23,164,117374,1,0,0:0:0:0:
23,164,117468,6,0,L|135:49,1,143.999995605469,2|2,3:2|3:2,0:0:0:0:
123,60,118030,1,2,2:2:0:0:
278,63,118218,2,0,P|241:54|202:63,1,71.9999978027344,2|0,3:2|0:0,0:0:0:0:
303,168,118593,2,0,P|358:179|408:149,1,107.999996704102,2|8,3:2|3:2,0:0:0:0:
468,187,118968,6,0,P|414:244|344:256,1,143.999995605469,14|0,2:2|3:3,0:0:0:0:
248,280,119530,1,14,2:2:0:0:
248,280,119718,2,0,B|180:304|180:256|108:280,1,143.999995605469,2|8,3:2|2:2,0:0:0:0:
256,176,120468,5,2,2:2:0:0:
192,5,120843,1,2,2:2:0:0:
348,108,121218,1,2,2:2:0:0:
164,108,121593,1,6,2:3:0:0:
256,64,121780,1,2,2:2:0:0:
348,108,121968,6,0,P|420:108|468:156,1,143.999995605469,6|0,3:2|3:3,0:0:0:0:
468,156,122530,1,0,0:0:0:0:
348,108,122718,1,0,3:3:0:0:
348,244,122905,2,0,L|388:180,1,71.9999978027344,2|2,2:2|3:2,0:0:0:0:
256,196,123280,1,2,2:2:0:0:
256,196,123468,2,0,B|223:241|223:241|191:253|191:253|159:299,2,143.999995605469,0|0|0,3:3|3:3|3:3,0:0:0:0:
312,112,124405,1,0,0:0:0:0:
256,28,124593,1,8,3:2:0:0:
200,112,124780,1,2,2:2:0:0:
144,28,124968,6,0,B|76:52|76:4|4:28,1,143.999995605469,2|0,3:2|3:3,0:0:0:0:
4,128,125530,1,0,0:0:0:0:
3,28,125718,1,0,3:3:0:0:
4,128,125905,2,0,B|-12:160|-12:160|4:192,1,71.9999978027344,2|2,2:2|3:2,0:0:0:0:
72,268,126280,1,2,2:2:0:0:
72,268,126468,6,0,B|112:268|128:292|128:292|176:292,1,107.999996704102,0|0,3:3|0:0,0:0:0:0:
216,292,126843,2,0,B|260:292|260:292|276:316|316:316,1,107.999996704102,2|0,3:2|0:0,0:0:0:0:
356,340,127218,1,2,3:2:0:0:
424,264,127405,1,0,0:0:0:0:
488,184,127593,2,0,B|456:148|456:148|452:120|452:120|432:96,1,107.999996704102,10|0,3:2|0:0,0:0:0:0:
400,64,127968,6,0,B|376:84|376:84|348:88|348:88|312:120,1,107.999996704102,2|0,3:2|0:0,0:0:0:0:
280,148,128343,1,2,3:2:0:0:
212,76,128530,2,0,P|152:42|92:76,1,143.999995605469,2|0,2:2|0:0,0:0:0:0:
36,160,129093,1,0,3:3:0:0:
92,76,129280,1,2,2:2:0:0:
152,160,129468,6,0,L|192:260,1,107.999996704102,2|0,3:2|0:0,0:0:0:0:
208,300,129843,1,2,3:2:0:0:
304,328,130030,2,0,P|363:361|423:328,1,143.999995605469,2|2,2:2|2:2,0:0:0:0:
480,244,130593,1,8,3:2:0:0:
423,328,130780,1,2,2:2:0:0:
480,244,130968,6,0,B|452:204|452:204|452:176|452:176|432:148,1,107.999996704102,2|0,3:2|0:0,0:0:0:0:
404,116,131343,2,0,P|371:101|339:115,1,71.9999978027344,2|0,3:2|0:0,0:0:0:0:
224,192,131718,2,0,P|256:205|288:191,1,71.9999978027344,2|2,3:2|0:0,0:0:0:0:
172,115,132093,2,0,P|140:101|108:116,1,71.9999978027344,2|2,3:2|2:2,0:0:0:0:
32,244,132468,2,0,B|60:204|60:204|60:176|60:176|78:150,1,107.999996704102,6|0,3:2|0:0,0:0:0:0:
108,115,132843,1,2,3:2:0:0:
164,216,133030,1,0,0:0:0:0:
184,48,133218,5,10,2:2:0:0:
184,48,133311,1,8,2:2:0:0:
184,48,133405,1,0,3:3:0:0:
256,168,133593,1,10,2:2:0:0:
328,48,133780,1,8,2:2:0:0:
328,48,133874,1,8,2:2:0:0:
328,48,133968,6,0,L|495:105,1,160,4|10,3:2|2:2,0:0:0:0:
436,3,134530,1,0,0:0:0:0:
479,99,134718,2,0,B|484:138|484:138|456:167,1,80,0|2,3:3|2:2,0:0:0:0:
305,116,135093,2,0,B|299:76|299:76|327:47,1,80,10|2,2:2|2:2,0:0:0:0:
368,206,135468,6,0,B|292:234|292:178|212:206,1,160,0|8,3:3|2:2,0:0:0:0:
305,116,136030,1,0,0:0:0:0:
256,277,136218,1,2,3:2:0:0:
305,116,136405,1,0,0:0:0:0:
256,277,136593,2,0,P|194:287|148:258,1,120,10|0,2:2|0:0,0:0:0:0:
126,229,136968,5,2,3:2:0:0:
170,93,137155,1,0,0:0:0:0:
54,177,137343,1,10,2:2:0:0:
197,177,137530,1,2,2:2:0:0:
82,93,137718,1,0,3:3:0:0:
126,229,137905,1,2,2:2:0:0:
170,93,138093,1,8,2:2:0:0:
54,177,138280,1,2,2:2:0:0:
197,177,138468,6,0,B|277:149|277:205|353:177,1,160,0|10,3:3|2:2,0:0:0:0:
468,123,139030,1,0,0:0:0:0:
352,177,139218,1,2,3:2:0:0:
450,245,139405,1,0,0:0:0:0:
468,123,139593,1,10,2:2:0:0:
455,250,139780,1,0,0:0:0:0:
455,250,139874,1,0,0:0:0:0:
455,250,139968,6,0,B|428:298|428:298|389:318|389:318|358:373,1,160,6|10,3:2|2:2,0:0:0:0:
153,372,140530,2,0,B|124:319|124:319|85:299|85:299|58:251,1,160,2|0,2:2|0:0,0:0:0:0:
8,133,141093,1,8,2:2:0:0:
57,250,141280,1,2,2:2:0:0:
188,192,141468,6,0,B|240:192|256:159|256:159|272:192|324:192,1,160,2|10,3:2|2:2,0:0:0:0:
323,86,142030,2,0,P|255:51|188:87,1,160,2|0,2:2|0:0,0:0:0:0:
323,191,142593,1,8,2:2:0:0:
188,192,142780,1,2,2:2:0:0:
255,371,142968,6,0,B|227:295|283:295|255:215,1,160,2|10,3:2|2:2,0:0:0:0:
320,330,143530,1,2,2:2:0:0:
187,264,143718,1,0,3:3:0:0:
323,191,143905,1,2,2:2:0:0:
220,110,144093,2,0,B|256:93|256:93|292:110,1,80,10|2,2:2|2:2,0:0:0:0:
292,274,144468,6,0,B|256:291|256:291|220:274,1,80,0|2,3:3|2:2,0:0:0:0:
52,196,144843,2,0,B|144:168|120:233|207:201,1,160,12|10,2:2|2:2,0:0:0:0:
238,185,145311,1,8,2:2:0:0:
238,185,145405,1,0,3:3:0:0:
95,270,145593,1,14,2:2:0:0:
182,131,145780,1,0,0:0:0:0:
288,261,145968,5,6,3:2:0:0:
352,336,146155,2,0,P|424:336|472:280,1,143.999995605469,0|0,3:3|0:0,0:0:0:0:
464,140,146718,1,8,2:2:0:0:
464,140,146905,2,0,L|508:204,1,71.9999978027344,2|2,2:2|2:2,0:0:0:0:
384,200,147280,2,0,B|346:162|346:162|340:128|340:128|300:88,1,143.999995605469,2|0,3:2|3:3,0:0:0:0:
228,16,147843,5,2,2:2:0:0:
300,88,148030,1,0,3:3:0:0:
224,156,148218,1,10,2:2:0:0:
152,84,148405,1,0,0:0:0:0:
300,88,148593,2,0,B|340:92|340:92|360:108|360:108|404:112,1,107.999996704102,2|0,2:2|0:0,0:0:0:0:
444,120,148968,5,2,3:2:0:0:
400,208,149155,1,0,3:3:0:0:
360,300,149343,2,0,P|374:332|360:364,1,71.9999978027344,2|2,2:2|2:2,0:0:0:0:
224,267,149718,2,0,P|256:254|288:268,1,71.9999978027344,8|0,2:2|0:0,0:0:0:0:
153,364,150093,1,2,2:2:0:0:
153,364,150280,6,0,P|119:304|153:244,1,143.999995605469,2|0,3:2|3:3,0:0:0:0:
240,192,150843,2,0,L|188:92,1,107.999996704102,0|0,0:0|0:0,0:0:0:0:
168,60,151218,1,10,2:2:0:0:
268,80,151405,1,0,0:0:0:0:
128,148,151593,1,2,2:2:0:0:
128,148,151686,1,0,0:0:0:0:
128,148,151780,1,0,0:0:0:0:
240,192,151968,5,2,3:2:0:0:
336,224,152155,2,0,B|392:224|392:224|420:244|420:244|476:244,1,143.999995605469,0|0,3:3|0:0,0:0:0:0:
360,300,152718,1,8,2:2:0:0:
448,168,152905,2,0,B|464:136|464:136|448:104,1,71.9999978027344,2|2,2:2|2:2,0:0:0:0:
420,8,153280,2,0,B|382:45|382:45|348:51|348:51|308:91,1,143.999995605469,2|0,3:2|3:3,0:0:0:0:
203,91,153843,6,0,B|163:51|163:51|129:45|129:45|92:8,1,143.999995605469,2|10,2:2|2:2,0:0:0:0:
92,8,154405,1,0,0:0:0:0:
125,125,154593,2,0,L|176:176,1,71.9999978027344,2|0,2:2|0:0,0:0:0:0:
256,252,154968,1,2,3:2:0:0:
386,125,155155,2,0,L|336:176,1,71.9999978027344,0|0,3:3|0:0,0:0:0:0:
288,320,155530,2,0,P|255:334|223:320,1,71.9999978027344,2|10,2:2|2:2,0:0:0:0:
164,240,155905,1,0,0:0:0:0:
164,240,156093,1,0,3:3:0:0:
348,240,156280,6,0,B|360:204|360:204|380:188|380:188|396:144,1,107.999996704102,4|0,3:2|0:0,0:0:0:0:
408,108,156655,1,4,3:3:0:0:
480,16,156843,1,4,3:3:0:0:
512,128,157030,1,4,3:3:0:0:
356,8,157218,1,10,2:2:0:0:
356,8,157311,1,8,2:2:0:0:
356,8,157405,1,0,3:3:0:0:
256,112,157593,1,10,2:2:0:0:
156,8,157780,1,8,2:2:0:0:
156,8,157874,1,8,2:2:0:0:
156,8,157968,6,0,B|139:44|139:44|156:80,1,80,6|2,3:2|2:2,0:0:0:0:
356,80,158343,2,0,B|373:44|373:44|356:8,1,80,10|2,2:2|2:2,0:0:0:0:
199,153,158718,1,0,3:3:0:0:
313,153,158905,1,2,2:2:0:0:
254,259,159093,1,10,2:2:0:0:
199,153,159280,1,2,2:2:0:0:
409,259,159468,6,0,B|333:287|333:231|253:259,2,160,0|8|2,3:3|2:2|3:2,0:0:0:0:
291,337,160405,1,0,0:0:0:0:
366,190,160593,1,10,2:2:0:0:
450,318,160780,1,0,0:0:0:0:
291,337,160968,6,0,P|223:373|155:337,1,160,2|10,3:2|2:2,0:0:0:0:
104,220,161530,1,2,2:2:0:0:
155,337,161718,2,0,L|60:355,1,80,0|0,3:3|0:0,0:0:0:0:
25,234,162093,2,0,L|103:219,1,80,10|0,2:2|0:0,0:0:0:0:
302,201,162468,6,0,B|204:210|271:254|158:265,1,160,0|14,3:3|2:2,0:0:0:0:
301,284,163030,1,0,0:0:0:0:
224,143,163218,1,6,3:2:0:0:
388,194,163405,1,8,2:2:0:0:
388,194,163499,1,8,2:2:0:0:
388,194,163593,1,10,2:2:0:0:
224,143,163780,1,4,2:3:0:0:
224,143,163874,1,4,2:3:0:0:
224,143,163968,6,0,P|222:111|246:68,1,80,12|0,2:2|3:3,0:0:0:0:
408,120,164343,2,0,P|410:152|386:195,1,80,10|2,2:2|3:2,0:0:0:0:
201,144,164718,2,0,P|199:112|223:69,1,80,8|0,2:2|3:3,0:0:0:0:
324,23,165093,1,8,2:2:0:0:
123,64,165280,1,2,3:2:0:0:
123,64,165374,1,0,0:0:0:0:
123,64,165468,6,0,L|35:75,1,80,10|0,2:2|3:3,0:0:0:0:
14,203,165843,2,0,L|93:193,1,80,10|2,2:2|3:2,0:0:0:0:
133,38,166218,2,0,L|45:49,1,80,8|2,2:2|3:2,0:0:0:0:
201,144,166593,1,10,2:2:0:0:
307,42,166780,1,10,2:2:0:0:
307,42,166874,1,8,2:2:0:0:
307,42,166968,6,0,P|343:61|370:108,1,80,4|2,3:2|2:2,0:0:0:0:
354,252,167343,2,0,P|318:233|291:186,1,80,10|4,2:2|2:3,0:0:0:0:
281,170,167624,1,8,2:3:0:0:
281,170,167718,1,8,3:3:0:0:
253,305,167905,1,8,2:3:0:0:
422,191,168093,1,8,2:2:0:0:
258,310,168280,1,0,0:0:0:0:
258,310,168374,1,0,0:0:0:0:
258,310,168468,6,0,L|174:300,1,80,0|0,3:3|0:0,0:0:0:0:
53,286,168843,1,10,2:2:0:0:
226,201,169030,1,4,2:3:0:0:
226,201,169124,1,8,2:3:0:0:
226,201,169218,2,0,L|142:191,1,80,10|10,3:3|2:3,0:0:0:0:
188,72,169593,5,8,2:2:0:0:
217,45,169686,1,8,2:2:0:0:
255,36,169780,1,2,3:2:0:0:
294,45,169874,1,0,0:0:0:0:
323,71,169968,1,4,3:2:0:0:
412,191,170155,5,10,2:2:0:0:
454,200,170249,1,8,2:2:0:0:
489,173,170343,1,10,3:2:0:0:
489,129,170436,1,8,2:2:0:0:
454,101,170530,1,8,2:2:0:0:
412,111,170624,1,8,2:2:0:0:
392,151,170718,6,0,P|357:168|345:183,1,40,8|8,3:2|2:2,0:0:0:0:
313,277,170905,2,0,P|348:260|360:245,1,40,8|8,2:2|2:2,0:0:0:0:
223,209,171093,2,0,P|188:226|176:241,1,40,8|8,3:2|2:2,0:0:0:0:
166,330,171280,1,6,3:2:0:0:
258,102,171655,5,10,2:3:0:0:
258,102,171749,1,8,2:3:0:0:
258,102,171843,1,10,2:2:0:0:
342,193,172030,1,4,2:3:0:0:
371,219,172124,1,4,2:3:0:0:
410,228,172218,1,6,2:3:0:0:
448,219,172312,1,0,0:0:0:0:
478,193,172405,1,8,3:3:0:0:
295,286,172593,6,0,P|208:264|144:320,1,180.000006866455,10|0,2:2|0:0,0:0:0:0:
120,352,172968,5,6,3:2:0:0:
40,216,173155,1,0,0:0:0:0:
40,216,173249,1,0,0:0:0:0:
40,216,173343,2,0,P|24:175|39:135,1,88.000002685547,10|2,2:2|2:2,0:0:0:0:
136,32,173718,1,0,3:3:0:0:
39,135,173905,1,2,2:2:0:0:
136,32,174093,2,0,P|176:16|216:31,1,88.000002685547,8|2,2:2|2:2,0:0:0:0:
340,104,174468,5,0,3:3:0:0:
460,32,174655,1,2,2:2:0:0:
460,172,174843,2,0,B|432:216|432:216|432:248|432:248|408:292,1,132.00000402832,10|0,2:2|0:0,0:0:0:0:
388,324,175218,1,0,3:3:0:0:
256,252,175405,1,0,0:0:0:0:
124,324,175593,1,10,2:2:0:0:
256,224,175780,1,0,0:0:0:0:
256,224,175874,1,0,0:0:0:0:
256,224,175968,6,0,P|280:164|256:104,1,132.00000402832,2|0,3:2|0:0,0:0:0:0:
232,68,176343,1,10,2:2:0:0:
376,132,176530,2,0,L|460:96,1,88.000002685547,2|0,2:2|3:3,0:0:0:0:
312,33,176905,2,0,L|228:69,1,88.000002685547,2|8,2:2|2:2,0:0:0:0:
100,120,177280,1,2,2:2:0:0:
164,244,177468,1,0,3:3:0:0:
295,191,177655,1,2,2:2:0:0:
231,67,177843,2,0,P|272:28|344:32,1,132.00000402832,8|0,2:2|0:0,0:0:0:0:
384,52,178218,5,2,3:2:0:0:
492,144,178405,1,0,0:0:0:0:
384,236,178593,1,10,2:2:0:0:
492,328,178780,1,0,0:0:0:0:
492,328,178874,1,0,0:0:0:0:
492,328,178968,2,0,B|448:328|448:328|404:348|404:348|360:348,1,132.00000402832,6|0,3:2|0:0,0:0:0:0:
320,348,179343,1,10,2:2:0:0:
256,224,179530,1,2,2:2:0:0:
192,348,179718,1,0,3:3:0:0:
216,156,179905,6,0,B|256:138|256:138|296:156,1,88.000002685547,2|10,2:2|2:2,0:0:0:0:
432,200,180280,1,2,2:2:0:0:
432,200,180468,2,0,L|500:32,1,176.000005371094,0|8,3:3|2:2,0:0:0:0:
498,36,181030,1,0,0:0:0:0:
512,216,181218,2,0,L|476:304,1,88.000002685547,2|0,3:2|0:0,0:0:0:0:
464,336,181499,1,2,2:2:0:0:
464,336,181593,1,8,2:2:0:0:
336,276,181780,1,2,2:2:0:0:
208,216,181968,6,0,P|136:216|92:172,1,132.00000402832,2|0,3:2|0:0,0:0:0:0:
76,136,182343,1,8,2:2:0:0:
208,216,182530,2,0,L|270:153,2,88.000002685547,2|2|0,2:2|3:2|0:0,0:0:0:0:
112,320,183093,1,8,2:2:0:0:
214,221,183280,1,0,0:0:0:0:
214,221,183374,1,0,0:0:0:0:
214,221,183468,2,0,B|254:257|254:257|286:261|286:261|318:293,1,132.00000402832,0|0,3:3|0:0,0:0:0:0:
344,320,183843,5,14,2:2:0:0:
344,320,184030,1,0,0:0:0:0:
464,192,184218,1,6,3:2:0:0:
464,192,184405,1,0,0:0:0:0:
344,64,184593,1,14,2:2:0:0:
224,192,184780,1,8,2:2:0:0:
224,192,184874,1,8,2:2:0:0:
224,192,184968,6,0,P|218:152|242:106,1,88.000002685547,6|0,3:2|0:0,0:0:0:0:
344,320,185343,2,0,P|305:339|262:333,1,88.000002685547,10|2,2:2|2:2,0:0:0:0:
464,192,185718,2,0,P|483:230|477:273,1,88.000002685547,0|2,3:3|2:2,0:0:0:0:
344,64,186093,2,0,P|382:44|425:50,1,88.000002685547,8|2,2:2|2:2,0:0:0:0:
457,71,186374,1,0,0:0:0:0:
457,71,186468,5,0,3:3:0:0:
378,192,186655,1,2,2:2:0:0:
255,81,186843,2,0,P|212:68|136:114,1,132.00000402832,10|0,2:2|0:0,0:0:0:0:
131,147,187218,1,0,3:3:0:0:
253,241,187405,1,0,0:0:0:0:
255,81,187593,1,10,2:2:0:0:
175,213,187780,1,0,0:0:0:0:
175,213,187874,1,0,0:0:0:0:
175,213,187968,6,0,P|110:263|22:248,1,176.000005371094,2|10,3:2|2:2,0:0:0:0:
175,213,188530,1,2,2:2:0:0:
255,286,188718,1,0,3:3:0:0:
337,213,188905,1,0,0:0:0:0:
256,146,189093,1,8,2:2:0:0:
255,286,189280,1,2,2:2:0:0:
255,286,189374,1,0,0:0:0:0:
255,286,189468,6,0,B|360:273|317:339|427:311,1,176.000005371094,6|10,3:2|2:2,0:0:0:0:
388,232,190030,2,0,P|411:196|416:153,1,88.000002685547,6|0,3:2|0:0,0:0:0:0:
207,222,190405,1,10,2:2:0:0:
207,222,190499,1,8,2:2:0:0:
207,222,190593,2,0,P|182:262|181:317,1,88.000002685547,8|6,2:2|2:3,0:0:0:0:
300,221,190968,6,0,L|324:77,1,143.999995605469,4|2,3:2|2:2,0:0:0:0:
399,148,191530,1,0,3:3:0:0:
230,79,191718,2,0,L|206:221,1,143.999995605469,8|0,2:2|0:0,0:0:0:0:
111,126,192280,1,2,3:2:0:0:
230,79,192468,6,0,B|302:55|302:103|370:79,1,143.999995605469,2|2,3:2|2:2,0:0:0:0:
484,76,193030,1,2,3:2:0:0:
484,76,193218,1,8,2:2:0:0:
448,184,193405,2,0,B|424:252|472:252|448:324,1,143.999995605469,2|2,3:2|3:2,0:0:0:0:
324,333,193968,6,0,B|256:357|256:309|184:333,2,143.999995605469,4|0|10,3:2|0:0|2:2,0:0:0:0:
192,192,195093,1,0,0:0:0:0:
320,192,195280,1,2,3:2:0:0:
255,102,195468,2,0,P|181:92|119:133,1,143.999995605469,6|10,3:2|2:2,0:0:0:0:
128,293,196030,2,0,P|180:305|228:281,1,107.999996704102,6|0,3:2|0:0,0:0:0:0:
249,253,196405,1,8,2:2:0:0:
273,225,196499,1,8,2:2:0:0:
297,198,196593,1,10,2:2:0:0:
319,170,196686,1,8,2:3:0:0:
342,142,196780,1,4,2:3:0:0:
472,240,196968,5,14,2:2:0:0:
342,142,197155,1,0,0:0:0:0:
496,152,197343,5,10,2:2:0:0:
359,240,197530,1,2,3:2:0:0:
328,68,197718,5,8,2:2:0:0:
267,219,197905,1,2,3:2:0:0:
244,48,198093,6,0,L|216:128,1,80,8|2,2:2|3:2,0:0:0:0:
168,276,198468,5,10,2:2:0:0:
217,123,198655,1,0,0:0:0:0:
272,256,198843,5,10,2:2:0:0:
119,207,199030,1,2,3:2:0:0:
64,74,199218,5,8,2:2:0:0:
217,123,199405,1,2,3:2:0:0:
168,276,199593,6,0,L|148:364,1,80,10|0,2:2|3:3,0:0:0:0:
328,298,199968,5,10,2:2:0:0:
168,276,200155,1,0,0:0:0:0:
376,224,200343,5,10,2:2:0:0:
247,321,200530,1,2,3:2:0:0:
408,336,200718,5,8,2:2:0:0:
279,239,200905,1,2,3:2:0:0:
404,136,201093,6,0,L|424:56,1,80,8|2,2:2|3:2,0:0:0:0:
264,32,201468,5,8,2:2:0:0:
423,58,201655,1,0,0:0:0:0:
320,168,201843,5,10,2:2:0:0:
346,9,202030,1,0,3:3:0:0:
204,180,202218,5,10,2:2:0:0:
334,85,202405,1,8,2:2:0:0:
334,85,202499,1,8,2:2:0:0:
334,85,202593,1,10,2:2:0:0:
416,224,202780,1,8,2:3:0:0:
416,224,202874,1,8,2:3:0:0:
416,224,202968,5,14,3:2:0:0:
364,332,203155,1,8,3:2:0:0:
340,192,203343,1,8,3:2:0:0:
284,320,203530,1,10,3:2:0:0:
264,168,203718,1,10,3:2:0:0:
200,336,203905,5,8,3:2:0:0:
178,345,203998,1,8,2:2:0:0:
154,347,204092,1,8,3:2:0:0:
131,342,204186,1,8,2:2:0:0:
110,330,204280,1,8,3:2:0:0:
94,312,204373,1,8,2:2:0:0:
84,290,204467,1,4,3:2:0:0:
176,64,205030,5,2,2:2:0:0:
176,64,205218,2,0,P|232:64|272:16,2,120,2|2|2,2:2|2:2|2:2,0:0:0:0:
144,176,205968,6,0,L|121:311,1,128,10|8,3:2|2:2,0:0:0:0:
48,221,206530,1,0,3:3:0:0:
210,229,206718,2,0,L|187:364,1,128,8|8,2:2|2:2,0:0:0:0:
307,287,207280,1,0,3:3:0:0:
264,168,207468,6,0,P|203:153|141:178,1,128,10|10,3:2|2:2,0:0:0:0:
186,294,208030,2,0,P|247:309|309:284,1,128,2|2,3:2|3:2,0:0:0:0:
371,190,208593,1,10,2:2:0:0:
306,286,208780,1,2,3:2:0:0:
495,189,208968,6,0,B|435:209|435:165|371:189,2,128,8|8|8,3:2|2:2|2:2,0:0:0:0:
256,284,210093,1,8,2:2:0:0:
296,191,210280,1,2,3:2:0:0:
194,208,210468,6,0,P|135:195|53:236,1,128,10|10,3:2|2:2,0:0:0:0:
144,286,211030,1,2,3:2:0:0:
73,185,211218,2,0,P|132:162|194:175,1,128,8|8,2:2|2:2,0:0:0:0:
334,244,211780,1,2,3:2:0:0:
285,151,211968,6,0,L|213:283,1,128,8|8,3:2|2:2,0:0:0:0:
401,174,212530,2,0,L|339:61,1,128,0|0,3:3|3:3,0:0:0:0:
215,76,213093,2,0,L|172:154,1,64,10|2,2:2|3:2,0:0:0:0:
131,240,213468,2,0,B|195:216|195:260|255:240,1,128,8|8,3:2|2:2,0:0:0:0:
361,192,214030,1,0,3:3:0:0:
255,239,214218,2,0,B|191:215|191:259|131:239,1,128,10|10,2:2|2:2,0:0:0:0:
255,310,214968,6,0,P|296:299|328:226,1,128,10|10,3:2|2:2,0:0:0:0:
268,142,215530,2,0,P|227:153|195:226,1,128,2|0,3:2|3:3,0:0:0:0:
151,309,216093,2,0,L|88:282,1,64,10|0,2:2|3:3,0:0:0:0:
170,205,216468,6,0,P|186:145|242:120,1,128,10|10,3:2|2:2,0:0:0:0:
373,98,217030,1,10,3:3:0:0:
373,98,217124,1,8,2:3:0:0:
373,98,217218,1,4,2:3:0:0:
323,193,217405,1,6,2:3:0:0:
242,120,217593,1,10,3:3:0:0:
408,169,217780,1,0,0:0:0:0:
249,216,217968,6,0,P|212:216|184:236,1,71.9999978027344,4|0,3:2|0:0,0:0:0:0:
88,272,218343,1,0,3:3:0:0:
88,272,218530,2,0,L|32:128,1,143.999995605469,2|0,0:0|0:0,0:0:0:0:
96,56,219093,1,2,3:2:0:0:
180,112,219280,1,0,0:0:0:0:
236,28,219468,6,0,P|308:28|352:80,1,143.999995605469,2|2,3:2|3:2,0:0:0:0:
388,172,220030,2,0,P|434:224|503:223,1,143.999995605469,6|4,2:3|2:3,0:0:0:0:
480,124,220593,1,2,3:2:0:0:
480,124,220780,1,0,0:0:0:0:
412,244,220968,6,0,B|381:287|381:287|348:299|348:299|316:345,1,143.999995605469,2|2,3:2|3:2,0:0:0:0:
256,264,221530,1,2,2:2:0:0:
195,345,221718,2,0,B|163:299|163:299|130:287|130:287|100:244,1,143.999995605469,0|2,3:3|3:2,0:0:0:0:
36,164,222280,1,6,2:3:0:0:
104,88,222468,6,0,P|136:74|168:88,1,71.9999978027344,0|4,3:3|2:3,0:0:0:0:
288,164,222843,2,0,P|255:178|223:164,1,71.9999978027344,0|4,3:3|2:3,0:0:0:0:
343,88,223218,2,0,P|375:74|408:88,1,71.9999978027344,0|0,3:3|0:0,0:0:0:0:
480,160,223593,1,2,3:2:0:0:
408,232,223780,1,0,0:0:0:0:
288,164,223968,5,10,2:2:0:0:
220,280,224155,1,8,2:2:0:0:
340,348,224343,1,8,2:2:0:0:
408,232,224530,1,8,2:2:0:0:
408,232,224624,1,8,2:2:0:0:
408,232,224718,2,0,L|432:196,3,40,8|8|10|8,2:2|2:2|2:2|2:2,0:0:0:0:
408,156,225093,2,0,L|432:120,3,40,10|8|10|8,2:2|2:2|2:2|2:2,0:0:0:0:
424,76,225468,5,8,2:2:0:0:
403,42,225561,1,8,2:2:0:0:
369,23,225655,1,8,2:2:0:0:
329,25,225749,1,8,2:2:0:0:
296,47,225843,1,10,2:2:0:0:
276,80,225936,1,8,2:2:0:0:
255,113,226029,1,8,2:2:0:0:
221,132,226123,1,8,2:2:0:0:
181,130,226217,5,10,2:2:0:0:
148,108,226311,1,8,2:2:0:0:
116,84,226405,1,8,2:2:0:0:
76,87,226498,1,8,2:2:0:0:
45,110,226592,1,10,2:2:0:0:
30,147,226686,1,8,2:2:0:0:
36,186,226780,1,8,2:2:0:0:
62,217,226874,1,8,2:2:0:0:
99,232,226968,6,0,B|153:246|153:246|181:278|181:278|239:294,1,160,6|0,3:2|0:0,0:0:0:0:
380,268,227530,2,0,B|325:253|325:253|297:221|297:221|239:205,1,160,4|4,3:3|3:3,0:0:0:0:
168,68,228093,1,14,2:2:0:0:
256,12,228280,1,2,2:2:0:0:
344,68,228468,1,0,0:0:0:0:
256,124,228655,1,4,2:3:0:0:
256,124,228749,1,4,2:3:0:0:
256,124,228843,2,0,B|276:184|236:184|256:244,1,120,4|0,2:3|0:0,0:0:0:0:
256,284,229218,5,14,2:2:0:0:
184,156,229405,1,0,3:3:0:0:
332,216,229593,2,0,B|389:196|389:236|452:216,1,120,14|0,2:2|0:0,0:0:0:0:
492,216,229968,5,14,2:2:0:0:
364,288,230155,1,0,3:3:0:0:
364,288,230343,1,0,3:3:0:0:
446,123,230530,5,12,2:2:0:0:
332,216,230717,1,0,3:3:0:0:
332,216,230905,1,0,3:3:0:0:
368,52,231093,5,14,2:2:0:0:
271,163,231280,1,2,3:2:0:0:
271,163,231468,1,4,3:2:0:0:
272,0,231655,5,10,2:2:0:0:
195,126,231842,1,8,2:2:0:0:
195,126,232030,1,2,3:2:0:0:
368,52,232218,5,8,2:2:0:0:
368,52,232311,1,8,2:2:0:0:
368,52,232405,1,2,3:2:0:0:
332,216,232593,1,10,2:2:0:0:
299,248,232686,1,8,2:2:0:0:
256,266,232780,1,8,2:2:0:0:
213,248,232874,1,8,2:2:0:0:
180,216,232968,6,0,P|143:200|107:215,1,80,6|0,3:2|0:0,0:0:0:0:
28,293,233343,1,8,2:2:0:0:
126,318,233530,1,0,0:0:0:0:
30,208,233718,2,0,L|22:122,1,80,0|0,3:3|0:0,0:0:0:0:
111,128,234093,2,0,L|103:42,1,80,8|0,2:2|0:0,0:0:0:0:
219,83,234468,6,0,B|307:65|274:124|374:101,1,160,2|8,3:2|2:2,0:0:0:0:
467,152,235030,2,0,L|408:304,1,160,2|0,2:2|0:0,0:0:0:0:
292,246,235593,2,0,B|256:263|256:263|220:246,1,80,10|0,2:2|0:0,0:0:0:0:
328,310,235968,6,0,B|256:346|256:346|184:310,1,160,2|8,3:2|2:2,0:0:0:0:
323,154,236530,2,0,B|271:154|255:187|255:187|239:154|187:154,1,160,0|0,0:0|0:0,0:0:0:0:
257,52,237093,1,10,2:2:0:0:
188,184,237280,1,2,2:2:0:0:
188,184,237374,1,0,0:0:0:0:
188,184,237468,6,0,B|240:184|256:217|256:217|272:184|324:184,1,160,2|10,3:2|2:2,0:0:0:0:
453,115,238030,1,0,0:0:0:0:
420,224,238218,1,2,3:2:0:0:
369,90,238405,1,0,0:0:0:0:
369,90,238499,1,0,0:0:0:0:
369,90,238593,2,0,L|425:18,1,80,10|0,2:2|0:0,0:0:0:0:
258,90,238968,6,0,B|182:118|182:62|102:90,1,160,6|8,3:2|2:2,0:0:0:0:
102,89,239530,2,0,B|178:117|178:61|258:89,1,160,2|0,2:2|0:0,0:0:0:0:
335,191,240093,1,10,2:2:0:0:
257,296,240280,1,0,0:0:0:0:
257,296,240374,1,0,0:0:0:0:
257,296,240468,6,0,B|177:268|177:324|101:296,1,160,0|10,3:3|2:2,0:0:0:0:
201,366,241030,1,0,0:0:0:0:
136,232,241218,1,2,3:2:0:0:
44,354,241405,1,0,0:0:0:0:
136,232,241593,1,10,2:2:0:0:
201,366,241780,1,0,0:0:0:0:
201,366,241874,1,0,0:0:0:0:
201,366,241968,6,0,B|277:394|277:338|357:366,1,160,2|10,3:2|2:2,0:0:0:0:
356,365,242530,2,0,B|280:393|280:337|200:365,1,160,2|0,2:2|0:0,0:0:0:0:
119,288,243093,1,10,2:2:0:0:
198,203,243280,1,0,0:0:0:0:
198,203,243374,1,0,0:0:0:0:
198,203,243468,6,0,B|211:153|211:153|194:111|194:111|212:40,1,160,2|10,3:2|2:2,0:0:0:0:
120,160,244030,1,0,0:0:0:0:
276,100,244218,1,2,3:2:0:0:
276,100,244311,1,0,0:0:0:0:
276,100,244405,1,0,0:0:0:0:
251,237,244593,1,10,2:2:0:0:
251,237,244686,1,8,2:2:0:0:
251,237,244780,1,8,2:3:0:0:
120,160,244968,6,0,P|84:227|120:295,1,160,6|8,3:2|2:2,0:0:0:0:
252,373,245530,2,0,P|287:305|251:237,1,160,0|0,0:0|0:0,0:0:0:0:
244,88,246093,2,0,L|204:167,1,80,10|2,2:2|2:2,0:0:0:0:
337,142,246468,6,0,B|421:113|389:176|495:149,1,160,2|10,3:2|2:2,0:0:0:0:
244,88,247030,2,0,P|208:155|244:223,1,160,2|2,2:2|2:2,0:0:0:0:
352,283,247593,1,8,2:2:0:0:
244,348,247780,1,2,2:2:0:0:
244,348,247874,1,0,0:0:0:0:
244,348,247968,6,0,P|200:348|172:324,1,80,0|0,3:3|0:0,0:0:0:0:
92,248,248343,1,8,2:2:0:0:
92,248,248530,2,0,L|140:84,1,160,0|0,0:0|0:0,0:0:0:0:
256,28,249093,1,10,2:2:0:0:
375,94,249280,1,2,2:2:0:0:
375,94,249374,1,0,0:0:0:0:
375,94,249468,6,0,L|420:248,1,160,2|10,3:2|2:2,0:0:0:0:
320,332,250030,2,0,L|275:178,1,160,2|2,2:2|2:2,0:0:0:0:
244,72,250593,1,8,2:2:0:0:
124,144,250780,1,2,2:2:0:0:
124,144,250874,1,0,0:0:0:0:
124,144,250968,6,0,P|44:144|-4:204,1,160,6|8,3:2|2:2,0:0:0:0:
44,304,251530,2,0,P|124:304|172:244,1,160,0|0,0:0|0:0,0:0:0:0:
124,144,252093,1,10,2:2:0:0:
72,44,252280,1,2,2:2:0:0:
184,44,252468,2,0,B|228:44|228:44|252:60|252:60|300:60,1,120,2|0,3:2|0:0,0:0:0:0:
340,60,252843,2,0,P|384:60|416:88,1,80,10|0,2:2|0:0,0:0:0:0:
376,188,253218,2,0,P|332:188|300:160,1,80,2|0,3:2|0:0,0:0:0:0:
224,88,253593,1,10,2:2:0:0:
124,200,253780,1,0,0:0:0:0:
124,200,253874,1,0,0:0:0:0:
124,200,253968,6,0,B|156:245|156:245|157:289|157:289|191:338,1,160,2|8,3:2|2:2,0:0:0:0:
320,338,254530,1,0,0:0:0:0:
320,338,254624,1,0,0:0:0:0:
320,338,254718,2,0,B|354:289|354:289|355:245|355:245|388:200,1,160,0|10,3:3|2:2,0:0:0:0:
308,100,255280,1,2,2:2:0:0:
308,100,255374,1,0,0:0:0:0:
308,100,255468,6,0,P|256:74|204:100,1,120,2|0,3:2|0:0,0:0:0:0:
256,152,255843,1,10,2:2:0:0:
300,287,256030,1,0,0:0:0:0:
184,203,256218,1,2,3:2:0:0:
327,203,256405,1,0,0:0:0:0:
212,287,256593,1,10,2:2:0:0:
152,120,256780,1,0,0:0:0:0:
152,120,256874,1,0,0:0:0:0:
152,120,256968,6,0,P|136:48|204:16,1,160,6|8,3:2|2:2,0:0:0:0:
360,119,257530,2,0,P|375:47|308:15,2,160,8|4|8,2:2|2:3|2:3,0:0:0:0:
256,168,258468,1,8,2:3:0:0:
256,348,258843,5,2,2:2:0:0:
232,332,259218,1,2,2:2:0:0:
208,316,259593,1,2,2:2:0:0:
184,300,259968,6,0,B|124:320|124:276|60:300,1,128,2|2,2:2|2:2,0:0:0:0:
159,224,260530,2,0,B|223:200|223:244|283:224,2,128,2|2|2,2:2|2:2|2:2,0:0:0:0:
94,129,261468,1,0,0:0:0:0:
159,224,261655,1,2,2:2:0:0:
94,129,261843,2,0,B|154:98|210:122|210:122|271:133|323:77,1,224,2|0,2:2|0:0,0:0:0:0:
337,64,262593,2,0,P|386:58|432:82,1,96,2|0,2:2|0:0,0:0:0:0:
440,106,262968,6,0,L|334:213,1,128,2|2,2:2|2:2,0:0:0:0:
353,311,263530,2,0,B|276:288|205:332|205:332|160:324|143:278,1,224,2|0,2:2|0:0,0:0:0:0:
134,257,264280,1,2,2:2:0:0:
204,176,264468,6,0,B|244:176|256:147|256:147|268:176|308:176,1,128,2|2,2:2|2:2,0:0:0:0:
308,84,265030,2,0,P|255:52|204:84,1,128,2|2,2:2|2:2,0:0:0:0:
55,109,265593,2,0,L|140:176,1,96,2|0,2:2|0:0,0:0:0:0:
165,195,265968,2,0,B|199:223|184:279|184:279|122:339,1,160,2|0,0:0|0:0,0:0:0:0:
153,360,266530,2,0,B|230:296|230:296|233:256|224:213,1,160,2|0,0:0|0:0,0:0:0:0:
260,203,267093,2,0,P|301:188|355:207,1,96,2|0,0:0|0:0,0:0:0:0:
388,220,267468,6,0,P|448:232|503:195,1,128,2|2,2:2|2:2,0:0:0:0:
390,111,268030,2,0,P|330:99|275:136,1,128,2|0,2:2|0:0,0:0:0:0:
251,241,268593,1,2,2:2:0:0:
177,190,268780,1,2,2:2:0:0:
276,133,268968,2,0,L|143:75,2,128,2|2|2,0:0|2:2|2:2,0:0:0:0:
128,200,270093,2,0,P|119:234|127:266,1,64,2|0,2:2|0:0,0:0:0:0:
172,340,270468,6,0,B|112:360|112:316|48:340,1,128,2|2,2:2|2:2,0:0:0:0:
47,340,271030,1,0,0:0:0:0:
124,261,271218,2,0,P|118:229|127:199,1,64,2|4,2:2|2:3,0:0:0:0:
187,118,271593,2,0,P|230:110|280:147,1,96,10|0,2:3|0:0,0:0:0:0:
299,174,271968,6,0,B|371:150|371:198|439:174,1,143.999995605469,2|2,3:2|3:2,0:0:0:0:
340,248,272530,2,0,B|268:272|268:224|200:248,1,143.999995605469,2|2,2:2|2:2,0:0:0:0:
96,284,273093,1,0,3:3:0:0:
56,184,273280,1,2,2:2:0:0:
159,148,273468,1,0,3:3:0:0:
199,248,273655,1,2,2:2:0:0:
96,284,273843,2,0,P|36:288|-8:224,2,143.999995605469,2|0|2,3:2|3:3|3:2,0:0:0:0:
199,248,274780,1,0,0:0:0:0:
300,212,274968,6,0,B|323:262|323:262|317:296|317:296|341:347,1,143.999995605469,2|2,3:2|3:2,0:0:0:0:
412,252,275530,1,2,2:2:0:0:
412,252,275718,2,0,B|388:201|388:201|394:167|394:167|370:116,1,143.999995605469,0|0,3:3|3:3,0:0:0:0:
324,24,276280,1,2,2:2:0:0:
188,24,276468,2,0,P|116:24|64:72,1,143.999995605469,2|2,3:2|3:2,0:0:0:0:
184,156,277030,1,2,2:2:0:0:
184,156,277218,2,0,L|148:92,2,71.9999978027344,0|2|2,3:3|2:2|3:2,0:0:0:0:
256,236,277780,1,0,0:0:0:0:
328,156,277968,6,0,P|388:122|448:156,1,143.999995605469,0|0,3:3|3:3,0:0:0:0:
388,248,278530,1,0,0:0:0:0:
328,156,278718,2,0,L|248:32,1,143.999995605469,0|0,3:3|3:3,0:0:0:0:
249,34,279280,1,2,2:2:0:0:
176,136,279468,2,0,L|256:260,1,143.999995605469,2|2,3:2|3:2,0:0:0:0:
316,344,280030,1,2,2:2:0:0:
384,260,280218,2,0,P|416:246|448:260,1,71.9999978027344,0|0,3:3|0:0,0:0:0:0:
380,344,280593,2,0,P|348:358|316:344,1,71.9999978027344,2|2,3:2|2:2,0:0:0:0:
256,228,280968,5,0,3:3:0:0:
196,343,281155,1,0,0:0:0:0:
196,343,281249,1,8,2:3:0:0:
196,343,281343,2,0,P|164:357|132:344,1,71.9999978027344,8|4,3:3|2:3,0:0:0:0:
72,228,281718,1,4,3:3:0:0:
72,228,281811,1,0,0:0:0:0:
72,228,281905,1,4,3:3:0:0:
164,136,282093,1,4,3:3:0:0:
256,228,282280,1,4,3:2:0:0:
256,228,282843,6,0,B|320:204|320:248|380:228,1,128,2|2,2:2|2:2,0:0:0:0:
292,304,283405,1,0,0:0:0:0:
292,304,283593,2,0,B|244:292|244:320|196:304,1,96,2|0,2:2|0:0,0:0:0:0:
156,304,283968,5,6,3:2:0:0:
48,184,284155,1,0,0:0:0:0:
48,184,284249,1,0,0:0:0:0:
48,184,284343,2,0,L|96:101,1,88.000002685547,10|2,2:2|2:2,0:0:0:0:
209,94,284718,2,0,L|161:177,1,88.000002685547,0|2,3:3|2:2,0:0:0:0:
306,90,285093,1,8,2:2:0:0:
352,193,285280,1,2,2:2:0:0:
352,193,285374,1,0,0:0:0:0:
352,193,285468,6,0,B|312:211|312:211|272:193,1,88.000002685547,0|2,3:3|2:2,0:0:0:0:
372,264,285843,2,0,B|312:292|312:292|252:264,1,132.00000402832,10|0,2:2|0:0,0:0:0:0:
272,352,286218,6,0,B|312:370|312:370|352:352,1,88.000002685547,0|0,3:3|0:0,0:0:0:0:
451,310,286593,1,10,2:2:0:0:
434,192,286780,1,0,0:0:0:0:
434,192,286874,1,0,0:0:0:0:
434,192,286968,6,0,L|406:17,1,176.000005371094,2|10,3:2|2:2,0:0:0:0:
438,197,287530,1,2,2:2:0:0:
438,197,287624,1,0,0:0:0:0:
438,197,287718,2,0,P|398:212|358:197,1,88.000002685547,0|2,3:3|2:2,0:0:0:0:
216,103,288093,2,0,P|256:87|296:102,1,88.000002685547,8|2,2:2|2:2,0:0:0:0:
159,191,288468,5,0,3:3:0:0:
216,103,288655,1,2,2:2:0:0:
100,99,288843,2,0,P|48:90|-28:135,1,132.00000402832,8|0,2:2|0:0,0:0:0:0:
49,164,289218,2,0,L|78:255,1,88.000002685547,2|0,3:2|0:0,0:0:0:0:
100,342,289593,1,10,2:2:0:0:
215,283,289780,1,0,0:0:0:0:
215,283,289874,1,0,0:0:0:0:
215,283,289968,6,0,B|299:251|299:315|387:283,1,176.000005371094,6|10,3:2|2:2,0:0:0:0:
257,360,290530,1,2,2:2:0:0:
347,215,290718,1,0,3:3:0:0:
420,355,290905,1,2,2:2:0:0:
257,360,291093,1,10,2:2:0:0:
347,215,291280,1,2,2:2:0:0:
347,215,291374,1,0,0:0:0:0:
347,215,291468,6,0,P|384:139|346:63,1,176.000005371094,0|8,3:3|2:2,0:0:0:0:
255,17,292030,1,0,0:0:0:0:
161,86,292218,1,2,3:2:0:0:
256,139,292405,1,0,0:0:0:0:
256,139,292499,1,2,2:2:0:0:
256,139,292593,1,8,2:2:0:0:
160,212,292780,1,2,2:2:0:0:
160,212,292874,1,0,0:0:0:0:
160,212,292968,6,0,B|254:197|213:276|324:245,1,176.000005371094,2|8,3:2|2:2,0:0:0:0:
176,288,293530,1,2,2:2:0:0:
294,168,293718,1,2,3:2:0:0:
323,330,293905,1,0,0:0:0:0:
176,288,294093,1,8,2:2:0:0:
294,168,294280,1,0,0:0:0:0:
294,168,294374,1,0,0:0:0:0:
294,168,294468,6,0,B|368:160|332:208|424:196,1,132.00000402832,0|0,3:3|0:0,0:0:0:0:
460,196,294843,1,14,2:2:0:0:
304,244,295030,1,0,0:0:0:0:
400,120,295218,1,6,3:2:0:0:
452,276,295405,1,0,0:0:0:0:
304,244,295593,1,14,2:2:0:0:
408,96,295780,1,8,2:2:0:0:
408,96,295874,1,8,2:2:0:0:
408,96,295968,6,0,L|428:8,1,88.000002685547,6|0,3:2|0:0,0:0:0:0:
392,176,296343,1,10,2:2:0:0:
364,312,296530,1,2,2:2:0:0:
364,312,296624,1,0,0:0:0:0:
364,312,296718,2,0,P|323:327|283:311,1,88.000002685547,0|2,3:3|2:2,0:0:0:0:
244,184,297093,1,8,2:2:0:0:
116,220,297280,1,2,2:2:0:0:
155,347,297468,5,0,3:3:0:0:
283,311,297655,1,2,2:2:0:0:
244,184,297843,2,0,B|224:132|224:132|232:104|232:104|216:52,1,132.00000402832,10|0,2:2|0:0,0:0:0:0:
208,20,298218,1,0,3:3:0:0:
148,136,298405,1,0,0:0:0:0:
308,96,298593,1,10,2:2:0:0:
116,48,298780,1,0,0:0:0:0:
116,48,298874,1,0,0:0:0:0:
116,48,298968,6,0,P|56:64|36:128,1,132.00000402832,2|0,3:2|0:0,0:0:0:0:
52,164,299343,1,10,2:2:0:0:
116,280,299530,2,0,B|200:248|200:312|288:280,1,176.000005371094,2|0,2:2|0:0,0:0:0:0:
160,348,300093,1,8,2:2:0:0:
248,208,300280,1,2,2:2:0:0:
248,208,300374,1,0,0:0:0:0:
248,208,300468,6,0,P|272:160|344:160,1,132.00000402832,6|0,3:2|0:0,0:0:0:0:
380,176,300843,1,10,2:2:0:0:
420,40,301030,2,0,L|292:8,1,132.00000402832,6|0,3:2|0:0,0:0:0:0:
256,32,301405,1,10,2:2:0:0:
256,32,301499,1,8,2:2:0:0:
256,32,301593,1,8,2:2:0:0:
148,120,301780,1,6,2:3:0:0:
148,120,301874,1,4,2:3:0:0:
148,120,301968,6,0,P|114:179|147:239,1,143.999995605469,4|2,3:2|2:2,0:0:0:0:
364,239,302718,2,0,P|397:179|364:120,1,143.999995605469,8|0,2:2|0:0,0:0:0:0:
256,120,303280,1,2,3:2:0:0:
148,120,303468,2,0,P|114:179|147:239,1,143.999995605469,2|2,3:2|2:2,0:0:0:0:
256,248,304030,1,2,3:2:0:0:
256,248,304218,1,8,2:2:0:0:
316,378,304405,2,0,L|256:248,1,143.999995605469,2|2,3:2|3:2,0:0:0:0:
304,108,304968,6,0,L|364:238,2,143.999995605469,4|0|10,3:2|0:0|2:2,0:0:0:0:
304,108,306093,1,0,0:0:0:0:
256,12,306280,1,2,3:2:0:0:
208,108,306468,2,0,B|168:108|144:136|144:136|72:136,1,143.999995605469,6|10,3:2|2:2,0:0:0:0:
220,196,307030,2,0,B|260:196|284:168|284:168|324:168,1,107.999996704102,6|0,3:2|0:0,0:0:0:0:
352,152,307405,1,8,2:2:0:0:
380,128,307499,1,8,2:2:0:0:
408,104,307593,1,10,2:2:0:0:
436,80,307686,1,8,2:3:0:0:
464,56,307780,1,4,2:3:0:0:
504,208,307968,5,14,2:2:0:0:
352,152,308155,1,0,0:0:0:0:
493,127,308343,5,10,2:2:0:0:
379,258,308530,1,2,3:2:0:0:
328,71,308718,5,8,2:2:0:0:
379,258,308905,1,2,3:2:0:0:
276,178,309093,6,0,L|366:147,1,80,8|2,2:2|3:2,0:0:0:0:
379,258,309468,5,10,2:2:0:0:
256,102,309655,1,0,0:0:0:0:
295,281,309843,5,10,2:2:0:0:
418,125,310030,1,2,3:2:0:0:
256,102,310218,5,8,2:2:0:0:
369,237,310405,1,2,3:2:0:0:
200,204,310593,6,0,L|290:173,1,80,10|0,2:2|3:3,0:0:0:0:
165,132,310968,5,10,2:2:0:0:
369,237,311155,1,0,0:0:0:0:
256,102,311343,5,10,2:2:0:0:
255,274,311530,1,2,3:2:0:0:
347,113,311718,5,8,2:2:0:0:
200,204,311905,1,2,3:2:0:0:
256,102,312093,6,0,P|248:64|260:26,1,80,8|2,2:2|3:2,0:0:0:0:
347,113,312468,5,8,2:2:0:0:
200,204,312655,1,0,0:0:0:0:
346,248,312843,5,10,2:2:0:0:
256,102,313030,1,0,3:3:0:0:
255,274,313218,5,10,2:2:0:0:
347,113,313405,1,8,2:2:0:0:
347,113,313499,1,8,2:2:0:0:
347,113,313593,1,10,2:2:0:0:
346,248,313780,1,8,2:3:0:0:
346,248,313874,1,8,2:3:0:0:
346,248,313968,5,14,3:2:0:0:
250,169,314155,1,8,3:2:0:0:
347,113,314343,1,8,3:2:0:0:
249,264,314530,1,10,3:2:0:0:
412,193,314718,1,10,3:2:0:0:
249,264,314905,5,8,3:2:0:0:
220,270,314999,1,8,2:2:0:0:
198,252,315093,1,8,3:2:0:0:
198,223,315186,1,8,2:2:0:0:
220,205,315280,1,8,3:2:0:0:
249,211,315374,1,8,2:2:0:0:
260,237,315468,1,4,3:2:0:0:
468,96,316030,5,2,2:2:0:0:
376,42,316218,2,0,P|316:28|259:54,2,120,2|2|2,2:2|2:2|2:2,0:0:0:0:
464,116,316968,6,0,L|440:260,1,143.999995605469,6|2,3:2|2:2,0:0:0:0:
344,288,317530,2,0,L|368:144,1,143.999995605469,2|2,2:2|2:2,0:0:0:0:
380,44,318093,1,0,0:0:0:0:
280,32,318280,1,2,3:2:0:0:
280,32,318374,1,0,0:0:0:0:
280,32,318468,2,0,B|208:48|208:48|188:108|88:124,1,215.999993408203,2|2,3:2|2:2,0:0:0:0:
95,122,319405,1,0,3:3:0:0:
32,204,319593,2,0,P|44:256|92:284,1,107.999996704102,8|0,2:2|0:0,0:0:0:0:
132,292,319968,6,0,L|228:172,1,143.999995605469,2|2,3:2|2:2,0:0:0:0:
275,95,320530,2,0,P|339:95|383:163,1,143.999995605469,2|2,2:2|2:2,0:0:0:0:
382,155,321280,1,2,3:2:0:0:
424,248,321468,1,2,3:2:0:0:
468,340,321655,2,0,B|420:352|420:352|380:340|380:340|328:352,1,143.999995605469,4|6,2:3|2:3,0:0:0:0:
140,284,322405,1,6,3:3:0:0:
140,284,322499,1,0,0:0:0:0:
140,284,322593,2,0,B|120:240|120:240|124:224|124:224|104:176,1,107.999996704102,8|0,2:2|0:0,0:0:0:0:
92,148,322968,5,6,3:2:0:0:
136,60,323155,1,0,0:0:0:0:
216,120,323343,1,2,2:2:0:0:
272,36,323530,2,0,L|412:108,1,143.999995605469,2|2,2:2|2:2,0:0:0:0:
464,292,324280,1,2,3:2:0:0:
464,292,324374,1,0,0:0:0:0:
464,292,324468,2,0,L|367:242,1,107.999996704102,6|0,3:2|0:0,0:0:0:0:
332,228,324843,2,0,P|325:262|295:280,1,71.9999978027344,2|4,2:2|2:3,0:0:0:0:
180,228,325218,2,0,P|186:262|216:280,1,71.9999978027344,2|4,2:2|2:3,0:0:0:0:
304,124,325593,2,0,P|256:103|208:124,1,107.999996704102,10|0,2:2|0:0,0:0:0:0:
172,148,325968,6,0,P|144:60|44:92,1,215.999993408203,6|2,3:2|2:2,0:0:0:0:
45,88,326718,1,2,2:2:0:0:
72,184,326905,1,0,0:0:0:0:
72,184,326999,1,0,0:0:0:0:
72,184,327093,2,0,L|108:288,1,107.999996704102,0|0,0:0|0:0,0:0:0:0:
120,324,327468,1,6,3:2:0:0:
256,176,327843,1,2,2:2:0:0:
196,96,328030,5,8,0:3:0:0:
196,96,328124,1,8,0:3:0:0:
196,96,328218,1,10,3:3:0:0:
256,16,328405,1,8,0:3:0:0:
316,96,328593,2,0,B|368:76|368:112|424:96,1,107.999996704102,6|0,2:3|0:0,0:0:0:0:
464,96,328968,6,0,L|412:227,1,128,2|2,2:2|2:2,0:0:0:0:
304,281,329530,2,0,L|356:150,2,128,2|2|2,2:2|2:2|2:2,0:0:0:0:
343,362,330468,1,2,2:2:0:0:
304,281,330655,1,2,2:2:0:0:
239,356,330843,1,2,2:2:0:0:
304,281,331030,2,0,P|247:260|176:284,1,128,2|2,2:2|2:2,0:0:0:0:
184,257,331968,6,0,P|244:239|303:260,1,128,2|2,2:2|2:2,0:0:0:0:
412,311,332530,2,0,L|427:174,2,128,2|2|2,2:2|2:2|2:2,0:0:0:0:
327,238,333468,1,2,2:2:0:0:
425,183,333655,1,2,2:2:0:0:
335,128,333843,1,2,2:2:0:0:
327,238,334030,2,0,P|261:241|221:200,1,128,2|2,2:2|2:2,0:0:0:0:
207,225,334968,6,0,P|251:268|313:263,1,128,2|2,2:2|2:2,0:0:0:0:
350,159,335564,2,0,P|305:115|243:120,1,128,2|2,2:2|0:0,0:0:0:0:
135,191,336183,2,0,L|131:59,1,128,2|2,2:2|2:2,0:0:0:0:
96,64,337048,2,0,L|100:192,1,128,0|2,0:0|2:2,0:0:0:0:
255,124,338087,1,0,0:0:0:0:
408,56,338846,1,6,2:2:0:0:
256,192,339028,12,0,344699,0:0:0:0:
