osu file format v14

[General]
AudioFilename: audio.mp3
AudioLeadIn: 0
PreviewTime: 282796
Countdown: 0
SampleSet: Soft
StackLeniency: 0.7
Mode: 2
LetterboxInBreaks: 0
EpilepsyWarning: 1
WidescreenStoryboard: 1

[Editor]
Bookmarks: 37968,76968,109968,145968,172968,205968,259968,283968,316968,328968
DistanceSpacing: 1.2
BeatDivisor: 4
GridSize: 32
TimelineZoom: 3.699998

[Metadata]
Title:Sekai wa Futari no Tame ni
TitleUnicode:世界はふたりのために
Artist:Kisumi Reika
ArtistUnicode:木須実怜花
Creator:-Joakh
Version:Joakh & Rustyy's Affection
Source:ハッピーライヴ ショウアップ!
Tags:Eroge Full Version Japanese Pop JPop J-Pop Ray Video Game Ending ED Theme Galge Visual Novel VN HAPPY LIVE SHOW UP! Favorite ハラショウ!Harashow! Harashou midorijeon -Rustyy
BeatmapID:3392708
BeatmapSetID:1661898

[Difficulty]
HPDrainRate:6
CircleSize:4.6
OverallDifficulty:9
ApproachRate:9
SliderMultiplier:2.1
SliderTickRate:2

[Events]
//Background and Video events
0,0,"BG.jpg",0,0
//Break Periods
//Storyboard Layer 0 (Background)
//Storyboard Layer 1 (Fail)
//Storyboard Layer 2 (Pass)
//Storyboard Layer 3 (Foreground)
//Storyboard Layer 4 (Overlay)
//Storyboard Sound Samples

[TimingPoints]
375,375,4,2,1,50,1,0
422,-100,4,2,2,50,0,0
468,375,4,2,3,50,1,0
656,-100,4,2,4,50,0,0
844,-100,4,2,5,50,0,0
1031,-100,4,2,6,50,0,0
1405,-100,4,2,7,50,0,0
1593,-100,4,2,8,50,0,0
1968,-100,4,2,9,50,0,0
2156,-100,4,2,10,50,0,0
2344,-100,4,2,11,50,0,0
2531,-100,4,2,12,50,0,0
2905,-100,4,2,13,50,0,0
3093,-100,4,2,14,50,0,0
3375,-100,4,2,15,50,0,0
3422,-100,4,2,16,50,0,0
3468,-100,4,2,17,50,0,0
3656,-100,4,2,10,50,0,0
3844,-100,4,2,11,50,0,0
4031,-100,4,2,18,50,0,0
4405,-100,4,2,19,50,0,0
4593,-100,4,2,20,50,0,0
4781,-100,4,2,21,50,0,0
4968,-100,4,2,22,50,0,0
5343,-100,4,2,23,50,0,0
5530,-100,4,2,24,50,0,0
5905,-100,4,2,25,50,0,0
6094,-100,4,2,26,50,0,0
6375,-100,4,2,1,50,0,0
6422,-100,4,2,27,50,0,0
6468,-100,4,2,1,50,0,0
6656,-100,4,2,28,50,0,0
6844,-100,4,2,29,50,0,0
7030,-100,4,2,2,50,0,0
7405,-100,4,2,30,50,0,0
7593,-100,4,2,31,50,0,0
7780,-100,4,2,3,50,0,0
7968,-100,4,2,4,50,0,0
8156,-100,4,2,32,50,0,0
8343,-100,4,2,5,50,0,0
8530,-100,4,2,6,50,0,0
8905,-100,4,2,7,50,0,0
9093,-100,4,2,33,50,0,0
9468,-100,4,2,8,50,0,0
9656,-100,4,2,34,50,0,0
9844,-100,4,2,35,50,0,0
10030,-100,4,2,36,50,0,0
10218,-100,4,2,37,50,0,0
10405,-100,4,2,9,50,0,0
10594,-100,4,2,38,50,0,0
10780,-100,4,2,3,50,0,0
10968,-100,4,2,10,50,0,0
11530,-100,4,2,3,50,0,0
11718,-100,4,2,39,50,0,0
12093,-100,4,2,3,50,0,0
12468,-100,4,2,1,60,0,0
12656,-100,4,2,4,60,0,0
12843,-100,4,2,40,60,0,0
13030,-100,4,2,41,60,0,0
13405,-100,4,2,42,60,0,0
13780,-100,4,2,43,60,0,0
13968,-100,4,2,2,60,0,0
14155,-100,4,2,3,60,0,0
14530,-100,4,2,11,60,0,0
14905,-100,4,2,12,60,0,0
15093,-100,4,2,13,60,0,0
15468,-100,4,2,3,60,0,0
15843,-100,4,2,44,60,0,0
16030,-100,4,2,45,60,0,0
16405,-100,4,2,46,60,0,0
16593,-100,4,2,14,60,0,0
16780,-100,4,2,47,60,0,0
16968,-100,4,2,4,60,0,0
17155,-100,4,2,1,60,0,0
17530,-100,4,2,15,60,0,0
17905,-100,4,2,5,60,0,0
18093,-100,4,2,1,60,0,0
18374,-100,4,2,1,5,0,0
18468,-100,4,2,6,60,0,0
18656,-100,4,2,28,60,0,0
18843,-100,4,2,7,60,0,0
19030,-100,4,2,48,60,0,0
19218,-100,4,2,6,60,0,0
19405,-100,4,2,49,60,0,0
19593,-100,4,2,6,60,0,0
19780,-100,4,2,42,60,0,0
19968,-100,4,2,8,60,0,0
20155,-100,4,2,16,60,0,0
20343,-100,4,2,9,60,0,0
20531,-100,4,2,50,60,0,0
20718,-100,4,2,10,60,0,0
20906,-100,4,2,51,60,0,0
21093,-100,4,2,11,60,0,0
21468,-100,4,2,12,60,0,0
21655,-100,4,2,52,65,0,0
21843,-100,4,2,13,40,0,0
21936,-100,4,2,53,40,0,0
22030,-100,4,2,53,45,0,0
22218,-100,4,2,13,50,0,0
22311,-100,4,2,54,50,0,0
22405,-100,4,2,54,55,0,0
22593,-100,4,2,14,60,0,0
22686,-100,4,2,55,60,0,0
22780,-100,4,2,55,65,0,0
22968,-100,4,2,15,70,0,0
23530,-100,4,2,56,55,0,0
23905,-100,4,2,57,55,0,0
24093,-100,4,2,58,55,0,0
24375,-100,4,2,59,55,0,0
24422,-100,4,2,60,55,0,0
24468,-100,4,2,43,55,0,0
25405,-100,4,2,1,55,0,0
25593,-100,4,2,2,55,0,0
25780,-100,4,2,57,55,0,0
25968,-100,4,2,16,60,0,0
26156,-100,4,2,61,60,0,0
26343,-100,4,2,6,60,0,0
26531,-100,4,2,62,60,0,0
26718,-100,4,2,6,60,0,0
26905,-100,4,2,63,60,0,0
27093,-100,4,2,17,60,0,0
27280,-100,4,2,57,60,0,0
27468,-100,4,2,18,60,0,0
28031,-100,4,2,64,60,0,0
28218,-100,4,2,6,60,0,0
28406,-100,4,2,65,60,0,0
28593,-100,4,2,3,60,0,0
28780,-100,4,2,66,60,0,0
28968,-100,4,2,19,60,0,0
29156,-100,4,2,67,60,0,0
29343,-100,4,2,20,60,0,0
29531,-100,4,2,68,60,0,0
29718,-100,4,2,6,60,0,0
29905,-100,4,2,69,60,0,0
30093,-100,4,2,21,60,0,0
30280,-100,4,2,57,60,0,0
30468,-100,4,2,22,60,0,0
30656,-100,4,2,32,60,0,0
30843,-100,4,2,23,60,0,0
31031,-100,4,2,70,60,0,0
31218,-100,4,2,24,60,0,0
31405,-100,4,2,17,60,0,0
31593,-100,4,2,71,60,0,0
31968,-100,4,2,25,60,0,0
32156,-100,4,2,72,60,0,0
32343,-100,4,2,26,60,0,0
32530,-100,4,2,73,60,0,0
32718,-100,4,2,6,60,0,0
32906,-100,4,2,74,60,0,0
33093,-100,4,2,27,60,0,0
33280,-100,4,2,75,60,0,0
33468,-100,4,2,28,60,0,0
33656,-100,4,2,29,60,0,0
34030,-100,4,2,76,60,0,0
34218,-100,4,2,6,60,0,0
34405,-100,4,2,77,60,0,0
34593,-100,4,2,3,60,0,0
34780,-100,4,2,78,60,0,0
34968,-100,4,2,30,60,0,0
35155,-100,4,2,79,60,0,0
35343,-100,4,2,31,60,0,0
35530,-100,4,2,80,60,0,0
35718,-100,4,2,18,60,0,0
36093,-100,4,2,19,60,0,0
36280,-100,4,2,20,60,0,0
36468,-100,4,2,32,60,0,0
36843,-100,4,2,81,60,0,0
37218,-100,4,2,82,60,0,0
37593,-100,4,2,83,60,0,0
37874,-100,4,2,83,5,0,0
37968,-100,4,2,33,70,0,0
38155,-100,4,2,21,70,0,0
38343,-100,4,2,84,70,0,0
38530,-100,4,2,22,70,0,0
38718,-100,4,2,1,70,0,0
38905,-100,4,2,23,70,0,0
39093,-100,4,2,85,70,0,0
39280,-100,4,2,24,70,0,0
39468,-100,4,2,34,70,0,0
39655,-100,4,2,25,70,0,0
39843,-100,4,2,51,70,0,0
40030,-100,4,2,26,70,0,0
40218,-100,4,2,35,70,0,0
40405,-100,4,2,27,70,0,0
40593,-100,4,2,86,70,0,0
40780,-100,4,2,28,70,0,0
40968,-100,4,2,36,70,0,0
41155,-100,4,2,29,70,0,0
41343,-100,4,2,87,70,0,0
41530,-100,4,2,30,70,0,0
41718,-100,4,2,1,70,0,0
41905,-100,4,2,31,70,0,0
42093,-100,4,2,88,70,0,0
42280,-100,4,2,31,70,0,0
42468,-100,4,2,37,70,0,0
42655,-100,4,2,32,70,0,0
42843,-100,4,2,89,70,0,0
43030,-100,4,2,33,70,0,0
43218,-100,4,2,38,70,0,0
43405,-100,4,2,34,70,0,0
43593,-100,4,2,90,70,0,0
43968,-100,4,2,39,70,0,0
44155,-100,4,2,35,70,0,0
44343,-100,4,2,91,70,0,0
44530,-100,4,2,36,70,0,0
44905,-100,4,2,37,70,0,0
45093,-100,4,2,92,70,0,0
45280,-100,4,2,38,70,0,0
45468,-100,4,2,40,70,0,0
45655,-100,4,2,29,70,0,0
45843,-100,4,2,87,70,0,0
46030,-100,4,2,30,70,0,0
46218,-100,4,2,1,70,0,0
46405,-100,4,2,28,70,0,0
46593,-100,4,2,88,70,0,0
46780,-100,4,2,31,70,0,0
46968,-100,4,2,41,70,0,0
47155,-100,4,2,35,70,0,0
47343,-100,4,2,93,70,0,0
47530,-100,4,2,39,70,0,0
47905,-100,4,2,31,70,0,0
48093,-100,4,2,94,70,0,0
48280,-100,4,2,31,70,0,0
48468,-100,4,2,42,70,0,0
48655,-100,4,2,20,70,0,0
48843,-100,4,2,95,70,0,0
49124,-100,4,2,95,5,0,0
49218,-100,4,2,96,70,0,0
49405,-100,4,2,1,70,0,0
49593,-100,4,2,97,70,0,0
49874,-100,4,2,97,5,0,0
49968,-100,4,2,43,65,0,0
50155,-100,4,2,44,65,0,0
50343,-100,4,2,28,65,0,0
50718,-100,4,2,98,65,0,0
50905,-100,4,2,57,65,0,0
51093,-100,4,2,20,65,0,0
51280,-100,4,2,45,65,0,0
51655,-100,4,2,46,65,0,0
51843,-100,4,2,31,65,0,0
52030,-100,4,2,99,65,0,0
52593,-100,4,2,20,65,0,0
52968,-100,4,2,47,65,0,0
53155,-100,4,2,48,65,0,0
53343,-100,4,2,31,65,0,0
53530,-100,4,2,57,65,0,0
53718,-100,4,2,100,65,0,0
54093,-100,4,2,20,65,0,0
54280,-100,4,2,49,65,0,0
54655,-100,4,2,50,65,0,0
54843,-100,4,2,40,65,0,0
55030,-100,4,2,51,65,0,0
55218,-100,4,2,101,65,0,0
55406,-100,4,2,102,65,0,0
55593,-100,4,2,41,65,0,0
55686,-100,4,2,28,65,0,0
55780,-100,4,2,20,65,0,0
55968,-100,4,2,52,65,0,0
56155,-100,4,2,53,65,0,0
56343,-100,4,2,28,65,0,0
56718,-100,4,2,103,65,0,0
56905,-100,4,2,57,65,0,0
57093,-100,4,2,20,65,0,0
57280,-100,4,2,54,65,0,0
57655,-100,4,2,55,65,0,0
57843,-100,4,2,31,65,0,0
58030,-100,4,2,1,65,0,0
58218,-100,4,2,104,65,0,0
58405,-100,4,2,28,65,0,0
58593,-100,4,2,20,65,0,0
58968,-100,4,2,56,65,0,0
59155,-100,4,2,57,65,0,0
59343,-100,4,2,28,65,0,0
59530,-100,4,2,57,65,0,0
59718,-100,4,2,105,65,0,0
59905,-100,4,2,106,65,0,0
60093,-100,4,2,58,65,0,0
60280,-100,4,2,59,65,0,0
60655,-100,4,2,42,65,0,0
60843,-100,4,2,43,65,0,0
61030,-100,4,2,44,65,0,0
61218,-100,4,2,107,65,0,0
61405,-100,4,2,60,65,0,0
61593,-100,4,2,108,65,0,0
61780,-100,4,2,109,65,0,0
61968,-100,4,2,61,70,0,0
62155,-100,4,2,45,70,0,0
62343,-100,4,2,110,70,0,0
62530,-100,4,2,46,70,0,0
62905,-100,4,2,47,70,0,0
63093,-100,4,2,111,70,0,0
63280,-100,4,2,20,70,0,0
63468,-100,4,2,62,70,0,0
63655,-100,4,2,48,70,0,0
63843,-100,4,2,112,70,0,0
64030,-100,4,2,49,70,0,0
64218,-100,4,2,35,70,0,0
64405,-100,4,2,50,70,0,0
64593,-100,4,2,113,70,0,0
64780,-100,4,2,51,70,0,0
64968,-100,4,2,63,70,0,0
65155,-100,4,2,48,70,0,0
65343,-100,4,2,91,70,0,0
65530,-100,4,2,52,70,0,0
65718,-100,4,2,35,70,0,0
65905,-100,4,2,53,70,0,0
66093,-100,4,2,113,70,0,0
66280,-100,4,2,51,70,0,0
66468,-100,4,2,64,70,0,0
66655,-100,4,2,54,70,0,0
66843,-100,4,2,114,70,0,0
67030,-100,4,2,55,70,0,0
67218,-100,4,2,35,70,0,0
67405,-100,4,2,115,70,0,0
67499,-100,4,2,116,70,0,0
67686,-100,4,2,2,70,0,0
67780,-100,4,2,3,70,0,0
67968,-100,4,2,117,70,0,0
68156,-100,4,2,28,70,0,0
68343,-100,4,2,118,70,0,0
68530,-100,4,2,35,70,0,0
68718,-100,4,2,5,70,0,0
69280,-100,4,2,35,70,0,0
69468,-100,4,2,119,70,0,0
69655,-100,4,2,65,70,0,0
69843,-100,4,2,120,70,0,0
70030,-100,4,2,66,70,0,0
70218,-100,4,2,5,70,0,0
70405,-100,4,2,35,70,0,0
70593,-100,4,2,121,70,0,0
70780,-100,4,2,57,70,0,0
70968,-100,4,2,67,70,0,0
71155,-100,4,2,68,70,0,0
71343,-100,4,2,122,70,0,0
71530,-100,4,2,56,70,0,0
71624,-100,4,2,2,70,0,0
71718,-100,4,2,1,70,0,0
71905,-100,4,2,69,70,0,0
72093,-100,4,2,123,70,0,0
72280,-100,4,2,69,70,0,0
72468,-100,4,2,70,70,0,0
72655,-100,4,2,71,70,0,0
72843,-100,4,2,124,70,0,0
73030,-100,4,2,57,70,0,0
73124,-100,4,2,2,70,0,0
73218,-100,4,2,58,70,0,0
73405,-100,4,2,72,70,0,0
73593,-100,4,2,26,70,0,0
73780,-100,4,2,35,70,0,0
73968,-100,4,2,73,70,0,0
74155,-100,4,2,125,45,0,0
74343,-100,4,2,74,50,0,0
74436,-100,4,2,126,50,0,0
74530,-100,4,2,126,55,0,0
74718,-100,4,2,13,60,0,0
74811,-100,4,2,127,60,0,0
74905,-100,4,2,127,65,0,0
75093,-100,4,2,75,70,0,0
75186,-100,4,2,2,70,0,0
75280,-100,4,2,76,75,0,0
75561,-100,4,2,76,5,0,0
75655,-100,4,2,77,75,0,0
75843,-100,4,2,128,55,0,0
76405,-100,4,2,76,55,0,0
76593,-100,4,2,129,70,0,0
76874,-100,4,2,100,5,0,0
76968,-90.9090909090909,4,2,78,80,0,1
77155,-90.9090909090909,4,2,59,80,0,1
77343,-90.9090909090909,4,2,87,80,0,1
77530,-90.9090909090909,4,2,60,80,0,1
77718,-90.9090909090909,4,2,1,80,0,1
77905,-90.9090909090909,4,2,20,80,0,1
78093,-90.9090909090909,4,2,130,80,0,1
78280,-90.9090909090909,4,2,20,80,0,1
78468,-90.9090909090909,4,2,79,80,0,1
78655,-90.9090909090909,4,2,61,80,0,1
78843,-90.9090909090909,4,2,87,80,0,1
79030,-90.9090909090909,4,2,62,80,0,1
79405,-90.9090909090909,4,2,51,80,0,1
79593,-90.9090909090909,4,2,131,80,0,1
79780,-90.9090909090909,4,2,51,80,0,1
79874,-90.9090909090909,4,2,51,5,0,1
79968,-90.9090909090909,4,2,80,80,0,1
80155,-90.9090909090909,4,2,63,80,0,1
80343,-90.9090909090909,4,2,91,80,0,1
80530,-90.9090909090909,4,2,64,80,0,1
80905,-90.9090909090909,4,2,20,80,0,1
81093,-90.9090909090909,4,2,132,80,0,1
81280,-90.9090909090909,4,2,20,80,0,1
81468,-90.9090909090909,4,2,81,80,0,1
81655,-90.9090909090909,4,2,65,80,0,1
81843,-90.9090909090909,4,2,72,80,0,1
82030,-90.9090909090909,4,2,66,80,0,1
82218,-90.9090909090909,4,2,35,80,0,1
82405,-90.9090909090909,4,2,51,80,0,1
82593,-90.9090909090909,4,2,133,80,0,1
82780,-90.9090909090909,4,2,51,80,0,1
82968,-90.9090909090909,4,2,82,80,0,1
83155,-90.9090909090909,4,2,63,80,0,1
83343,-90.9090909090909,4,2,91,80,0,1
83530,-90.9090909090909,4,2,64,80,0,1
83905,-90.9090909090909,4,2,20,80,0,1
84093,-90.9090909090909,4,2,134,80,0,1
84280,-90.9090909090909,4,2,20,80,0,1
84468,-90.9090909090909,4,2,83,80,0,1
84655,-90.9090909090909,4,2,63,80,0,1
84843,-90.9090909090909,4,2,72,80,0,1
85030,-90.9090909090909,4,2,67,80,0,1
85218,-90.9090909090909,4,2,35,80,0,1
85405,-90.9090909090909,4,2,51,80,0,1
85499,-90.9090909090909,4,2,57,80,0,1
85593,-90.9090909090909,4,2,135,80,0,1
85780,-90.9090909090909,4,2,20,80,0,1
85968,-90.9090909090909,4,2,84,80,0,1
86155,-90.9090909090909,4,2,59,80,0,1
86343,-90.9090909090909,4,2,136,80,0,1
86530,-90.9090909090909,4,2,60,80,0,1
86718,-90.9090909090909,4,2,35,80,0,1
86905,-90.9090909090909,4,2,51,80,0,1
87093,-90.9090909090909,4,2,130,80,0,1
87280,-90.9090909090909,4,2,51,80,0,1
87468,-90.9090909090909,4,2,85,80,0,1
87655,-90.9090909090909,4,2,51,80,0,1
87843,-90.9090909090909,4,2,137,80,0,1
88218,-90.9090909090909,4,2,86,80,0,1
88593,-90.9090909090909,4,2,137,80,0,1
88968,-90.9090909090909,4,2,87,80,0,1
89155,-90.9090909090909,4,2,59,80,0,1
89343,-90.9090909090909,4,2,87,80,0,1
89530,-90.9090909090909,4,2,60,80,0,1
89718,-90.9090909090909,4,2,1,80,0,1
89905,-90.9090909090909,4,2,20,80,0,1
90093,-90.9090909090909,4,2,130,80,0,1
90280,-90.9090909090909,4,2,20,80,0,1
90468,-90.9090909090909,4,2,79,80,0,1
90655,-90.9090909090909,4,2,61,80,0,1
90843,-90.9090909090909,4,2,87,80,0,1
91030,-90.9090909090909,4,2,62,80,0,1
91405,-90.9090909090909,4,2,51,80,0,1
91593,-90.9090909090909,4,2,131,80,0,1
91780,-90.9090909090909,4,2,51,80,0,1
91968,-90.9090909090909,4,2,80,80,0,1
92155,-90.9090909090909,4,2,63,80,0,1
92343,-90.9090909090909,4,2,91,80,0,1
92530,-90.9090909090909,4,2,64,80,0,1
92905,-90.9090909090909,4,2,51,80,0,1
93093,-90.9090909090909,4,2,132,80,0,1
93280,-90.9090909090909,4,2,20,80,0,1
93468,-90.9090909090909,4,2,88,80,0,1
93656,-90.9090909090909,4,2,138,80,0,1
93843,-90.9090909090909,4,2,139,80,0,1
94030,-90.9090909090909,4,2,89,80,0,1
94405,-90.9090909090909,4,2,140,80,0,1
94593,-90.9090909090909,4,2,141,80,0,1
94686,-90.9090909090909,4,2,1,80,0,1
94780,-90.9090909090909,4,2,68,80,0,1
94968,-111.111111111111,4,2,90,75,0,0
95155,-111.111111111111,4,2,142,75,0,0
95343,-111.111111111111,4,2,69,75,0,0
95530,-111.111111111111,4,2,91,75,0,0
95718,-111.111111111111,4,2,5,75,0,0
96093,-111.111111111111,4,2,70,75,0,0
96280,-111.111111111111,4,2,35,75,0,0
96468,-111.111111111111,4,2,92,75,0,0
96656,-111.111111111111,4,2,29,75,0,0
96843,-111.111111111111,4,2,69,75,0,0
97030,-111.111111111111,4,2,93,75,0,0
97218,-111.111111111111,4,2,5,75,0,0
97405,-111.111111111111,4,2,35,75,0,0
97593,-111.111111111111,4,2,70,75,0,0
97780,-111.111111111111,4,2,35,75,0,0
97968,-111.111111111111,4,2,94,75,0,0
98156,-111.111111111111,4,2,29,75,0,0
98343,-111.111111111111,4,2,71,75,0,0
98530,-111.111111111111,4,2,95,75,0,0
98718,-111.111111111111,4,2,5,75,0,0
99093,-111.111111111111,4,2,72,75,0,0
99280,-111.111111111111,4,2,35,75,0,0
99468,-111.111111111111,4,2,96,75,0,0
99656,-111.111111111111,4,2,29,75,0,0
99843,-111.111111111111,4,2,143,75,0,0
100030,-111.111111111111,4,2,97,75,0,0
100311,-111.111111111111,4,2,97,5,0,0
100405,-100,4,2,144,75,0,0
100593,-100,4,2,145,75,0,0
100686,-100,4,2,2,75,0,0
100780,-100,4,2,73,75,0,0
100968,-100,4,2,146,80,0,0
101156,-100,4,2,32,80,0,0
101343,-100,4,2,147,80,0,0
101530,-100,4,2,98,80,0,0
101718,-100,4,2,5,80,0,0
101905,-100,4,2,35,80,0,0
102093,-100,4,2,148,80,0,0
102280,-100,4,2,35,80,0,0
102468,-100,4,2,149,80,0,0
102656,-100,4,2,150,80,0,0
102843,-100,4,2,151,80,0,0
103030,-100,4,2,99,80,0,0
103218,-100,4,2,152,80,0,0
103968,-100,4,2,153,80,0,0
104156,-100,4,2,72,80,0,0
104343,-100,4,2,154,80,0,0
104530,-100,4,2,100,80,0,0
104718,-100,4,2,5,80,0,0
104905,-100,4,2,35,80,0,0
105093,-100,4,2,155,80,0,0
105280,-100,4,2,35,80,0,0
105468,-100,4,2,156,80,0,0
105656,-100,4,2,157,80,0,0
105843,-100,4,2,158,80,0,0
106030,-100,4,2,101,80,0,0
106218,-100,4,2,159,80,0,0
106405,-100,4,2,38,80,0,0
106593,-100,4,2,116,80,0,0
106686,-100,4,2,1,80,0,0
106780,-100,4,2,102,80,0,0
106968,-100,4,2,160,60,0,0
107155,-100,4,2,161,45,0,0
107343,-100,4,2,162,50,0,0
107530,-100,4,2,163,55,0,0
107718,-100,4,2,164,60,0,0
107905,-100,4,2,164,65,0,0
108093,-100,4,2,165,70,0,0
108280,-100,4,2,165,75,0,0
108468,-100,4,2,103,80,0,0
108561,-100,4,2,1,80,0,0
109030,-100,4,2,57,80,0,0
109968,-100,4,2,104,70,0,0
110156,-100,4,2,166,70,0,0
110343,-100,4,2,167,70,0,0
110530,-100,4,2,168,70,0,0
110905,-100,4,2,169,70,0,0
111094,-100,4,2,170,70,0,0
111280,-100,4,2,105,70,0,0
111468,-100,4,2,106,70,0,0
111656,-100,4,2,34,70,0,0
111844,-100,4,2,171,70,0,0
112030,-100,4,2,74,70,0,0
112405,-100,4,2,107,70,0,0
112593,-100,4,2,38,70,0,0
112968,-100,4,2,108,70,0,0
113156,-100,4,2,172,70,0,0
113343,-100,4,2,173,70,0,0
113530,-100,4,2,174,70,0,0
113905,-100,4,2,175,70,0,0
114094,-100,4,2,176,70,0,0
114280,-100,4,2,109,70,0,0
114468,-100,4,2,110,70,0,0
114655,-100,4,2,75,70,0,0
114844,-100,4,2,72,70,0,0
115030,-100,4,2,76,70,0,0
115405,-100,4,2,111,70,0,0
115968,-100,4,2,112,70,0,0
116156,-100,4,2,52,70,0,0
116343,-100,4,2,113,70,0,0
116531,-100,4,2,177,70,0,0
116718,-100,4,2,69,70,0,0
116906,-100,4,2,178,70,0,0
117093,-100,4,2,69,70,0,0
117281,-100,4,2,179,70,0,0
117468,-100,4,2,114,70,0,0
117656,-100,4,2,52,70,0,0
117843,-100,4,2,115,70,0,0
118031,-100,4,2,180,70,0,0
118218,-100,4,2,116,70,0,0
118593,-100,4,2,117,70,0,0
118968,-100,4,2,181,70,0,0
119155,-100,4,2,59,70,0,0
119530,-100,4,2,182,70,0,0
119717,-100,4,2,118,70,0,0
120093,-100,4,2,4,70,0,0
120468,-100,4,2,77,70,0,0
120843,-100,4,2,183,70,0,0
121030,-100,4,2,3,70,0,0
121218,-100,4,2,184,70,0,0
121593,-100,4,2,78,70,0,0
121780,-100,4,2,137,70,0,0
121968,-100,4,2,119,65,0,0
122156,-100,4,2,185,65,0,0
122343,-100,4,2,120,65,0,0
122531,-100,4,2,186,65,0,0
122718,-100,4,2,121,65,0,0
122905,-100,4,2,30,65,0,0
123093,-100,4,2,122,65,0,0
123280,-100,4,2,187,65,0,0
123468,-100,4,2,123,65,0,0
123656,-100,4,2,185,65,0,0
123843,-100,4,2,120,65,0,0
124031,-100,4,2,186,65,0,0
124218,-100,4,2,121,65,0,0
124406,-100,4,2,188,65,0,0
124593,-100,4,2,189,65,0,0
124780,-100,4,2,187,65,0,0
124968,-100,4,2,124,65,0,0
125156,-100,4,2,190,65,0,0
125343,-100,4,2,125,65,0,0
125531,-100,4,2,191,65,0,0
125718,-100,4,2,126,65,0,0
125905,-100,4,2,192,65,0,0
126093,-100,4,2,127,65,0,0
126280,-100,4,2,193,65,0,0
126468,-100,4,2,128,65,0,0
126656,-100,4,2,194,65,0,0
126843,-100,4,2,129,65,0,0
127031,-100,4,2,195,65,0,0
127218,-100,4,2,130,65,0,0
127405,-100,4,2,79,65,0,0
127593,-100,4,2,196,65,0,0
127781,-100,4,2,197,65,0,0
127968,-100,4,2,131,65,0,0
128156,-100,4,2,198,65,0,0
128343,-100,4,2,132,65,0,0
128530,-100,4,2,199,65,0,0
128718,-100,4,2,121,65,0,0
128906,-100,4,2,188,65,0,0
129093,-100,4,2,133,65,0,0
129280,-100,4,2,187,65,0,0
129468,-100,4,2,134,65,0,0
129656,-100,4,2,200,65,0,0
129843,-100,4,2,135,65,0,0
130030,-100,4,2,201,65,0,0
130218,-100,4,2,126,65,0,0
130405,-100,4,2,192,65,0,0
130593,-100,4,2,102,65,0,0
130780,-100,4,2,202,65,0,0
130968,-100,4,2,136,65,0,0
131155,-100,4,2,203,65,0,0
131343,-100,4,2,137,65,0,0
131531,-100,4,2,204,65,0,0
131718,-100,4,2,138,65,0,0
131905,-100,4,2,3,65,0,0
132093,-100,4,2,80,65,0,0
132280,-100,4,2,20,65,0,0
132468,-100,4,2,139,65,0,0
132656,-100,4,2,52,65,0,0
132843,-100,4,2,140,65,0,0
133031,-100,4,2,53,65,0,0
133218,-100,4,2,205,65,0,0
133593,-100,4,2,206,65,0,0
133968,-100,4,2,33,70,0,0
134155,-100,4,2,21,70,0,0
134343,-100,4,2,84,70,0,0
134530,-100,4,2,22,70,0,0
134718,-100,4,2,1,70,0,0
134905,-100,4,2,23,70,0,0
135093,-100,4,2,85,70,0,0
135280,-100,4,2,24,70,0,0
135468,-100,4,2,34,70,0,0
135655,-100,4,2,25,70,0,0
135843,-100,4,2,51,70,0,0
136030,-100,4,2,26,70,0,0
136218,-100,4,2,35,70,0,0
136405,-100,4,2,27,70,0,0
136593,-100,4,2,86,70,0,0
136780,-100,4,2,28,70,0,0
136968,-100,4,2,36,70,0,0
137155,-100,4,2,29,70,0,0
137343,-100,4,2,87,70,0,0
137530,-100,4,2,30,70,0,0
137718,-100,4,2,1,70,0,0
137905,-100,4,2,31,70,0,0
138093,-100,4,2,88,70,0,0
138280,-100,4,2,31,70,0,0
138468,-100,4,2,37,70,0,0
138655,-100,4,2,32,70,0,0
138843,-100,4,2,89,70,0,0
139030,-100,4,2,33,70,0,0
139218,-100,4,2,38,70,0,0
139405,-100,4,2,34,70,0,0
139593,-100,4,2,90,70,0,0
139968,-100,4,2,39,70,0,0
140155,-100,4,2,35,70,0,0
140343,-100,4,2,91,70,0,0
140530,-100,4,2,36,70,0,0
140905,-100,4,2,37,70,0,0
141093,-100,4,2,92,70,0,0
141280,-100,4,2,38,70,0,0
141468,-100,4,2,40,70,0,0
141655,-100,4,2,29,70,0,0
141843,-100,4,2,87,70,0,0
142030,-100,4,2,30,70,0,0
142218,-100,4,2,1,70,0,0
142405,-100,4,2,28,70,0,0
142593,-100,4,2,88,70,0,0
142780,-100,4,2,31,70,0,0
142968,-100,4,2,41,70,0,0
143155,-100,4,2,35,70,0,0
143343,-100,4,2,93,70,0,0
143530,-100,4,2,39,70,0,0
143905,-100,4,2,31,70,0,0
144093,-100,4,2,94,70,0,0
144280,-100,4,2,31,70,0,0
144468,-100,4,2,42,70,0,0
144655,-100,4,2,20,70,0,0
144843,-100,4,2,95,70,0,0
145124,-100,4,2,95,5,0,0
145218,-100,4,2,96,70,0,0
145405,-100,4,2,1,70,0,0
145593,-100,4,2,97,70,0,0
145874,-100,4,2,97,5,0,0
145968,-100,4,2,43,65,0,0
146155,-100,4,2,44,65,0,0
146343,-100,4,2,28,65,0,0
146718,-100,4,2,98,65,0,0
146905,-100,4,2,57,65,0,0
147093,-100,4,2,20,65,0,0
147280,-100,4,2,45,65,0,0
147655,-100,4,2,46,65,0,0
147843,-100,4,2,31,65,0,0
148030,-100,4,2,99,65,0,0
148593,-100,4,2,20,65,0,0
148968,-100,4,2,47,65,0,0
149155,-100,4,2,48,65,0,0
149343,-100,4,2,31,65,0,0
149530,-100,4,2,57,65,0,0
149718,-100,4,2,100,65,0,0
150093,-100,4,2,20,65,0,0
150280,-100,4,2,49,65,0,0
150655,-100,4,2,50,65,0,0
150843,-100,4,2,40,65,0,0
151030,-100,4,2,51,65,0,0
151218,-100,4,2,101,65,0,0
151406,-100,4,2,102,65,0,0
151593,-100,4,2,41,65,0,0
151686,-100,4,2,28,65,0,0
151780,-100,4,2,20,65,0,0
151968,-100,4,2,52,65,0,0
152155,-100,4,2,53,65,0,0
152343,-100,4,2,28,65,0,0
152718,-100,4,2,103,65,0,0
152905,-100,4,2,57,65,0,0
153093,-100,4,2,20,65,0,0
153280,-100,4,2,54,65,0,0
153655,-100,4,2,55,65,0,0
153843,-100,4,2,31,65,0,0
154030,-100,4,2,1,65,0,0
154218,-100,4,2,104,65,0,0
154405,-100,4,2,28,65,0,0
154593,-100,4,2,20,65,0,0
154968,-100,4,2,56,65,0,0
155155,-100,4,2,57,65,0,0
155343,-100,4,2,28,65,0,0
155530,-100,4,2,57,65,0,0
155718,-100,4,2,105,65,0,0
155905,-100,4,2,106,65,0,0
156093,-100,4,2,58,65,0,0
156280,-100,4,2,59,65,0,0
156655,-100,4,2,42,65,0,0
156843,-100,4,2,43,65,0,0
157030,-100,4,2,44,65,0,0
157218,-100,4,2,107,65,0,0
157405,-100,4,2,60,65,0,0
157593,-100,4,2,108,65,0,0
157780,-100,4,2,109,65,0,0
157968,-100,4,2,61,70,0,0
158155,-100,4,2,45,70,0,0
158343,-100,4,2,110,70,0,0
158530,-100,4,2,46,70,0,0
158905,-100,4,2,47,70,0,0
159093,-100,4,2,111,70,0,0
159280,-100,4,2,20,70,0,0
159468,-100,4,2,62,70,0,0
159655,-100,4,2,48,70,0,0
159843,-100,4,2,112,70,0,0
160030,-100,4,2,49,70,0,0
160218,-100,4,2,35,70,0,0
160405,-100,4,2,50,70,0,0
160593,-100,4,2,113,70,0,0
160780,-100,4,2,51,70,0,0
160968,-100,4,2,63,70,0,0
161155,-100,4,2,48,70,0,0
161343,-100,4,2,91,70,0,0
161530,-100,4,2,52,70,0,0
161718,-100,4,2,35,70,0,0
161905,-100,4,2,53,70,0,0
162093,-100,4,2,113,70,0,0
162280,-100,4,2,51,70,0,0
162468,-100,4,2,64,70,0,0
162655,-100,4,2,54,70,0,0
162843,-100,4,2,114,70,0,0
163030,-100,4,2,55,70,0,0
163218,-100,4,2,35,70,0,0
163405,-100,4,2,115,70,0,0
163499,-100,4,2,116,70,0,0
163686,-100,4,2,2,70,0,0
163780,-100,4,2,3,70,0,0
163968,-100,4,2,117,70,0,0
164156,-100,4,2,28,70,0,0
164343,-100,4,2,118,70,0,0
164530,-100,4,2,35,70,0,0
164718,-100,4,2,5,70,0,0
165280,-100,4,2,35,70,0,0
165468,-100,4,2,119,70,0,0
165655,-100,4,2,65,70,0,0
165843,-100,4,2,120,70,0,0
166030,-100,4,2,66,70,0,0
166218,-100,4,2,5,70,0,0
166405,-100,4,2,35,70,0,0
166593,-100,4,2,121,70,0,0
166780,-100,4,2,57,70,0,0
166968,-100,4,2,67,70,0,0
167155,-100,4,2,68,70,0,0
167343,-100,4,2,122,70,0,0
167530,-100,4,2,56,70,0,0
167624,-100,4,2,2,70,0,0
167718,-100,4,2,1,70,0,0
167905,-100,4,2,69,70,0,0
168093,-100,4,2,123,70,0,0
168280,-100,4,2,69,70,0,0
168468,-100,4,2,70,70,0,0
168655,-100,4,2,71,70,0,0
168843,-100,4,2,124,70,0,0
169030,-100,4,2,57,70,0,0
169124,-100,4,2,2,70,0,0
169218,-100,4,2,58,70,0,0
169405,-100,4,2,72,70,0,0
169593,-100,4,2,26,70,0,0
169780,-100,4,2,35,70,0,0
169968,-100,4,2,73,70,0,0
170155,-100,4,2,125,45,0,0
170343,-100,4,2,74,50,0,0
170436,-100,4,2,126,50,0,0
170530,-100,4,2,126,55,0,0
170718,-100,4,2,13,60,0,0
170811,-100,4,2,127,60,0,0
170905,-100,4,2,127,65,0,0
171093,-100,4,2,75,70,0,0
171186,-100,4,2,2,70,0,0
171280,-100,4,2,141,75,0,0
171655,-100,4,2,81,75,0,0
171843,-100,4,2,82,75,0,0
172405,-100,4,2,2,75,0,0
172593,-100,4,2,129,75,0,0
172874,-100,4,2,100,5,0,0
172968,-90.9090909090909,4,2,78,80,0,1
173155,-90.9090909090909,4,2,59,80,0,1
173343,-90.9090909090909,4,2,87,80,0,1
173530,-90.9090909090909,4,2,60,80,0,1
173718,-90.9090909090909,4,2,1,80,0,1
173905,-90.9090909090909,4,2,20,80,0,1
174093,-90.9090909090909,4,2,130,80,0,1
174280,-90.9090909090909,4,2,20,80,0,1
174468,-90.9090909090909,4,2,79,80,0,1
174655,-90.9090909090909,4,2,61,80,0,1
174843,-90.9090909090909,4,2,87,80,0,1
175030,-90.9090909090909,4,2,62,80,0,1
175405,-90.9090909090909,4,2,51,80,0,1
175593,-90.9090909090909,4,2,131,80,0,1
175780,-90.9090909090909,4,2,51,80,0,1
175874,-90.9090909090909,4,2,51,5,0,1
175968,-90.9090909090909,4,2,80,80,0,1
176155,-90.9090909090909,4,2,63,80,0,1
176343,-90.9090909090909,4,2,91,80,0,1
176530,-90.9090909090909,4,2,64,80,0,1
176905,-90.9090909090909,4,2,20,80,0,1
177093,-90.9090909090909,4,2,132,80,0,1
177280,-90.9090909090909,4,2,20,80,0,1
177468,-90.9090909090909,4,2,81,80,0,1
177655,-90.9090909090909,4,2,65,80,0,1
177843,-90.9090909090909,4,2,72,80,0,1
178030,-90.9090909090909,4,2,66,80,0,1
178218,-90.9090909090909,4,2,35,80,0,1
178405,-90.9090909090909,4,2,51,80,0,1
178593,-90.9090909090909,4,2,133,80,0,1
178780,-90.9090909090909,4,2,51,80,0,1
178968,-90.9090909090909,4,2,82,80,0,1
179155,-90.9090909090909,4,2,63,80,0,1
179343,-90.9090909090909,4,2,91,80,0,1
179530,-90.9090909090909,4,2,64,80,0,1
179905,-90.9090909090909,4,2,20,80,0,1
180093,-90.9090909090909,4,2,134,80,0,1
180280,-90.9090909090909,4,2,20,80,0,1
180468,-90.9090909090909,4,2,83,80,0,1
180655,-90.9090909090909,4,2,63,80,0,1
180843,-90.9090909090909,4,2,72,80,0,1
181030,-90.9090909090909,4,2,67,80,0,1
181218,-90.9090909090909,4,2,35,80,0,1
181405,-90.9090909090909,4,2,51,80,0,1
181499,-90.9090909090909,4,2,57,80,0,1
181593,-90.9090909090909,4,2,135,80,0,1
181780,-90.9090909090909,4,2,20,80,0,1
181968,-90.9090909090909,4,2,84,80,0,1
182155,-90.9090909090909,4,2,59,80,0,1
182343,-90.9090909090909,4,2,136,80,0,1
182530,-90.9090909090909,4,2,60,80,0,1
182718,-90.9090909090909,4,2,35,80,0,1
182905,-90.9090909090909,4,2,51,80,0,1
183093,-90.9090909090909,4,2,130,80,0,1
183280,-90.9090909090909,4,2,51,80,0,1
183468,-90.9090909090909,4,2,85,80,0,1
183655,-90.9090909090909,4,2,51,80,0,1
183843,-90.9090909090909,4,2,137,80,0,1
184218,-90.9090909090909,4,2,86,80,0,1
184593,-90.9090909090909,4,2,137,80,0,1
184968,-90.9090909090909,4,2,87,80,0,1
185155,-90.9090909090909,4,2,59,80,0,1
185343,-90.9090909090909,4,2,87,80,0,1
185530,-90.9090909090909,4,2,60,80,0,1
185718,-90.9090909090909,4,2,1,80,0,1
185905,-90.9090909090909,4,2,20,80,0,1
186093,-90.9090909090909,4,2,130,80,0,1
186280,-90.9090909090909,4,2,20,80,0,1
186468,-90.9090909090909,4,2,79,80,0,1
186655,-90.9090909090909,4,2,61,80,0,1
186843,-90.9090909090909,4,2,87,80,0,1
187030,-90.9090909090909,4,2,62,80,0,1
187405,-90.9090909090909,4,2,51,80,0,1
187593,-90.9090909090909,4,2,131,80,0,1
187780,-90.9090909090909,4,2,51,80,0,1
187968,-90.9090909090909,4,2,80,80,0,1
188155,-90.9090909090909,4,2,63,80,0,1
188343,-90.9090909090909,4,2,91,80,0,1
188530,-90.9090909090909,4,2,64,80,0,1
188905,-90.9090909090909,4,2,51,80,0,1
189093,-90.9090909090909,4,2,132,80,0,1
189280,-90.9090909090909,4,2,20,80,0,1
189468,-90.9090909090909,4,2,88,80,0,1
189656,-90.9090909090909,4,2,138,80,0,1
189843,-90.9090909090909,4,2,139,80,0,1
190030,-90.9090909090909,4,2,89,80,0,1
190405,-90.9090909090909,4,2,140,80,0,1
190593,-90.9090909090909,4,2,141,80,0,1
190686,-90.9090909090909,4,2,1,80,0,1
190780,-90.9090909090909,4,2,68,80,0,1
190968,-111.111111111111,4,2,90,75,0,0
191155,-111.111111111111,4,2,142,75,0,0
191343,-111.111111111111,4,2,69,75,0,0
191530,-111.111111111111,4,2,91,75,0,0
191718,-111.111111111111,4,2,5,75,0,0
192093,-111.111111111111,4,2,70,75,0,0
192280,-111.111111111111,4,2,35,75,0,0
192468,-111.111111111111,4,2,92,75,0,0
192656,-111.111111111111,4,2,29,75,0,0
192843,-111.111111111111,4,2,69,75,0,0
193030,-111.111111111111,4,2,93,75,0,0
193218,-111.111111111111,4,2,5,75,0,0
193405,-111.111111111111,4,2,35,75,0,0
193593,-111.111111111111,4,2,70,75,0,0
193780,-111.111111111111,4,2,35,75,0,0
193968,-111.111111111111,4,2,142,75,0,0
194156,-111.111111111111,4,2,29,75,0,0
194343,-111.111111111111,4,2,71,75,0,0
194530,-111.111111111111,4,2,143,75,0,0
194718,-111.111111111111,4,2,5,75,0,0
195093,-111.111111111111,4,2,83,75,0,0
195280,-111.111111111111,4,2,35,75,0,0
195468,-111.111111111111,4,2,96,75,0,0
195656,-111.111111111111,4,2,29,75,0,0
195843,-111.111111111111,4,2,143,75,0,0
196030,-111.111111111111,4,2,97,75,0,0
196311,-111.111111111111,4,2,97,5,0,0
196405,-111.111111111111,4,2,144,75,0,0
196593,-111.111111111111,4,2,145,75,0,0
196686,-111.111111111111,4,2,2,75,0,0
196780,-100,4,2,73,75,0,0
196968,-100,4,2,146,80,0,0
197156,-100,4,2,32,80,0,0
197343,-100,4,2,147,80,0,0
197530,-100,4,2,98,80,0,0
197718,-100,4,2,5,80,0,0
197905,-100,4,2,35,80,0,0
198093,-100,4,2,148,80,0,0
198280,-100,4,2,35,80,0,0
198468,-100,4,2,149,80,0,0
198656,-100,4,2,150,80,0,0
198843,-100,4,2,151,80,0,0
199030,-100,4,2,99,80,0,0
199218,-100,4,2,152,80,0,0
199968,-100,4,2,153,80,0,0
200156,-100,4,2,72,80,0,0
200343,-100,4,2,154,80,0,0
200530,-100,4,2,100,80,0,0
200718,-100,4,2,5,80,0,0
200905,-100,4,2,35,80,0,0
201093,-100,4,2,155,80,0,0
201280,-100,4,2,35,80,0,0
201468,-100,4,2,156,80,0,0
201656,-100,4,2,157,80,0,0
201843,-100,4,2,158,80,0,0
202030,-100,4,2,101,80,0,0
202218,-100,4,2,159,80,0,0
202405,-100,4,2,38,80,0,0
202593,-100,4,2,116,80,0,0
202686,-100,4,2,1,80,0,0
202780,-100,4,2,102,80,0,0
202968,-100,4,2,160,60,0,0
203155,-100,4,2,161,45,0,0
203343,-100,4,2,162,50,0,0
203530,-100,4,2,163,55,0,0
203718,-100,4,2,164,60,0,0
203905,-100,4,2,164,65,0,0
204093,-100,4,2,165,70,0,0
204280,-100,4,2,165,75,0,0
204468,-100,4,2,103,80,0,0
205030,-100,4,2,57,80,0,0
205968,-100,4,2,144,65,0,0
206156,-100,4,2,207,65,0,0
206343,-100,4,2,208,65,0,0
206530,-100,4,2,145,65,0,0
206718,-100,4,2,7,65,0,0
206905,-100,4,2,146,65,0,0
207093,-100,4,2,209,65,0,0
207280,-100,4,2,1,65,0,0
207468,-100,4,2,147,65,0,0
207656,-100,4,2,210,65,0,0
207843,-100,4,2,211,65,0,0
208030,-100,4,2,58,65,0,0
208218,-100,4,2,7,65,0,0
208405,-100,4,2,148,65,0,0
208593,-100,4,2,212,65,0,0
208780,-100,4,2,35,65,0,0
208968,-100,4,2,149,65,0,0
209156,-100,4,2,207,65,0,0
209343,-100,4,2,208,65,0,0
209530,-100,4,2,145,65,0,0
209718,-100,4,2,7,65,0,0
209905,-100,4,2,146,65,0,0
210093,-100,4,2,209,65,0,0
210280,-100,4,2,150,65,0,0
210468,-100,4,2,151,65,0,0
210656,-100,4,2,213,65,0,0
210843,-100,4,2,214,65,0,0
211030,-100,4,2,152,65,0,0
211218,-100,4,2,7,65,0,0
211405,-100,4,2,153,65,0,0
211593,-100,4,2,7,65,0,0
211780,-100,4,2,35,65,0,0
211968,-100,4,2,154,65,0,0
212156,-100,4,2,215,65,0,0
212343,-100,4,2,207,65,0,0
212530,-100,4,2,155,65,0,0
212718,-100,4,2,7,65,0,0
212905,-100,4,2,156,65,0,0
213093,-100,4,2,216,65,0,0
213280,-100,4,2,35,65,0,0
213468,-100,4,2,157,65,0,0
213656,-100,4,2,210,65,0,0
213843,-100,4,2,217,65,0,0
214030,-100,4,2,158,65,0,0
214218,-100,4,2,218,65,0,0
214405,-100,4,2,159,65,0,0
214593,-100,4,2,212,65,0,0
214780,-100,4,2,1,65,0,0
214968,-100,4,2,160,65,0,0
215156,-100,4,2,219,65,0,0
215343,-100,4,2,220,65,0,0
215530,-100,4,2,161,65,0,0
215718,-100,4,2,7,65,0,0
215905,-100,4,2,162,65,0,0
216093,-100,4,2,221,65,0,0
216280,-100,4,2,1,65,0,0
216468,-100,4,2,163,65,0,0
216843,-100,4,2,222,65,0,0
217030,-100,4,2,84,65,0,0
217218,-100,4,2,85,65,0,0
217405,-100,4,2,68,65,0,0
217593,-100,4,2,164,65,0,0
217780,-100,4,2,86,65,0,0
217874,-100,4,2,86,5,0,0
217968,-100,4,2,165,70,0,0
218156,-100,4,2,29,70,0,0
218343,-100,4,2,166,70,0,0
218531,-100,4,2,223,70,0,0
218718,-100,4,2,167,70,0,0
219468,-100,4,2,168,70,0,0
219656,-100,4,2,29,70,0,0
219843,-100,4,2,169,70,0,0
220030,-100,4,2,87,70,0,0
220218,-100,4,2,166,70,0,0
220405,-100,4,2,3,70,0,0
220593,-100,4,2,170,70,0,0
220968,-100,4,2,171,70,0,0
221156,-100,4,2,52,70,0,0
221343,-100,4,2,172,70,0,0
221530,-100,4,2,224,70,0,0
221718,-100,4,2,167,70,0,0
222280,-100,4,2,57,70,0,0
222468,-100,4,2,173,70,0,0
222656,-100,4,2,28,70,0,0
222843,-100,4,2,174,70,0,0
223030,-100,4,2,225,70,0,0
223218,-100,4,2,175,70,0,0
223405,-100,4,2,8,70,0,0
223593,-100,4,2,35,70,0,0
223780,-100,4,2,51,70,0,0
223968,-100,4,2,176,70,0,0
224155,-100,4,2,166,60,0,0
224343,-100,4,2,177,40,0,0
224436,-100,4,2,226,40,0,0
224718,-100,4,2,13,45,0,0
224811,-100,4,2,227,45,0,0
225093,-100,4,2,178,50,0,0
225186,-100,4,2,228,50,0,0
225468,-100,4,2,179,55,0,0
225561,-100,4,2,34,55,0,0
225843,-100,4,2,180,60,0,0
225936,-100,4,2,229,60,0,0
226218,-100,4,2,181,65,0,0
226311,-100,4,2,35,65,0,0
226593,-100,4,2,182,70,0,0
226686,-100,4,2,2,70,0,0
226968,-100,4,2,183,75,0,0
227344,-100,4,2,230,75,0,0
227530,-100,4,2,88,75,0,0
227905,-100,4,2,89,75,0,0
228093,-100,4,2,231,75,0,0
228280,-100,4,2,90,75,0,0
228655,-100,4,2,1,75,0,0
228843,-100,4,2,91,75,0,0
229030,-100,4,2,1,75,0,0
229218,-100,4,2,232,75,0,0
229405,-100,4,2,233,75,0,0
229968,-100,4,2,234,75,0,0
230155,-100,4,2,184,75,0,0
230530,-100,4,2,235,75,0,0
230717,-100,4,2,185,75,0,0
231093,-100,4,2,236,75,0,0
231280,-100,4,2,186,75,0,0
231655,-100,4,2,237,75,0,0
232030,-100,4,2,187,75,0,0
232218,-100,4,2,238,75,0,0
232405,-100,4,2,92,75,0,0
232593,-100,4,2,239,75,0,0
232780,-100,4,2,240,75,0,0
232968,-100,4,2,188,75,0,0
233155,-100,4,2,93,75,0,0
233343,-100,4,2,241,75,0,0
233530,-100,4,2,94,75,0,0
233905,-100,4,2,95,75,0,0
234093,-100,4,2,170,75,0,0
234280,-100,4,2,51,75,0,0
234468,-100,4,2,189,75,0,0
234655,-100,4,2,93,75,0,0
234843,-100,4,2,241,75,0,0
235030,-100,4,2,96,75,0,0
235405,-100,4,2,95,75,0,0
235593,-100,4,2,242,75,0,0
235780,-100,4,2,51,75,0,0
235968,-100,4,2,190,75,0,0
236155,-100,4,2,97,75,0,0
236343,-100,4,2,243,75,0,0
236530,-100,4,2,98,75,0,0
236905,-100,4,2,99,75,0,0
237093,-100,4,2,244,75,0,0
237280,-100,4,2,100,75,0,0
237468,-100,4,2,191,75,0,0
237655,-100,4,2,97,75,0,0
237843,-100,4,2,245,75,0,0
238030,-100,4,2,98,75,0,0
238218,-100,4,2,192,75,0,0
238405,-100,4,2,99,75,0,0
238593,-100,4,2,246,75,0,0
238780,-100,4,2,51,75,0,0
238968,-100,4,2,193,75,0,0
239155,-100,4,2,101,75,0,0
239343,-100,4,2,247,75,0,0
239530,-100,4,2,102,75,0,0
239718,-100,4,2,103,75,0,0
240093,-100,4,2,248,75,0,0
240280,-100,4,2,51,75,0,0
240468,-100,4,2,194,75,0,0
240655,-100,4,2,97,75,0,0
240843,-100,4,2,249,75,0,0
241030,-100,4,2,98,75,0,0
241218,-100,4,2,195,75,0,0
241405,-100,4,2,99,75,0,0
241593,-100,4,2,250,75,0,0
241780,-100,4,2,51,75,0,0
241968,-100,4,2,196,75,0,0
242155,-100,4,2,51,75,0,0
242343,-100,4,2,251,75,0,0
242530,-100,4,2,104,75,0,0
242718,-100,4,2,95,75,0,0
243093,-100,4,2,252,75,0,0
243280,-100,4,2,51,75,0,0
243468,-100,4,2,197,75,0,0
243655,-100,4,2,51,75,0,0
243843,-100,4,2,253,75,0,0
244030,-100,4,2,105,75,0,0
244218,-100,4,2,106,75,0,0
244405,-100,4,2,103,75,0,0
244593,-100,4,2,254,75,0,0
244780,-100,4,2,4,75,0,0
244968,-100,4,2,198,75,0,0
245155,-100,4,2,93,75,0,0
245343,-100,4,2,243,75,0,0
245530,-100,4,2,98,75,0,0
245905,-100,4,2,99,75,0,0
246093,-100,4,2,255,75,0,0
246280,-100,4,2,107,75,0,0
246468,-100,4,2,199,75,0,0
246655,-100,4,2,93,75,0,0
246843,-100,4,2,256,75,0,0
247030,-100,4,2,108,75,0,0
247218,-100,4,2,1,75,0,0
247405,-100,4,2,109,75,0,0
247593,-100,4,2,170,75,0,0
247780,-100,4,2,110,75,0,0
247968,-100,4,2,64,75,0,0
248155,-100,4,2,97,75,0,0
248343,-100,4,2,243,75,0,0
248530,-100,4,2,111,75,0,0
248905,-100,4,2,99,75,0,0
249093,-100,4,2,257,75,0,0
249280,-100,4,2,112,75,0,0
249468,-100,4,2,200,75,0,0
249655,-100,4,2,97,75,0,0
249843,-100,4,2,258,75,0,0
250030,-100,4,2,113,75,0,0
250218,-100,4,2,1,75,0,0
250405,-100,4,2,114,75,0,0
250593,-100,4,2,38,75,0,0
250780,-100,4,2,115,75,0,0
250968,-100,4,2,201,75,0,0
251155,-100,4,2,93,75,0,0
251343,-100,4,2,241,75,0,0
251530,-100,4,2,94,75,0,0
251905,-100,4,2,95,75,0,0
252093,-100,4,2,259,75,0,0
252280,-100,4,2,116,75,0,0
252468,-100,4,2,202,75,0,0
252655,-100,4,2,93,75,0,0
252749,-100,4,2,93,5,0,0
252843,-100,4,2,260,75,0,0
253030,-100,4,2,94,75,0,0
253218,-100,4,2,195,75,0,0
253405,-100,4,2,95,75,0,0
253593,-100,4,2,242,75,0,0
253780,-100,4,2,51,75,0,0
253968,-100,4,2,203,75,0,0
254155,-100,4,2,97,75,0,0
254343,-100,4,2,243,75,0,0
254530,-100,4,2,98,75,0,0
254905,-100,4,2,99,75,0,0
255093,-100,4,2,261,75,0,0
255280,-100,4,2,116,75,0,0
255468,-100,4,2,204,75,0,0
255655,-100,4,2,97,75,0,0
255749,-100,4,2,97,5,0,0
255843,-100,4,2,262,75,0,0
256030,-100,4,2,98,75,0,0
256218,-100,4,2,205,75,0,0
256405,-100,4,2,99,75,0,0
256593,-100,4,2,263,75,0,0
256780,-100,4,2,51,75,0,0
256968,-100,4,2,206,75,0,0
257343,-100,4,2,264,75,0,0
257530,-100,4,2,204,75,0,0
257905,-100,4,2,117,75,0,0
258093,-100,4,2,2,75,0,0
258280,-100,4,2,118,75,0,0
258468,-100,4,2,59,75,0,0
258843,-100,4,2,137,55,0,0
259968,-100,4,2,265,60,0,0
260156,-100,4,2,4,60,0,0
260343,-100,4,2,266,60,0,0
260530,-100,4,2,267,60,0,0
260905,-100,4,2,266,60,0,0
261280,-100,4,2,268,60,0,0
261469,-100,4,2,269,60,0,0
261655,-100,4,2,137,60,0,0
261843,-100,4,2,266,60,0,0
262031,-100,4,2,270,60,0,0
262406,-100,4,2,74,60,0,0
262593,-100,4,2,271,60,0,0
262968,-100,4,2,272,60,0,0
263156,-100,4,2,10,60,0,0
263343,-100,4,2,273,60,0,0
263530,-100,4,2,274,60,0,0
264094,-100,4,2,209,60,0,0
264280,-100,4,2,137,60,0,0
264468,-100,4,2,275,60,0,0
264656,-100,4,2,10,60,0,0
264843,-100,4,2,273,60,0,0
265030,-100,4,2,274,60,0,0
265405,-100,4,2,137,60,0,0
265593,-100,4,2,276,60,0,0
265969,-100,4,2,277,60,0,0
266156,-100,4,2,10,60,0,0
266344,-100,4,2,278,60,0,0
266531,-100,4,2,12,60,0,0
266906,-100,4,2,278,60,0,0
267094,-100,4,2,102,60,0,0
267280,-100,4,2,137,60,0,0
267468,-100,4,2,279,60,0,0
267843,-100,4,2,137,60,0,0
268030,-100,4,2,280,60,0,0
268593,-100,4,2,281,60,0,0
268780,-100,4,2,137,60,0,0
268969,-100,4,2,282,60,0,0
269344,-100,4,2,219,60,0,0
269719,-100,4,2,283,60,0,0
270094,-100,4,2,284,60,0,0
270469,-100,4,2,285,60,0,0
270843,-100,4,2,122,60,0,0
271218,-100,4,2,286,60,0,0
271405,-100,4,2,1,60,0,0
271593,-100,4,2,119,60,0,0
271874,-100,4,2,100,5,0,0
271968,-100,4,2,207,65,0,0
272156,-100,4,2,34,65,0,0
272343,-100,4,2,208,65,0,0
272530,-100,4,2,287,65,0,0
272718,-100,4,2,207,65,0,0
272905,-100,4,2,288,65,0,0
273093,-100,4,2,209,65,0,0
273280,-100,4,2,57,65,0,0
273468,-100,4,2,210,65,0,0
273655,-100,4,2,289,65,0,0
273843,-100,4,2,208,65,0,0
274031,-100,4,2,290,65,0,0
274218,-100,4,2,207,65,0,0
274406,-100,4,2,171,65,0,0
274593,-100,4,2,211,65,0,0
274968,-100,4,2,212,65,0,0
275156,-100,4,2,166,65,0,0
275343,-100,4,2,213,65,0,0
275530,-100,4,2,291,65,0,0
275718,-100,4,2,207,65,0,0
275906,-100,4,2,35,65,0,0
276093,-100,4,2,214,65,0,0
276280,-100,4,2,57,65,0,0
276468,-100,4,2,215,65,0,0
276656,-100,4,2,166,65,0,0
276843,-100,4,2,213,65,0,0
277030,-100,4,2,291,65,0,0
277218,-100,4,2,216,65,0,0
277405,-100,4,2,63,65,0,0
277593,-100,4,2,217,65,0,0
277780,-100,4,2,3,65,0,0
277968,-100,4,2,218,65,0,0
278156,-100,4,2,292,65,0,0
278343,-100,4,2,219,65,0,0
278531,-100,4,2,293,65,0,0
278718,-100,4,2,207,65,0,0
278906,-100,4,2,157,65,0,0
279093,-100,4,2,220,65,0,0
279280,-100,4,2,75,65,0,0
279468,-100,4,2,221,65,0,0
279656,-100,4,2,166,65,0,0
279843,-100,4,2,222,65,0,0
280030,-100,4,2,294,65,0,0
280218,-100,4,2,223,65,0,0
280406,-100,4,2,241,65,0,0
280593,-100,4,2,224,65,0,0
280780,-100,4,2,57,65,0,0
280968,-100,4,2,225,65,0,0
281155,-100,4,2,82,65,0,0
281718,-100,4,2,120,65,0,0
282093,-100,4,2,121,65,0,0
282280,-100,4,2,226,65,0,0
282843,-100,4,2,128,60,0,0
283124,-100,4,2,100,5,0,0
283218,-100,4,2,57,60,0,0
283968,-90.9090909090909,4,2,78,80,0,1
284155,-90.9090909090909,4,2,59,80,0,1
284343,-90.9090909090909,4,2,87,80,0,1
284530,-90.9090909090909,4,2,60,80,0,1
284718,-90.9090909090909,4,2,1,80,0,1
284905,-90.9090909090909,4,2,20,80,0,1
285093,-90.9090909090909,4,2,130,80,0,1
285280,-90.9090909090909,4,2,20,80,0,1
285468,-90.9090909090909,4,2,79,80,0,1
285655,-90.9090909090909,4,2,61,80,0,1
285843,-90.9090909090909,4,2,87,80,0,1
286030,-90.9090909090909,4,2,62,80,0,1
286405,-90.9090909090909,4,2,51,80,0,1
286593,-90.9090909090909,4,2,131,80,0,1
286780,-90.9090909090909,4,2,51,80,0,1
286874,-90.9090909090909,4,2,51,5,0,1
286968,-90.9090909090909,4,2,80,80,0,1
287155,-90.9090909090909,4,2,63,80,0,1
287343,-90.9090909090909,4,2,91,80,0,1
287530,-90.9090909090909,4,2,64,80,0,1
287905,-90.9090909090909,4,2,20,80,0,1
288093,-90.9090909090909,4,2,132,80,0,1
288280,-90.9090909090909,4,2,20,80,0,1
288468,-90.9090909090909,4,2,81,80,0,1
288655,-90.9090909090909,4,2,65,80,0,1
288843,-90.9090909090909,4,2,72,80,0,1
289030,-90.9090909090909,4,2,66,80,0,1
289218,-90.9090909090909,4,2,35,80,0,1
289405,-90.9090909090909,4,2,51,80,0,1
289593,-90.9090909090909,4,2,133,80,0,1
289780,-90.9090909090909,4,2,51,80,0,1
289968,-90.9090909090909,4,2,82,80,0,1
290155,-90.9090909090909,4,2,63,80,0,1
290343,-90.9090909090909,4,2,91,80,0,1
290530,-90.9090909090909,4,2,64,80,0,1
290905,-90.9090909090909,4,2,20,80,0,1
291093,-90.9090909090909,4,2,134,80,0,1
291280,-90.9090909090909,4,2,20,80,0,1
291468,-90.9090909090909,4,2,83,80,0,1
291655,-90.9090909090909,4,2,63,80,0,1
291843,-90.9090909090909,4,2,72,80,0,1
292030,-90.9090909090909,4,2,67,80,0,1
292218,-90.9090909090909,4,2,35,80,0,1
292405,-90.9090909090909,4,2,51,80,0,1
292499,-90.9090909090909,4,2,57,80,0,1
292593,-90.9090909090909,4,2,135,80,0,1
292780,-90.9090909090909,4,2,20,80,0,1
292968,-90.9090909090909,4,2,84,80,0,1
293155,-90.9090909090909,4,2,59,80,0,1
293343,-90.9090909090909,4,2,136,80,0,1
293530,-90.9090909090909,4,2,60,80,0,1
293718,-90.9090909090909,4,2,35,80,0,1
293905,-90.9090909090909,4,2,51,80,0,1
294093,-90.9090909090909,4,2,130,80,0,1
294280,-90.9090909090909,4,2,51,80,0,1
294468,-90.9090909090909,4,2,85,80,0,1
294655,-90.9090909090909,4,2,51,80,0,1
294749,-90.9090909090909,4,2,51,5,0,1
294843,-90.9090909090909,4,2,137,80,0,1
295218,-90.9090909090909,4,2,86,80,0,1
295593,-90.9090909090909,4,2,137,80,0,1
295968,-90.9090909090909,4,2,87,80,0,1
296155,-90.9090909090909,4,2,59,80,0,1
296343,-90.9090909090909,4,2,87,80,0,1
296530,-90.9090909090909,4,2,60,80,0,1
296718,-90.9090909090909,4,2,1,80,0,1
296905,-90.9090909090909,4,2,20,80,0,1
297093,-90.9090909090909,4,2,130,80,0,1
297280,-90.9090909090909,4,2,20,80,0,1
297468,-90.9090909090909,4,2,79,80,0,1
297655,-90.9090909090909,4,2,61,80,0,1
297843,-90.9090909090909,4,2,87,80,0,1
298030,-90.9090909090909,4,2,62,80,0,1
298405,-90.9090909090909,4,2,51,80,0,1
298593,-90.9090909090909,4,2,131,80,0,1
298780,-90.9090909090909,4,2,51,80,0,1
298968,-90.9090909090909,4,2,80,80,0,1
299155,-90.9090909090909,4,2,63,80,0,1
299343,-90.9090909090909,4,2,91,80,0,1
299530,-90.9090909090909,4,2,64,80,0,1
299905,-90.9090909090909,4,2,51,80,0,1
300093,-90.9090909090909,4,2,132,80,0,1
300280,-90.9090909090909,4,2,20,80,0,1
300468,-90.9090909090909,4,2,88,80,0,1
300656,-90.9090909090909,4,2,138,80,0,1
300749,-90.9090909090909,4,2,100,5,0,1
300843,-90.9090909090909,4,2,139,80,0,1
301030,-90.9090909090909,4,2,89,80,0,1
301311,-90.9090909090909,4,2,89,5,0,1
301405,-90.9090909090909,4,2,140,80,0,1
301593,-90.9090909090909,4,2,141,80,0,1
301686,-90.9090909090909,4,2,1,80,0,1
301780,-90.9090909090909,4,2,68,80,0,1
301968,-100,4,2,90,75,0,0
302155,-100,4,2,142,75,0,0
302343,-100,4,2,69,75,0,0
302530,-100,4,2,91,75,0,0
302718,-100,4,2,5,75,0,0
303093,-100,4,2,70,75,0,0
303280,-100,4,2,35,75,0,0
303468,-100,4,2,92,75,0,0
303656,-100,4,2,29,75,0,0
303843,-100,4,2,69,75,0,0
304030,-100,4,2,93,75,0,0
304218,-100,4,2,5,75,0,0
304405,-100,4,2,35,75,0,0
304593,-100,4,2,70,75,0,0
304780,-100,4,2,35,75,0,0
304968,-100,4,2,94,75,0,0
305156,-100,4,2,29,75,0,0
305343,-100,4,2,71,75,0,0
305530,-100,4,2,95,75,0,0
305718,-100,4,2,5,75,0,0
306093,-100,4,2,72,75,0,0
306280,-100,4,2,35,75,0,0
306468,-100,4,2,96,75,0,0
306656,-100,4,2,29,75,0,0
306843,-100,4,2,143,75,0,0
307030,-100,4,2,97,75,0,0
307311,-100,4,2,97,5,0,0
307405,-100,4,2,144,75,0,0
307593,-100,4,2,145,75,0,0
307686,-100,4,2,2,75,0,0
307780,-100,4,2,73,75,0,0
307968,-100,4,2,146,80,0,0
308156,-100,4,2,32,80,0,0
308343,-100,4,2,147,80,0,0
308530,-100,4,2,98,80,0,0
308718,-100,4,2,5,80,0,0
308905,-100,4,2,35,80,0,0
309093,-100,4,2,148,80,0,0
309280,-100,4,2,35,80,0,0
309468,-100,4,2,149,80,0,0
309656,-100,4,2,150,80,0,0
309843,-100,4,2,151,80,0,0
310030,-100,4,2,99,80,0,0
310218,-100,4,2,152,80,0,0
310968,-100,4,2,153,80,0,0
311156,-100,4,2,72,80,0,0
311343,-100,4,2,154,80,0,0
311530,-100,4,2,100,80,0,0
311718,-100,4,2,5,80,0,0
311905,-100,4,2,35,80,0,0
312093,-100,4,2,155,80,0,0
312280,-100,4,2,35,80,0,0
312468,-100,4,2,156,80,0,0
312656,-100,4,2,157,80,0,0
312843,-100,4,2,158,80,0,0
313030,-100,4,2,101,80,0,0
313218,-100,4,2,159,80,0,0
313405,-100,4,2,38,80,0,0
313593,-100,4,2,116,80,0,0
313686,-100,4,2,1,80,0,0
313780,-100,4,2,102,80,0,0
313968,-100,4,2,160,60,0,0
314155,-100,4,2,161,45,0,0
314343,-100,4,2,162,50,0,0
314530,-100,4,2,163,55,0,0
314718,-100,4,2,164,60,0,0
314905,-100,4,2,164,65,0,0
315093,-100,4,2,165,70,0,0
315280,-100,4,2,165,75,0,0
315468,-100,4,2,103,80,0,0
316030,-100,4,2,57,80,0,0
316968,-100,4,2,104,60,0,0
317156,-100,4,2,166,60,0,0
317343,-100,4,2,167,60,0,0
317530,-100,4,2,168,60,0,0
317905,-100,4,2,169,60,0,0
318094,-100,4,2,170,60,0,0
318280,-100,4,2,295,60,0,0
318468,-100,4,2,106,60,0,0
318656,-100,4,2,34,60,0,0
318844,-100,4,2,171,60,0,0
319030,-100,4,2,55,60,0,0
319405,-100,4,2,107,60,0,0
319593,-100,4,2,38,60,0,0
319968,-100,4,2,227,60,0,0
320156,-100,4,2,172,60,0,0
320343,-100,4,2,296,60,0,0
320530,-100,4,2,122,60,0,0
320905,-100,4,2,297,60,0,0
321093,-100,4,2,123,60,0,0
321280,-100,4,2,124,60,0,0
321468,-100,4,2,228,60,0,0
321655,-100,4,2,125,60,0,0
321844,-100,4,2,298,60,0,0
322030,-100,4,2,126,60,0,0
322405,-100,4,2,229,60,0,0
322593,-100,4,2,1,60,0,0
322968,-100,4,2,230,60,0,0
323156,-100,4,2,29,60,0,0
323343,-100,4,2,299,60,0,0
323530,-100,4,2,300,60,0,0
323905,-100,4,2,301,60,0,0
324280,-100,4,2,231,60,0,0
324468,-100,4,2,110,60,0,0
324656,-100,4,2,72,60,0,0
324843,-100,4,2,302,60,0,0
325030,-100,4,2,232,60,0,0
325218,-100,4,2,303,60,0,0
325405,-100,4,2,2,60,0,0
325593,-100,4,2,127,60,0,0
325968,-100,4,2,233,60,0,0
326156,-100,4,2,136,60,0,0
326344,-100,4,2,219,60,0,0
326530,-100,4,2,304,60,0,0
326718,-100,4,2,305,60,0,0
326905,-100,4,2,128,60,0,0
326999,-100,4,2,3,60,0,0
327093,-100,4,2,128,60,0,0
327280,-100,4,2,57,60,0,0
327468,-100,4,2,234,60,0,0
327843,-100,4,2,306,60,0,0
328030,-100,4,2,3,60,0,0
328218,-100,4,2,235,60,0,0
328405,-100,4,2,3,60,0,0
328593,-100,4,2,129,60,0,0
328780,-100,4,2,2,60,0,0
328968,-111.111111111111,4,2,307,50,0,0
329343,-111.111111111111,4,2,308,50,0,0
329530,-111.111111111111,4,2,309,50,0,0
329905,-111.111111111111,4,2,310,50,0,0
330280,-111.111111111111,4,2,311,50,0,0
330469,-111.111111111111,4,2,312,50,0,0
330656,-111.111111111111,4,2,313,50,0,0
330844,-111.111111111111,4,2,127,50,0,0
331031,-111.111111111111,4,2,314,50,0,0
331406,-111.111111111111,4,2,278,50,0,0
331968,-111.111111111111,4,2,315,50,0,0
332343,-111.111111111111,4,2,308,50,0,0
332530,-111.111111111111,4,2,309,50,0,0
332905,-111.111111111111,4,2,310,50,0,0
333280,-111.111111111111,4,2,295,50,0,0
333469,-111.111111111111,4,2,316,50,0,0
333656,-111.111111111111,4,2,313,50,0,0
333844,-111.111111111111,4,2,127,50,0,0
334031,-111.111111111111,4,2,314,50,0,0
334406,-111.111111111111,4,2,278,50,0,0
334968,397.350993377483,4,2,317,50,1,0
335365,-100,4,2,318,50,0,0
335564,413.793103448276,4,2,319,50,1,8
335770,413.793103448276,4,2,164,50,1,8
335976,-100,4,2,320,50,0,8
336183,-100,4,2,321,50,0,8
336597,451.127819548872,4,2,322,50,1,0
337048,-100,4,2,164,50,0,0
337499,588.235294117647,4,2,323,50,1,8
338087,759.493670886076,4,2,164,50,1,8
338846,731.70731707317,4,2,324,50,1,0
339028,-100,4,2,100,20,0,0
344699,-100,4,2,100,5,0,0

[Colours]
Combo1 : 253,30,91
Combo2 : 254,103,118
Combo3 : 255,255,128
Combo4 : 249,213,164
SliderBorder : 254,103,118

[HitObjects]
246,307,375,5,2,2:2:0:0:
281,303,421,1,2,2:2:0:0:
315,288,468,2,0,P|379:224|302:176,1,210,2|2,2:2|2:2,0:0:0:0:
195,191,1030,2,0,L|377:63,1,210,2|2,2:2|2:2,0:0:0:0:
261,64,1593,1,2,2:2:0:0:
64,68,1968,5,2,2:2:0:0:
188,84,2155,1,2,2:2:0:0:
180,199,2343,1,2,2:2:0:0:
56,144,2530,2,0,P|38:239|129:271,1,210,2|2,2:2|2:2,0:0:0:0:
234,267,3093,1,2,2:2:0:0:
354,299,3374,6,0,L|357:265,1,26.25,2|2,2:2|2:2,0:0:0:0:
321,255,3468,1,2,2:2:0:0:
233,197,3655,1,2,2:2:0:0:
127,195,3843,1,2,2:2:0:0:
230,177,4030,2,0,P|287:177|301:310,1,210,2|2,2:2|2:2,0:0:0:0:
194,315,4593,1,2,2:2:0:0:
406,315,4968,6,0,P|476:256|404:199,1,210,2|2,2:2|2:2,0:0:0:0:
285,196,5530,2,0,L|85:315,1,210,2|2,2:2|2:2,0:0:0:0:
339,125,6374,6,0,L|384:135,1,26.25,2|2,2:2|2:2,0:0:0:0:
324,123,6468,2,0,P|231:157|234:256,1,210,2|2,2:3|2:2,0:0:0:0:
340,213,7030,2,0,L|144:307,1,210,2|2,2:3|2:2,0:0:0:0:
266,346,7593,1,2,2:2:0:0:
375,310,7780,2,0,L|316:310,1,52.5,2|2,2:3|2:3,0:0:0:0:
234,297,7968,6,0,P|323:243|423:209,1,210,2|2,2:3|2:3,0:0:0:0:
312,86,8530,2,0,P|212:115|142:191,1,210,2|2,2:3|2:3,0:0:0:0:
267,215,9093,1,2,2:2:0:0:
54,202,9468,6,0,P|55:298|150:314,1,210,2|2,2:3|2:2,0:0:0:0:
266,243,10030,1,2,2:2:0:0:
150,242,10218,2,0,P|252:221|355:239,1,210,2|2,2:2|2:2,0:0:0:0:
244,124,10780,2,0,L|191:124,1,52.5,2|2,2:3|2:3,0:0:0:0:
277,174,10968,6,0,P|370:207|376:306,1,210,2|0,2:3|0:0,0:0:0:0:
251,322,11530,1,2,2:3:0:0:
124,322,11718,2,0,P|34:278|38:179,1,210,2|2,2:2|2:3,0:0:0:0:
478,130,12468,6,0,L|259:68,1,210,14|2,2:1|2:2,0:0:0:0:
160,45,13030,1,2,2:2:0:0:
369,46,13405,1,2,2:2:0:0:
172,167,13780,1,2,2:2:0:0:
298,163,13968,5,10,2:1:0:0:
412,164,14155,2,0,P|412:263|319:291,1,210,2|10,2:3|2:3,0:0:0:0:
70,303,14905,1,6,2:3:0:0:
41,303,15093,1,6,2:3:0:0:
477,97,15468,6,0,P|473:195|379:222,1,210,14|2,2:1|2:2,0:0:0:0:
252,225,16030,1,2,2:2:0:0:
42,237,16405,1,2,2:2:0:0:
38,342,16593,1,2,2:3:0:0:
281,332,16780,1,2,2:2:0:0:
165,327,16968,5,10,2:1:0:0:
278,309,17155,1,8,2:3:0:0:
393,297,17343,1,0,0:0:0:0:
266,244,17530,2,0,P|162:242|58:260,1,210,10|10,2:3|2:1,0:0:0:0:
127,269,17999,1,8,2:1:0:0:
334,267,18093,2,0,P|390:302|335:340,1,157.5,12|0,2:2|0:0,0:0:0:0:
162,337,18468,6,0,L|42:334,1,105,10|2,2:1|2:2,0:0:0:0:
194,283,18843,1,10,2:1:0:0:
62,284,19030,2,0,P|50:232|57:181,1,105,2|8,2:2|2:1,0:0:0:0:
203,166,19405,2,0,P|211:217|203:269,1,105,2|8,2:2|2:1,0:0:0:0:
382,116,19780,2,0,L|330:113,1,52.5,2|0,2:2|0:0,0:0:0:0:
255,121,19968,6,0,P|240:170|256:219,1,105,10|2,2:1|2:3,0:0:0:0:
443,270,20343,2,0,P|462:317|445:366,1,105,10|2,2:1|2:2,0:0:0:0:
274,309,20718,2,0,L|166:307,1,105,10|2,2:1|2:2,0:0:0:0:
422,181,21093,2,0,P|430:130|423:78,1,105,10|0,2:1|0:0,0:0:0:0:
354,78,21374,1,0,0:0:0:0:
191,73,21468,6,0,L|60:76,1,105,10|10,2:1|2:2,0:0:0:0:
231,150,21843,2,0,L|247:224,1,52.5,10|8,2:1|2:2,0:0:0:0:
173,207,22030,2,0,L|170:282,1,52.5,10|8,2:2|2:2,0:0:0:0:
331,250,22218,2,0,L|456:248,1,105,8|10,2:1|2:2,0:0:0:0:
372,245,22499,1,8,2:2:0:0:
213,190,22593,2,0,L|132:188,1,52.5,10|8,2:1|2:2,0:0:0:0:
312,139,22780,2,0,L|364:134,1,52.5,10|8,2:2|2:2,0:0:0:0:
185,70,22968,6,0,P|113:127|185:183,1,210,14|0,2:1|0:0,0:0:0:0:
309,182,23530,2,0,P|302:281|209:315,1,210,2|2,2:2|2:2,0:0:0:0:
83,301,24093,1,2,2:2:0:0:
247,335,24374,2,0,L|284:335,1,26.25,2|2,2:2|2:2,0:0:0:0:
234,334,24468,6,0,P|274:150|310:334,1,525,2|4,2:2|2:3,0:0:0:0:
183,339,25593,1,4,2:3:0:0:
57,336,25780,1,2,2:2:0:0:
323,331,25968,6,0,P|394:272|323:214,1,210,10|8,2:1|2:1,0:0:0:0:
192,220,26530,2,0,P|180:170|192:119,1,105,2|8,2:2|2:1,0:0:0:0:
328,112,26905,2,0,L|443:109,1,105,2|10,2:2|2:1,0:0:0:0:
328,112,27280,1,2,2:2:0:0:
163,52,27468,6,0,P|173:150|268:179,1,210,10|8,2:1|2:1,0:0:0:0:
384,184,28030,2,0,P|395:238|384:287,1,105,2|8,2:2|2:1,0:0:0:0:
268,290,28405,1,2,2:2:0:0:
115,288,28593,2,0,L|156:176,1,105,8|2,2:2|2:2,0:0:0:0:
462,221,28968,6,0,P|458:124|363:102,1,210,10|10,2:1|2:1,0:0:0:0:
230,114,29530,2,0,P|221:166|235:217,1,105,2|8,2:2|2:1,0:0:0:0:
369,212,29905,2,0,P|383:261|367:310,1,105,2|10,2:2|2:1,0:0:0:0:
242,328,30280,1,2,2:2:0:0:
90,328,30468,6,0,P|80:276|85:224,1,105,10|2,2:1|2:2,0:0:0:0:
222,211,30843,2,0,L|338:212,1,105,10|2,2:1|2:2,0:0:0:0:
195,53,31218,2,0,L|66:57,1,105,10|2,2:1|2:3,0:0:0:0:
335,142,31593,2,0,P|346:192|338:245,1,105,10|0,2:2|0:0,0:0:0:0:
89,240,31968,6,0,P|190:217|293:238,1,210,10|10,2:1|2:1,0:0:0:0:
166,138,32530,2,0,L|54:159,2,105,2|8|2,2:2|2:1|2:2,0:0:0:0:
302,140,33093,1,10,2:1:0:0:
166,130,33280,1,2,2:2:0:0:
411,198,33468,6,0,P|483:254|410:307,1,210,10|10,2:1|2:1,0:0:0:0:
271,300,34030,2,0,L|130:300,1,105,2|8,2:2|2:1,0:0:0:0:
307,212,34405,2,0,L|189:210,1,105,2|8,2:2|2:2,0:0:0:0:
65,220,34780,2,0,L|135:211,1,52.5,2|0,2:2|0:0,0:0:0:0:
310,171,34968,5,10,2:1:0:0:
173,165,35155,2,0,P|155:214|170:264,1,105,2|10,2:2|2:1,0:0:0:0:
415,215,35530,2,0,P|427:265|418:317,1,105,2|8,2:2|2:1,0:0:0:0:
272,339,35905,1,10,2:3:0:0:
408,330,36093,1,6,2:3:0:0:
442,277,36186,1,0,0:0:0:0:
385,249,36280,1,2,2:3:0:0:
87,146,36468,6,0,P|13:199|85:255,1,210,10|2,2:1|2:2,0:0:0:0:
327,216,37218,2,0,L|431:215,1,105,2|8,2:2|2:1,0:0:0:0:
168,104,37593,2,0,P|123:155|185:184,1,157.5,10|0,2:2|0:0,0:0:0:0:
377,179,37968,5,14,2:1:0:0:
203,353,38343,2,0,P|139:318|219:248,1,210,10|8,2:2|2:1,0:0:0:0:
319,177,38905,1,2,2:3:0:0:
169,122,39093,2,0,L|53:115,1,105,10|2,2:2|2:3,0:0:0:0:
316,55,39468,6,0,L|440:45,2,105,10|2|10,2:1|2:3|2:2,0:0:0:0:
164,126,40030,1,2,2:3:0:0:
311,181,40218,2,0,L|430:193,1,105,10|2,2:1|2:3,0:0:0:0:
264,267,40593,2,0,L|119:282,1,105,10|2,2:2|2:3,0:0:0:0:
413,354,40968,6,0,P|479:320|386:259,1,210,10|10,2:1|2:2,0:0:0:0:
257,194,41530,2,0,L|403:182,1,105,2|8,2:3|2:1,0:0:0:0:
208,63,41905,2,0,L|209:177,1,105,2|10,2:3|2:2,0:0:0:0:
348,200,42280,1,2,2:3:0:0:
91,301,42468,6,0,L|198:313,1,105,10|2,2:1|2:3,0:0:0:0:
450,372,42843,2,0,L|456:245,1,105,10|2,2:2|2:3,0:0:0:0:
304,233,43218,2,0,L|198:224,1,105,10|2,2:1|2:3,0:0:0:0:
457,224,43593,2,0,L|456:86,1,105,14|0,2:2|0:0,0:0:0:0:
199,44,43968,6,0,P|136:81|236:157,1,210,14|10,2:1|2:2,0:0:0:0:
349,265,44530,2,0,L|458:238,2,105,2|8|2,2:3|2:1|2:3,0:0:0:0:
200,298,45093,1,10,2:2:0:0:
352,346,45280,1,2,2:3:0:0:
98,356,45468,6,0,L|324:315,1,210,10|10,2:1|2:2,0:0:0:0:
156,236,46030,2,0,L|42:249,2,105,2|8|2,2:3|2:1|2:3,0:0:0:0:
311,181,46593,1,10,2:2:0:0:
158,146,46780,1,2,2:3:0:0:
411,23,46968,6,0,L|406:164,1,105,10|2,2:1|2:3,0:0:0:0:
257,182,47343,1,10,2:2:0:0:
410,217,47530,2,0,L|406:337,1,105,2|8,2:3|2:1,0:0:0:0:
254,342,47905,1,2,2:3:0:0:
358,348,48092,1,10,2:2:0:0:
463,355,48280,1,2,2:3:0:0:
209,277,48468,6,0,L|74:286,1,105,10|2,2:1|2:3,0:0:0:0:
361,364,48843,2,0,P|414:329|350:273,1,157.5,14|0,2:2|0:0,0:0:0:0:
192,218,49218,2,0,L|261:213,1,52.5,10|8,2:2|2:2,0:0:0:0:
405,181,49405,1,8,2:3:0:0:
143,140,49593,2,0,P|105:85|182:34,1,157.5,14|0,2:2|0:0,0:0:0:0:
352,366,49968,5,14,2:1:0:0:
246,312,50155,1,10,2:1:0:0:
207,210,50343,1,2,2:3:0:0:
246,312,50530,1,0,0:0:0:0:
395,263,50718,1,10,2:2:0:0:
259,207,50905,2,0,L|404:200,1,105,2|2,2:2|2:3,0:0:0:0:
98,56,51280,6,0,P|56:110|144:206,1,210,10|10,2:1|2:1,0:0:0:0:
276,273,51843,2,0,L|155:281,1,105,2|8,2:3|2:1,0:0:0:0:
426,362,52218,2,0,L|427:240,1,105,10|0,2:2|0:0,0:0:0:0:
168,354,52593,2,0,L|36:318,1,105,2|0,2:3|0:0,0:0:0:0:
322,249,52968,6,0,L|439:251,2,105,10|10|2,2:1|2:1|2:3,0:0:0:0:
165,209,53530,1,2,2:2:0:0:
281,199,53718,2,0,L|283:89,1,105,10|0,2:2|0:0,0:0:0:0:
132,63,54093,1,2,2:3:0:0:
384,134,54280,6,0,L|158:156,1,210,10|10,2:1|2:1,0:0:0:0:
281,205,54843,2,0,L|414:217,1,105,2|10,2:3|2:1,0:0:0:0:
237,332,55218,2,0,L|117:343,1,105,10|2,2:2|2:2,0:0:0:0:
185,350,55499,1,0,0:0:0:0:
353,288,55593,2,0,L|426:291,2,52.5,2|2|2,2:3|2:3|2:3,0:0:0:0:
68,364,55968,5,10,2:1:0:0:
37,266,56155,1,10,2:1:0:0:
84,175,56343,1,2,2:3:0:0:
182,145,56530,1,0,0:0:0:0:
322,133,56718,1,10,2:2:0:0:
172,45,56905,2,0,L|169:178,1,105,2|2,2:2|2:3,0:0:0:0:
424,172,57280,6,0,P|466:222|357:307,1,210,10|10,2:1|2:1,0:0:0:0:
233,366,57843,2,0,L|377:367,1,105,2|8,2:3|2:1,0:0:0:0:
183,296,58218,2,0,L|57:298,1,105,10|2,2:2|2:3,0:0:0:0:
130,312,58499,1,2,2:3:0:0:
182,332,58593,1,2,2:3:0:0:
32,364,58780,1,0,0:0:0:0:
287,307,58968,6,0,L|290:192,1,105,10|10,2:1|2:1,0:0:0:0:
184,171,59343,1,2,2:3:0:0:
336,115,59530,1,2,2:2:0:0:
181,80,59718,2,0,L|56:85,2,105,10|2|10,2:2|2:2|2:1,0:0:0:0:
431,169,60280,6,0,L|206:171,1,210,14|6,2:1|2:3,0:0:0:0:
370,207,60843,2,0,L|378:337,1,105,6|6,2:3|2:3,0:0:0:0:
136,361,61218,2,0,L|197:356,1,52.5,10|8,2:2|2:2,0:0:0:0:
353,329,61405,1,10,2:1:0:0:
92,242,61593,1,10,2:2:0:0:
234,197,61780,2,0,L|176:196,1,52.5,10|8,2:2|2:2,0:0:0:0:
19,133,61968,6,0,L|123:124,2,105,14|2|10,2:1|2:3|2:2,0:0:0:0:
169,43,62530,2,0,P|234:90|131:159,1,210,2|2,2:3|2:3,0:0:0:0:
61,206,63093,1,10,2:2:0:0:
326,281,63280,5,2,2:3:0:0:
209,305,63468,2,0,L|210:191,1,105,10|2,2:1|2:3,0:0:0:0:
357,194,63843,2,0,L|363:86,1,105,10|2,2:2|2:3,0:0:0:0:
103,68,64218,2,0,L|106:193,1,105,10|2,2:1|2:3,0:0:0:0:
255,227,64593,2,0,L|386:231,1,105,10|2,2:2|2:3,0:0:0:0:
307,261,64874,1,0,0:0:0:0:
140,315,64968,6,0,L|20:333,2,105,10|2|10,2:1|2:3|2:2,0:0:0:0:
289,317,65530,2,0,P|337:263|259:178,1,210,2|2,2:3|2:3,0:0:0:0:
103,168,66093,2,0,L|218:159,1,105,10|2,2:2|2:3,0:0:0:0:
458,50,66468,6,0,L|460:178,1,105,10|2,2:1|2:3,0:0:0:0:
207,273,66843,1,14,2:2:0:0:
335,296,67030,2,0,L|262:307,1,52.5,2|0,2:3|0:0,0:0:0:0:
117,335,67218,1,14,2:1:0:0:
371,357,67405,2,0,L|445:363,1,52.5,10|8,2:2|2:2,0:0:0:0:
227,327,67593,1,10,2:2:0:0:
170,313,67686,2,0,L|142:251,2,52.5,4|4|4,2:3|2:3|2:3,0:0:0:0:
356,185,67968,5,14,2:2:0:0:
251,182,68155,1,2,2:2:0:0:
146,179,68343,1,10,2:2:0:0:
297,85,68530,1,10,2:1:0:0:
42,42,68718,2,0,L|39:176,1,105,8|8,2:2|2:1,0:0:0:0:
190,212,69093,1,8,2:2:0:0:
37,258,69280,2,0,L|121:263,1,52.5,10|0,2:1|0:0,0:0:0:0:
268,344,69468,6,0,L|271:227,1,105,10|10,2:2|2:1,0:0:0:0:
121,210,69843,2,0,L|116:100,1,105,10|10,2:2|2:1,0:0:0:0:
370,72,70218,2,0,L|477:62,1,105,8|10,2:2|2:1,0:0:0:0:
327,153,70593,1,10,2:2:0:0:
475,210,70780,2,0,L|406:217,1,52.5,10|8,2:2|2:2,0:0:0:0:
218,319,70968,6,0,L|216:199,1,105,14|10,2:1|2:1,0:0:0:0:
364,177,71343,1,10,2:2:0:0:
214,81,71530,1,6,2:3:0:0:
161,87,71623,1,8,2:3:0:0:
109,94,71717,1,8,2:3:0:0:
264,65,71905,1,10,2:1:0:0:
112,42,72093,2,0,L|112:158,1,105,10|8,2:2|2:1,0:0:0:0:
369,202,72468,6,0,L|231:205,1,105,10|10,2:1|2:1,0:0:0:0:
416,287,72843,1,10,2:2:0:0:
279,336,73030,2,0,L|270:262,2,52.5,6|8|10,2:3|2:3|2:3,0:0:0:0:
384,358,73405,1,10,2:1:0:0:
112,222,73593,2,0,L|179:214,1,52.5,10|8,2:2|2:2,0:0:0:0:
347,184,73780,2,0,L|413:177,1,52.5,10|0,2:1|0:0,0:0:0:0:
174,115,73968,5,14,2:1:0:0:
69,79,74155,2,0,L|147:74,1,52.5,10|8,2:2|2:2,0:0:0:0:
297,207,74343,1,10,2:1:0:0:
356,182,74436,2,0,L|386:125,2,52.5,8|10|8,2:2|2:2|2:2,0:0:0:0:
164,295,74718,2,0,L|81:295,1,52.5,8|8,2:1|2:2,0:0:0:0:
323,327,74905,2,0,L|392:330,1,52.5,10|8,2:2|2:2,0:0:0:0:
164,295,75093,2,0,L|100:289,1,52.5,10|8,2:1|2:2,0:0:0:0:
323,219,75280,6,0,P|398:193|375:121,1,157.5,14|0,2:1|0:0,0:0:0:0:
119,85,75655,1,14,2:1:0:0:
119,85,76405,1,8,2:1:0:0:
391,83,76593,2,0,P|443:122|368:192,1,157.5,14|0,2:2|0:0,0:0:0:0:
169,222,76968,6,0,L|53:220,1,115.50000352478,14|2,2:1|2:3,0:0:0:0:
203,215,77343,1,10,2:2:0:0:
367,206,77530,2,0,P|392:255|366:304,1,115.50000352478,2|8,2:3|2:1,0:0:0:0:
216,310,77905,2,0,L|334:302,1,115.50000352478,2|10,2:3|2:2,0:0:0:0:
138,105,78280,6,0,L|22:106,2,115.50000352478,2|10|2,2:3|2:1|2:3,0:0:0:0:
416,43,78843,2,0,L|289:43,1,115.50000352478,10|2,2:2|2:3,0:0:0:0:
145,94,79218,2,0,P|136:150|149:206,1,115.50000352478,8|2,2:1|2:3,0:0:0:0:
409,208,79593,2,0,P|467:161|404:121,1,173.250005287171,10|0,2:2|0:0,0:0:0:0:
197,133,79968,6,0,L|53:138,1,115.50000352478,10|2,2:1|2:3,0:0:0:0:
238,303,80343,1,10,2:2:0:0:
87,232,80530,2,0,L|210:226,1,115.50000352478,2|8,2:3|2:1,0:0:0:0:
365,224,80905,2,0,P|369:166|361:109,1,115.50000352478,2|10,2:3|2:2,0:0:0:0:
169,100,81280,6,0,L|319:96,1,115.50000352478,2|10,2:3|2:1,0:0:0:0:
449,72,81655,2,0,L|319:59,2,115.50000352478,2|10|2,2:3|2:2|2:3,0:0:0:0:
190,29,82218,2,0,P|181:85|194:141,1,115.50000352478,10|2,2:1|2:3,0:0:0:0:
362,139,82593,2,0,P|367:196|359:253,1,115.50000352478,10|2,2:2|2:3,0:0:0:0:
105,264,82968,6,0,P|219:246|334:256,1,231.000007049561,14|10,2:1|2:2,0:0:0:0:
179,178,83530,2,0,L|62:206,2,115.50000352478,2|8|2,2:3|2:1|2:3,0:0:0:0:
437,175,84093,2,0,P|466:127|430:80,1,115.50000352478,10|2,2:2|2:3,0:0:0:0:
181,48,84468,6,0,P|80:89|84:197,1,231.000007049561,10|10,2:1|2:2,0:0:0:0:
236,251,85030,1,2,2:3:0:0:
396,274,85218,2,0,L|263:296,1,115.50000352478,10|2,2:1|2:3,0:0:0:0:
199,252,85499,1,2,2:2:0:0:
282,196,85593,2,0,L|396:177,1,115.50000352478,10|2,2:2|2:3,0:0:0:0:
124,92,85968,6,0,P|47:152|132:201,1,231.000007049561,10|10,2:1|2:2,0:0:0:0:
293,190,86530,1,2,2:3:0:0:
135,29,86718,2,0,L|265:23,1,115.50000352478,10|2,2:1|2:3,0:0:0:0:
416,18,87093,2,0,P|430:73|416:128,1,115.50000352478,10|2,2:2|2:3,0:0:0:0:
157,139,87468,6,0,L|25:141,1,115.50000352478,10|2,2:1|2:3,0:0:0:0:
299,182,87843,2,0,P|318:235|298:288,1,115.50000352478,14|0,2:2|0:0,0:0:0:0:
43,296,88218,2,0,P|26:241|43:186,1,115.50000352478,14|0,2:1|0:0,0:0:0:0:
320,132,88593,2,0,L|465:126,1,115.50000352478,14|8,2:2|2:2,0:0:0:0:
365,100,88874,1,8,2:2:0:0:
153,101,88968,6,0,L|27:101,1,115.50000352478,14|2,2:1|2:3,0:0:0:0:
200,33,89343,1,10,2:2:0:0:
378,32,89530,2,0,L|239:28,1,115.50000352478,2|8,2:3|2:1,0:0:0:0:
100,25,89905,2,0,L|157:145,1,115.50000352478,2|10,2:3|2:2,0:0:0:0:
344,136,90280,6,0,L|468:138,1,115.50000352478,2|10,2:3|2:1,0:0:0:0:
301,239,90655,1,2,2:3:0:0:
46,124,90843,2,0,P|41:182|47:239,1,115.50000352478,10|2,2:2|2:3,0:0:0:0:
198,240,91218,2,0,L|82:235,1,115.50000352478,8|2,2:1|2:3,0:0:0:0:
336,104,91593,2,0,L|472:105,1,115.50000352478,10|2,2:2|2:3,0:0:0:0:
171,75,91968,6,0,P|93:140|170:206,1,231.000007049561,10|10,2:1|2:2,0:0:0:0:
332,206,92530,2,0,L|456:230,2,115.50000352478,2|8|2,2:3|2:1|2:3,0:0:0:0:
79,89,93093,2,0,P|69:145|82:201,1,115.50000352478,10|2,2:2|2:3,0:0:0:0:
359,182,93468,6,0,P|244:170|131:193,1,231.000007049561,14|10,2:1|2:2,0:0:0:0:
389,31,94030,2,0,P|401:87|387:142,1,115.50000352478,14|0,2:1|0:0,0:0:0:0:
232,146,94405,2,0,L|167:151,1,57.7500017623902,10|8,2:2|2:2,0:0:0:0:
344,298,94593,2,0,L|461:306,1,115.50000352478,10|6,2:2|2:3,0:0:0:0:
391,273,94874,1,4,2:3:0:0:
170,286,94968,6,0,P|106:233|168:177,1,188.999994232178,14|2,2:1|2:3,0:0:0:0:
290,170,95530,1,10,2:1:0:0:
167,159,95718,2,0,P|256:131|350:135,1,188.999994232178,8|2,2:2|2:3,0:0:0:0:
354,257,96280,1,10,2:1:0:0:
109,285,96468,6,0,P|112:196|196:167,1,188.999994232178,10|2,2:1|2:3,0:0:0:0:
322,167,97030,1,10,2:1:0:0:
200,168,97218,1,8,2:2:0:0:
350,179,97405,2,0,P|434:211|436:300,1,188.999994232178,10|10,2:1|2:1,0:0:0:0:
177,320,97968,6,0,P|269:304|364:307,1,188.999994232178,14|2,2:1|2:3,0:0:0:0:
243,284,98530,1,10,2:1:0:0:
110,281,98718,2,0,P|45:232|111:184,1,188.999994232178,8|2,2:2|2:3,0:0:0:0:
233,177,99280,1,10,2:1:0:0:
482,165,99468,6,0,P|472:254|387:278,1,188.999994232178,14|10,2:1|2:2,0:0:0:0:
134,257,100030,2,0,P|92:209|144:174,1,141.749995674133,14|0,2:1|0:0,0:0:0:0:
295,167,100405,2,0,L|356:166,1,52.5,10|8,2:2|2:2,0:0:0:0:
176,79,100593,2,0,L|105:82,2,52.5,10|4|6,2:2|2:3|2:3,0:0:0:0:
432,61,100968,6,0,P|445:116|431:163,1,105,14|2,2:2|2:2,0:0:0:0:
278,167,101343,2,0,L|169:172,1,105,10|10,2:2|2:1,0:0:0:0:
355,226,101718,2,0,P|367:276|361:328,1,105,8|10,2:2|2:1,0:0:0:0:
214,341,102093,2,0,L|343:331,1,105,10|10,2:2|2:1,0:0:0:0:
53,237,102468,6,0,P|41:186|51:134,1,105,10|2,2:2|2:2,0:0:0:0:
210,134,102843,2,0,L|326:139,1,105,10|10,2:2|2:1,0:0:0:0:
169,30,103218,2,0,L|274:29,1,105,8|8,2:2|2:1,0:0:0:0:
444,19,103593,2,0,P|457:69|442:118,1,105,10|8,2:2|2:1,0:0:0:0:
160,131,103968,6,0,L|46:130,1,105,10|2,2:2|2:2,0:0:0:0:
211,43,104343,2,0,L|329:43,1,105,10|10,2:2|2:1,0:0:0:0:
136,111,104718,2,0,P|128:162|139:213,1,105,8|10,2:2|2:1,0:0:0:0:
286,221,105093,2,0,L|181:218,1,105,10|10,2:2|2:1,0:0:0:0:
433,108,105468,6,0,P|438:160|434:212,1,105,10|2,2:2|2:2,0:0:0:0:
184,175,105843,2,0,L|51:176,1,105,14|10,2:2|2:1,0:0:0:0:
330,52,106218,2,0,L|434:47,1,105,14|10,2:2|2:2,0:0:0:0:
371,46,106499,1,8,2:2:0:0:
163,68,106593,2,0,L|58:68,1,105,10|10,2:2|2:1,0:0:0:0:
121,68,106874,1,8,2:1:0:0:
354,118,106968,6,0,P|368:169|359:220,1,105,10|10,2:2|2:2,0:0:0:0:
216,244,107343,2,0,L|344:232,1,105,10|10,2:2|2:2,0:0:0:0:
59,162,107718,2,0,P|52:113|89:78,1,105,10|8,2:2|2:2,0:0:0:0:
157,73,107999,1,8,2:2:0:0:
319,66,108093,2,0,L|371:63,1,52.5,10|8,2:2|2:2,0:0:0:0:
208,155,108280,2,0,L|135:156,1,52.5,8|8,2:2|2:2,0:0:0:0:
339,126,108468,6,0,P|446:210|335:289,1,315,14|2,2:1|2:2,0:0:0:0:
179,281,109218,2,0,L|345:274,2,157.5,2|2|2,2:2|2:2|2:2,0:0:0:0:
447,120,109968,6,0,P|449:219|359:259,1,210,14|2,2:1|2:2,0:0:0:0:
253,367,110530,2,0,L|473:339,1,210,2|2,2:2|2:2,0:0:0:0:
190,276,111280,1,10,2:1:0:0:
342,274,111468,6,0,P|460:222|449:129,1,210,10|2,2:1|2:2,0:0:0:0:
305,238,112030,2,0,P|240:228|259:106,1,210,2|10,2:3|2:1,0:0:0:0:
357,298,112593,2,0,L|469:304,1,105,10|0,2:2|0:0,0:0:0:0:
203,312,112968,6,0,P|139:291|159:160,1,210,14|2,2:1|2:2,0:0:0:0:
251,119,113530,2,0,L|47:61,1,210,2|2,2:2|2:2,0:0:0:0:
335,78,114280,1,10,2:1:0:0:
183,147,114468,6,0,L|38:132,1,105,10|10,2:1|2:3,0:0:0:0:
183,280,114843,1,2,2:2:0:0:
288,321,115030,2,0,L|60:374,1,210,10|10,2:3|2:1,0:0:0:0:
235,358,115593,2,0,L|377:363,1,105,8|0,2:2|0:0,0:0:0:0:
83,310,115968,6,0,L|81:189,1,105,10|2,2:1|2:2,0:0:0:0:
208,194,116343,1,10,2:1:0:0:
334,185,116530,2,0,L|205:175,1,105,2|8,2:2|2:1,0:0:0:0:
376,138,116905,2,0,L|384:31,1,105,2|8,2:2|2:1,0:0:0:0:
235,83,117280,2,0,L|160:75,1,52.5,2|0,2:2|0:0,0:0:0:0:
358,212,117468,6,0,L|467:208,1,105,10|2,2:1|2:2,0:0:0:0:
315,339,117843,2,0,L|206:332,1,105,10|2,2:1|2:2,0:0:0:0:
358,356,118218,2,0,L|360:246,1,105,10|0,2:1|0:0,0:0:0:0:
213,197,118593,1,10,2:1:0:0:
366,155,118780,2,0,L|271:152,1,52.5,8|8,2:2|2:2,0:0:0:0:
123,94,118968,5,14,2:2:0:0:
249,62,119155,1,8,2:1:0:0:
123,94,119343,1,8,2:1:0:0:
376,214,119530,1,14,2:2:0:0:
248,269,119718,2,0,L|247:159,1,105,10|8,2:1|2:1,0:0:0:0:
495,114,120093,2,0,L|383:102,1,105,8|8,2:2|2:1,0:0:0:0:
137,53,120468,6,0,P|87:87|170:171,1,210,2|2,2:3|2:2,0:0:0:0:
374,205,121218,1,2,2:2:0:0:
177,261,121593,2,0,L|54:297,1,105,10|2,2:3|2:2,0:0:0:0:
338,353,121968,5,14,2:1:0:0:
386,262,122155,1,2,2:2:0:0:
360,163,122343,1,10,2:1:0:0:
273,108,122530,1,2,2:2:0:0:
172,127,122718,1,10,2:1:0:0:
327,152,122905,1,2,2:2:0:0:
222,141,123092,1,10,2:1:0:0:
118,130,123280,1,2,2:2:0:0:
265,66,123468,6,0,L|404:61,1,105,10|2,2:1|2:2,0:0:0:0:
222,114,123843,2,0,L|222:231,1,105,10|2,2:1|2:2,0:0:0:0:
372,245,124218,2,0,L|376:360,1,105,10|2,2:1|2:2,0:0:0:0:
118,304,124593,2,0,L|238:288,1,105,10|2,2:2|2:2,0:0:0:0:
478,274,124968,5,10,2:1:0:0:
378,226,125155,1,2,2:2:0:0:
331,130,125343,1,10,2:1:0:0:
378,226,125530,1,2,2:2:0:0:
478,274,125718,1,10,2:1:0:0:
331,251,125905,2,0,L|222:257,2,105,2|10|2,2:2|2:1|2:2,0:0:0:0:
479,322,126468,6,0,L|368:331,1,105,10|2,2:1|2:2,0:0:0:0:
238,366,126843,2,0,L|357:369,1,105,10|2,2:1|2:2,0:0:0:0:
197,315,127218,2,0,L|50:295,1,105,10|2,2:1|2:3,0:0:0:0:
347,236,127593,2,0,L|473:228,1,105,10|2,2:2|2:2,0:0:0:0:
192,159,127968,6,0,L|188:33,1,105,10|2,2:1|2:2,0:0:0:0:
294,41,128343,1,10,2:1:0:0:
145,120,128530,1,2,2:2:0:0:
250,120,128717,1,10,2:1:0:0:
355,120,128905,1,2,2:2:0:0:
201,205,129093,2,0,L|94:204,1,105,10|2,2:1|2:2,0:0:0:0:
247,301,129468,6,0,L|356:290,2,105,10|2|10,2:1|2:2|2:1,0:0:0:0:
100,355,130030,1,2,2:2:0:0:
204,356,130217,1,10,2:1:0:0:
309,358,130405,1,2,2:2:0:0:
57,287,130593,2,0,L|59:168,1,105,10|2,2:2|2:2,0:0:0:0:
317,133,130968,6,0,L|431:119,1,105,10|2,2:1|2:2,0:0:0:0:
274,56,131343,2,0,L|415:47,1,105,10|2,2:1|2:2,0:0:0:0:
226,17,131718,2,0,L|222:137,1,105,10|8,2:1|2:3,0:0:0:0:
379,140,132093,2,0,L|379:258,1,105,6|2,2:3|2:3,0:0:0:0:
124,343,132468,6,0,L|248:337,1,105,10|2,2:1|2:2,0:0:0:0:
100,324,132843,2,0,L|100:198,1,105,10|2,2:1|2:2,0:0:0:0:
352,176,133218,2,0,L|266:163,1,52.5,14|8,2:2|2:2,0:0:0:0:
117,130,133405,1,8,2:1:0:0:
381,74,133593,1,14,2:2:0:0:
238,90,133780,2,0,L|324:83,1,52.5,8|8,2:2|2:2,0:0:0:0:
482,54,133968,5,14,2:1:0:0:
258,145,134343,2,0,P|201:160|263:252,1,210,10|8,2:2|2:1,0:0:0:0:
362,291,134905,1,2,2:3:0:0:
211,350,135093,2,0,L|209:228,1,105,10|2,2:2|2:3,0:0:0:0:
460,170,135468,5,10,2:1:0:0:
355,164,135655,1,2,2:3:0:0:
250,159,135843,1,10,2:2:0:0:
399,99,136030,1,2,2:3:0:0:
251,27,136218,2,0,L|246:159,1,105,10|2,2:1|2:3,0:0:0:0:
396,225,136593,2,0,L|279:237,1,105,10|2,2:2|2:3,0:0:0:0:
36,316,136968,6,0,L|255:306,1,210,10|10,2:1|2:2,0:0:0:0:
100,347,137530,2,0,L|101:232,1,105,2|8,2:3|2:1,0:0:0:0:
253,218,137905,2,0,L|254:99,1,105,2|10,2:3|2:2,0:0:0:0:
101,76,138280,1,2,2:3:0:0:
351,52,138468,6,0,L|496:52,1,105,10|2,2:1|2:3,0:0:0:0:
200,129,138843,2,0,L|196:275,1,105,10|2,2:2|2:3,0:0:0:0:
347,297,139218,2,0,L|236:312,1,105,10|2,2:1|2:3,0:0:0:0:
90,342,139593,2,0,L|209:352,1,105,14|0,2:2|0:0,0:0:0:0:
454,367,139968,6,0,P|485:314|356:267,1,210,14|10,2:1|2:2,0:0:0:0:
233,179,140530,2,0,L|120:200,2,105,2|8|2,2:3|2:1|2:3,0:0:0:0:
390,99,141093,2,0,L|286:88,1,105,10|2,2:2|2:3,0:0:0:0:
30,155,141468,6,0,L|242:123,1,210,10|10,2:1|2:2,0:0:0:0:
83,180,142030,2,0,L|82:297,1,105,2|8,2:3|2:1,0:0:0:0:
186,303,142405,1,2,2:3:0:0:
332,353,142593,2,0,L|182:355,1,105,10|2,2:2|2:3,0:0:0:0:
481,297,142968,6,0,L|483:180,1,105,10|2,2:1|2:3,0:0:0:0:
334,167,143343,1,10,2:2:0:0:
483,113,143530,2,0,L|362:108,1,105,2|8,2:3|2:1,0:0:0:0:
231,68,143905,2,0,L|363:59,1,105,2|10,2:3|2:2,0:0:0:0:
440,52,144280,1,2,2:3:0:0:
171,159,144468,6,0,L|17:156,1,105,10|2,2:1|2:3,0:0:0:0:
319,308,144843,2,0,P|381:284|345:209,1,157.5,14|0,2:2|0:0,0:0:0:0:
197,214,145218,2,0,L|251:192,1,52.5,10|8,2:2|2:2,0:0:0:0:
408,180,145405,1,8,2:3:0:0:
158,205,145593,2,0,P|111:149|161:98,1,157.5,14|0,2:2|0:0,0:0:0:0:
368,69,145968,5,14,2:1:0:0:
393,167,146155,1,10,2:1:0:0:
333,248,146343,1,2,2:3:0:0:
232,253,146530,1,0,0:0:0:0:
133,215,146718,1,10,2:2:0:0:
266,189,146905,1,2,2:2:0:0:
130,186,147093,1,2,2:3:0:0:
265,172,147280,6,0,P|357:196|340:290,1,210,10|10,2:1|2:1,0:0:0:0:
202,294,147843,2,0,L|67:297,1,105,2|8,2:3|2:1,0:0:0:0:
233,176,148218,2,0,L|361:169,1,105,10|0,2:2|0:0,0:0:0:0:
190,130,148593,2,0,P|171:81|185:32,1,105,2|0,2:3|0:0,0:0:0:0:
430,31,148968,5,10,2:1:0:0:
288,44,149155,2,0,L|183:47,2,105,10|2|2,2:1|2:3|2:2,0:0:0:0:
436,51,149718,2,0,P|454:98|439:148,1,105,10|0,2:2|0:0,0:0:0:0:
294,169,150093,1,2,2:3:0:0:
41,176,150280,6,0,P|46:271|142:276,1,210,10|10,2:1|2:1,0:0:0:0:
289,275,150843,2,0,P|301:224|287:174,1,105,2|10,2:3|2:1,0:0:0:0:
147,168,151218,2,0,L|42:168,1,105,10|2,2:2|2:2,0:0:0:0:
168,86,151593,1,2,2:3:0:0:
110,88,151686,1,2,2:3:0:0:
52,88,151780,1,2,2:3:0:0:
314,131,151968,6,0,L|422:134,2,105,10|10|2,2:1|2:1|2:3,0:0:0:0:
187,131,152530,1,0,0:0:0:0:
312,138,152718,2,0,P|320:189|310:240,1,105,10|2,2:2|2:2,0:0:0:0:
162,246,153093,1,2,2:3:0:0:
418,250,153280,6,0,P|489:195|414:146,1,210,10|10,2:1|2:1,0:0:0:0:
273,139,153843,2,0,L|168:143,1,105,2|8,2:3|2:1,0:0:0:0:
332,186,154218,2,0,P|343:236|334:288,1,105,10|2,2:2|2:3,0:0:0:0:
199,264,154593,2,0,L|313:264,1,105,2|0,2:3|0:0,0:0:0:0:
59,103,154968,5,10,2:1:0:0:
202,99,155155,2,0,P|207:151|203:203,1,105,10|2,2:1|2:3,0:0:0:0:
67,217,155530,1,2,2:2:0:0:
319,207,155718,1,10,2:2:0:0:
183,222,155905,1,2,2:2:0:0:
319,207,156093,1,10,2:1:0:0:
69,147,156280,6,0,P|74:50|170:40,1,210,14|6,2:1|2:3,0:0:0:0:
312,77,156843,1,6,2:3:0:0:
170,40,157030,1,6,2:3:0:0:
315,184,157218,2,0,L|239:186,1,52.5,10|8,2:2|2:2,0:0:0:0:
100,193,157405,1,10,2:1:0:0:
345,111,157593,2,0,L|458:109,1,105,10|10,2:2|2:2,0:0:0:0:
381,108,157874,1,8,2:2:0:0:
158,105,157968,6,0,L|35:104,1,105,14|2,2:1|2:3,0:0:0:0:
189,104,158343,1,10,2:2:0:0:
333,129,158530,2,0,P|342:180|331:231,1,105,2|8,2:3|2:1,0:0:0:0:
194,241,158905,1,2,2:3:0:0:
330,230,159093,1,10,2:2:0:0:
68,101,159280,5,2,2:3:0:0:
183,99,159468,2,0,P|196:149|184:199,1,105,10|2,2:1|2:3,0:0:0:0:
69,191,159843,2,0,P|63:244|70:295,1,105,10|2,2:2|2:3,0:0:0:0:
234,268,160218,2,0,L|345:268,1,105,10|2,2:1|2:3,0:0:0:0:
186,98,160593,2,0,L|69:96,1,105,10|2,2:2|2:3,0:0:0:0:
330,138,160968,6,0,L|442:151,2,105,10|2|10,2:1|2:3|2:2,0:0:0:0:
182,135,161530,1,2,2:3:0:0:
336,156,161718,2,0,P|347:206|334:257,1,105,10|2,2:1|2:3,0:0:0:0:
182,220,162093,2,0,L|62:222,1,105,10|2,2:2|2:3,0:0:0:0:
330,103,162468,6,0,L|435:97,1,105,10|2,2:1|2:3,0:0:0:0:
180,71,162843,2,0,P|169:121|178:173,1,105,14|2,2:2|2:3,0:0:0:0:
332,138,163218,2,0,L|450:146,1,105,14|10,2:1|2:2,0:0:0:0:
368,141,163499,1,8,2:2:0:0:
187,124,163593,2,0,L|65:145,1,105,10|4,2:2|2:3,0:0:0:0:
150,127,163874,1,4,2:3:0:0:
367,186,163968,6,0,P|382:235|372:286,1,105,14|2,2:2|2:2,0:0:0:0:
218,221,164343,2,0,L|94:228,1,105,10|10,2:2|2:1,0:0:0:0:
361,88,164718,2,0,L|466:89,1,105,8|8,2:2|2:1,0:0:0:0:
327,21,165093,2,0,L|436:21,1,105,8|10,2:2|2:1,0:0:0:0:
365,21,165374,1,0,0:0:0:0:
169,88,165468,6,0,L|59:93,1,105,10|10,2:2|2:1,0:0:0:0:
204,145,165843,2,0,L|308:141,1,105,10|10,2:2|2:1,0:0:0:0:
56,290,166218,2,0,P|43:240|54:189,1,105,8|10,2:2|2:1,0:0:0:0:
198,186,166593,1,10,2:2:0:0:
54,188,166780,2,0,L|118:186,1,52.5,10|8,2:2|2:2,0:0:0:0:
310,159,166968,6,0,L|443:159,1,105,14|10,2:1|2:1,0:0:0:0:
259,49,167343,2,0,L|151:49,1,105,10|6,2:2|2:3,0:0:0:0:
216,88,167624,1,8,2:3:0:0:
420,96,167718,2,0,P|435:146|419:195,1,105,8|10,2:3|2:1,0:0:0:0:
272,200,168093,1,10,2:2:0:0:
418,195,168280,2,0,L|344:197,1,52.5,8|0,2:1|0:0,0:0:0:0:
162,200,168468,6,0,P|141:153|160:106,1,105,10|10,2:1|2:1,0:0:0:0:
314,142,168843,2,0,L|431:145,1,105,10|6,2:2|2:3,0:0:0:0:
357,115,169124,1,8,2:3:0:0:
190,97,169218,2,0,L|74:97,1,105,10|10,2:3|2:1,0:0:0:0:
230,178,169593,2,0,L|233:248,1,52.5,10|8,2:2|2:2,0:0:0:0:
159,229,169780,2,0,L|157:288,1,52.5,10|0,2:1|0:0,0:0:0:0:
347,285,169968,6,0,L|462:287,1,105,14|10,2:1|2:2,0:0:0:0:
394,280,170249,1,8,2:2:0:0:
229,259,170343,1,10,2:1:0:0:
169,229,170436,1,8,2:2:0:0:
229,259,170530,1,10,2:2:0:0:
292,254,170624,1,8,2:2:0:0:
104,227,170718,5,8,2:1:0:0:
37,214,170811,1,8,2:2:0:0:
56,148,170905,1,10,2:2:0:0:
124,146,170999,1,8,2:2:0:0:
309,143,171093,2,0,L|370:142,1,52.5,10|8,2:1|2:2,0:0:0:0:
179,71,171280,6,0,P|103:112|178:154,1,210,14|10,2:1|2:3,0:0:0:0:
241,148,171749,1,8,2:3:0:0:
401,134,171843,2,0,P|417:183|402:232,1,105,10|4,2:3|2:3,0:0:0:0:
340,241,172124,1,4,2:3:0:0:
177,240,172218,2,0,L|109:240,1,52.5,6|0,2:3|0:0,0:0:0:0:
294,182,172405,2,0,L|353:181,1,52.5,4|4,2:3|2:3,0:0:0:0:
163,137,172593,2,0,P|109:169|168:190,1,157.5,14|0,2:2|0:0,0:0:0:0:
363,183,172968,6,0,L|366:39,1,115.50000352478,14|2,2:1|2:3,0:0:0:0:
201,65,173343,1,10,2:2:0:0:
362,117,173530,2,0,L|220:124,1,115.50000352478,2|8,2:3|2:1,0:0:0:0:
104,199,173905,2,0,L|226:204,1,115.50000352478,2|10,2:3|2:2,0:0:0:0:
366,306,174280,6,0,L|230:310,2,115.50000352478,2|10|2,2:3|2:1|2:3,0:0:0:0:
111,358,174843,2,0,L|108:204,1,115.50000352478,10|2,2:2|2:3,0:0:0:0:
247,216,175218,2,0,L|372:206,1,115.50000352478,8|2,2:1|2:3,0:0:0:0:
113,167,175593,2,0,P|64:124|128:54,1,173.250005287171,10|0,2:2|0:0,0:0:0:0:
311,123,175968,6,0,L|430:104,2,115.50000352478,10|2|10,2:1|2:3|2:2,0:0:0:0:
151,177,176530,2,0,L|148:308,1,115.50000352478,2|8,2:3|2:1,0:0:0:0:
299,364,176905,2,0,L|302:232,1,115.50000352478,2|10,2:3|2:2,0:0:0:0:
149,230,177280,1,2,2:3:0:0:
294,185,177468,6,0,L|162:164,1,115.50000352478,10|2,2:1|2:3,0:0:0:0:
331,35,177843,2,0,L|449:22,1,115.50000352478,10|2,2:2|2:3,0:0:0:0:
291,147,178218,2,0,L|285:268,1,115.50000352478,10|2,2:1|2:3,0:0:0:0:
443,368,178593,2,0,L|442:236,1,115.50000352478,10|2,2:2|2:3,0:0:0:0:
178,365,178968,6,0,P|107:321|214:247,1,231.000007049561,14|10,2:1|2:2,0:0:0:0:
337,185,179530,1,2,2:3:0:0:
220,163,179718,2,0,L|219:41,1,115.50000352478,8|2,2:1|2:3,0:0:0:0:
474,59,180093,2,0,L|340:52,1,115.50000352478,10|2,2:2|2:3,0:0:0:0:
108,184,180468,6,0,P|168:216|322:177,1,231.000007049561,10|10,2:1|2:2,0:0:0:0:
204,147,181030,1,2,2:3:0:0:
363,164,181218,2,0,L|366:290,1,115.50000352478,10|2,2:1|2:3,0:0:0:0:
291,308,181499,1,2,2:2:0:0:
216,367,181593,2,0,L|358:378,1,115.50000352478,10|2,2:2|2:3,0:0:0:0:
80,336,181968,6,0,P|35:287|134:198,1,231.000007049561,10|10,2:1|2:2,0:0:0:0:
280,197,182530,1,2,2:3:0:0:
130,122,182718,2,0,L|260:116,1,115.50000352478,10|2,2:1|2:3,0:0:0:0:
404,68,183093,2,0,L|277:63,1,115.50000352478,10|2,2:2|2:3,0:0:0:0:
40,50,183468,6,0,L|36:186,1,115.50000352478,10|2,2:1|2:3,0:0:0:0:
286,212,183843,2,0,L|124:221,1,115.50000352478,14|0,2:2|0:0,0:0:0:0:
419,358,184218,2,0,L|413:211,1,115.50000352478,14|0,2:1|0:0,0:0:0:0:
160,285,184593,2,0,L|44:287,1,115.50000352478,14|8,2:2|2:2,0:0:0:0:
102,305,184874,1,8,2:2:0:0:
291,358,184968,6,0,L|410:363,1,115.50000352478,14|2,2:1|2:3,0:0:0:0:
248,284,185343,1,10,2:2:0:0:
405,242,185530,2,0,L|284:230,1,115.50000352478,2|8,2:3|2:1,0:0:0:0:
138,212,185905,2,0,L|133:84,1,115.50000352478,2|10,2:3|2:2,0:0:0:0:
296,50,186280,5,2,2:3:0:0:
180,42,186467,1,10,2:1:0:0:
65,35,186655,1,2,2:3:0:0:
314,168,186843,2,0,L|437:162,1,115.50000352478,10|2,2:2|2:3,0:0:0:0:
271,318,187218,2,0,L|272:192,1,115.50000352478,8|2,2:1|2:3,0:0:0:0:
435,238,187593,2,0,L|316:239,1,115.50000352478,10|2,2:2|2:3,0:0:0:0:
70,349,187968,6,0,P|150:328|307:370,1,231.000007049561,10|10,2:1|2:2,0:0:0:0:
130,247,188530,2,0,L|12:268,2,115.50000352478,2|8|2,2:3|2:1|2:3,0:0:0:0:
281,199,189093,2,0,L|149:191,1,115.50000352478,10|2,2:2|2:3,0:0:0:0:
418,33,189468,6,0,P|463:83|358:158,1,231.000007049561,14|10,2:1|2:2,0:0:0:0:
201,160,190030,2,0,L|199:307,1,115.50000352478,14|0,2:1|0:0,0:0:0:0:
351,334,190405,2,0,L|278:340,1,57.7500017623902,10|8,2:2|2:2,0:0:0:0:
102,362,190593,2,0,L|102:228,1,115.50000352478,10|6,2:2|2:3,0:0:0:0:
160,243,190874,1,4,2:3:0:0:
331,298,190968,6,0,P|385:266|321:177,1,188.999994232178,14|2,2:1|2:3,0:0:0:0:
240,179,191530,1,10,2:1:0:0:
385,124,191718,2,0,L|169:97,1,188.999994232178,8|2,2:2|2:3,0:0:0:0:
293,50,192280,1,10,2:1:0:0:
40,56,192468,6,0,P|23:126|145:186,1,188.999994232178,10|2,2:1|2:3,0:0:0:0:
235,251,193030,1,10,2:1:0:0:
103,286,193218,1,8,2:2:0:0:
235,312,193405,2,0,P|195:360|54:371,1,188.999994232178,10|10,2:1|2:1,0:0:0:0:
323,350,193968,6,0,P|384:325|308:246,1,188.999994232178,14|2,2:1|2:3,0:0:0:0:
203,223,194530,1,10,2:1:0:0:
324,207,194718,2,0,L|329:94,1,94.499997116089,8|8,2:2|2:1,0:0:0:0:
196,69,195093,2,0,L|186:191,1,94.499997116089,2|10,2:3|2:1,0:0:0:0:
437,188,195468,6,0,P|472:247|378:315,1,188.999994232178,14|10,2:1|2:2,0:0:0:0:
146,344,196030,2,0,P|115:297|186:244,1,141.749995674133,14|0,2:1|0:0,0:0:0:0:
349,205,196405,2,0,L|266:200,1,47.2499985580445,10|8,2:2|2:2,0:0:0:0:
134,153,196593,2,0,L|67:158,2,47.2499985580445,10|4|6,2:2|2:3|2:3,0:0:0:0:
397,51,196968,6,0,L|399:174,1,105,14|2,2:2|2:2,0:0:0:0:
248,202,197343,1,10,2:2:0:0:
398,252,197530,2,0,L|286:257,1,105,10|8,2:1|2:2,0:0:0:0:
152,339,197905,2,0,L|150:224,1,105,10|10,2:1|2:2,0:0:0:0:
300,207,198280,1,10,2:1:0:0:
44,136,198468,6,0,L|163:128,1,105,10|2,2:2|2:2,0:0:0:0:
286,79,198843,2,0,L|148:68,1,105,10|10,2:2|2:1,0:0:0:0:
327,21,199218,2,0,L|333:141,1,105,8|8,2:2|2:1,0:0:0:0:
178,161,199593,2,0,L|167:293,1,105,10|8,2:2|2:1,0:0:0:0:
422,338,199968,6,0,L|288:342,1,105,10|2,2:2|2:2,0:0:0:0:
465,273,200343,1,10,2:2:0:0:
318,237,200530,2,0,L|192:236,1,105,10|8,2:1|2:2,0:0:0:0:
369,147,200905,2,0,L|241:140,1,105,10|10,2:1|2:2,0:0:0:0:
113,95,201280,1,10,2:1:0:0:
370,40,201468,6,0,L|379:163,1,105,10|2,2:2|2:2,0:0:0:0:
116,163,201843,2,0,L|118:289,1,105,14|10,2:2|2:1,0:0:0:0:
374,336,202218,2,0,L|496:342,1,105,14|10,2:2|2:2,0:0:0:0:
426,317,202499,1,8,2:2:0:0:
230,282,202593,2,0,L|87:286,1,105,10|10,2:2|2:1,0:0:0:0:
178,262,202874,1,8,2:1:0:0:
347,214,202968,6,0,L|463:213,1,105,10|10,2:2|2:2,0:0:0:0:
303,153,203343,2,0,L|448:147,1,105,10|10,2:2|2:2,0:0:0:0:
149,109,203718,1,10,2:2:0:0:
289,36,203905,1,8,2:2:0:0:
319,76,203998,1,8,2:2:0:0:
301,123,204092,1,10,2:2:0:0:
252,134,204186,1,8,2:2:0:0:
76,208,204280,2,0,L|145:224,1,52.5,8|8,2:2|2:2,0:0:0:0:
334,353,204468,6,0,P|402:301|267:155,1,315,14|2,2:1|2:2,0:0:0:0:
148,92,205218,2,0,L|328:89,2,157.5,2|2|2,2:2|2:2|2:2,0:0:0:0:
407,144,205968,6,0,L|406:252,1,105,10|2,2:1|2:2,0:0:0:0:
267,238,206343,2,0,L|267:346,1,105,10|10,2:2|2:1,0:0:0:0:
134,350,206718,2,0,P|130:298|132:246,1,105,8|10,2:2|2:1,0:0:0:0:
273,238,207093,2,0,L|384:239,1,105,10|8,2:2|2:1,0:0:0:0:
189,49,207468,6,0,P|183:100|191:152,1,105,10|2,2:1|2:2,0:0:0:0:
337,151,207843,1,10,2:2:0:0:
192,160,208030,2,0,L|85:161,1,105,10|8,2:1|2:2,0:0:0:0:
224,61,208405,2,0,L|337:61,1,105,10|10,2:1|2:2,0:0:0:0:
192,57,208780,1,10,2:1:0:0:
376,51,208968,5,10,2:1:0:0:
406,149,209155,1,2,2:2:0:0:
351,235,209343,1,10,2:2:0:0:
250,248,209530,1,10,2:1:0:0:
386,255,209718,2,0,P|393:309|385:363,1,105,8|10,2:2|2:1,0:0:0:0:
249,364,210093,1,10,2:2:0:0:
385,359,210280,1,10,2:1:0:0:
198,246,210468,6,0,P|189:195|201:142,1,105,10|2,2:1|2:2,0:0:0:0:
344,175,210843,1,10,2:2:0:0:
196,83,211030,2,0,L|81:85,1,105,10|8,2:1|2:2,0:0:0:0:
240,143,211405,2,0,P|251:194|244:245,1,105,10|8,2:1|2:2,0:0:0:0:
97,256,211780,1,10,2:1:0:0:
281,269,211968,5,10,2:1:0:0:
371,225,212155,1,2,2:2:0:0:
380,125,212343,1,10,2:2:0:0:
299,66,212530,1,10,2:1:0:0:
162,58,212718,2,0,L|45:73,1,105,8|10,2:2|2:1,0:0:0:0:
194,161,213093,2,0,L|81:181,1,105,10|10,2:2|2:1,0:0:0:0:
278,207,213468,6,0,P|373:223|371:320,1,210,10|10,2:1|2:2,0:0:0:0:
235,336,214030,1,10,2:1:0:0:
371,324,214218,2,0,P|381:274|365:224,1,105,10|10,2:2|2:1,0:0:0:0:
220,212,214593,2,0,L|115:223,1,105,10|8,2:2|2:1,0:0:0:0:
300,109,214968,6,0,P|374:158|299:206,1,210,10|10,2:1|2:2,0:0:0:0:
151,203,215530,2,0,P|144:152|148:100,1,105,10|8,2:1|2:2,0:0:0:0:
292,130,215905,1,10,2:1:0:0:
148,58,216093,2,0,L|26:60,1,105,10|8,2:2|2:1,0:0:0:0:
236,170,216468,6,0,P|310:218|234:264,1,210,10|10,2:1|2:2,0:0:0:0:
87,263,217030,2,0,L|32:272,2,52.5,10|8|6,2:3|2:3|2:3,0:0:0:0:
234,256,217405,1,10,2:3:0:0:
86,244,217593,2,0,P|36:200|96:173,1,157.5,10|0,2:1|0:0,0:0:0:0:
300,167,217968,6,0,L|422:166,2,105,14|2|10,2:1|2:2|2:1,0:0:0:0:
160,170,218530,2,0,P|148:220|161:271,1,105,2|8,2:2|2:1,0:0:0:0:
297,269,218905,1,0,0:0:0:0:
142,272,219093,2,0,P|134:220|142:165,1,105,10|0,2:1|0:0,0:0:0:0:
328,149,219468,6,0,L|464:145,1,105,10|2,2:1|2:2,0:0:0:0:
289,110,219843,1,10,2:1:0:0:
132,112,220030,2,0,P|123:163|134:220,1,105,6|8,2:3|2:1,0:0:0:0:
269,222,220405,1,4,2:3:0:0:
454,176,220593,2,0,P|402:166|350:169,1,105,10|0,2:1|0:0,0:0:0:0:
102,181,220968,6,0,P|88:230|101:281,1,105,10|2,2:1|2:2,0:0:0:0:
245,252,221343,1,10,2:1:0:0:
101,137,221530,2,0,L|211:130,1,105,2|8,2:2|2:1,0:0:0:0:
353,123,221905,1,0,0:0:0:0:
204,126,222093,2,0,P|191:176|204:226,1,105,10|2,2:1|2:2,0:0:0:0:
457,235,222468,6,0,P|472:284|456:333,1,105,10|2,2:1|2:2,0:0:0:0:
316,289,222843,1,10,2:1:0:0:
166,239,223030,2,0,L|272:229,2,105,10|10|8,2:2|2:1|2:2,0:0:0:0:
315,131,223593,2,0,L|458:128,1,105,10|2,2:1|2:3,0:0:0:0:
161,59,223968,6,0,L|47:59,1,105,14|10,2:1|2:2,0:0:0:0:
196,104,224343,1,10,2:1:0:0:
352,112,224530,1,10,2:2:0:0:
417,93,224624,1,8,2:2:0:0:
397,27,224718,1,8,2:1:0:0:
329,17,224811,1,8,2:2:0:0:
174,26,224905,2,0,L|107:19,1,52.5,10|8,2:2|2:2,0:0:0:0:
303,90,225093,2,0,L|366:83,1,52.5,10|8,2:1|2:2,0:0:0:0:
186,135,225280,2,0,L|115:139,1,52.5,10|8,2:2|2:2,0:0:0:0:
317,150,225468,5,10,2:1:0:0:
367,156,225561,1,8,2:2:0:0:
398,196,225655,1,10,2:2:0:0:
389,247,225749,1,8,2:2:0:0:
222,267,225843,2,0,L|211:211,1,52.5,10|8,2:1|2:2,0:0:0:0:
285,212,226030,2,0,L|288:133,1,52.5,10|8,2:2|2:2,0:0:0:0:
109,173,226218,5,10,2:1:0:0:
58,166,226311,1,8,2:2:0:0:
29,124,226405,1,10,2:2:0:0:
40,74,226499,1,8,2:2:0:0:
239,54,226593,2,0,L|300:44,1,52.5,10|8,2:1|2:2,0:0:0:0:
98,32,226780,2,0,L|45:28,1,52.5,8|8,2:2|2:2,0:0:0:0:
307,105,226968,6,0,P|377:164|306:222,1,210,14|2,2:1|2:2,0:0:0:0:
169,222,227530,2,0,P|270:196|374:195,1,210,10|10,2:3|2:3,0:0:0:0:
124,124,228093,1,14,2:2:0:0:
386,68,228280,6,0,P|457:126|385:183,1,210,10|4,2:3|2:3,0:0:0:0:
316,181,228749,1,4,2:3:0:0:
135,189,228843,2,0,L|-6:189,1,105,10|8,2:3|2:3,0:0:0:0:
333,74,229218,2,0,P|340:126|335:179,1,105,14|8,2:2|2:1,0:0:0:0:
60,153,229593,2,0,P|51:102|62:51,1,105,14|8,2:2|2:1,0:0:0:0:
332,47,229968,5,14,2:2:0:0:
201,86,230155,1,8,2:1:0:0:
69,122,230343,1,10,2:1:0:0:
337,244,230530,5,14,2:2:0:0:
203,215,230718,1,8,2:1:0:0:
337,244,230905,1,10,2:1:0:0:
81,121,231093,5,14,2:2:0:0:
333,108,231280,1,10,2:1:0:0:
459,108,231468,1,8,2:1:0:0:
208,56,231655,5,14,2:2:0:0:
454,49,231843,2,0,P|465:99|452:149,1,105,12|10,2:2|2:1,0:0:0:0:
304,155,232218,1,10,2:2:0:0:
366,151,232311,1,8,2:2:0:0:
429,149,232405,1,10,2:3:0:0:
181,114,232593,2,0,L|126:115,1,52.5,10|8,2:2|2:2,0:0:0:0:
313,207,232780,2,0,L|369:210,1,52.5,10|8,2:2|2:2,0:0:0:0:
177,202,232968,6,0,P|103:252|177:303,1,210,14|10,2:1|2:2,0:0:0:0:
314,304,233530,1,2,2:3:0:0:
173,158,233718,2,0,P|162:106|171:55,1,105,8|2,2:1|2:3,0:0:0:0:
307,60,234093,2,0,L|173:54,1,105,10|2,2:2|2:3,0:0:0:0:
459,108,234468,6,0,P|460:205|366:227,1,210,10|10,2:1|2:2,0:0:0:0:
221,211,235030,2,0,L|345:195,2,105,2|8|2,2:3|2:1|2:3,0:0:0:0:
370,244,235593,2,0,P|383:295|373:346,1,105,10|2,2:2|2:3,0:0:0:0:
115,348,235968,6,0,P|105:297|114:246,1,105,10|2,2:1|2:3,0:0:0:0:
258,250,236343,2,0,L|383:246,1,105,10|2,2:2|2:3,0:0:0:0:
216,78,236718,2,0,L|99:73,1,105,8|2,2:1|2:3,0:0:0:0:
260,20,237093,1,10,2:2:0:0:
113,20,237280,1,2,2:3:0:0:
373,87,237468,6,0,P|382:138|375:192,1,105,10|2,2:1|2:3,0:0:0:0:
224,153,237843,2,0,L|119:161,1,105,10|2,2:2|2:3,0:0:0:0:
271,221,238218,2,0,P|282:271|271:323,1,105,10|2,2:1|2:3,0:0:0:0:
123,320,238593,2,0,P|112:270|120:218,1,105,10|2,2:2|2:3,0:0:0:0:
377,146,238968,6,0,P|449:198|376:249,1,210,14|10,2:1|2:2,0:0:0:0:
224,206,239530,2,0,L|119:217,2,105,2|8|2,2:3|2:1|2:3,0:0:0:0:
370,192,240093,2,0,P|385:241|369:289,1,105,10|2,2:2|2:3,0:0:0:0:
191,305,240468,6,0,P|118:250|191:195,1,210,10|10,2:1|2:2,0:0:0:0:
327,209,241030,1,2,2:3:0:0:
186,103,241218,2,0,P|133:101|81:105,1,105,10|2,2:1|2:3,0:0:0:0:
227,205,241593,2,0,L|340:215,1,105,10|2,2:2|2:3,0:0:0:0:
73,171,241968,6,0,P|61:221|72:272,1,105,10|2,2:1|2:3,0:0:0:0:
220,272,242343,1,10,2:2:0:0:
387,273,242530,2,0,P|392:221|387:169,1,105,2|8,2:3|2:1,0:0:0:0:
240,171,242905,1,2,2:3:0:0:
392,150,243093,2,0,P|405:100|390:51,1,105,10|2,2:2|2:3,0:0:0:0:
124,72,243468,6,0,P|113:122|121:174,1,105,10|2,2:1|2:3,0:0:0:0:
268,172,243843,2,0,L|386:170,1,105,10|2,2:2|2:3,0:0:0:0:
221,272,244218,2,0,L|116:272,1,105,6|6,2:3|2:3,0:0:0:0:
364,119,244593,2,0,L|311:117,1,52.5,10|8,2:2|2:2,0:0:0:0:
113,117,244780,1,8,2:3:0:0:
392,181,244968,6,0,P|462:241|390:299,1,210,14|10,2:1|2:2,0:0:0:0:
243,294,245530,2,0,L|366:296,2,105,2|8|2,2:3|2:1|2:3,0:0:0:0:
394,190,246093,2,0,P|412:141|386:91,1,105,10|2,2:2|2:3,0:0:0:0:
133,98,246468,6,0,L|17:102,1,105,10|2,2:1|2:3,0:0:0:0:
175,96,246843,1,10,2:2:0:0:
330,83,247030,2,0,P|338:134|332:186,1,105,2|8,2:3|2:1,0:0:0:0:
185,188,247405,1,2,2:3:0:0:
332,201,247593,2,0,L|452:201,1,105,10|2,2:2|2:3,0:0:0:0:
373,199,247874,1,0,0:0:0:0:
168,142,247968,6,0,P|145:97|175:47,1,105,10|2,2:1|2:3,0:0:0:0:
314,47,248343,1,10,2:2:0:0:
167,38,248530,2,0,L|303:48,2,105,2|8|2,2:3|2:1|2:3,0:0:0:0:
328,146,249093,2,0,L|460:163,1,105,10|2,2:2|2:3,0:0:0:0:
174,222,249468,6,0,P|101:273|175:322,1,210,10|10,2:1|2:2,0:0:0:0:
324,322,250030,2,0,L|455:320,1,105,2|8,2:3|2:1,0:0:0:0:
273,109,250405,2,0,L|168:106,1,105,2|10,2:3|2:2,0:0:0:0:
308,173,250780,2,0,L|306:245,1,52.5,2|0,2:3|0:0,0:0:0:0:
136,229,250968,6,0,L|22:232,1,105,14|2,2:1|2:3,0:0:0:0:
191,105,251343,2,0,L|303:97,1,105,10|2,2:2|2:3,0:0:0:0:
146,155,251718,2,0,P|140:207|149:258,1,105,8|2,2:1|2:3,0:0:0:0:
297,260,252093,1,10,2:2:0:0:
150,260,252280,1,2,2:3:0:0:
404,156,252468,6,0,P|454:201|395:236,1,157.5,10|0,2:1|0:0,0:0:0:0:
210,199,252843,2,0,L|79:200,1,105,10|2,2:2|2:3,0:0:0:0:
280,128,253218,2,0,P|287:76|277:22,1,105,10|2,2:1|2:3,0:0:0:0:
27,41,253593,2,0,P|15:92|26:146,1,105,10|2,2:2|2:3,0:0:0:0:
276,173,253968,6,0,P|173:151|68:156,1,210,10|10,2:1|2:2,0:0:0:0:
205,151,254530,1,2,2:3:0:0:
352,154,254718,2,0,P|366:203|352:253,1,105,8|2,2:1|2:3,0:0:0:0:
205,263,255093,1,10,2:2:0:0:
351,258,255280,1,2,2:3:0:0:
97,125,255468,6,0,P|43:166|100:202,1,157.5,10|0,2:1|0:0,0:0:0:0:
276,191,255843,2,0,L|402:192,1,105,10|2,2:2|2:3,0:0:0:0:
223,60,256218,2,0,L|94:62,1,105,10|2,2:1|2:3,0:0:0:0:
382,63,256593,2,0,P|397:113|380:162,1,105,10|2,2:2|2:3,0:0:0:0:
122,164,256968,6,0,P|51:218|127:265,1,210,14|10,2:1|2:2,0:0:0:0:
386,219,257530,2,0,P|281:224|178:245,2,210,10|6|6,2:2|2:3|2:3,0:0:0:0:
133,108,258468,1,8,2:1:0:0:
405,90,258843,6,0,L|403:303,2,210,2|2|2,2:2|2:2|2:2,0:0:0:0:
121,353,259968,6,0,P|74:307|165:216,1,210,2|2,2:2|2:2,0:0:0:0:
254,182,260530,2,0,L|42:161,1,210,2|2,2:2|2:2,0:0:0:0:
304,338,261280,6,0,L|432:337,2,105,2|2|2,2:2|2:2|2:2,0:0:0:0:
199,361,261843,2,0,P|146:322|232:233,1,210,2|0,2:2|0:0,0:0:0:0:
406,182,262593,1,2,2:2:0:0:
142,105,262968,6,0,P|123:168|250:241,1,210,2|2,2:2|2:2,0:0:0:0:
327,207,263530,2,0,P|385:243|311:330,1,210,2|0,2:2|0:0,0:0:0:0:
58,353,264280,1,2,2:2:0:0:
153,335,264468,6,0,L|376:271,1,210,2|2,2:2|2:2,0:0:0:0:
247,246,265030,2,0,P|177:214|252:135,1,210,2|2,2:2|2:2,0:0:0:0:
346,117,265593,1,2,2:2:0:0:
78,46,265968,6,0,L|81:161,1,105,2|2,2:2|2:2,0:0:0:0:
186,200,266343,1,2,2:2:0:0:
292,242,266530,2,0,P|318:321|208:355,1,210,2|2,2:2|2:2,0:0:0:0:
114,341,267093,2,0,L|223:335,1,105,2|2,2:2|2:2,0:0:0:0:
379,308,267468,6,0,P|413:250|317:162,1,210,2|2,2:2|2:2,0:0:0:0:
222,203,268030,2,0,P|181:166|270:70,1,210,2|0,2:2|0:0,0:0:0:0:
366,41,268593,2,0,L|364:180,1,105,2|2,2:2|2:2,0:0:0:0:
109,210,268968,6,0,P|60:258|147:347,1,210,2|2,2:2|2:2,0:0:0:0:
347,281,269718,2,0,L|127:216,1,210,2|2,2:2|2:2,0:0:0:0:
355,200,270468,6,0,P|409:176|335:87,1,210,2|2,2:2|2:2,0:0:0:0:
144,106,271218,2,0,L|280:94,1,105,2|4,2:2|2:3,0:0:0:0:
106,29,271593,2,0,P|59:62|132:122,1,157.5,10|0,2:3|0:0,0:0:0:0:
272,262,271968,6,0,L|387:225,2,105,10|2|10,2:1|2:2|2:1,0:0:0:0:
125,361,272530,2,0,L|125:232,1,105,2|8,2:2|2:1,0:0:0:0:
230,241,272905,2,0,L|231:122,1,105,2|10,2:2|2:1,0:0:0:0:
336,113,273280,1,2,2:2:0:0:
185,33,273468,6,0,P|133:76|214:160,1,210,10|10,2:1|2:1,0:0:0:0:
314,198,274030,1,2,2:2:0:0:
209,216,274218,2,0,L|210:328,1,105,8|2,2:1|2:2,0:0:0:0:
365,340,274593,2,0,L|366:230,1,105,10|0,2:1|0:0,0:0:0:0:
220,175,274968,6,0,L|112:197,2,105,10|2|10,2:1|2:2|2:1,0:0:0:0:
372,77,275530,2,0,P|422:122|344:209,1,210,2|2,2:2|2:2,0:0:0:0:
239,275,276093,1,10,2:1:0:0:
344,305,276280,1,2,2:2:0:0:
194,340,276468,6,0,L|82:351,2,105,10|2|10,2:1|2:2|2:1,0:0:0:0:
341,260,277030,2,0,L|448:303,2,105,2|10|2,2:2|2:1|2:2,0:0:0:0:
193,213,277593,2,0,L|192:78,1,105,10|2,2:1|2:3,0:0:0:0:
341,36,277968,6,0,P|398:74|307:177,1,210,10|10,2:1|2:1,0:0:0:0:
241,249,278530,2,0,L|471:305,1,210,2|2,2:2|2:2,0:0:0:0:
290,342,279093,2,0,L|167:340,1,105,10|2,2:1|2:2,0:0:0:0:
332,373,279468,6,0,P|402:360|384:222,1,210,10|10,2:1|2:1,0:0:0:0:
310,204,280030,2,0,L|93:170,1,210,2|2,2:2|2:2,0:0:0:0:
238,173,280593,2,0,L|366:145,1,105,10|2,2:1|2:2,0:0:0:0:
83,299,280968,5,10,2:1:0:0:
192,241,281155,2,0,L|140:231,1,52.5,8|8,2:3|2:3,0:0:0:0:
45,208,281343,1,8,2:3:0:0:
159,157,281530,1,4,2:3:0:0:
45,208,281718,1,6,2:3:0:0:
192,149,281905,1,10,2:3:0:0:
45,208,282093,1,10,2:3:0:0:
409,245,282280,1,14,2:1:0:0:
124,264,282843,6,0,P|71:222|128:186,1,157.5,2|0,2:2|0:0,0:0:0:0:
287,167,283218,2,0,L|359:167,1,52.5,2|0,2:2|0:0,0:0:0:0:
178,81,283405,2,0,L|118:81,1,52.5
307,222,283593,2,0,L|359:222,1,52.5,2|0,2:2|0:0,0:0:0:0:
161,140,283780,2,0,L|100:140,1,52.5
320,96,283968,6,0,L|439:95,1,115.50000352478,14|2,2:1|2:3,0:0:0:0:
281,96,284343,1,10,2:2:0:0:
119,92,284530,2,0,P|109:149|118:206,1,115.50000352478,2|8,2:3|2:1,0:0:0:0:
275,150,284905,2,0,L|402:153,1,115.50000352478,2|10,2:3|2:2,0:0:0:0:
237,232,285280,2,0,L|163:233,1,57.7500017623902,2|0,2:3|0:0,0:0:0:0:
356,320,285468,6,0,L|476:321,1,115.50000352478,10|2,2:1|2:3,0:0:0:0:
196,77,285843,2,0,P|179:132|194:187,1,115.50000352478,10|2,2:2|2:3,0:0:0:0:
351,147,286218,2,0,L|470:152,1,115.50000352478,8|2,2:1|2:3,0:0:0:0:
197,125,286593,2,0,P|141:176|203:220,1,173.250005287171,10|0,2:2|0:0,0:0:0:0:
417,197,286968,6,0,P|432:251|415:306,1,115.50000352478,10|2,2:1|2:3,0:0:0:0:
256,278,287343,1,10,2:2:0:0:
414,133,287530,2,0,L|298:134,1,115.50000352478,2|8,2:3|2:1,0:0:0:0:
135,128,287905,2,0,P|129:185|137:242,1,115.50000352478,2|10,2:3|2:2,0:0:0:0:
299,235,288280,6,0,L|443:246,2,115.50000352478,2|10|2,2:3|2:1|2:3,0:0:0:0:
44,228,288843,2,0,P|34:171|42:114,1,115.50000352478,10|2,2:2|2:3,0:0:0:0:
315,87,289218,2,0,L|451:83,1,115.50000352478,10|2,2:1|2:3,0:0:0:0:
170,219,289593,2,0,L|23:225,1,115.50000352478,10|2,2:2|2:3,0:0:0:0:
312,194,289968,6,0,P|388:261|307:320,1,231.000007049561,14|10,2:1|2:2,0:0:0:0:
144,322,290530,2,0,P|130:266|141:210,1,115.50000352478,2|8,2:3|2:1,0:0:0:0:
296,257,290905,1,2,2:3:0:0:
141,210,291093,1,10,2:2:0:0:
397,121,291280,1,2,2:3:0:0:
246,115,291468,6,0,P|162:161|245:209,1,231.000007049561,10|10,2:1|2:2,0:0:0:0:
395,196,292030,1,2,2:3:0:0:
233,43,292218,2,0,L|107:43,1,115.50000352478,10|2,2:1|2:3,0:0:0:0:
192,43,292499,1,2,2:2:0:0:
267,40,292593,2,0,L|401:35,1,115.50000352478,10|2,2:2|2:3,0:0:0:0:
108,114,292968,6,0,P|32:179|115:236,1,231.000007049561,10|10,2:1|2:2,0:0:0:0:
272,196,293530,1,2,2:3:0:0:
113,105,293718,2,0,P|100:160|110:217,1,115.50000352478,10|2,2:1|2:3,0:0:0:0:
269,246,294093,2,0,L|389:246,1,115.50000352478,10|2,2:2|2:3,0:0:0:0:
117,197,294468,6,0,P|61:238|139:279,1,173.250005287171,10|0,2:1|0:0,0:0:0:0:
323,228,294843,2,0,L|460:230,1,115.50000352478,14|0,2:2|0:0,0:0:0:0:
173,91,295218,2,0,L|52:90,1,115.50000352478,14|0,2:1|0:0,0:0:0:0:
365,74,295593,2,0,P|388:125|365:176,1,115.50000352478,14|8,2:2|2:2,0:0:0:0:
290,185,295874,1,8,2:2:0:0:
99,182,295968,6,0,P|78:236|92:292,1,115.50000352478,14|2,2:1|2:3,0:0:0:0:
246,243,296343,1,10,2:2:0:0:
407,238,296530,2,0,L|278:233,1,115.50000352478,2|8,2:3|2:1,0:0:0:0:
134,224,296905,2,0,P|125:167|135:110,1,115.50000352478,2|10,2:3|2:2,0:0:0:0:
328,127,297280,6,0,L|459:134,2,115.50000352478,2|10|2,2:3|2:1|2:3,0:0:0:0:
74,97,297843,2,0,L|194:79,1,115.50000352478,10|2,2:2|2:3,0:0:0:0:
345,111,298218,2,0,P|353:169|345:226,1,115.50000352478,8|2,2:1|2:3,0:0:0:0:
83,214,298593,2,0,P|66:268|82:323,1,115.50000352478,10|2,2:2|2:3,0:0:0:0:
359,311,298968,6,0,P|441:259|360:204,1,231.000007049561,10|10,2:1|2:2,0:0:0:0:
193,180,299530,2,0,L|68:218,2,115.50000352478,2|8|2,2:3|2:1|2:3,0:0:0:0:
459,177,300093,2,0,P|467:120|455:64,1,115.50000352478,10|2,2:2|2:3,0:0:0:0:
184,78,300468,6,0,P|125:124|187:165,1,173.250005287171,14|0,2:1|0:0,0:0:0:0:
391,161,300843,1,10,2:2:0:0:
112,291,301030,2,0,P|122:211|202:195,1,173.250005287171,14|0,2:1|0:0,0:0:0:0:
390,201,301405,2,0,L|447:202,1,57.7500017623902,10|8,2:2|2:2,0:0:0:0:
238,141,301593,2,0,L|106:141,1,115.50000352478,10|6,2:2|2:3,0:0:0:0:
191,140,301874,1,4,2:3:0:0:
388,127,301968,6,0,P|460:181|386:233,1,210,14|2,2:1|2:3,0:0:0:0:
242,204,302530,1,10,2:1:0:0:
83,197,302718,2,0,P|95:100|192:79,1,210,8|2,2:2|2:3,0:0:0:0:
339,134,303280,1,10,2:1:0:0:
91,273,303468,6,0,P|194:259|299:267,1,210,10|2,2:1|2:3,0:0:0:0:
435,279,304030,1,10,2:1:0:0:
298,267,304218,1,8,2:2:0:0:
443,272,304405,2,0,P|505:209|421:179,1,210,10|10,2:1|2:1,0:0:0:0:
158,176,304968,6,0,P|84:128|159:83,1,210,14|2,2:1|2:3,0:0:0:0:
306,86,305530,1,10,2:1:0:0:
147,226,305718,2,0,P|251:215|356:214,1,210,8|2,2:2|2:3,0:0:0:0:
214,164,306280,1,10,2:1:0:0:
466,124,306468,6,0,P|467:222|372:243,1,210,14|10,2:1|2:2,0:0:0:0:
128,253,307030,2,0,P|79:206|138:173,1,157.5,14|0,2:1|0:0,0:0:0:0:
342,170,307405,2,0,L|284:169,1,52.5,10|8,2:2|2:2,0:0:0:0:
99,117,307593,1,10,2:2:0:0:
148,58,307686,1,4,2:3:0:0:
215,42,307780,1,6,2:3:0:0:
471,34,307968,6,0,P|480:85|474:138,1,105,14|2,2:2|2:2,0:0:0:0:
326,137,308343,2,0,L|442:130,1,105,10|10,2:2|2:1,0:0:0:0:
279,254,308718,2,0,L|155:258,1,105,8|10,2:2|2:1,0:0:0:0:
320,178,309093,2,0,P|331:127|317:77,1,105,10|10,2:2|2:1,0:0:0:0:
68,60,309468,6,0,L|180:53,1,105,10|2,2:2|2:2,0:0:0:0:
320,55,309843,2,0,P|329:106|324:158,1,105,10|10,2:2|2:1,0:0:0:0:
177,158,310218,2,0,L|52:159,1,105,8|8,2:2|2:1,0:0:0:0:
226,293,310593,2,0,L|342:292,1,105,10|8,2:2|2:1,0:0:0:0:
76,276,310968,6,0,P|73:224|75:172,1,105,10|2,2:2|2:2,0:0:0:0:
222,176,311343,2,0,P|226:124|221:72,1,105,10|10,2:2|2:1,0:0:0:0:
369,71,311718,2,0,L|256:72,1,105,8|10,2:2|2:1,0:0:0:0:
115,69,312093,2,0,P|105:120|115:171,1,105,10|10,2:2|2:1,0:0:0:0:
367,169,312468,6,0,L|481:167,1,105,10|2,2:2|2:2,0:0:0:0:
186,71,312843,2,0,L|57:71,1,105,14|10,2:2|2:1,0:0:0:0:
376,61,313218,2,0,P|389:115|374:164,1,105,14|10,2:2|2:2,0:0:0:0:
303,173,313499,1,8,2:2:0:0:
82,170,313593,2,0,P|63:222|90:267,1,105,10|10,2:2|2:1,0:0:0:0:
157,266,313874,1,8,2:1:0:0:
353,265,313968,6,0,L|487:265,1,105,10|10,2:2|2:2,0:0:0:0:
309,179,314343,1,10,2:2:0:0:
457,173,314530,1,10,2:2:0:0:
167,105,314718,2,0,L|40:104,1,105,10|8,2:2|2:2,0:0:0:0:
125,105,314999,1,8,2:2:0:0:
297,103,315093,2,0,L|361:103,1,52.5,10|8,2:2|2:2,0:0:0:0:
161,179,315280,2,0,L|86:179,1,52.5,8|8,2:2|2:2,0:0:0:0:
303,182,315468,6,0,P|412:261|301:336,1,315,14|2,2:1|2:2,0:0:0:0:
153,327,316218,2,0,L|320:313,2,157.5,2|2|2,2:2|2:2|2:2,0:0:0:0:
416,347,316968,6,0,P|453:279|365:198,1,210,14|2,2:1|2:2,0:0:0:0:
264,161,317530,2,0,L|496:93,1,210,2|2,2:2|2:2,0:0:0:0:
199,64,318280,1,2,2:2:0:0:
454,89,318468,6,0,P|472:161|361:235,1,210,10|2,2:1|2:2,0:0:0:0:
273,258,319030,2,0,P|209:294|306:358,1,210,2|10,2:3|2:1,0:0:0:0:
385,365,319593,2,0,L|381:236,1,105,10|0,2:2|0:0,0:0:0:0:
127,245,319968,6,0,P|86:192|181:88,1,210,14|2,2:1|2:2,0:0:0:0:
261,82,320530,2,0,L|52:75,1,210,2|2,2:3|2:2,0:0:0:0:
318,25,321280,1,10,2:3:0:0:
64,76,321468,6,0,L|66:201,1,105,10|10,2:1|2:3,0:0:0:0:
170,227,321843,1,2,2:2:0:0:
65,246,322030,2,0,P|38:294|147:365,1,210,10|10,2:3|2:1,0:0:0:0:
245,322,322593,2,0,L|141:314,1,105,8|0,2:2|0:0,0:0:0:0:
397,357,322968,6,0,P|459:313|356:236,1,210,14|2,2:1|2:2,0:0:0:0:
291,201,323530,2,0,P|219:163|294:80,1,210,2|2,2:2|2:2,0:0:0:0:
388,66,324093,2,0,L|280:62,1,105,0|10,0:0|2:1,0:0:0:0:
29,163,324468,6,0,L|276:183,1,210,14|2,2:1|2:2,0:0:0:0:
239,179,325030,1,10,2:1:0:0:
133,221,325218,2,0,L|135:337,1,105,2|8,2:2|2:3,0:0:0:0:
30,366,325593,2,0,L|29:256,1,105,10|0,2:3|0:0,0:0:0:0:
284,278,325968,6,0,P|308:213|208:134,1,210,14|2,2:1|2:2,0:0:0:0:
108,112,326530,1,2,2:2:0:0:
41,189,326717,1,2,2:2:0:0:
41,292,326905,1,2,2:3:0:0:
109,369,327092,1,2,2:3:0:0:
211,384,327280,1,2,2:2:0:0:
465,313,327468,6,0,P|481:239|375:172,1,210,10|2,2:1|2:2,0:0:0:0:
277,134,328030,2,0,L|186:136,1,52.5,8|8,2:3|2:3,0:0:0:0:
385,47,328218,1,10,2:1:0:0:
401,95,328311,1,0,0:3:0:0:
379,141,328405,1,8,2:3:0:0:
331,158,328499,1,8,2:3:0:0:
173,235,328593,1,6,2:3:0:0:
226,238,328686,1,0,2:3:0:0:
278,242,328780,1,4,2:3:0:0:
118,354,328968,6,0,P|50:313|115:267,1,188.999994232178,2|2,2:2|2:2,0:0:0:0:
229,261,329530,2,0,P|137:241|43:235,2,188.999994232178,2|2|2,2:2|2:2|2:2,0:0:0:0:
346,164,330468,5,2,2:2:0:0:
376,251,330655,1,2,2:2:0:0:
323,325,330843,1,2,2:2:0:0:
232,326,331030,2,0,P|324:307|418:299,1,188.999994232178,2|2,2:2|2:2,0:0:0:0:
135,212,331968,6,0,P|71:164|138:119,1,188.999994232178,2|2,2:2|2:2,0:0:0:0:
248,89,332530,2,0,P|342:80|436:90,2,188.999994232178,2|2|2,2:2|2:2|2:2,0:0:0:0:
134,102,333468,5,2,2:2:0:0:
237,96,333655,1,2,2:2:0:0:
341,92,333843,1,2,2:2:0:0:
237,96,334030,2,0,P|151:119|148:208,1,188.999994232178,2|2,2:2|2:2,0:0:0:0:
473,68,334968,6,0,L|474:296,1,210,2|2,2:2|2:2,0:0:0:0:
357,274,335564,2,0,L|165:146,1,210,2|2,2:2|2:2,0:0:0:0:
188,32,336183,1,2,2:2:0:0:
399,37,336597,6,0,P|473:84|399:131,1,210,2|0,2:2|0:0,0:0:0:0:
222,137,337499,2,0,L|440:138,1,210,2|0,2:2|0:0,0:0:0:0:
173,269,338846,5,2,2:2:0:0:
256,192,339028,12,0,344699,0:0:0:0:
