osu file format v14

[General]
AudioFilename: audio.mp3
AudioLeadIn: 0
PreviewTime: 99945
Countdown: 0
SampleSet: Soft
StackLeniency: 0.7
Mode: 0
LetterboxInBreaks: 0
WidescreenStoryboard: 0

[Editor]
Bookmarks: 42763,61430,80096
DistanceSpacing: 1.5
BeatDivisor: 4
GridSize: 4
TimelineZoom: 3.449997

[Metadata]
Title:We Can!
TitleUnicode:ウィーキャン!
Artist:Kishidan to Kitadani Hiroshi
ArtistUnicode:氣志團ときただにひろし
Creator:iYiyo
Version:Hazu's Hard
Source:ONE PIECE
Tags:opening 19 zou toei animation pirates Atsuro Hazu- Irohas MugiwaraSekai
BeatmapID:1268989
BeatmapSetID:588256

[Difficulty]
HPDrainRate:5
CircleSize:4
OverallDifficulty:6
ApproachRate:7
SliderMultiplier:1.5
SliderTickRate:1

[Events]
//Background and Video events
Video,200,"One Piece Opening 19 'We Can!'.avi"
0,0,"605357.jpg",0,0
//Break Periods
//Storyboard Layer 0 (Background)
//Storyboard Layer 1 (Fail)
//Storyboard Layer 2 (Pass)
//Storyboard Layer 3 (Foreground)
//Storyboard Sound Samples

[TimingPoints]
1431,332.409972299169,4,2,1,60,1,0
1431,-133.333333333333,4,2,1,60,0,0
4090,320.855614973262,4,2,1,60,1,0
4090,-133.333333333333,4,2,1,60,0,0
4731,340.909090909091,4,2,1,60,1,0
4731,-133.333333333333,4,2,1,60,0,0
6265,333.333333333333,4,2,1,60,1,0
6265,-133.333333333333,4,2,1,60,0,0
6765,333.333333333333,4,2,1,60,1,0
6765,-111.111111111111,4,2,1,60,0,0
10098,322.58064516129,4,2,1,60,1,0
10098,-111.111111111111,4,2,1,60,0,0
10662,-111.111111111111,4,2,1,5,0,0
10743,333.333333333333,4,2,1,60,1,0
10743,-111.111111111111,4,2,1,60,0,0
13326,-111.111111111111,4,2,1,5,0,0
13409,-100,4,2,1,60,0,0
22909,329.67032967033,4,2,1,60,1,0
23733,363.636363636364,4,2,1,60,1,0
24097,333.333333333333,4,2,1,60,1,0
24097,-111.111111111111,4,2,1,60,0,0
26680,-111.111111111111,4,2,1,5,0,0
26763,-111.111111111111,4,2,1,60,0,0
32013,-111.111111111111,4,2,1,5,0,0
32096,-111.111111111111,4,2,1,60,0,0
40096,-111.111111111111,4,2,1,60,0,0
50513,-111.111111111111,4,2,1,5,0,0
50596,-111.111111111111,4,2,1,60,0,0
64013,-111.111111111111,4,2,1,5,0,0
64096,-111.111111111111,4,2,1,60,0,0
69346,-111.111111111111,4,2,1,5,0,0
69430,-111.111111111111,4,2,1,60,0,0
87846,-111.111111111111,4,2,1,5,0,0
87930,-111.111111111111,4,2,1,60,0,0
98945,333.333333333333,4,2,1,60,1,0
100096,333.333333333333,4,2,1,60,1,1
108012,-100,4,2,1,5,0,1
108095,-100,4,2,1,60,0,1
108679,-100,4,2,1,5,0,1
108762,-100,4,2,1,60,0,1
109345,-100,4,2,1,5,0,1
109429,-100,4,2,1,60,0,1
113415,333.333333333333,4,2,1,60,1,1
119331,-100,4,2,1,5,0,1
119415,-100,4,2,1,60,0,1
119998,-100,4,2,1,5,0,1
120095,333.333333333333,4,2,1,60,1,0
121428,-100,4,2,1,60,0,1
132011,-100,4,2,1,5,0,1
132095,-100,4,2,1,60,0,1
136011,-100,4,2,1,5,0,1
136094,-100,4,2,1,60,0,1
138428,-100,4,2,1,60,0,1
138678,-100,4,2,1,5,0,1
138761,-100,4,2,1,60,0,0
147094,-100,4,2,1,5,0,0

[Colours]
Combo1 : 90,196,85
Combo2 : 69,192,214
Combo3 : 250,198,88
Combo4 : 255,64,64

[HitObjects]
184,84,1431,6,0,P|104:76|148:252,1,337.500012874604,6|0,0:0|0:0,0:0:0:0:
300,216,2760,6,0,P|356:208|428:200,1,112.500004291535,6|0,0:0|0:0,0:0:0:0:
484,156,3259,2,0,P|500:104|484:48,1,112.500004291535,8|4,3:0|3:0,0:0:0:0:
408,20,3757,2,0,P|380:24|336:28,1,56.2500021457673,4|0,3:0|0:0,0:0:0:0:
284,76,4090,6,0,B|224:69|224:69|178:88|178:88|106:81,1,168.750006437302,6|0,0:0|0:0,0:0:0:0:
36,72,4731,2,0,P|48:144|56:204,1,112.500004291535,8|0,0:0|0:0,0:0:0:0:
212,236,5412,6,0,P|204:300|200:364,2,112.500004291535,6|0|2,0:0|0:0|0:0,0:0:0:0:
272,176,6265,1,8,0:0:0:0:
276,164,6348,1,8,0:0:0:0:
280,152,6431,2,0,L|276:104,3,28.1250010728836,8|8|8|8,0:0|0:0|0:0|0:0,0:0:0:0:
272,80,6765,6,0,P|328:88|412:96,1,134.999995880127,4|8,0:0|0:0,0:0:0:0:
484,132,7264,1,0,0:0:0:0:
484,132,7431,2,0,P|496:176|492:216,1,67.4999979400635,2|2,0:0|0:0,0:0:0:0:
456,276,7764,2,0,P|416:272|380:268,1,67.4999979400635,8|0,0:0|0:0,0:0:0:0:
288,224,8097,6,0,P|240:232|136:248,1,134.999995880127,2|8,0:0|0:0,0:0:0:0:
76,284,8597,2,0,P|68:320|76:364,1,67.4999979400635,0|2,0:0|0:0,0:0:0:0:
152,380,8930,1,2,0:0:0:0:
152,380,9097,2,0,P|200:372|232:368,1,67.4999979400635,8|0,0:0|0:0,0:0:0:0:
324,356,9431,6,0,P|368:340|388:252,2,134.999995880127,6|8|2,0:0|0:0|0:0,0:0:0:0:
268,288,10259,1,2,0:0:0:0:
268,288,10420,2,0,P|272:240|276:172,1,101.249996910095,8|0,0:0|0:0,0:0:0:0:
272,152,10743,6,0,P|336:160|412:168,2,134.999995880127,8|8|8,0:0|0:0|0:0,0:0:0:0:
196,112,11576,1,8,0:0:0:0:
248,44,11742,1,8,0:0:0:0:
420,12,12076,5,8,0:0:0:0:
483,72,12242,1,8,0:0:0:0:
508,156,12409,1,8,0:0:0:0:
472,236,12576,1,8,0:0:0:0:
300,204,12909,5,8,0:0:0:0:
300,204,12992,1,0,0:0:0:0:
300,204,13076,2,0,P|296:244|292:312,1,101.249996910095,8|0,0:0|0:0,0:0:0:0:
264,336,13409,6,0,P|224:352|180:348,1,75,12|2,0:0|0:0,0:0:0:0:
112,328,13742,2,0,B|80:256|136:256|104:180,1,150,8|8,0:0|0:0,0:0:0:0:
68,108,14242,1,8,0:0:0:0:
68,108,14409,1,8,0:0:0:0:
160,60,14576,6,0,P|220:64|324:72,1,150,2|2,0:0|0:0,0:0:0:0:
392,60,15076,2,0,P|384:108|376:224,1,150,8|8,0:0|0:0,0:0:0:0:
336,280,15576,1,8,0:0:0:0:
268,232,15742,2,0,P|232:236|180:240,1,75,8|2,0:0|0:0,0:0:0:0:
96,280,16076,6,0,P|92:324|104:360,1,75,8|2,0:0|0:0,0:0:0:0:
180,376,16409,2,0,P|240:372|336:364,1,150,8|8,0:0|0:0,0:0:0:0:
412,380,16909,1,8,0:0:0:0:
412,380,17076,1,8,0:0:0:0:
460,288,17242,6,0,P|456:228|448:136,1,150,2|2,0:0|0:0,0:0:0:0:
380,92,17742,2,0,B|304:64|304:120|216:88,1,150,8|8,0:0|0:0,0:0:0:0:
164,48,18242,1,8,0:0:0:0:
120,116,18409,2,0,P|124:164|128:212,1,75,8|2,0:0|0:0,0:0:0:0:
208,256,18742,6,0,P|204:304|200:352,1,75,8|2,0:0|0:0,0:0:0:0:
280,356,19076,2,0,P|288:240|292:184,1,150,8|8,0:0|0:0,0:0:0:0:
332,136,19576,1,8,0:0:0:0:
332,136,19742,1,8,0:0:0:0:
424,188,19909,6,0,P|472:176|496:76,1,150,2|2,0:0|0:0,0:0:0:0:
448,24,20409,2,0,P|400:28|288:40,1,150,8|8,0:0|0:0,0:0:0:0:
216,24,20909,1,8,0:0:0:0:
180,100,21076,2,0,P|184:152|188:196,1,75,8|2,0:0|0:0,0:0:0:0:
132,268,21409,6,0,P|84:264|36:260,1,75,8|8,0:0|0:0,0:0:0:0:
28,340,21742,2,0,P|100:344|188:352,1,150,2|8,0:0|0:0,0:0:0:0:
256,376,22242,1,2,0:0:0:0:
256,376,22409,1,8,0:0:0:0:
324,296,22576,6,0,P|344:252|308:160,1,150,8|8,0:0|0:0,0:0:0:0:
228,148,23073,2,0,P|180:156|132:164,1,75,8|2,0:0|0:0,0:0:0:0:
80,200,23402,2,0,L|71:153,3,37.5,8|8|8|8,0:0|0:0|0:0|0:0,0:0:0:0:
52,128,23733,2,0,L|44:77,3,37.5,8|8|8|8,0:0|0:0|0:0|0:0,0:0:0:0:
32,48,24097,6,0,P|112:40|176:32,1,134.999995880127,0|2,0:0|0:0,0:0:0:0:
336,68,24763,2,0,P|368:108|352:204,1,134.999995880127,2|2,0:0|0:0,0:0:0:0:
268,336,25430,1,2,0:0:0:0:
196,176,25763,1,2,0:0:0:0:
124,336,26096,1,2,0:0:0:0:
52,176,26430,2,0,P|56:108|60:52,1,101.249996910095,8|0,0:0|0:0,0:0:0:0:
60,32,26763,5,4,0:0:0:0:
144,64,26930,2,0,P|192:56|228:52,1,67.4999979400635,0|8,0:0|0:0,0:0:0:0:
292,24,27263,1,2,0:0:0:0:
332,104,27430,1,2,0:0:0:0:
332,104,27596,2,0,P|328:152|324:192,1,67.4999979400635,0|8,0:0|0:0,0:0:0:0:
236,232,27930,6,0,P|244:300|252:376,1,134.999995880127,4|2,0:0|0:0,0:0:0:0:
340,376,28430,2,0,P|396:376|452:300,1,134.999995880127,8|2,0:0|0:0,0:0:0:0:
472,236,28930,1,2,0:0:0:0:
400,188,29096,2,0,L|364:192,3,33.7499989700318,8|8|8|8,0:0|0:0|0:0|0:0,0:0:0:0:
332,216,29430,6,0,P|272:212|176:208,1,134.999995880127,6|2,0:0|0:0,0:0:0:0:
28,248,30096,1,2,0:0:0:0:
4,72,30430,1,2,0:0:0:0:
176,36,30763,2,0,P|243:38|310:43,2,134.999995880127,2|2|2,0:0|0:0|0:0,0:0:0:0:
124,108,31596,1,8,0:0:0:0:
188,168,31763,2,0,P|180:216|176:280,1,101.249996910095,8|0,0:0|0:0,0:0:0:0:
168,312,32096,5,4,0:0:0:0:
248,348,32263,2,0,P|292:340|340:336,1,67.4999979400635,0|8,0:0|0:0,0:0:0:0:
400,360,32596,1,2,0:0:0:0:
436,280,32763,1,2,0:0:0:0:
436,280,32930,2,0,P|432:232|428:184,1,67.4999979400635,0|8,0:0|0:0,0:0:0:0:
344,148,33263,6,0,B|276:128|276:172|204:148,1,134.999995880127,4|2,0:0|0:0,0:0:0:0:
132,116,33763,2,0,P|136:72|140:32,1,67.4999979400635,8|0,0:0|0:0,0:0:0:0:
52,24,34096,2,0,P|48:57|45:91,1,67.4999979400635,2|2,0:0|0:0,0:0:0:0:
8,172,34430,2,0,L|12:220,3,33.7499989700318,8|8|8|8,3:0|3:0|3:0|3:0,0:0:0:0:
12,248,34763,6,0,P|64:240|104:236,1,67.4999979400635,6|0,0:0|0:0,0:0:0:0:
164,212,35096,2,0,P|220:224|300:236,1,134.999995880127,4|2,3:0|0:0,0:0:0:0:
384,216,35596,2,0,P|416:160|404:84,1,134.999995880127,4|0,3:0|0:0,0:0:0:0:
340,40,36096,6,0,B|272:12|272:64|180:28,1,134.999995880127,4|2,3:0|0:0,0:0:0:0:
120,20,36596,1,4,3:0:0:0:
60,184,36930,1,8,0:0:0:0:
56,196,37013,1,8,0:0:0:0:
52,208,37096,2,0,L|56:256,3,33.7499989700318,8|8|8|8,0:0|0:0|0:0|0:0,0:0:0:0:
60,284,37430,5,4,0:0:0:0:
136,324,37596,2,0,P|176:316|212:312,1,67.4999979400635,0|8,0:0|0:0,0:0:0:0:
280,272,37930,1,2,0:0:0:0:
228,200,38097,1,2,0:0:0:0:
228,200,38263,2,0,P|232:160|236:120,1,67.4999979400635,0|8,0:0|0:0,0:0:0:0:
304,52,38596,6,0,P|356:32|432:72,1,134.999995880127,4|2,0:0|0:0,0:0:0:0:
480,132,39096,2,0,P|476:168|468:272,1,134.999995880127,8|2,0:0|0:0,0:0:0:0:
420,340,39596,1,2,0:0:0:0:
344,296,39763,2,0,L|284:308,3,33.7499989700318,8|8|8|8,3:0|3:0|3:0|3:0,0:0:0:0:
272,316,40096,6,0,P|212:308|132:300,1,134.999995880127,6|2,0:0|0:0,0:0:0:0:
36,156,40763,2,0,P|102:147|170:140,1,134.999995880127,2|2,0:0|0:0,0:0:0:0:
344,116,41430,5,2,0:0:0:0:
368,288,41763,1,2,0:0:0:0:
196,316,42096,1,8,0:0:0:0:
196,316,42180,1,8,0:0:0:0:
196,316,42263,2,0,P|152:312|104:308,1,67.4999979400635,8|8,0:0|0:0,0:0:0:0:
44,332,42597,1,0,0:0:0:0:
12,228,42763,6,0,P|16:172|24:80,1,134.999995880127,6|8,0:0|0:0,0:0:0:0:
104,60,43263,1,0,0:0:0:0:
104,60,43430,2,0,P|100:108|96:152,1,67.4999979400635,2|2,0:0|0:0,0:0:0:0:
144,204,43763,1,8,0:0:0:0:
240,156,43930,6,0,P|340:156|376:200,1,134.999995880127,2|2,0:0|0:0,0:0:0:0:
416,244,44430,1,8,0:0:0:0:
416,244,44596,2,0,P|412:276|408:320,1,67.4999979400635,0|2,0:0|0:0,0:0:0:0:
492,340,44930,2,0,P|495:306|499:272,1,67.4999979400635,2|8,0:0|0:0,0:0:0:0:
512,184,45263,1,0,0:0:0:0:
424,120,45430,6,0,P|376:124|280:132,1,134.999995880127,2|8,0:0|0:0,0:0:0:0:
204,108,45930,1,0,0:0:0:0:
160,184,46096,2,0,P|164:224|168:272,1,67.4999979400635,2|2,0:0|0:0,0:0:0:0:
116,324,46430,2,0,P|84:328|32:320,1,67.4999979400635,8|2,0:0|0:0,0:0:0:0:
4,228,46763,6,0,B|0:180|0:180|12:144|12:144|8:88,1,134.999995880127,0|8,0:0|0:0,0:0:0:0:
76,40,47263,1,0,0:0:0:0:
152,88,47430,2,0,P|200:84|236:80,1,67.4999979400635,2|2,0:0|0:0,0:0:0:0:
288,136,47763,2,0,P|296:172|296:224,1,67.4999979400635,8|0,0:0|0:0,0:0:0:0:
372,280,48096,6,0,P|364:316|364:368,2,67.4999979400635,6|0|8,0:0|0:0|0:0,0:0:0:0:
420,208,48596,1,0,0:0:0:0:
420,208,48763,2,0,P|460:204|496:200,1,67.4999979400635,2|2,0:0|0:0,0:0:0:0:
508,116,49096,2,0,P|474:112|440:109,1,67.4999979400635,8|2,0:0|0:0,0:0:0:0:
336,132,49430,6,0,P|340:84|348:-8,2,134.999995880127,8|4|8,0:0|3:0|0:0,0:0:0:0:
268,188,50263,2,0,P|200:188|152:136,1,134.999995880127,4|8,0:0|0:0,0:0:0:0:
148,128,50680,1,8,0:0:0:0:
140,112,50763,6,0,P|144:184|148:272,1,134.999995880127,6|8,0:0|0:0,0:0:0:0:
140,336,51263,1,0,0:0:0:0:
140,336,51430,2,0,P|180:332|224:328,2,67.4999979400635,2|2|8,0:0|0:0|0:0,0:0:0:0:
40,300,51930,6,0,P|8:256|28:164,1,134.999995880127,2|2,0:0|0:0,0:0:0:0:
64,104,52430,1,8,0:0:0:0:
64,104,52596,2,0,P|112:96|148:92,1,67.4999979400635,0|2,0:0|0:0,0:0:0:0:
208,52,52930,2,0,P|256:60|292:64,1,67.4999979400635,2|8,0:0|0:0,0:0:0:0:
360,40,53263,1,0,0:0:0:0:
412,136,53430,6,0,B|428:176|428:176|412:284,1,134.999995880127,2|8,0:0|0:0,0:0:0:0:
400,352,53930,1,0,0:0:0:0:
400,352,54096,2,0,P|356:344|320:344,1,67.4999979400635,2|2,0:0|0:0,0:0:0:0:
252,308,54430,2,0,P|240:272|248:228,1,67.4999979400635,8|2,0:0|0:0,0:0:0:0:
312,160,54763,6,0,P|356:156|408:152,1,67.4999979400635,0|2,0:0|0:0,0:0:0:0:
364,68,55096,2,0,P|330:70|296:73,1,67.4999979400635,8|0,0:0|0:0,0:0:0:0:
216,44,55430,1,2,0:0:0:0:
216,44,55596,1,2,0:0:0:0:
160,112,55763,2,0,P|168:156|172:204,1,67.4999979400635,8|0,0:0|0:0,0:0:0:0:
140,280,56096,6,0,P|84:292|36:224,2,134.999995880127,6|8|2,0:0|0:0|0:0,0:0:0:0:
224,256,56930,2,0,P|264:260|304:268,1,67.4999979400635,2|8,0:0|0:0,0:0:0:0:
372,232,57263,1,0,0:0:0:0:
480,248,57430,6,0,P|476:296|472:400,2,134.999995880127,2|8|2,0:0|0:0|0:0,0:0:0:0:
492,160,58263,1,2,0:0:0:0:
412,124,58430,2,0,P|364:128|328:132,1,67.4999979400635,8|0,0:0|0:0,0:0:0:0:
240,160,58763,6,0,P|236:120|232:72,1,67.4999979400635,6|0,0:0|0:0,0:0:0:0:
156,52,59096,2,0,P|100:48|40:120,1,134.999995880127,8|2,0:0|0:0,0:0:0:0:
32,184,59596,1,2,0:0:0:0:
32,184,59763,2,0,P|36:216|40:268,1,67.4999979400635,8|2,0:0|0:0,0:0:0:0:
96,344,60096,6,0,P|132:340|176:336,1,67.4999979400635,8|2,0:0|0:0,0:0:0:0:
228,280,60430,2,0,P|264:284|308:288,1,67.4999979400635,8|0,0:0|0:0,0:0:0:0:
376,252,60763,1,8,0:0:0:0:
376,252,60846,1,8,0:0:0:0:
376,252,60930,2,0,P|380:212|376:180,1,67.4999979400635,8|2,0:0|0:0,0:0:0:0:
328,112,61263,1,8,0:0:0:0:
328,112,61346,1,8,0:0:0:0:
328,112,61430,6,0,P|268:120|176:132,1,134.999995880127,6|2,0:0|0:0,0:0:0:0:
20,120,62096,1,2,0:0:0:0:
172,32,62430,1,2,0:0:0:0:
120,200,62763,2,0,P|128:252|136:348,1,134.999995880127,2|2,0:0|0:0,0:0:0:0:
308,372,63430,1,2,0:0:0:0:
308,372,63596,1,2,0:0:0:0:
364,304,63763,2,0,P|360:248|352:176,1,101.249996910095,6|0,0:0|0:0,0:0:0:0:
352,160,64096,5,4,0:0:0:0:
272,196,64263,2,0,P|232:192|180:188,1,67.4999979400635,0|8,0:0|0:0,0:0:0:0:
124,152,64596,1,2,0:0:0:0:
60,212,64763,1,2,0:0:0:0:
60,212,64930,2,0,P|64:256|68:296,1,67.4999979400635,0|8,0:0|0:0,0:0:0:0:
148,352,65263,6,0,B|216:372|216:328|284:348,1,134.999995880127,4|2,0:0|0:0,0:0:0:0:
368,328,65763,2,0,P|380:288|376:248,1,67.4999979400635,8|0,0:0|0:0,0:0:0:0:
320,200,66096,2,0,P|268:196|228:192,1,67.4999979400635,2|2,0:0|0:0,0:0:0:0:
180,144,66430,2,0,L|176:104,3,33.7499989700318,8|8|8|8,3:0|3:0|3:0|3:0,0:0:0:0:
164,68,66763,6,0,P|232:64|312:60,1,134.999995880127,6|2,0:0|0:0,0:0:0:0:
472,96,67430,1,2,0:0:0:0:
324,192,67763,1,2,0:0:0:0:
496,224,68096,2,0,P|500:252|504:304,1,67.4999979400635,2|8,0:0|0:0,0:0:0:0:
444,356,68430,2,0,P|400:364|360:360,1,67.4999979400635,2|8,0:0|0:0,0:0:0:0:
292,336,68763,1,2,0:0:0:0:
292,336,68930,1,2,0:0:0:0:
208,312,69096,2,0,P|164:316|96:324,1,101.249996910095,2|0,0:0|0:0,0:0:0:0:
64,328,69430,5,4,0:0:0:0:
20,252,69596,2,0,P|24:212|28:176,1,67.4999979400635,0|8,0:0|0:0,0:0:0:0:
40,96,69930,1,2,0:0:0:0:
120,128,70096,1,2,0:0:0:0:
120,128,70263,2,0,P|160:124|204:120,1,67.4999979400635,0|8,0:0|0:0,0:0:0:0:
280,68,70596,6,0,P|340:72|424:76,1,134.999995880127,4|2,0:0|0:0,0:0:0:0:
480,136,71096,2,0,P|480:224|440:260,1,134.999995880127,8|2,0:0|0:0,0:0:0:0:
372,296,71596,1,2,0:0:0:0:
312,232,71763,2,0,L|316:192,3,33.7499989700318,8|8|8|8,0:0|0:0|0:0|0:0,0:0:0:0:
336,160,72096,6,0,P|332:112|328:76,1,67.4999979400635,6|0,0:0|0:0,0:0:0:0:
260,40,72430,2,0,P|204:24|132:76,1,134.999995880127,4|2,3:0|0:0,0:0:0:0:
84,128,72930,2,0,B|87:175|87:175|73:212|73:212|77:268,1,134.999995880127,4|0,3:0|0:0,0:0:0:0:
140,320,73430,6,0,P|204:308|280:296,1,134.999995880127,4|2,3:0|0:0,0:0:0:0:
356,320,73930,1,2,0:0:0:0:
424,172,74263,1,8,3:0:0:0:
428,160,74346,1,8,3:0:0:0:
432,148,74429,2,0,L|429:114,3,33.7499989700318,0|8|8|0,0:0|3:0|3:0|0:0,0:0:0:0:
424,72,74763,5,4,0:0:0:0:
344,40,74930,2,0,P|296:44|248:48,1,67.4999979400635,0|8,0:0|0:0,0:0:0:0:
196,84,75263,1,2,0:0:0:0:
252,152,75430,1,2,0:0:0:0:
252,152,75596,2,0,P|248:192|244:236,1,67.4999979400635,0|8,0:0|0:0,0:0:0:0:
168,296,75930,6,0,P|68:296|44:252,1,134.999995880127,4|2,0:0|0:0,0:0:0:0:
8,200,76430,2,0,P|20:104|28:40,1,134.999995880127,8|2,0:0|0:0,0:0:0:0:
104,24,76930,1,2,0:0:0:0:
128,108,77096,2,0,L|124:152,3,33.7499989700318,8|8|8|8,0:0|0:0|0:0|0:0,0:0:0:0:
124,188,77430,6,0,P|192:184|268:180,1,134.999995880127,6|2,0:0|0:0,0:0:0:0:
424,240,78096,1,2,0:0:0:0:
472,72,78430,1,2,0:0:0:0:
304,24,78763,6,0,L|216:28,1,67.4999979400635,2|8,0:0|0:0,0:0:0:0:
164,76,79096,2,0,P|144:112|144:156,1,67.4999979400635,8|0,0:0|0:0,0:0:0:0:
180,216,79430,1,8,0:0:0:0:
180,216,79513,1,8,0:0:0:0:
180,216,79596,1,8,0:0:0:0:
264,192,79763,2,0,L|304:196,3,33.7499989700318,8|8|8|8,0:0|0:0|0:0|0:0,0:0:0:0:
336,180,80096,6,0,P|332:224|328:332,1,134.999995880127,6|8,0:0|0:0,0:0:0:0:
264,376,80596,1,0,0:0:0:0:
264,376,80763,2,0,P|224:368|184:364,1,67.4999979400635,2|2,0:0|0:0,0:0:0:0:
112,376,81096,1,8,0:0:0:0:
64,280,81263,6,0,P|68:212|72:144,1,134.999995880127,2|2,0:0|0:0,0:0:0:0:
144,96,81763,1,8,0:0:0:0:
144,96,81930,2,0,P|140:64|136:28,2,67.4999979400635,0|2|2,0:0|0:0|0:0,0:0:0:0:
200,164,82430,2,0,P|240:156|276:152,1,67.4999979400635,8|0,0:0|0:0,0:0:0:0:
372,176,82763,6,0,P|404:152|392:48,1,134.999995880127,2|8,0:0|0:0,0:0:0:0:
328,20,83263,1,0,0:0:0:0:
328,20,83430,2,0,P|288:24|240:32,1,67.4999979400635,2|2,0:0|0:0,0:0:0:0:
188,76,83763,2,0,P|148:72|100:64,1,67.4999979400635,8|2,0:0|0:0,0:0:0:0:
16,40,84096,6,0,P|20:88|24:136,1,67.4999979400635,0|2,0:0|0:0,0:0:0:0:
0,192,84430,2,0,P|4:240|8:288,1,67.4999979400635,8|0,0:0|0:0,0:0:0:0:
64,328,84763,1,2,0:0:0:0:
64,328,84930,1,2,0:0:0:0:
132,272,85096,2,0,P|176:276|208:280,1,67.4999979400635,8|0,0:0|0:0,0:0:0:0:
284,212,85430,6,0,P|328:216|360:220,2,67.4999979400635,6|0|8,0:0|0:0|0:0,0:0:0:0:
204,180,85930,1,0,0:0:0:0:
204,180,86096,2,0,P|200:140|196:92,1,67.4999979400635,0|2,0:0|0:0,0:0:0:0:
268,60,86430,2,0,P|316:56|356:68,1,67.4999979400635,8|2,0:0|0:0,0:0:0:0:
412,136,86763,6,0,P|416:72|424:0,2,134.999995880127,8|4|8,0:0|3:0|0:0,0:0:0:0:
344,188,87596,2,0,P|348:252|356:324,1,134.999995880127,4|8,0:0|0:0,0:0:0:0:
352,340,88013,1,8,0:0:0:0:
348,356,88096,6,0,P|316:320|216:320,1,134.999995880127,6|8,0:0|0:0,0:0:0:0:
148,336,88596,1,0,0:0:0:0:
92,268,88763,2,0,P|96:224|100:176,1,67.4999979400635,2|2,0:0|0:0,0:0:0:0:
68,120,89096,1,8,0:0:0:0:
168,80,89263,6,0,B|240:56|240:112|316:84,1,134.999995880127,2|2,0:0|0:0,0:0:0:0:
388,88,89763,1,8,0:0:0:0:
388,88,89929,2,0,P|404:136|400:168,1,67.4999979400635,0|2,0:0|0:0,0:0:0:0:
388,240,90263,2,0,P|440:232|484:228,2,67.4999979400635,2|8|0,0:0|0:0|0:0,0:0:0:0:
280,256,90763,6,0,P|232:240|204:160,1,134.999995880127,2|8,0:0|0:0,0:0:0:0:
244,88,91263,1,0,0:0:0:0:
244,88,91430,2,0,P|288:92|332:96,1,67.4999979400635,2|2,0:0|0:0,0:0:0:0:
396,72,91763,2,0,P|400:116|404:160,1,67.4999979400635,8|2,0:0|0:0,0:0:0:0:
444,240,92096,6,0,P|439:273|435:307,1,67.4999979400635,0|2,0:0|0:0,0:0:0:0:
372,368,92430,2,0,P|328:360|288:356,1,67.4999979400635,8|0,0:0|0:0,0:0:0:0:
224,320,92763,1,2,0:0:0:0:
224,320,92930,1,2,0:0:0:0:
152,272,93096,2,0,P|108:264|68:260,1,67.4999979400635,8|0,0:0|0:0,0:0:0:0:
8,184,93430,6,0,P|4:232|-4:328,2,134.999995880127,6|8|2,0:0|0:0|0:0,0:0:0:0:
56,108,94263,2,0,P|96:104|136:108,1,67.4999979400635,2|8,0:0|0:0,0:0:0:0:
204,140,94596,1,0,0:0:0:0:
276,60,94763,6,0,P|352:68|420:72,2,134.999995880127,2|8|2,0:0|0:0|0:0,0:0:0:0:
196,28,95596,1,2,0:0:0:0:
148,100,95763,2,0,P|152:144|156:188,1,67.4999979400635,8|0,0:0|0:0,0:0:0:0:
220,252,96096,6,0,P|216:296|212:340,1,67.4999979400635,6|0,0:0|0:0,0:0:0:0:
300,344,96430,2,0,P|304:260|308:196,1,134.999995880127,8|2,0:0|0:0,0:0:0:0:
352,132,96930,2,0,P|348:88|344:56,1,67.4999979400635,2|8,0:0|0:0,0:0:0:0:
272,16,97263,1,2,0:0:0:0:
192,92,97430,6,0,P|160:88|108:84,1,67.4999979400635,8|2,0:0|0:0,0:0:0:0:
44,120,97763,2,0,P|32:152|32:196,1,67.4999979400635,8|0,0:0|0:0,0:0:0:0:
72,264,98096,1,8,0:0:0:0:
72,264,98180,1,8,0:0:0:0:
72,264,98263,1,2,0:0:0:0:
148,220,98430,2,0,P|188:224|228:228,1,67.4999979400635,2|2,0:0|0:0,0:0:0:0:
304,240,98763,5,8,0:0:0:0:
304,240,100096,6,0,P|308:280|312:328,1,75,6|0,0:0|0:0,0:0:0:0:
228,352,100429,2,0,P|224:314|221:277,1,75,8|0,0:0|0:0,0:0:0:0:
172,200,100762,1,2,0:0:0:0:
216,124,100929,1,2,0:0:0:0:
140,76,101096,2,0,P|96:80|60:84,1,75,8|0,0:0|0:0,0:0:0:0:
4,180,101429,6,0,P|12:224|16:272,1,75,2|0,0:0|0:0,0:0:0:0:
52,336,101762,1,8,0:0:0:0:
52,336,101929,2,0,P|92:332|132:328,1,75,0|2,0:0|0:0,0:0:0:0:
212,360,102262,1,2,0:0:0:0:
256,280,102429,2,0,P|252:232|248:172,1,75,8|0,0:0|0:0,0:0:0:0:
164,136,102762,6,0,P|120:132|76:128,1,75,2|0,0:0|0:0,0:0:0:0:
16,76,103096,1,8,0:0:0:0:
16,76,103262,1,0,0:0:0:0:
96,32,103429,2,0,P|126:34|170:38,1,75,2|2,0:0|0:0,0:0:0:0:
256,8,103762,2,0,P|286:10|330:14,1,75,8|0,0:0|0:0,0:0:0:0:
392,108,104096,6,0,P|422:106|466:102,2,75,2|0|8,0:0|0:0|0:0,0:0:0:0:
316,156,104596,2,0,P|304:196|304:256,1,75,0|2,0:0|0:0,0:0:0:0:
320,316,104929,1,2,0:0:0:0:
320,316,105096,2,0,P|276:312|224:308,1,75,8|0,0:0|0:0,0:0:0:0:
152,248,105429,6,0,P|48:264|0:272,2,150,6|8|2,0:0|0:0|0:0,0:0:0:0:
228,200,106262,1,0,0:0:0:0:
228,200,106429,2,0,P|280:204|328:208,1,75,8|0,0:0|0:0,0:0:0:0:
412,184,106762,6,0,P|460:152|456:64,1,150,2|8,0:0|0:0,0:0:0:0:
384,16,107262,1,0,0:0:0:0:
300,48,107429,2,0,P|264:44|220:40,1,75,2|2,0:0|0:0,0:0:0:0:
136,32,107762,2,0,P|144:100|148:156,1,112.5,8|0,0:0|0:0,0:0:0:0:
160,188,108095,5,2,0:0:0:0:
140,276,108262,1,2,0:0:0:0:
120,364,108429,2,0,P|176:356|244:348,1,112.5,12|0,0:0|0:0,0:0:0:0:
276,344,108762,1,2,0:0:0:0:
360,380,108928,1,0,0:0:0:0:
408,304,109095,2,0,P|404:248|400:184,1,112.5,12|0,0:0|0:0,0:0:0:0:
372,156,109429,6,0,P|320:148|272:156,1,75,12|2,0:0|0:0,0:0:0:0:
216,184,109762,1,2,0:0:0:0:
168,108,109929,2,0,P|172:68|176:28,1,75,12|2,0:0|0:0,0:0:0:0:
84,40,110262,2,0,P|76:104|64:200,1,150,8|8,0:0|0:0,0:0:0:0:
60,212,110679,1,8,0:0:0:0:
56,232,110762,6,0,P|104:224|144:228,1,75,6|0,0:0|0:0,0:0:0:0:
208,272,111096,2,0,P|256:280|296:276,1,75,8|0,0:0|0:0,0:0:0:0:
368,248,111429,1,2,0:0:0:0:
332,168,111595,1,0,0:0:0:0:
408,120,111762,2,0,P|460:124|496:128,1,75,8|0,0:0|0:0,0:0:0:0:
460,16,112095,6,0,P|422:12|385:9,1,75,0|0,0:0|0:0,0:0:0:0:
300,36,112429,1,8,0:0:0:0:
300,36,112595,2,0,P|262:32|225:29,1,75,0|2,0:0|0:0,0:0:0:0:
136,24,112928,1,2,0:0:0:0:
88,100,113095,2,0,P|92:144|96:188,1,75,8|0,0:0|0:0,0:0:0:0:
164,252,113415,6,0,P|160:296|156:340,1,75,2|0,0:0|0:0,0:0:0:0:
232,376,113748,1,8,0:0:0:0:
232,376,113915,1,0,0:0:0:0:
284,304,114081,2,0,P|286:273|290:229,1,75,2|2,0:0|0:0,0:0:0:0:
352,160,114415,2,0,P|350:129|346:85,1,75,8|0,0:0|0:0,0:0:0:0:
232,88,114748,6,0,P|234:57|238:13,2,75,2|0|8,0:0|0:0|0:0,0:0:0:0:
176,160,115248,2,0,P|136:168|88:160,1,75,0|2,0:0|0:0,0:0:0:0:
20,132,115581,1,2,0:0:0:0:
0,220,115748,2,0,P|4:260|8:304,1,75,8|0,0:0|0:0,0:0:0:0:
100,360,116081,6,0,P|172:356|256:352,2,150,6|8|2,0:0|0:0|0:0,0:0:0:0:
116,272,116915,1,2,0:0:0:0:
116,272,117081,2,0,L|200:268,1,75,8|0,0:0|0:0,0:0:0:0:
296,220,117415,6,0,B|297:168|297:168|275:123|275:123|277:63,1,150,2|8,0:0|0:0,0:0:0:0:
348,20,117915,2,0,P|400:24|444:48,1,75,0|2,0:0|0:0,0:0:0:0:
492,84,118248,2,0,P|484:128|484:168,1,75,2|8,0:0|0:0,0:0:0:0:
464,248,118582,1,0,0:0:0:0:
368,188,118748,6,0,P|316:192|276:196,1,75,2|2,0:0|0:0,0:0:0:0:
204,184,119081,2,0,P|212:252|216:320,1,112.5,12|0,0:0|0:0,0:0:0:0:
200,340,119415,1,2,0:0:0:0:
116,312,119582,1,2,0:0:0:0:
32,284,119748,2,0,P|36:227|43:172,1,112.5,12|0,0:0|0:0,0:0:0:0:
80,136,120095,6,0,P|76:96|72:48,1,75,12|2,0:0|0:0,0:0:0:0:
160,32,120428,1,2,0:0:0:0:
228,92,120595,2,0,P|272:84|316:76,1,75,2|2,0:0|0:0,0:0:0:0:
388,108,120928,1,8,0:0:0:0:
388,108,121011,1,8,0:0:0:0:
388,108,121095,2,0,L|384:156,3,37.5,8|8|8|8,0:0|0:0|0:0|0:0,0:0:0:0:
356,180,121428,6,0,P|368:260|380:352,1,150,6|8,0:0|0:0,0:0:0:0:
312,384,121928,1,0,0:0:0:0:
240,332,122095,2,0,P|192:336|148:340,1,75,8|2,0:0|0:0,0:0:0:0:
84,304,122428,2,0,P|76:264|84:224,1,75,8|0,0:0|0:0,0:0:0:0:
160,148,122761,6,0,B|215:144|215:144|257:161|257:161|317:157,2,150,8|8|8,0:0|0:0|0:0,0:0:0:0:
76,116,123595,1,2,0:0:0:0:
140,52,123761,2,0,L|224:48,1,75,8|2,0:0|0:0,0:0:0:0:
320,12,124095,6,0,P|324:52|328:92,1,75,8|0,0:0|0:0,0:0:0:0:
400,140,124428,2,0,P|396:180|392:220,1,75,8|0,0:0|0:0,0:0:0:0:
380,304,124761,1,8,0:0:0:0:
380,304,124928,1,2,0:0:0:0:
296,268,125095,2,0,P|240:272|188:276,1,75,8|2,0:0|0:0,0:0:0:0:
120,224,125428,6,0,P|108:180|112:140,1,75,8|0,0:0|0:0,0:0:0:0:
164,80,125761,2,0,P|228:84|272:88,1,75,8|0,0:0|0:0,0:0:0:0:
320,44,126095,1,8,0:0:0:0:
320,44,126261,1,2,0:0:0:0:
380,108,126428,2,0,P|384:160|388:212,1,75,8|2,0:0|0:0,0:0:0:0:
492,216,126761,6,0,P|488:152|480:48,2,150,12|8|8,0:0|0:0|0:0,0:0:0:0:
480,304,127594,1,2,0:0:0:0:
396,276,127761,2,0,P|356:272|304:276,1,75,8|2,0:0|0:0,0:0:0:0:
212,248,128094,6,0,P|172:200|184:108,1,150,8|8,0:0|0:0,0:0:0:0:
236,48,128594,1,0,0:0:0:0:
320,76,128761,2,0,P|360:80|404:84,1,75,8|2,0:0|0:0,0:0:0:0:
460,144,129094,2,0,P|456:196|456:236,1,75,8|2,0:0|0:0,0:0:0:0:
344,228,129428,6,0,P|352:304|360:384,2,150,8|8|8,0:0|0:0|0:0,0:0:0:0:
288,156,130261,1,2,0:0:0:0:
212,204,130428,2,0,P|152:208|108:212,1,75,8|2,0:0|0:0,0:0:0:0:
112,320,130761,6,0,P|149:317|186:314,1,75,8|0,0:0|0:0,0:0:0:0:
260,368,131095,2,0,P|297:365|334:362,1,75,8|2,0:0|0:0,0:0:0:0:
412,316,131428,1,8,0:0:0:0:
348,256,131594,1,0,0:0:0:0:
408,192,131761,2,0,P|404:144|400:72,1,112.5,12|0,0:0|0:0,0:0:0:0:
400,32,132095,6,0,P|364:88|268:84,1,150,8|8,0:0|0:0,0:0:0:0:
212,44,132595,1,0,0:0:0:0:
148,104,132761,2,0,P|152:152|156:204,1,75,8|2,0:0|0:0,0:0:0:0:
224,240,133095,2,0,P|220:288|216:340,1,75,8|2,0:0|0:0,0:0:0:0:
312,376,133428,6,0,P|360:372|404:368,1,75,8|0,0:0|0:0,0:0:0:0:
464,320,133761,2,0,P|472:280|464:232,1,75,8|0,0:0|0:0,0:0:0:0:
428,164,134095,1,8,0:0:0:0:
428,164,134261,1,2,0:0:0:0:
344,196,134428,2,0,P|296:192|244:188,1,75,8|2,0:0|0:0,0:0:0:0:
172,132,134761,6,0,P|116:136|16:144,2,150,12|8|8,0:0|0:0|0:0,0:0:0:0:
252,88,135594,1,2,0:0:0:0:
312,156,135761,2,0,P|308:204|304:288,1,112.5,8|0,0:0|0:0,0:0:0:0:
336,300,136094,6,0,P|276:304|176:312,2,150,12|8|8,0:0|0:0|0:0,0:0:0:0:
424,324,136928,1,8,0:0:0:0:
468,244,137094,1,8,0:0:0:0:
364,96,137428,5,8,0:0:0:0:
280,64,137594,1,8,0:0:0:0:
208,120,137761,1,8,0:0:0:0:
124,88,137927,1,8,0:0:0:0:
32,244,138261,5,2,0:0:0:0:
32,244,138344,1,0,0:0:0:0:
32,244,138428,2,0,P|36:296|40:364,1,112.5,2|0,0:0|0:0,0:0:0:0:
76,380,138761,6,0,P|108:376|172:368,1,75,12|2,0:0|0:0,0:0:0:0:
204,296,139094,2,0,P|288:304|384:312,1,150,8|8,0:0|0:0,0:0:0:0:
432,360,139594,1,8,0:0:0:0:
432,360,139761,1,8,0:0:0:0:
484,260,139928,6,0,P|488:208|416:132,1,150,2|2,0:0|0:0,0:0:0:0:
344,112,140428,2,0,P|264:120|164:128,1,150,8|8,0:0|0:0,0:0:0:0:
108,96,140928,1,8,0:0:0:0:
172,36,141094,2,0,P|220:32|272:28,1,75,8|2,0:0|0:0,0:0:0:0:
360,32,141428,6,0,P|408:28|460:24,1,75,12|2,0:0|0:0,0:0:0:0:
500,88,141761,2,0,B|516:132|516:132|508:244,1,150,8|8,0:0|0:0,0:0:0:0:
468,316,142261,1,8,0:0:0:0:
388,276,142428,1,8,0:0:0:0:
296,340,142594,6,0,P|224:336|128:332,1,150,2|2,0:0|0:0,0:0:0:0:
68,284,143094,2,0,P|40:232|76:136,1,150,8|8,0:0|0:0,0:0:0:0:
132,88,143594,1,8,0:0:0:0:
204,140,143761,2,0,P|256:136|308:132,1,75,8|2,0:0|0:0,0:0:0:0:
392,120,144094,6,0,P|388:168|384:224,1,75,12|2,0:0|0:0,0:0:0:0:
472,228,144428,2,0,L|484:60,1,150,12|8,0:0|0:0,0:0:0:0:
416,20,144928,1,8,0:0:0:0:
416,20,145094,1,8,0:0:0:0:
316,72,145261,6,0,P|240:64|140:56,1,150,2|8,0:0|0:0,0:0:0:0:
76,44,145761,2,0,P|84:108|92:208,1,150,8|8,0:0|0:0,0:0:0:0:
148,288,146261,1,8,0:0:0:0:
184,180,146428,1,12,0:0:0:0:
