osu file format v14

[General]
AudioFilename: audio.mp3
AudioLeadIn: 0
PreviewTime: 99945
Countdown: 0
SampleSet: Soft
StackLeniency: 0.5
Mode: 0
LetterboxInBreaks: 0
WidescreenStoryboard: 0

[Editor]
Bookmarks: 15076,22409,28763,42763,52263,61430,68430,80096,113095,120178,133678
DistanceSpacing: 1
BeatDivisor: 4
GridSize: 4
TimelineZoom: 2.300005

[Metadata]
Title:We Can!
TitleUnicode:ウィーキャン!
Artist:Kishidan to Kitadani Hiroshi
ArtistUnicode:氣志團ときただにひろし
Creator:iYiyo
Version:Atsuro's Extra
Source:ONE PIECE
Tags:opening 19 zou toei animation pirates Atsuro Hazu- Irohas MugiwaraSekai
BeatmapID:1256376
BeatmapSetID:588256

[Difficulty]
HPDrainRate:6
CircleSize:4
OverallDifficulty:8
ApproachRate:9.2
SliderMultiplier:1.8
SliderTickRate:1

[Events]
//Background and Video events
Video,200,"One Piece Opening 19 'We Can!'.avi"
0,0,"810334.jpg",0,0
//Break Periods
//Storyboard Layer 0 (Background)
//Storyboard Layer 1 (Fail)
//Storyboard Layer 2 (Pass)
//Storyboard Layer 3 (Foreground)
//Storyboard Sound Samples

[TimingPoints]
1431,332.409972299169,4,2,1,60,1,0
1431,-200,4,2,1,60,0,0
4090,320.855614973262,4,2,1,60,1,0
4090,-153.846153846154,4,2,1,60,0,0
4731,340.909090909091,4,2,1,60,1,0
4731,-153.846153846154,4,2,1,60,0,0
5412,-133.333333333334,4,2,1,60,0,0
5753,-111.111111111111,4,2,1,60,0,0
6094,-95.2380952380952,4,2,1,60,0,0
6265,333.333333333333,4,2,1,60,1,0
6765,333.333333333333,4,2,1,60,1,0
6765,-95.2380952380952,4,2,1,60,0,0
10098,322.58064516129,4,2,1,60,1,0
10098,-95.2380952380952,4,2,1,60,0,0
10743,333.333333333333,4,2,1,60,1,0
13076,-71.4285714285714,4,2,1,60,0,0
13409,-86.9565217391304,4,2,1,60,0,0
22909,329.67032967033,4,2,1,60,1,0
23733,363.636363636364,4,2,1,60,1,0
24097,333.333333333333,4,2,1,60,1,0
24097,-111.111111111111,4,2,1,60,0,0
26430,-83.3333333333333,4,2,1,60,0,0
26763,-100,4,2,1,60,0,0
29430,-111.111111111111,4,2,1,60,0,0
32096,-100,4,2,1,60,0,0
34763,-111.111111111111,4,2,1,60,0,0
37430,-100,4,2,1,60,0,0
40096,-111.111111111111,4,2,1,60,0,0
42763,-100,4,2,1,60,0,0
50513,-100,4,2,1,5,0,0
50596,-100,4,2,1,60,0,0
58763,-86.9565217391304,4,2,1,60,0,0
61430,-111.111111111111,4,2,1,60,0,0
64096,-100,4,2,1,60,0,0
67096,-111.111111111111,4,2,1,60,0,0
69430,-100,4,2,1,60,0,0
72430,-111.111111111111,4,2,1,60,0,0
74763,-100,4,2,1,60,0,0
77763,-111.111111111111,4,2,1,60,0,0
80096,-100,4,2,1,60,0,0
87846,-100,4,2,1,5,0,0
87930,-100,4,2,1,60,0,0
98945,333.333333333333,4,2,1,60,1,0
99612,-200,4,2,1,60,0,0
100096,333.333333333333,4,2,1,60,1,1
100096,-90.9090909090909,4,2,1,60,0,1
108429,-86.9565217391304,4,2,1,60,0,1
108762,-83.3333333333333,4,2,1,60,0,1
109095,-76.9230769230769,4,2,1,60,0,1
110762,-86.9565217391304,4,2,1,60,0,1
113415,333.333333333333,4,2,1,60,1,1
113415,-86.9565217391304,4,2,1,60,0,1
120095,333.333333333333,4,2,1,60,1,0
120095,-83.3333333333333,4,2,1,60,0,0
121428,-80,4,2,1,60,0,1
126761,-76.9230769230769,4,2,1,60,0,1
132095,-71.4285714285714,4,2,1,60,0,1
135761,-61.3496932515337,4,2,1,60,0,1
138761,-83.3333333333333,4,2,1,60,0,0
147094,-83.3333333333333,4,2,1,5,0,0

[Colours]
Combo1 : 0,64,128
Combo2 : 171,28,20
Combo3 : 196,196,0
Combo4 : 128,64,0

[HitObjects]
111,88,1431,6,0,B|118:134|92:162|92:162|61:197|65:260|131:300|198:273|203:217,1,315,6|0,0:0|0:0,0:0:0:0:
152,340,2760,6,0,P|107:335|66:316,1,90,6|0,0:0|0:0,0:0:0:0:
234,309,3259,2,0,P|195:331|151:340,1,90,8|4,3:0|3:0,0:0:0:0:
277,230,3757,1,4,3:0:0:0:
470,353,4090,6,0,B|420:317|420:317|420:261,1,116.999994644165,6|0,0:0|0:0,0:0:0:0:
503,277,4571,1,0,0:0:0:0:
370,169,4731,2,0,B|370:225|370:225|420:261,1,116.999994644165,8|0,0:0|0:0,0:0:0:0:
453,185,5242,1,0,0:0:0:0:
260,239,5412,6,0,L|192:230,1,67.5000025749208,6|0,0:0|0:0,0:0:0:0:
107,76,5753,2,0,L|139:152,1,80.9999975280763
43,314,6094,2,0,L|99:238,1,94.499997116089,2|8,0:0|0:0,0:0:0:0:
363,248,6431,1,8,0:0:0:0:
320,243,6515,1,8,0:0:0:0:
277,239,6598,1,8,0:0:0:0:
235,234,6681,1,8,0:0:0:0:
192,230,6765,6,0,P|160:156|206:46,1,188.999994232178,4|8,0:0|0:0,0:0:0:0:
268,0,7264,1,0,0:0:0:0:
386,151,7431,1,2,0:0:0:0:
402,16,7598,1,2,0:0:0:0:
251,134,7764,1,8,0:0:0:0:
369,285,7931,1,0,0:0:0:0:
100,252,8098,6,0,P|50:225|20:192,1,94.499997116089,2|0,0:0|0:0,0:0:0:0:
0,65,8431,1,8,0:0:0:0:
175,188,8598,2,0,P|225:161|255:128,1,94.499997116089,0|2,0:0|0:0,0:0:0:0:
402,16,8931,2,0,P|400:72|413:115,1,94.499997116089,2|8,0:0|0:0,0:0:0:0:
437,298,9264,1,0,0:0:0:0:
230,347,9431,6,0,B|320:325|320:325|342:228,1,188.999994232178,6|8,0:0|0:0,0:0:0:0:
361,113,9931,1,0,0:0:0:0:
158,277,10098,2,0,L|257:253,1,94.499997116089,2|2,0:0|0:0,0:0:0:0:
67,100,10420,2,0,L|159:123,1,94.499997116089,8|0,0:0|0:0,0:0:0:0:
467,214,10743,5,8,0:0:0:0:
313,168,11076,1,8,0:0:0:0:
412,282,11409,5,8,0:0:0:0:
366,97,11576,1,8,0:0:0:0:
308,267,11742,1,8,0:0:0:0:
467,112,12076,5,8,0:0:0:0:
265,155,12242,1,8,0:0:0:0:
511,225,12409,1,8,0:0:0:0:
353,52,12576,1,8,0:0:0:0:
423,328,12909,5,8,0:0:0:0:
502,80,13076,2,0,B|490:38|445:37|445:37|454:104|389:131,1,188.999994232178,8|0,0:0|0:0,0:0:0:0:
252,33,13409,6,0,L|353:52,1,103.500001974106,12|2,0:0|0:0,0:0:0:0:
254,229,13742,2,0,L|355:210,1,103.500001974106,8|2,0:0|0:0,0:0:0:0:
151,59,14076,1,8,0:0:0:0:
312,132,14242,1,8,0:0:0:0:
151,205,14409,1,8,0:0:0:0:
433,237,14576,6,0,B|460:133|460:133|433:37,1,207.000003948212,2|2,0:0|0:0,0:0:0:0:
362,268,15076,2,0,P|405:310|453:311,1,103.500001974106,8|2,0:0|0:0,0:0:0:0:
433,37,15409,1,8,0:0:0:0:
256,128,15576,1,8,0:0:0:0:
79,37,15742,2,0,P|40:48|0:96,1,103.500001974106,8|2,0:0|0:0,0:0:0:0:
79,347,16076,6,0,P|40:336|0:288,1,103.500001974106,8|2,0:0|0:0,0:0:0:0:
230,143,16409,2,0,P|244:191|229:240,1,103.500001974106,8|2,0:0|0:0,0:0:0:0:
16,192,16742,1,8,0:0:0:0:
176,80,16909,1,8,0:0:0:0:
0,192,17076,1,8,0:0:0:0:
176,304,17242,6,0,B|245:289|245:289|305:315|305:315|379:300,1,207.000003948212,2|2,0:0|0:0,0:0:0:0:
494,113,17742,2,0,L|392:135,1,103.500001974106,8|2,0:0|0:0,0:0:0:0:
164,232,18076,1,8,0:0:0:0:
348,232,18242,1,8,0:0:0:0:
119,135,18409,2,0,L|18:113,1,103.500001974106,8|2,0:0|0:0,0:0:0:0:
256,352,18742,6,0,L|256:244,1,103.500001974106,8|2,0:0|0:0,0:0:0:0:
439,44,19076,2,0,P|422:92|392:134,1,103.500001974106,8|2,0:0|0:0,0:0:0:0:
184,192,19409,1,8,0:0:0:0:
388,228,19576,1,8,0:0:0:0:
318,34,19742,1,8,0:0:0:0:
232,292,19909,6,0,B|184:304|184:304|136:284|136:284|88:304|88:304|36:292,1,207.000003948212,2|2,0:0|0:0,0:0:0:0:
266,361,20409,2,0,P|306:313|302:261,1,103.500001974106,8|2,0:0|0:0,0:0:0:0:
192,92,20742,1,8,0:0:0:0:
230,290,20909,1,8,0:0:0:0:
13,126,21076,2,0,L|126:105,1,103.500001974106,8|2,0:0|0:0,0:0:0:0:
408,255,21409,5,8,0:0:0:0:
357,264,21492,1,8,0:0:0:0:
306,273,21576,1,0,0:0:0:0:
336,148,21742,1,2,0:0:0:0:
305,350,21909,1,8,0:0:0:0:
257,334,21992,1,8,0:0:0:0:
230,290,22076,1,8,0:0:0:0:
408,255,22242,1,2,0:0:0:0:
340,53,22409,1,8,0:0:0:0:
320,100,22492,1,8,0:0:0:0:
336,148,22576,1,8,0:0:0:0:
493,101,22742,1,2,0:0:0:0:
296,236,22909,5,8,0:0:0:0:
245,227,22991,1,8,0:0:0:0:
194,218,23073,1,8,0:0:0:0:
320,100,23238,1,2,0:0:0:0:
358,309,23403,1,8,0:0:0:0:
313,284,23485,1,8,0:0:0:0:
296,236,23568,1,8,0:0:0:0:
313,188,23650,1,8,0:0:0:0:
356,163,23733,5,8,0:0:0:0:
389,143,23823,1,8,0:0:0:0:
401,107,23914,1,8,0:0:0:0:
388,72,24005,1,8,0:0:0:0:
356,52,24097,6,0,B|298:78|298:78|240:70,1,121.499996292114,6|0,0:0|0:0,0:0:0:0:
131,131,24430,2,0,L|227:143,1,80.9999975280763,2|0,0:0|0:0,0:0:0:0:
353,161,24763,1,2,0:0:0:0:
353,161,24930,1,0,0:0:0:0:
225,220,25097,1,2,0:0:0:0:
366,238,25263,6,0,P|426:190|416:113,1,161.999995056153,0|0,0:0|0:0,0:0:0:0:
304,294,25763,2,0,P|336:317|376:321,1,80.9999975280763,2|0,0:0|0:0,0:0:0:0:
288,217,26013,1,0,0:0:0:0:
288,217,26096,2,0,P|251:233|228:266,1,80.9999975280763,2|0,0:0|0:0,0:0:0:0:
66,379,26430,6,0,P|102:362|132:252,1,161.999995056153,8|0,0:0|0:0,0:0:0:0:
89,190,26763,1,4,0:0:0:0:
288,217,26930,1,0,0:0:0:0:
155,100,27096,2,0,L|244:113,1,90,8|2,0:0|0:0,0:0:0:0:
487,244,27430,1,2,0:0:0:0:
288,217,27597,1,0,0:0:0:0:
369,359,27763,1,8,0:0:0:0:
405,99,27930,6,0,B|408:64|363:22|363:22|336:65|290:71,1,180,4|2,0:0|0:0,0:0:0:0:
51,119,28430,2,0,P|93:80|130:71,1,90,8|0,0:0|0:0,0:0:0:0:
243,216,28763,1,2,0:0:0:0:
201,200,28846,1,0,0:0:0:0:
170,168,28929,1,2,0:0:0:0:
424,14,29096,1,8,0:0:0:0:
421,58,29179,1,8,0:0:0:0:
418,103,29262,1,8,0:0:0:0:
415,148,29345,1,8,0:0:0:0:
412,193,29430,6,0,P|449:151|418:104,1,121.499996292114,6|0,0:0|0:0,0:0:0:0:
331,139,29763,2,0,L|321:229,1,80.9999975280763,2|0,0:0|0:0,0:0:0:0:
233,253,30013,1,0,0:0:0:0:
233,253,30096,2,0,L|223:343,1,80.9999975280763,2|0,0:0|0:0,0:0:0:0:
302,296,30430,1,2,0:0:0:0:
159,278,30596,1,0,0:0:0:0:
233,253,30763,5,2,0:0:0:0:
91,236,30930,1,0,0:0:0:0:
108,94,31096,1,2,0:0:0:0:
250,111,31263,1,0,0:0:0:0:
250,111,31346,1,0,0:0:0:0:
250,111,31430,1,2,0:0:0:0:
55,160,31596,1,8,0:0:0:0:
286,187,31763,1,8,0:0:0:0:
181,66,31930,1,0,0:0:0:0:
156,302,32097,5,4,0:0:0:0:
349,325,32263,1,0,0:0:0:0:
167,212,32430,2,0,L|155:305,1,90,8|2,0:0|0:0,0:0:0:0:
360,235,32763,5,2,0:0:0:0:
167,212,32929,1,0,0:0:0:0:
349,325,33096,1,8,0:0:0:0:
273,131,33263,6,0,B|361:107|361:107|438:151,1,180,4|2,0:0|0:0,0:0:0:0:
297,41,33763,2,0,L|210:64,1,90,8|0,0:0|0:0,0:0:0:0:
15,119,34096,1,2,0:0:0:0:
209,174,34263,1,0,3:0:0:0:
15,229,34430,1,0,0:0:0:0:
41,254,34513,1,0,0:0:0:0:
68,279,34596,1,0,0:0:0:0:
95,304,34680,1,0,0:0:0:0:
122,329,34763,6,0,P|161:334|201:330,1,80.9999975280763,6|0,0:0|0:0,0:0:0:0:
466,205,35096,2,0,B|434:172|394:165|394:165|403:218|363:270,1,161.999995056153,4|2,3:0|0:0,0:0:0:0:
203,331,35596,2,0,B|247:319|273:288|273:288|223:269|198:209,1,161.999995056153,4|0,3:0|0:0,0:0:0:0:
225,40,36096,2,0,B|213:84|227:122|227:122|268:88|333:96,1,161.999995056153,4|2,3:0|0:0,0:0:0:0:
466,205,36596,5,4,3:0:0:0:
300,194,36763,1,2,0:0:0:0:
465,303,36930,1,8,0:0:0:0:
465,303,37013,1,8,0:0:0:0:
465,303,37096,1,8,0:0:0:0:
301,96,37263,1,8,0:0:0:0:
301,96,37346,1,8,0:0:0:0:
301,96,37430,5,4,0:0:0:0:
299,292,37596,1,0,0:0:0:0:
187,91,37763,2,0,P|196:51|226:13,1,90,8|2,0:0|0:0,0:0:0:0:
398,195,38096,1,2,0:0:0:0:
202,193,38262,1,0,0:0:0:0:
413,94,38430,1,8,0:0:0:0:
382,299,38596,6,0,B|300:262|300:262|217:296,1,180,4|2,0:0|0:0,0:0:0:0:
47,356,39096,2,0,P|84:332|103:292,1,90,8|0,0:0|0:0,0:0:0:0:
43,92,39430,1,2,0:0:0:0:
14,270,39596,1,2,0:0:0:0:
133,115,39763,1,8,3:0:0:0:
125,159,39846,1,8,3:0:0:0:
118,203,39930,1,0,0:0:0:0:
110,248,40013,1,8,3:0:0:0:
103,291,40096,6,0,P|152:231|125:159,1,161.999995056153,6|2,0:0|0:0,0:0:0:0:
256,31,40596,1,0,0:0:0:0:
256,31,40680,1,0,0:0:0:0:
256,31,40763,2,0,P|216:68|201:107,1,80.9999975280763,2|0,0:0|0:0,0:0:0:0:
256,213,41096,1,2,0:0:0:0:
392,119,41263,6,0,B|353:127|353:127|313:120,1,80.9999975280763,0|2,0:0|0:0,0:0:0:0:
102,37,41596,1,0,0:0:0:0:
159,173,41763,1,2,0:0:0:0:
62,133,41930,1,0,0:0:0:0:
256,213,42096,1,8,0:0:0:0:
300,208,42179,1,8,0:0:0:0:
345,203,42262,1,8,0:0:0:0:
180,366,42430,1,8,0:0:0:0:
159,173,42596,1,0,0:0:0:0:
355,298,42763,6,0,L|236:310,1,90,6|0,0:0|0:0,0:0:0:0:
47,328,43096,1,8,0:0:0:0:
149,241,43263,1,0,0:0:0:0:
265,307,43430,1,2,0:0:0:0:
366,220,43596,2,0,P|394:184|414:144,1,90,2|8,0:0|0:0,0:0:0:0:
246,12,43930,6,0,L|255:106,1,90,2|0,0:0|0:0,0:0:0:0:
148,240,44263,2,0,L|140:151,1,90,2|8,0:0|0:0,0:0:0:0:
370,42,44596,2,0,L|379:136,1,90,0|2,0:0|0:0,0:0:0:0:
272,270,44929,2,0,L|264:181,1,90,2|8,0:0|0:0,0:0:0:0:
466,77,45263,1,0,0:0:0:0:
255,102,45430,6,0,P|213:118|189:155,1,90,2|0,0:0|0:0,0:0:0:0:
140,349,45763,1,8,0:0:0:0:
224,267,45929,1,0,0:0:0:0:
104,237,46096,1,2,0:0:0:0:
189,156,46263,1,2,0:0:0:0:
332,295,46430,1,8,0:0:0:0:
332,295,46596,1,0,0:0:0:0:
471,152,46763,6,0,P|493:87|497:38,1,90,0|2,0:0|0:0,0:0:0:0:
189,156,47096,2,0,P|219:198|267:230,1,90,8|0,0:0|0:0,0:0:0:0:
392,155,47430,2,0,P|362:197|314:229,1,90,2|2,0:0|0:0,0:0:0:0:
85,67,47763,2,0,P|93:111|110:153,1,90,8|0,0:0|0:0,0:0:0:0:
384,28,48096,6,0,B|297:8|297:52|205:28,1,180,6|8,0:0|0:0,0:0:0:0:
81,238,48596,2,0,P|166:224|199:144,1,180,0|2,0:0|0:0,0:0:0:0:
84,28,49096,1,8,0:0:0:0:
110,152,49263,1,2,0:0:0:0:
282,183,49430,6,0,L|386:168,1,90,8|2,0:0|0:0,0:0:0:0:
211,81,49763,1,4,3:0:0:0:
180,253,49930,1,4,3:0:0:0:
47,141,50096,1,8,0:0:0:0:
283,182,50263,2,0,B|370:170|370:170|346:119|377:82,1,180,4|8,0:0|0:0,0:0:0:0:
495,66,50680,1,8,0:0:0:0:
495,66,50763,6,0,B|473:108|473:108|436:128,1,90,6|2,0:0|0:0,0:0:0:0:
236,254,51096,2,0,B|249:208|249:208|282:181,1,90,8|0,0:0|0:0,0:0:0:0:
368,288,51430,1,2,0:0:0:0:
179,156,51596,2,0,L|155:243,1,90,2|8,0:0|0:0,0:0:0:0:
65,67,51930,6,0,P|123:23|151:16,1,90,2|0,0:0|0:0,0:0:0:0:
258,195,52263,2,0,P|190:166|170:146,1,90,2|8,0:0|0:0,0:0:0:0:
448,68,52596,2,0,L|424:155,1,90,0|2,0:0|0:0,0:0:0:0:
234,281,52930,2,0,L|258:194,1,90,2|8,0:0|0:0,0:0:0:0:
356,266,53263,1,0,0:0:0:0:
134,208,53430,6,0,P|95:184|67:149,1,90,2|0,0:0|0:0,0:0:0:0:
160,12,53763,1,8,0:0:0:0:
256,102,53930,1,0,0:0:0:0:
352,12,54096,1,2,0:0:0:0:
256,146,54263,1,2,0:0:0:0:
144,14,54430,1,8,0:0:0:0:
256,190,54596,1,2,0:0:0:0:
367,14,54763,6,0,P|411:3|456:2,1,90,0|2,0:0|0:0,0:0:0:0:
456,214,55096,2,0,P|411:213|367:201,1,90,8|0,0:0|0:0,0:0:0:0:
145,14,55430,2,0,P|101:3|56:2,1,90,2|2,0:0|0:0,0:0:0:0:
56,214,55763,2,0,P|101:213|145:201,1,90,8|0,0:0|0:0,0:0:0:0:
284,24,56096,6,0,P|255:107|284:191,1,180,6|8,0:0|0:0,0:0:0:0:
428,274,56596,2,0,P|370:207|283:190,1,180,0|2,0:0|0:0,0:0:0:0:
116,288,57096,1,8,0:0:0:0:
175,130,57263,1,0,0:0:0:0:
258,314,57430,6,0,P|291:345|333:358,1,90,2|0,0:0|0:0,0:0:0:0:
358,147,57763,2,0,P|315:159|282:190,1,90,8|0,0:0|0:0,0:0:0:0:
453,317,58096,2,0,P|463:273|452:230,1,90,2|2,0:0|0:0,0:0:0:0:
358,32,58430,2,0,P|327:89|358:147,1,135,8|0,0:0|0:0,0:0:0:0:
401,90,58763,6,0,B|300:52|300:124|199:90,1,207.000003948212,6|8,0:0|0:0,0:0:0:0:
4,1,59263,2,0,P|82:73|72:178,1,207.000003948212,0|2,0:0|0:0,0:0:0:0:
16,333,59763,1,8,0:0:0:0:
241,234,59930,1,2,0:0:0:0:
241,234,60013,1,0,0:0:0:0:
241,234,60096,6,0,B|223:182|223:182|168:148,1,103.500001974106,8|2,0:0|0:0,0:0:0:0:
452,234,60430,2,0,B|470:182|470:182|511:156,1,103.500001974106,8|0,0:0|0:0,0:0:0:0:
348,326,60763,1,8,0:0:0:0:
348,352,60846,1,8,0:0:0:0:
348,378,60929,1,8,0:0:0:0:
215,84,61096,1,2,0:0:0:0:
478,84,61263,1,8,0:0:0:0:
478,84,61346,1,8,0:0:0:0:
478,84,61430,6,0,B|428:51|428:51|375:83,1,121.499996292114,6|0,0:0|0:0,0:0:0:0:
314,152,61763,2,0,L|228:142,1,80.9999975280763,2|0,0:0|0:0,0:0:0:0:
171,210,62013,1,0,0:0:0:0:
171,210,62096,2,0,L|85:200,1,80.9999975280763,2|0,0:0|0:0,0:0:0:0:
140,106,62430,1,2,0:0:0:0:
218,286,62596,6,0,L|298:295,1,80.9999975280763,0|2,0:0|0:0,0:0:0:0:
405,313,62930,1,0,0:0:0:0:
252,205,63096,1,2,0:0:0:0:
359,223,63263,1,0,0:0:0:0:
359,223,63346,1,0,0:0:0:0:
359,223,63430,1,2,0:0:0:0:
145,187,63596,1,2,0:0:0:0:
283,19,63763,1,6,0:0:0:0:
265,126,63930,1,2,0:0:0:0:
51,90,64096,6,0,L|139:104,1,90,4|0,0:0|0:0,0:0:0:0:
349,299,64430,2,0,P|304:278|283:237,1,90,8|2,0:0|0:0,0:0:0:0:
283,19,64763,1,2,0:0:0:0:
478,158,64930,6,0,L|390:144,1,90,0|8,0:0|0:0,0:0:0:0:
136,235,65263,2,0,P|217:200|264:125,1,180,4|2,0:0|0:0,0:0:0:0:
131,92,65763,1,8,0:0:0:0:
338,84,65930,1,0,0:0:0:0:
57,132,66096,1,2,0:0:0:0:
264,124,66263,1,2,0:0:0:0:
53,43,66430,1,8,3:0:0:0:
55,87,66513,1,8,3:0:0:0:
57,132,66596,1,8,3:0:0:0:
59,176,66679,1,8,3:0:0:0:
61,221,66763,6,0,B|69:328|69:328|94:316,1,135,6|0,0:0|0:0,0:0:0:0:
156,259,67096,2,0,L|236:271,1,80.9999975280763,2|0,0:0|0:0,0:0:0:0:
320,271,67346,1,0,0:0:0:0:
320,271,67430,2,0,L|400:258,1,80.9999975280763,2|0,0:0|0:0,0:0:0:0:
236,140,67763,2,0,L|324:140,1,80.9999975280763,2|0,0:0|0:0,0:0:0:0:
220,52,68096,5,2,0:0:0:0:
333,228,68263,1,8,0:0:0:0:
333,52,68430,1,2,0:0:0:0:
220,228,68596,1,8,0:0:0:0:
356,140,68763,1,2,0:0:0:0:
197,140,68930,1,2,0:0:0:0:
284,280,69096,1,2,0:0:0:0:
125,280,69263,1,0,0:0:0:0:
268,94,69430,6,0,B|277:140|277:140|268:182,1,90,4|0,0:0|0:0,0:0:0:0:
204,365,69763,1,8,0:0:0:0:
341,309,69930,1,2,0:0:0:0:
130,238,70096,1,2,0:0:0:0:
341,309,70263,2,0,B|385:293|385:293|417:265,1,90,0|8,0:0|0:0,0:0:0:0:
327,24,70596,6,0,P|302:109|327:194,1,180,4|2,0:0|0:0,0:0:0:0:
512,62,71096,2,0,B|467:77|467:77|436:106,1,90,8|0,0:0|0:0,0:0:0:0:
341,309,71430,1,2,0:0:0:0:
500,308,71596,1,2,0:0:0:0:
340,138,71763,1,8,0:0:0:0:
321,178,71846,1,8,0:0:0:0:
315,223,71929,1,0,0:0:0:0:
321,267,72012,1,0,0:0:0:0:
341,309,72096,6,0,L|428:340,1,90,6|0,0:0|0:0,0:0:0:0:
416,112,72430,2,0,B|340:140|340:140|321:105|271:94,1,161.999995056153,4|2,3:0|0:0,0:0:0:0:
106,93,72930,2,0,B|168:145|168:145|148:179|163:228,1,161.999995056153,4|0,3:0|0:0,0:0:0:0:
245,370,73430,2,0,B|259:290|259:290|298:291|333:253,1,161.999995056153,4|2,3:0|0:0,0:0:0:0:
275,95,73930,5,2,0:0:0:0:
275,95,74096,1,2,0:0:0:0:
161,223,74263,1,8,3:0:0:0:
120,216,74346,1,8,3:0:0:0:
79,209,74430,1,8,3:0:0:0:
228,56,74596,1,8,3:0:0:0:
251,75,74679,1,0,0:0:0:0:
275,95,74763,6,0,P|244:162|236:192,1,90,4|0,0:0|0:0,0:0:0:0:
256,352,75096,1,8,0:0:0:0:
414,233,75263,1,2,0:0:0:0:
183,271,75430,1,2,0:0:0:0:
368,333,75596,2,0,L|472:321,1,90,0|8,0:0|0:0,0:0:0:0:
509,84,75930,6,0,B|475:137|475:137|342:149,1,180,4|2,0:0|0:0,0:0:0:0:
104,108,76430,1,8,0:0:0:0:
247,20,76596,1,0,0:0:0:0:
192,250,76763,1,2,0:0:0:0:
104,108,76930,1,2,0:0:0:0:
49,338,77096,1,8,0:0:0:0:
70,344,77179,1,8,0:0:0:0:
92,350,77262,1,8,0:0:0:0:
113,356,77345,1,8,0:0:0:0:
138,362,77430,6,0,P|194:349|176:259,1,135,6|0,0:0|0:0,0:0:0:0:
133,231,77763,2,0,P|163:204|202:195,1,80.9999975280763,2|0,0:0|0:0,0:0:0:0:
245,122,78013,1,0,0:0:0:0:
245,122,78096,2,0,P|275:148|314:157,1,80.9999975280763,2|0,0:0|0:0,0:0:0:0:
457,122,78430,1,2,0:0:0:0:
309,79,78596,1,0,0:0:0:0:
346,229,78763,5,2,0:0:0:0:
402,37,78930,1,8,0:0:0:0:
449,231,79096,1,8,0:0:0:0:
259,171,79263,1,0,0:0:0:0:
306,365,79430,1,8,0:0:0:0:
306,365,79513,1,8,0:0:0:0:
306,365,79596,1,8,0:0:0:0:
83,211,79763,1,8,0:0:0:0:
127,201,79846,1,8,0:0:0:0:
171,191,79930,1,8,0:0:0:0:
215,181,80013,1,8,0:0:0:0:
259,171,80096,6,0,P|300:156|339:131,1,90,6|0,0:0|0:0,0:0:0:0:
132,56,80430,2,0,P|170:79|212:95,1,90,8|0,0:0|0:0,0:0:0:0:
83,211,80763,1,2,0:0:0:0:
259,171,80930,2,0,P|300:156|339:131,1,90,2|8,0:0|0:0,0:0:0:0:
496,280,81263,6,0,P|453:264|415:240,1,90,2|0,0:0|0:0,0:0:0:0:
333,42,81596,2,0,P|340:86|339:131,1,90,2|8,0:0|0:0,0:0:0:0:
209,303,81930,2,0,P|243:274|283:252,1,90,0|2,0:0|0:0,0:0:0:0:
489,190,82263,2,0,P|454:218|414:240,1,90,2|8,0:0|0:0,0:0:0:0:
200,208,82596,1,0,0:0:0:0:
408,340,82763,6,0,P|450:325|489:303,1,90,2|0,0:0|0:0,0:0:0:0:
376,151,83096,1,8,0:0:0:0:
414,240,83263,1,0,0:0:0:0:
338,62,83430,1,2,0:0:0:0:
231,106,83596,1,2,0:0:0:0:
483,107,83763,1,8,0:0:0:0:
269,195,83929,1,2,0:0:0:0:
432,326,84096,6,0,B|432:282|432:282|414:240,1,90,0|2,0:0|0:0,0:0:0:0:
124,239,84430,2,0,B|106:281|106:281|106:326,1,90,8|0,0:0|0:0,0:0:0:0:
414,240,84763,2,0,P|451:186|464:145,1,90,2|2,0:0|0:0,0:0:0:0:
78,162,85096,2,0,P|96:203|124:239,1,90,8|0,0:0|0:0,0:0:0:0:
356,115,85430,6,0,P|269:92|183:115,1,180,6|8,0:0|0:0,0:0:0:0:
270,372,85930,2,0,B|290:285|246:285|269:194,1,180,0|2,0:0|0:0,0:0:0:0:
356,115,86430,1,8,0:0:0:0:
356,115,86513,1,0,0:0:0:0:
356,115,86596,1,0,0:0:0:0:
188,240,86763,5,8,0:0:0:0:
352,240,86930,1,2,0:0:0:0:
184,115,87096,1,4,3:0:0:0:
270,282,87263,1,4,3:0:0:0:
270,48,87430,1,8,0:0:0:0:
71,164,87596,2,0,B|40:211|68:257|68:257|58:292|25:298|0:253,1,180,4|8,0:0|0:0,0:0:0:0:
133,215,88013,1,8,0:0:0:0:
133,215,88096,6,0,L|232:233,1,90,6|0,0:0|0:0,0:0:0:0:
441,268,88430,1,8,0:0:0:0:
278,305,88596,1,0,0:0:0:0:
498,342,88763,1,2,0:0:0:0:
383,193,88930,2,0,L|295:177,1,90,2|8,0:0|0:0,0:0:0:0:
98,21,89263,6,0,P|135:53|153:112,1,90,2|0,0:0|0:0,0:0:0:0:
204,318,89596,2,0,P|167:286|149:227,1,90,2|8,0:0|0:0,0:0:0:0:
298,118,89930,2,0,B|269:153|269:153|228:171,1,90,0|2,0:0|0:0,0:0:0:0:
0,225,90263,2,0,B|29:190|29:190|70:172,1,90,2|8,0:0|0:0,0:0:0:0:
321,214,90596,1,0,0:0:0:0:
242,0,90763,6,0,P|223:41|217:85,1,90,2|0,0:0|0:0,0:0:0:0:
267,276,91096,1,8,0:0:0:0:
375,152,91263,1,0,0:0:0:0:
205,222,91430,1,2,0:0:0:0:
329,330,91596,1,2,0:0:0:0:
429,90,91763,1,8,0:0:0:0:
321,214,91930,1,2,0:0:0:0:
160,74,92096,6,0,L|249:79,1,90,0|2,0:0|0:0,0:0:0:0:
497,229,92430,2,0,L|408:224,1,90,8|0,0:0|0:0,0:0:0:0:
287,0,92763,2,0,P|320:29|336:70,1,90,2|2,0:0|0:0,0:0:0:0:
370,303,93096,2,0,P|336:273|320:232,1,90,8|0,0:0|0:0,0:0:0:0:
111,40,93430,6,0,B|134:127|134:127|110:213,1,180,6|8,0:0|0:0,0:0:0:0:
13,349,93930,2,0,P|37:263|109:213,1,180,0|2,0:0|0:0,0:0:0:0:
205,349,94430,1,8,0:0:0:0:
301,213,94596,1,0,0:0:0:0:
85,126,94763,6,0,B|109:213,1,90,2|0,0:0|0:0,0:0:0:0:
5,94,95096,2,0,P|34:55|77:40,1,90,8|0,0:0|0:0,0:0:0:0:
242,69,95430,1,2,0:0:0:0:
85,126,95596,1,2,0:0:0:0:
300,226,95763,2,0,B|383:222|383:222|377:196|354:174,1,135,12|0,0:0|0:0,0:0:0:0:
220,230,96096,6,0,L|225:325,1,90,6|0,0:0|0:0,0:0:0:0:
455,194,96430,2,0,P|436:153|406:119,1,90,8|0,0:0|0:0,0:0:0:0:
130,234,96763,2,0,L|225:229,1,90,2|2,0:0|0:0,0:0:0:0:
40,72,97096,1,8,0:0:0:0:
44,240,97263,1,2,0:0:0:0:
216,64,97430,6,0,L|126:68,1,90,8|2,0:0|0:0,0:0:0:0:
309,234,97763,2,0,L|219:229,1,90,8|0,0:0|0:0,0:0:0:0:
402,64,98096,1,8,0:0:0:0:
357,66,98179,1,8,0:0:0:0:
312,68,98262,1,2,0:0:0:0:
495,234,98430,1,2,0:0:0:0:
224,319,98596,1,2,0:0:0:0:
221,274,98679,1,2,0:0:0:0:
219,229,98763,5,8,0:0:0:0:
308,224,98945,1,0,0:0:0:0:
303,135,99112,1,0,0:0:0:0:
214,140,99278,1,0,0:0:0:0:
313,313,99445,1,0,0:0:0:0:
303,135,99612,2,0,B|310:111|293:88|293:88|309:79|309:79|291:56|298:32,1,112.5,0|0,0:0|0:0,0:0:0:0:
392,140,100096,5,6,0:0:0:0:
214,140,100262,1,0,0:0:0:0:
388,56,100429,1,8,0:0:0:0:
218,224,100596,1,0,0:0:0:0:
449,288,100762,2,0,B|490:321|490:321|523:354,1,99.0000030212403,2|2,0:0|0:0,0:0:0:0:
448,168,101096,1,8,0:0:0:0:
292,360,101262,6,0,B|250:326|250:326|217:293,1,99.0000030212403,0|2,0:0|0:0,0:0:0:0:
148,52,101596,2,0,B|189:85|189:85|222:118,1,99.0000030212403,0|8,0:0|0:0,0:0:0:0:
80,352,101929,2,0,P|65:305|78:257,1,99.0000030212403,0|2,0:0|0:0,0:0:0:0:
148,52,102262,1,2,0:0:0:0:
290,218,102429,2,0,B|217:197|217:197|148:218,1,148.50000453186,8|0,0:0|0:0,0:0:0:0:
218,294,102762,5,2,0:0:0:0:
262,115,102929,1,0,0:0:0:0:
396,338,103096,1,8,0:0:0:0:
218,294,103263,1,0,0:0:0:0:
440,159,103429,2,0,L|464:59,1,99.0000030212403,2|2,0:0|0:0,0:0:0:0:
328,226,103762,1,8,0:0:0:0:
288,19,103929,6,0,L|262:114,1,99.0000030212403,0|2,0:0|0:0,0:0:0:0:
0,227,104262,2,0,P|41:208|91:207,1,99.0000030212403,0|8,0:0|0:0,0:0:0:0:
341,351,104596,2,0,B|291:338|291:338|256:308,1,99.0000030212403,0|2,0:0|0:0,0:0:0:0:
287,19,104929,2,0,L|383:43,1,99.0000030212403,2|8,0:0|0:0,0:0:0:0:
164,138,105262,1,0,0:0:0:0:
465,206,105429,6,0,B|427:135|427:135|312:106,1,198.000006042481,6|8,0:0|0:0,0:0:0:0:
164,138,105929,1,0,0:0:0:0:
372,207,106096,1,2,0:0:0:0:
232,94,106262,1,0,0:0:0:0:
153,320,106429,1,8,0:0:0:0:
293,207,106595,1,0,0:0:0:0:
50,244,106762,6,0,P|-1:162|21:68,1,198.000006042481,2|8,0:0|0:0,0:0:0:0:
125,140,107262,1,0,0:0:0:0:
310,247,107429,2,0,P|344:210|363:165,1,99.0000030212403,2|2,0:0|0:0,0:0:0:0:
300,10,107762,1,8,0:0:0:0:
470,41,107929,1,0,0:0:0:0:
189,141,108095,6,0,L|83:136,1,99.0000030212403,2|2,0:0|0:0,0:0:0:0:
413,251,108429,2,0,L|307:246,1,103.500001974106,12|0,0:0|0:0,0:0:0:0:
300,10,108762,2,0,L|191:4,1,107.999996704102,2|2,0:0|0:0,0:0:0:0:
417,359,109095,2,0,P|338:325|309:245,1,175.499991966248,12|0,0:0|0:0,0:0:0:0:
403,45,109429,6,0,L|408:163,1,116.999994644165,12|2,0:0|0:0,0:0:0:0:
417,359,109762,1,2,0:0:0:0:
183,93,109929,2,0,B|243:93|243:93|291:124,1,116.999994644165,12|2,0:0|0:0,0:0:0:0:
8,307,110262,2,0,B|56:276|56:276|115:276,1,116.999994644165,8|0,0:0|0:0,0:0:0:0:
504,307,110595,1,8,0:0:0:0:
504,307,110679,1,8,0:0:0:0:
504,307,110762,5,6,0:0:0:0:
407,161,110929,1,0,0:0:0:0:
233,307,111095,1,8,0:0:0:0:
330,161,111262,1,0,0:0:0:0:
59,160,111429,2,0,P|20:116|6:58,1,103.500001974106,2|2,0:0|0:0,0:0:0:0:
256,72,111762,1,8,0:0:0:0:
59,238,111929,6,0,P|20:282|6:340,1,103.500001974106,0|2,0:0|0:0,0:0:0:0:
256,201,112262,2,0,B|204:191|204:191|154:200,1,103.500001974106,0|8,0:0|0:0,0:0:0:0:
403,323,112595,2,0,P|386:275|351:238,1,103.500001974106,0|2,0:0|0:0,0:0:0:0:
203,94,112929,1,2,0:0:0:0:
281,305,113095,2,0,B|204:326|204:326|133:305,1,155.250002961159,8|0,0:0|0:0,0:0:0:0:
203,236,113415,5,2,0:0:0:0:
403,323,113581,1,0,0:0:0:0:
378,106,113748,1,8,0:0:0:0:
281,305,113915,1,0,0:0:0:0:
160,97,114081,2,0,L|261:153,1,103.500001974106,2|2,0:0|0:0,0:0:0:0:
63,192,114415,1,8,0:0:0:0:
346,52,114581,6,0,P|420:43|448:43,1,103.500001974106,0|2,0:0|0:0,0:0:0:0:
448,340,114915,2,0,P|397:339|346:331,1,103.500001974106,0|8,0:0|0:0,0:0:0:0:
166,52,115248,2,0,P|92:43|64:43,1,103.500001974106,0|2,0:0|0:0,0:0:0:0:
63,340,115582,2,0,P|114:339|166:331,1,103.500001974106,2|8,0:0|0:0,0:0:0:0:
256,96,115915,1,0,0:0:0:0:
357,192,116081,6,0,B|256:228|256:150|155:191,1,207.000003948212,6|8,0:0|0:0,0:0:0:0:
256,296,116581,1,0,0:0:0:0:
300,106,116748,1,2,0:0:0:0:
442,239,116915,1,2,0:0:0:0:
487,50,117081,1,8,0:0:0:0:
357,192,117248,1,0,0:0:0:0:
221,50,117415,6,0,P|151:33|90:26,1,103.500001974106,2|0,0:0|0:0,0:0:0:0:
355,36,117748,1,8,0:0:0:0:
121,165,117915,2,0,P|172:151|223:143,1,103.500001974106,0|2,0:0|0:0,0:0:0:0:
483,248,118248,2,0,P|432:234|381:226,1,103.500001974106,2|8,0:0|0:0,0:0:0:0:
121,330,118581,1,0,0:0:0:0:
391,330,118748,5,2,0:0:0:0:
391,330,118915,1,2,0:0:0:0:
130,226,119081,2,0,P|79:234|29:248,1,103.500001974106,12|0,0:0|0:0,0:0:0:0:
253,385,119415,1,2,0:0:0:0:
253,385,119582,1,2,0:0:0:0:
142,127,119748,2,0,P|100:97|55:71,1,103.500001974106,12|0,0:0|0:0,0:0:0:0:
459,68,120095,6,0,P|413:95|369:127,1,107.999996704102,12|2,0:0|0:0,0:0:0:0:
144,320,120428,1,2,0:0:0:0:
256,120,120595,1,2,0:0:0:0:
368,320,120761,1,2,0:0:0:0:
110,184,120928,1,8,0:0:0:0:
146,231,121011,1,8,0:0:0:0:
197,261,121094,1,8,0:0:0:0:
255,272,121177,1,8,0:0:0:0:
313,261,121261,1,8,0:0:0:0:
363,230,121344,1,8,0:0:0:0:
399,184,121428,6,0,B|428:138|415:89|415:89|448:96|467:141,1,168.75,6|0,0:0|0:0,0:0:0:0:
310,120,121761,1,8,0:0:0:0:
488,248,121928,1,0,0:0:0:0:
321,11,122095,1,8,0:0:0:0:
299,229,122262,1,2,0:0:0:0:
17,194,122428,2,0,B|31:157|71:152|71:152|71:212|120:229,1,168.75,8|0,0:0|0:0,0:0:0:0:
248,122,122761,6,0,B|193:122|193:122|149:158,1,112.5,8|0,0:0|0:0,0:0:0:0:
64,348,123095,1,8,0:0:0:0:
220,207,123261,1,0,0:0:0:0:
64,67,123428,1,8,0:0:0:0:
143,278,123595,1,2,0:0:0:0:
446,174,123761,2,0,B|492:153|492:153|521:112|516:67|488:44,1,168.75,8|0,0:0|0:0,0:0:0:0:
330,123,124095,6,0,B|385:123|385:123|437:98,1,112.5,8|0,0:0|0:0,0:0:0:0:
167,46,124428,1,8,0:0:0:0:
329,213,124595,1,0,0:0:0:0:
489,45,124761,1,8,0:0:0:0:
248,130,124928,1,2,0:0:0:0:
443,297,125095,1,8,0:0:0:0:
202,382,125261,1,2,0:0:0:0:
369,188,125428,6,0,P|443:162|498:156,1,112.5,8|0,0:0|0:0,0:0:0:0:
143,188,125761,2,0,P|69:162|14:156,1,112.5,8|0,0:0|0:0,0:0:0:0:
356,12,126095,2,0,P|439:48|480:81,1,112.5,8|2,0:0|0:0,0:0:0:0:
55,60,126428,2,0,P|103:30|156:12,1,112.5,8|2,0:0|0:0,0:0:0:0:
256,332,126761,6,0,B|248:276|248:276|260:212|260:212|256:158,1,175.499991966248,12|0,0:0|0:0,0:0:0:0:
344,276,127095,1,8,0:0:0:0:
168,214,127261,1,0,0:0:0:0:
388,198,127428,1,8,0:0:0:0:
123,291,127594,1,2,0:0:0:0:
174,15,127761,2,0,B|212:8|232:40|232:40|181:78|202:145,1,175.499991966248,8|0,0:0|0:0,0:0:0:0:
377,155,128094,6,0,B|333:115|333:115|276:108,1,116.999994644165,8|0,0:0|0:0,0:0:0:0:
48,216,128428,1,8,0:0:0:0:
300,192,128594,1,0,0:0:0:0:
24,132,128761,1,8,0:0:0:0:
276,108,128927,1,2,0:0:0:0:
348,360,129094,2,0,B|292:372|292:372|264:304|192:288,1,175.499991966248,8|0,0:0|0:0,0:0:0:0:
38,371,129428,6,0,B|66:312|121:292,1,116.999994644165,8|0,0:0|0:0,0:0:0:0:
374,279,129761,1,8,0:0:0:0:
163,360,129928,1,0,0:0:0:0:
293,68,130094,1,8,0:0:0:0:
374,279,130261,1,2,0:0:0:0:
374,279,130344,1,0,0:0:0:0:
374,279,130428,1,8,0:0:0:0:
439,133,130594,1,2,0:0:0:0:
165,235,130761,6,0,P|106:233|50:216,1,116.999994644165,8|0,0:0|0:0,0:0:0:0:
397,24,131095,2,0,P|424:75|438:132,1,116.999994644165,8|2,0:0|0:0,0:0:0:0:
73,132,131428,2,0,P|87:75|115:24,1,116.999994644165,8|2,0:0|0:0,0:0:0:0:
461,216,131761,2,0,P|405:233|347:235,1,116.999994644165,12|2,0:0|0:0,0:0:0:0:
196,25,132095,6,0,B|228:66|213:121|213:121|170:149|161:207,1,188.999994232178,8|0,0:0|0:0,0:0:0:0:
278,217,132428,1,8,0:0:0:0:
114,87,132595,1,0,0:0:0:0:
360,34,132761,1,8,0:0:0:0:
164,191,132928,1,2,0:0:0:0:
430,237,133095,2,0,B|500:224|500:224|493:144|434:133,1,188.999994232178,8|0,0:0|0:0,0:0:0:0:
382,319,133428,6,0,L|512:296,1,125.999996154785,8|0,0:0|0:0,0:0:0:0:
495,45,133761,1,8,0:0:0:0:
430,237,133928,1,0,0:0:0:0:
242,69,134095,1,8,0:0:0:0:
437,133,134262,1,2,0:0:0:0:
176,238,134428,2,0,B|106:224|106:224|113:144|172:133,1,188.999994232178,8|0,0:0|0:0,0:0:0:0:
224,321,134761,6,0,L|96:297,1,125.999996154785,12|0,0:0|0:0,0:0:0:0:
17,53,135094,1,8,0:0:0:0:
1,273,135261,1,0,0:0:0:0:
289,184,135428,1,8,0:0:0:0:
69,168,135595,1,2,0:0:0:0:
386,383,135761,2,0,B|429:281|429:281|400:175,1,220.049999832115,8|0,0:0|0:0,0:0:0:0:
256,72,136094,5,12,0:0:0:0:
256,310,136428,1,8,0:0:0:0:
367,125,136761,5,8,0:0:0:0:
142,256,136928,1,8,0:0:0:0:
379,262,137094,1,8,0:0:0:0:
131,119,137428,5,8,0:0:0:0:
256,345,137594,1,8,0:0:0:0:
256,36,137761,1,8,0:0:0:0:
111,274,137928,1,8,0:0:0:0:
398,107,138262,5,2,0:0:0:0:
364,127,138344,1,2,0:0:0:0:
399,147,138428,2,0,B|435:180|423:232|423:232|447:232|447:232|431:284|475:324,1,220.049999832115,2|0,0:0|0:0,0:0:0:0:
292,299,138761,6,0,P|313:250|346:207,1,107.999996704102,12|2,0:0|0:0,0:0:0:0:
292,0,139094,2,0,P|313:49|345:92,1,107.999996704102,8|2,0:0|0:0,0:0:0:0:
488,260,139428,1,8,0:0:0:0:
488,39,139594,1,8,0:0:0:0:
297,150,139761,1,8,0:0:0:0:
106,39,139928,6,0,B|212:18|212:18|318:38,1,215.999993408203,2|2,0:0|0:0,0:0:0:0:
488,260,140428,2,0,L|376:239,1,107.999996704102,8|2,0:0|0:0,0:0:0:0:
147,207,140761,1,8,0:0:0:0:
341,333,140927,1,8,0:0:0:0:
105,298,141094,2,0,P|64:268|45:211,1,107.999996704102,8|2,0:0|0:0,0:0:0:0:
119,4,141428,5,12,0:0:0:0:
147,207,141594,1,2,0:0:0:0:
310,24,141761,2,0,B|256:12|256:12|204:24,1,107.999996704102,8|2,0:0|0:0,0:0:0:0:
365,207,142094,1,8,0:0:0:0:
393,4,142260,1,8,0:0:0:0:
482,224,142428,1,8,0:0:0:0:
247,192,142594,6,0,B|180:184|180:184|104:200|104:200|32:192,1,215.999993408203,2|2,0:0|0:0,0:0:0:0:
262,270,143094,2,0,P|308:244|327:195,1,107.999996704102,8|2,0:0|0:0,0:0:0:0:
148,80,143428,1,8,0:0:0:0:
132,304,143594,1,8,0:0:0:0:
230,65,143761,2,0,P|203:18|154:0,1,107.999996704102,8|2,0:0|0:0,0:0:0:0:
367,291,144094,6,0,L|261:270,1,107.999996704102,12|2,0:0|0:0,0:0:0:0:
492,80,144428,2,0,L|471:186,1,107.999996704102,12|2,0:0|0:0,0:0:0:0:
191,252,144761,1,8,0:0:0:0:
437,309,144928,1,8,0:0:0:0:
342,157,145094,1,8,0:0:0:0:
296,353,145261,1,2,0:0:0:0:
296,353,145344,1,0,0:0:0:0:
296,353,145428,5,8,0:0:0:0:
342,157,145594,1,8,0:0:0:0:
146,111,145761,1,8,0:0:0:0:
100,307,145928,1,2,0:0:0:0:
256,84,146094,1,8,0:0:0:0:
412,307,146261,1,8,0:0:0:0:
330,49,146428,6,0,P|174:79|325:126,1,431.999986816407,12|0,0:0|0:0,0:0:0:0:
