osu file format v14

[General]
AudioFilename: audio.mp3
AudioLeadIn: 0
PreviewTime: 99945
Countdown: 0
SampleSet: Soft
StackLeniency: 0.5
Mode: 0
LetterboxInBreaks: 0
WidescreenStoryboard: 0

[Editor]
Bookmarks: 42763,61430,80096,147094
DistanceSpacing: 0.9
BeatDivisor: 4
GridSize: 16
TimelineZoom: 2.749999

[Metadata]
Title:We Can!
TitleUnicode:ウィーキャン!
Artist:Kishidan to Kitadani Hiroshi
ArtistUnicode:氣志團ときただにひろし
Creator:iYiyo
Version:Irohas' Normal
Source:ONE PIECE
Tags:opening 19 zou toei animation pirates Atsuro Hazu- Irohas MugiwaraSekai
BeatmapID:1296504
BeatmapSetID:588256

[Difficulty]
HPDrainRate:4
CircleSize:3.5
OverallDifficulty:5
ApproachRate:5.2
SliderMultiplier:1.1
SliderTickRate:1

[Events]
//Background and Video events
0,0,"sabo.jpg",0,0
Video,200,"One Piece Opening 19 'We Can!'.avi"
//Break Periods
//Storyboard Layer 0 (Background)
//Storyboard Layer 1 (Fail)
//Storyboard Layer 2 (Pass)
//Storyboard Layer 3 (Foreground)
//Storyboard Sound Samples

[TimingPoints]
1431,332.409972299169,4,2,1,60,1,0
1431,-100,4,2,1,60,0,0
4090,320.855614973262,4,2,1,60,1,0
4731,340.909090909091,4,2,1,60,1,0
6265,333.333333333333,4,2,1,60,1,0
6764,-100,4,2,1,70,0,0
6765,333.333333333333,4,2,1,60,1,0
10098,322.58064516129,4,2,1,60,1,0
10743,333.333333333333,4,2,1,60,1,0
13409,-100,4,2,1,60,0,0
22909,329.67032967033,4,2,1,60,1,0
23733,363.636363636364,4,2,1,60,1,0
24097,333.333333333333,4,2,1,60,1,0
26763,-100,4,2,1,60,0,0
32096,-100,4,2,1,60,0,0
64096,-100,4,2,1,60,0,0
69430,-100,4,2,1,60,0,0
98945,333.333333333333,4,2,1,60,1,0
100096,333.333333333333,4,2,1,70,1,1
108095,-100,4,2,1,70,0,1
108762,-100,4,2,1,70,0,1
109429,-100,4,2,1,70,0,1
113415,333.333333333333,4,2,1,70,1,1
119415,-100,4,2,1,70,0,1
120095,333.333333333333,4,2,1,70,1,0
121428,-100,4,2,1,70,0,1
132095,-100,4,2,1,70,0,1
136094,-100,4,2,1,70,0,1
138428,-100,4,2,1,70,0,1
138761,-100,4,2,1,60,0,0

[Colours]
Combo1 : 255,218,193
Combo2 : 255,196,196
Combo3 : 255,255,176
Combo4 : 208,208,232
Combo5 : 255,206,255
Combo6 : 232,255,187

[HitObjects]
12,177,1431,5,6,0:0:0:0:
12,177,2760,1,6,0:0:0:0:
135,93,3259,2,0,P|129:150|122:217,1,110,2|2,0:0|0:0,0:0:0:0:
127,251,3757,1,2,0:0:0:0:
222,224,4090,5,6,0:0:0:0:
403,303,4731,1,8,0:0:0:0:
339,221,5071,2,0,P|344:171|348:143,1,55,2|2,0:0|0:3,0:0:0:0:
382,134,5412,2,0,P|328:140|262:147,1,110,6|2,0:0|0:0,0:0:0:0:
192,88,6094,2,0,P|159:92|114:96,1,55,2|8,0:0|0:0,0:0:0:0:
108,134,6431,2,0,P|80:131|53:127,1,55,8|8,0:0|0:0,0:0:0:0:
16,94,6764,6,0,P|21:145|28:215,1,110,4|8,0:0|0:0,0:0:0:0:
93,276,7431,2,0,P|90:312|85:350,2,55,2|2|8,0:0|0:0|0:0,0:0:0:0:
158,201,8098,2,0,P|185:179|261:191,1,110,2|8,0:0|0:0,0:0:0:0:
282,228,8598,2,0,P|336:223|391:217,1,110,2|2,0:0|0:0,0:0:0:0:
435,240,9098,1,8,0:0:0:0:
504,173,9431,6,0,P|496:124|487:58,1,110,4|8,0:0|0:0,0:0:0:0:
393,33,10098,2,0,B|355:20|355:20|277:38,1,110,2|8,0:0|0:0,0:0:0:0:
230,110,10743,6,0,P|172:103|101:95,1,110,12|8,0:0|0:0,0:0:0:0:
52,168,11409,2,0,P|56:206|62:242,2,55,8|8|8,0:0|0:0|0:0,0:0:0:0:
120,97,12076,2,0,P|123:69|126:42,2,55,8|8|8,0:0|0:0|0:0,0:0:0:0:
142,141,12576,2,0,P|204:137|269:130,1,110,2|2,0:0|0:0,0:0:0:0:
292,104,13076,1,8,0:0:0:0:
381,146,13409,6,0,P|376:202|370:270,1,110,4|8,0:0|0:0,0:0:0:0:
291,313,14076,2,8,P|296:346|300:381,2,55
270,267,14576,2,0,B|233:255|233:255|148:274,1,110,4|2,0:0|0:0,0:0:0:0:
126,303,15076,1,8,0:0:0:0:
53,235,15409,2,0,P|31:183|49:134,1,110,2|8,0:3|0:0,0:0:0:0:
129,77,16076,6,0,L|257:88,1,110,2|8,0:0|0:0,0:0:0:0:
328,126,16742,2,8,P|359:122|404:120,2,55
298,165,17242,2,0,P|305:208|316:285,1,110,4|2,0:0|0:0,0:0:0:0:
348,309,17742,1,8,0:0:0:0:
269,367,18076,2,0,P|223:364|153:360,1,110,2|8,0:3|0:0,0:0:0:0:
69,318,18742,6,0,P|46:268|69:214,1,110,2|8,0:0|0:0,0:0:0:0:
154,177,19409,2,8,P|158:146|148:114,2,55
174,222,19909,2,0,P|230:217|284:211,1,110,4|2,0:0|0:0,0:0:0:0:
325,238,20409,1,8,0:0:0:0:
403,177,20742,2,0,B|421:141|421:141|400:65,1,110,2|8,0:3|0:0,0:0:0:0:
319,18,21409,6,0,P|286:24|248:30,1,55,8|8,0:0|0:0,0:0:0:0:
226,59,21742,2,0,P|172:56|105:51,1,110,2|8,0:0|0:0,0:0:0:0:
45,106,22409,1,10,0:0:0:0:
45,106,22576,2,0,P|49:146|59:223,1,110,4|2,0:0|0:0,0:0:0:0:
33,258,23073,1,8,0:0:0:0:
95,335,23403,2,0,P|149:353|210:321,1,110,2|2,0:3|0:0,0:0:0:0:
243,241,24096,5,6,0:0:0:0:
328,289,24430,2,0,P|388:291|454:295,2,110,8|2|8,0:3|0:0|0:3,0:0:0:0:
243,241,25430,1,2,0:0:0:0:
294,156,25763,1,8,0:3:0:0:
227,82,26096,2,0,P|169:88|105:95,1,110,8|12,0:3|0:0,0:0:0:0:
31,142,26763,5,12,0:0:0:0:
92,219,27096,2,0,P|89:254|86:289,1,55,8|10,0:0|0:3,0:0:0:0:
107,319,27430,2,0,P|161:313|216:307,1,110,2|12,0:0|0:0,0:0:0:0:
252,273,27930,2,0,P|306:278|361:284,1,110,2|2,0:0|0:0,0:0:0:0:
404,309,28430,1,8,0:0:0:0:
481,246,28763,2,2,P|476:201|468:121,1,110,10|2,0:3|0:3,0:3:0:0:
391,74,29430,5,6,0:0:0:0:
296,44,29763,2,0,P|241:51|178:60,2,110,8|8|8,0:3|0:3|0:3,0:0:0:0:
391,74,30763,1,0,0:0:0:0:
353,165,31096,1,8,0:3:0:0:
413,243,31430,2,0,P|446:238|479:233,2,55,8|8|8,0:3|0:0|0:0,0:0:0:0:
345,315,32096,5,12,0:0:0:0:
271,248,32430,2,0,P|232:245|191:242,1,55,8|10,0:0|0:3,0:0:0:0:
178,276,32763,2,0,P|134:279|52:286,1,110,2|12,0:0|0:0,0:0:0:0:
24,261,33263,2,0,P|7:206|33:158,1,110,6|2,0:0|0:0,0:0:0:0:
70,133,33763,1,8,0:0:0:0:
159,91,34096,2,2,B|200:81|200:81|274:98,1,110,2|2,0:3|0:3,0:3:0:0:
358,59,34763,5,6,0:0:0:0:
432,124,35096,2,0,P|425:179|415:255,1,110,8|2,0:3|0:0,0:0:0:0:
437,278,35596,1,8,0:3:0:0:
372,352,35930,1,2,0:0:0:0:
372,352,36096,2,0,P|327:346|242:334,1,110,8|2,0:3|0:0,0:0:0:0:
217,316,36596,2,0,P|162:323|108:330,1,110,8|8,0:3|0:0,0:0:0:0:
58,331,37096,1,8,0:0:0:0:
0,251,37430,6,0,P|-17:195|11:148,1,110,6|8,0:0|0:0,0:0:0:0:
81,88,38096,2,0,P|78:52|77:19,2,55,2|2|8,0:0|0:0|0:0,0:0:0:0:
105,131,38596,2,0,P|151:127|232:116,1,110,4|2,0:0|0:0,0:0:0:0:
258,141,39096,1,8,0:0:0:0:
323,65,39430,2,0,P|372:46|432:48,1,110,2|2,0:3|0:3,0:3:0:0:
505,123,40096,6,0,P|500:165|491:236,1,110,6|8,0:0|0:3,0:0:0:0:
428,308,40763,2,0,P|374:323|327:302,1,110,8|8,0:3|0:3,0:0:0:0:
282,212,41430,2,0,P|242:192|176:205,1,110,2|8,3:0|0:3,0:0:0:0:
115,277,42096,2,0,P|118:308|123:348,2,55,8|8|6,0:0|0:0|0:0,0:0:0:0:
35,218,42763,6,0,P|39:170|46:94,1,110,6|8,0:0|0:0,0:0:0:0:
123,47,43430,2,2,B|170:34|170:34|238:54,1,110,2|8,0:0|0:0,0:3:0:0:
261,88,43930,2,0,P|321:81|385:76,1,110,4|2,0:0|0:0,0:0:0:0:
409,45,44430,1,8,0:0:0:0:
475,118,44763,2,0,B|468:174|460:248,1,110,2|8,0:0|0:0,0:0:0:0:
390,295,45430,6,0,P|349:265|281:279,1,110,4|8,0:0|0:0,0:0:0:0:
231,349,46096,2,0,P|175:360|129:326,1,110,2|8,0:3|0:0,0:0:0:0:
74,252,46763,1,2,0:0:0:0:
125,167,47096,1,8,0:0:0:0:
63,89,47430,2,0,P|110:64|176:83,1,110,2|8,0:0|0:0,0:0:0:0:
255,111,48096,6,0,P|311:104|384:96,1,110,4|8,0:0|0:0,0:0:0:0:
454,140,48763,2,0,P|486:143|522:146,2,55,2|2|8,0:0|0:0|0:3,0:0:0:0:
364,98,49430,1,8,0:3:0:0:
297,171,49763,2,0,P|265:174|229:177,2,55,2|2|8,0:0|0:0|0:0,0:0:0:0:
338,198,50263,2,0,B|352:248|352:248|326:304,1,110,6|8,0:0|0:3,0:0:0:0:
302,343,50763,6,0,P|262:338|176:329,1,110,6|8,0:0|0:0,0:0:0:0:
93,330,51430,2,0,P|72:274|102:222,1,110,2|8,0:0|0:0,0:0:0:0:
127,196,51930,2,0,P|148:140|118:88,1,110,2|2,0:0|0:0,0:0:0:0:
94,61,52430,1,8,0:0:0:0:
182,15,52763,2,0,P|236:20|294:27,1,110,2|8,0:0|0:0,0:0:0:0:
385,58,53430,6,0,P|382:100|375:172,1,110,2|8,0:0|0:0,0:0:0:0:
281,199,54096,2,0,P|284:241|291:313,1,110,2|8,0:0|0:0,0:0:0:0:
212,369,54763,1,2,0:0:0:0:
121,328,55096,1,8,0:0:0:0:
27,360,55430,2,0,B|17:320|17:320|40:251,1,110,2|8,0:0|0:0,0:0:0:0:
115,192,56096,6,0,P|109:137|105:82,1,110,6|8,0:0|0:0,0:0:0:0:
177,27,56763,2,0,P|228:32|296:39,1,110,2|8,0:0|0:0,0:0:0:0:
323,71,57263,1,2,0:0:0:0:
323,71,57430,2,0,P|377:65|432:60,1,110,2|8,0:0|0:0,0:0:0:0:
504,109,58096,2,0,B|520:148|520:148|501:235,1,110,2|8,0:0|0:0,0:0:0:0:
427,275,58763,6,0,P|386:245|318:259,1,110,6|8,0:0|0:0,0:0:0:0:
256,317,59430,2,0,P|259:353|265:388,2,55,2|2|8,0:0|0:0|0:0,0:0:0:0:
216,287,59930,1,2,0:0:0:0:
216,287,60096,2,0,B|197:251|197:251|217:171,1,110,8|8,0:0|0:0,0:0:0:0:
286,116,60763,2,0,P|322:119|359:123,1,55,8|2,0:0|0:0,0:0:0:0:
377,153,61096,2,0,P|404:150|431:148,1,55,2|8,0:0|0:0,0:0:0:0:
476,125,61430,6,0,P|473:164|465:247,1,110,6|8,0:0|0:3,0:0:0:0:
407,314,62096,2,0,B|369:294|369:294|285:311,1,110,8|8,0:3|0:3,0:0:0:0:
262,335,62596,2,0,P|216:330|137:320,1,110,2|2,0:0|0:0,0:0:0:0:
107,341,63096,1,8,0:3:0:0:
50,261,63430,2,0,P|14:264|-15:268,2,55,2|8|8,0:0|0:3|0:0,0:0:0:0:
133,208,64096,5,6,0:0:0:0:
202,279,64430,2,0,P|240:274|275:268,1,55,8|8,0:0|0:3,0:0:0:0:
306,270,64763,2,0,B|327:231|327:231|308:151,1,110,0|8,0:0|0:0,0:0:0:0:
268,143,65263,2,0,P|275:93|283:22,1,110,6|0,0:0|0:0,0:0:0:0:
236,14,65763,1,8,0:0:0:0:
161,76,66096,2,0,P|116:81|36:89,1,110,2|2,0:3|0:3,0:0:0:0:
5,175,66763,6,0,P|59:169|114:163,1,110,6|8,0:0|0:3,0:0:0:0:
214,158,67430,2,0,P|206:210|196:287,1,110,8|8,0:3|0:3,0:0:0:0:
269,335,68096,1,2,0:0:0:0:
269,335,68263,2,0,B|318:358|318:358|387:334,1,110,12|12,0:0|0:0,0:0:0:0:
414,315,68763,2,0,P|446:320|481:327,2,55,2|2|8,0:0|0:0|0:3,0:0:0:0:
343,238,69430,5,6,0:0:0:0:
401,158,69763,2,0,P|397:125|393:97,1,55,8|8,0:0|0:3,0:0:0:0:
368,62,70096,2,0,P|319:67|242:72,1,110,2|8,0:0|0:0,0:0:0:0:
226,108,70596,2,0,P|171:105|116:98,1,110,6|2,0:0|0:0,0:0:0:0:
74,122,71096,1,8,0:0:0:0:
10,198,71430,2,2,B|-3:239|-3:239|18:313,1,110,2|2,0:3|0:3,0:3:0:0:
107,338,72096,6,0,P|140:314|215:325,1,110,6|8,0:0|0:3,0:0:0:0:
290,371,72763,1,0,0:0:0:0:
290,371,72930,2,0,P|327:365|411:355,1,110,10|2,0:3|0:0,0:0:0:0:
438,325,73430,2,0,P|429:286|413:211,1,110,8|2,0:3|0:0,0:0:0:0:
429,170,73930,1,8,0:3:0:0:
352,107,74263,2,8,P|356:70|360:35,2,55,8|8|2,0:0|0:0|0:0,0:0:0:0:
323,147,74763,6,0,P|280:143|201:136,1,110,6|8,0:0|0:0,0:0:0:0:
130,82,75430,2,0,P|135:47|139:14,2,55,2|2|8,0:0|0:0|0:0,0:0:0:0:
97,119,75930,2,0,B|81:174|81:174|99:232,1,110,6|2,0:0|0:0,0:0:0:0:
128,262,76430,1,8,0:0:0:0:
209,317,76763,2,0,P|252:313|331:306,1,110,2|8,0:0|0:0,0:0:0:0:
410,268,77430,6,0,P|430:212|410:166,1,110,6|8,0:0|0:3,0:0:0:0:
359,83,78096,2,0,P|304:87|249:92,1,110,8|8,0:3|0:3,0:0:0:0:
187,170,78763,1,2,0:0:0:0:
187,170,78930,2,0,P|132:164|77:160,1,110,12|2,0:0|0:0,0:0:0:0:
31,178,79430,1,8,0:0:0:0:
0,271,79763,2,8,P|4:310|8:340,1,55
43,358,80096,6,0,P|84:353|167:340,1,110,4|8,0:0|0:0,0:0:0:0:
213,265,80763,2,2,B|260:252|260:252|328:272,1,110,2|8,0:0|0:0,0:3:0:0:
351,306,81263,2,0,L|475:294,1,110,4|2,0:0|0:0,0:0:0:0:
504,272,81763,1,8,0:0:0:0:
456,185,82096,2,0,P|462:136|468:62,1,110,2|8,0:0|0:0,0:0:0:0:
381,25,82763,6,0,P|376:84|369:134,1,110,6|8,0:0|0:0,0:0:0:0:
281,180,83430,2,0,P|240:150|172:164,1,110,2|8,0:3|0:0,0:0:0:0:
87,179,84096,1,2,0:3:0:0:
84,278,84430,1,8,0:0:0:0:
80,376,84763,2,0,L|193:355,1,110,2|8,0:0|0:0,0:0:0:0:
256,284,85430,6,0,L|364:304,1,110,6|8,0:0|0:0,0:0:0:0:
445,247,86096,2,0,P|477:243|510:237,2,55,2|2|8,0:0|0:0|0:3,0:0:0:0:
364,304,86763,1,8,0:3:0:0:
275,260,87096,2,0,P|243:264|210:270,2,55,2|2|8,0:0|0:0|0:0,0:0:0:0:
316,232,87596,2,0,B|330:182|330:182|304:126,1,110,6|8,0:0|0:3,0:0:0:0:
275,89,88096,6,0,P|235:94|150:106,1,110,6|8,0:0|0:0,0:0:0:0:
76,61,88763,2,0,P|60:110|85:169,1,110,2|8,0:0|0:0,0:0:0:0:
115,197,89263,2,0,P|129:241|106:305,1,110,2|2,0:0|0:0,0:0:0:0:
73,333,89763,1,8,0:0:0:0:
164,376,90096,2,0,P|219:370|273:364,1,110,2|8,0:0|0:0,0:0:0:0:
335,286,90763,6,0,P|389:292|444:298,1,110,2|8,0:0|0:0,0:0:0:0:
504,218,91430,2,0,P|514:160|479:108,1,110,2|8,0:0|0:0,0:0:0:0:
402,72,92096,1,2,0:0:0:0:
313,116,92430,1,8,0:0:0:0:
235,54,92763,2,2,B|194:44|194:44|120:61,1,110,2|8,0:0|0:0,0:3:0:0:
29,47,93430,6,0,P|35:91|47:161,1,110,6|8,0:0|0:0,0:0:0:0:
143,179,94096,2,0,P|137:223|125:293,1,110,2|8,0:0|0:0,0:0:0:0:
150,330,94596,1,0,0:0:0:0:
150,330,94763,2,2,B|189:346|189:346|265:323,1,110,2|8,0:0|0:0,0:3:0:0:
299,238,95430,2,0,P|352:217|404:236,1,110,2|8,0:0|0:0,0:0:0:0:
498,223,96096,6,0,B|491:172|483:110,1,110,6|8,0:0|0:0,0:0:0:0:
397,63,96763,2,0,P|399:28|402:-2,2,55,2|2|8,0:0|0:0|0:0,0:0:0:0:
366,102,97263,1,0,0:0:0:0:
366,102,97430,2,0,P|321:99|244:91,1,110,12|12,0:0|0:0,0:0:0:0:
171,142,98096,2,0,P|175:180|179:213,1,55,8|2,0:0|0:0,0:0:0:0:
221,219,98430,2,0,P|217:257|213:290,1,55,2|2,0:0|0:0,0:0:0:0:
188,315,98763,1,12,0:0:0:0:
188,315,100096,6,0,P|247:319|317:325,1,110,4|8,0:0|0:0,0:0:0:0:
368,254,100762,2,0,P|422:249|477:245,1,110,2|8,0:0|0:0,0:0:0:0:
509,207,101262,1,2,0:0:0:0:
509,207,101429,2,0,P|501:165|484:84,1,110,2|8,0:0|0:0,0:0:0:0:
397,56,102096,2,0,P|399:28|406:-9,2,55,2|2|8,0:0|0:0|0:0,0:0:0:0:
342,138,102762,5,2,0:0:0:0:
251,96,103096,1,8,0:0:0:0:
165,141,103429,2,0,P|173:194|184:270,1,110,2|8,0:0|0:0,0:0:0:0:
222,277,103929,2,2,P|262:251|340:267,2,110,2|2|2,0:3|0:3|0:3,0:3:0:0:
153,346,104929,2,0,P|119:340|79:329,2,55,2|8|2,0:0|0:0|0:0,0:0:0:0:
191,377,105429,6,0,P|242:371|326:360,1,110,6|8,0:0|0:0,0:0:0:0:
398,353,106096,2,0,P|419:310|395:246,1,110,2|8,0:0|0:0,0:0:0:0:
364,219,106596,1,0,0:0:0:0:
364,219,106762,2,0,P|369:166|375:100,1,110,2|8,0:0|0:0,0:0:0:0:
287,62,107429,2,0,P|283:39|278:-3,2,55,2|2|8,0:0|0:0|0:0,0:0:0:0:
229,142,108095,5,2,0:0:0:0:
135,109,108429,1,12,0:0:0:0:
60,173,108762,1,2,0:0:0:0:
81,269,109095,1,12,0:0:0:0:
165,320,109429,2,0,B|213:317|282:309,1,110,12|0,0:0|0:0,0:0:0:0:
313,279,109929,2,0,B|370:285|422:289,1,110,12|8,0:0|0:0,0:0:0:0:
467,268,110429,2,0,P|463:233|460:201,1,55,2|8,0:0|0:0,0:0:0:0:
432,172,110762,6,0,P|436:123|442:39,1,110,6|8,0:0|0:0,0:0:0:0:
349,22,111429,2,0,B|304:11|304:11|237:33,1,110,2|8,0:0|0:0,0:0:0:0:
218,73,111929,1,0,0:0:0:0:
218,73,112095,2,0,P|180:69|100:62,1,110,2|8,0:0|0:0,0:0:0:0:
53,145,112762,2,0,P|22:137|-16:130,2,55,2|2|8,0:0|0:0|0:0,0:0:0:0:
134,193,113415,5,2,0:0:0:0:
79,275,113748,1,8,0:0:0:0:
143,349,114081,2,0,P|198:345|257:340,1,110,2|8,0:0|0:0,0:0:0:0:
295,314,114581,2,2,P|334:317|427:326,2,110,2|2|2,0:3|0:3|0:3,0:3:0:0:
216,253,115581,2,0,P|183:256|145:260,2,55,2|8|2,0:0|0:0|0:0,0:0:0:0:
260,231,116081,6,0,B|278:195|278:195|264:119,1,110,6|8,0:0|0:0,0:0:0:0:
328,49,116748,2,0,P|375:26|432:41,1,110,2|8,0:0|0:0,0:0:0:0:
466,71,117248,1,2,0:0:0:0:
466,71,117415,2,0,P|462:110|453:194,1,110,2|8,0:0|0:0,0:0:0:0:
384,250,118081,2,0,P|390:290|394:327,2,55,2|2|8,0:0|0:0|0:0,0:0:0:0:
293,210,118748,6,0,P|250:216|173:229,1,110,6|8,0:0|0:0,0:0:0:0:
102,186,119415,2,0,P|107:142|113:107,1,55,2|2,0:0|0:0,0:0:0:0:
86,86,119748,1,8,0:0:0:0:
172,30,120095,6,0,P|211:33|288:39,1,110,12|2,0:0|0:0,0:0:0:0:
329,50,120595,2,0,B|340:90|340:90|314:176,1,110,12|2,0:0|0:0,0:0:0:0:
276,179,121095,2,8,B|267:213|267:213|275:245,1,55
277,274,121428,6,0,P|226:278|158:282,1,110,12|8,0:0|0:0,0:0:0:0:
83,229,122095,2,0,P|91:179|104:107,1,110,8|8,0:0|0:0,0:0:0:0:
177,57,122761,1,10,0:0:0:0:
266,99,123095,1,8,0:0:0:0:
350,47,123428,2,12,B|386:39|386:39|460:55,1,110,8|8,0:0|0:0,0:0:0:0:
506,140,124095,6,0,P|502:185|491:269,1,110,10|8,0:0|0:0,0:0:0:0:
427,322,124761,2,8,P|386:294|313:314,1,110
291,334,125261,1,2,0:0:0:0:
291,334,125428,2,8,P|243:329|171:321,1,110,10|8,0:0|0:0,0:0:0:0:
106,257,126095,2,0,P|71:260|32:263,2,55,8|2|12,0:0|0:0|0:0,0:0:0:0:
192,208,126761,6,8,P|213:150|189:97,1,110,12|8,0:0|0:0,0:0:0:0:
273,56,127428,2,0,P|318:63|389:74,1,110,8|8,0:0|0:0,0:0:0:0:
469,118,128094,1,10,0:0:0:0:
454,216,128428,1,8,0:0:0:0:
429,311,128761,2,0,B|388:292|388:292|309:313,1,110,8|8,0:0|0:0,0:0:0:0:
236,352,129428,6,0,B|195:366|195:366|118:345,1,110,8|8,0:0|0:0,0:0:0:0:
56,280,130094,2,0,P|64:228|74:161,1,110,8|8,0:0|0:0,0:0:0:0:
97,128,130594,1,2,0:0:0:0:
97,128,130761,2,0,P|148:106|204:130,1,110,10|8,0:0|0:0,0:0:0:0:
284,170,131428,2,0,P|317:166|354:162,2,55,8|2|12,0:0|0:0|0:0,0:0:0:0:
201,225,132095,6,0,P|213:274|231:341,1,110,12|8,0:0|0:0,0:0:0:0:
319,370,132761,2,0,P|363:337|423:347,1,110,10|8,0:0|0:0,0:0:0:0:
497,287,133428,1,10,0:0:0:0:
435,209,133761,1,8,0:0:0:0:
490,126,134095,2,0,B|452:110|452:110|378:123,1,110,8|8,0:0|0:0,0:0:0:0:
307,184,134761,2,0,P|260:179|180:168,1,110,10|8,0:0|0:0,0:0:0:0:
100,188,135428,2,0,P|76:236|90:288,1,110,8|8,0:0|0:0,0:0:0:0:
124,324,135928,1,0,0:0:0:0:
124,324,136094,6,0,L|252:309,1,110,12|8,0:0|0:0,0:0:0:0:
326,277,136761,2,0,P|354:280|393:285,2,55,8|8|8,0:0|0:0|0:0,0:0:0:0:
255,206,137428,2,0,P|218:208|181:211,2,55,8|8|8,0:0|0:0|0:0,0:0:0:0:
299,183,137928,2,0,B|317:132|317:132|300:73,1,110,2|2,0:0|0:0,0:0:0:0:
302,28,138428,1,8,0:0:0:0:
206,52,138761,6,0,L|89:69,1,110,12|8,0:0|0:0,0:0:0:0:
34,144,139428,2,0,P|-3:141|-37:137,2,55,8|8|8,0:0|0:0|0:0,0:0:0:0:
72,175,139928,2,0,P|67:229|62:302,1,110,6|2,0:0|0:0,0:0:0:0:
86,328,140428,1,8,0:0:0:0:
174,371,140761,2,2,B|208:383|208:383|283:355,1,110,2|8,0:3|0:0,0:3:0:0:
368,318,141428,6,0,P|382:271|353:210,1,110,12|12,0:0|0:0,0:0:0:0:
270,173,142094,2,8,P|266:142|272:107,2,55
245,216,142594,2,0,P|186:212|117:207,1,110,6|2,0:0|0:0,0:0:0:0:
92,233,143094,1,8,0:0:0:0:
21,163,143428,2,0,P|27:118|37:50,1,110,2|8,0:3|0:0,0:3:0:0:
131,27,144094,6,0,P|167:30|197:34,1,55,12|2,0:0|0:0,0:0:0:0:
226,60,144428,2,0,P|284:55|354:47,1,110,12|12,0:0|0:0,0:0:0:0:
430,75,145094,1,8,0:0:0:0:
430,75,145261,2,0,B|445:111|445:111|425:191,1,110,6|2,0:0|0:0,0:0:0:0:
395,217,145761,1,8,0:0:0:0:
319,281,146094,6,0,P|288:285|256:288,2,55,8|8|12,0:0|0:0|0:0,0:0:0:0:
