osu file format v14

[General]
AudioFilename: audio.mp3
AudioLeadIn: 0
PreviewTime: 99945
Countdown: 0
SampleSet: Soft
StackLeniency: 0.7
Mode: 0
LetterboxInBreaks: 0
WidescreenStoryboard: 0

[Editor]
Bookmarks: 42763,61430,80096
DistanceSpacing: 1.8
BeatDivisor: 4
GridSize: 4
TimelineZoom: 3.049998

[Metadata]
Title:We Can!
TitleUnicode:ウィーキャン!
Artist:Kishidan to Kitadani Hiroshi
ArtistUnicode:氣志團ときただにひろし
Creator:iYiyo
Version:Insane
Source:ONE PIECE
Tags:opening 19 zou toei animation pirates Atsuro Hazu- Irohas MugiwaraSekai
BeatmapID:1250328
BeatmapSetID:588256

[Difficulty]
HPDrainRate:6
CircleSize:4
OverallDifficulty:7
ApproachRate:9
SliderMultiplier:1.7
SliderTickRate:1

[Events]
//Background and Video events
0,0,"luffy.jpg",0,0
Video,200,"One Piece Opening 19 'We Can!'.avi"
//Break Periods
//Storyboard Layer 0 (Background)
//Storyboard Layer 1 (Fail)
//Storyboard Layer 2 (Pass)
//Storyboard Layer 3 (Foreground)
//Storyboard Sound Samples

[TimingPoints]
1431,332.409972299169,4,2,1,60,1,0
4090,320.855614973262,4,2,1,60,1,0
4731,340.909090909091,4,2,1,60,1,0
6265,333.333333333333,4,2,1,60,1,0
6765,333.333333333333,4,2,1,60,1,0
10098,322.58064516129,4,2,1,60,1,0
10743,333.333333333333,4,2,1,60,1,0
13409,-83.3333333333333,4,2,1,60,0,0
22909,329.67032967033,4,2,1,60,1,0
22909,-83.3333333333333,4,2,1,60,0,0
23733,363.636363636364,4,2,1,60,1,0
24097,333.333333333333,4,2,1,60,1,0
50513,-100,4,2,1,5,0,0
50596,-100,4,2,1,60,0,0
87846,-100,4,2,1,5,0,0
87930,-100,4,2,1,60,0,0
98945,333.333333333333,4,2,1,60,1,0
100096,333.333333333333,4,2,1,60,1,1
100096,-83.3333333333333,4,2,1,60,0,1
113415,333.333333333333,4,2,1,60,1,1
113415,-83.3333333333333,4,2,1,60,0,1
120095,333.333333333333,4,2,1,60,1,0
121428,-83.3333333333333,4,2,1,60,0,1
138428,-142.857142857143,4,2,1,60,0,1
138761,-83.3333333333333,4,2,1,60,0,0
147094,-83.3333333333333,4,2,1,5,0,0

[Colours]
Combo1 : 0,64,128
Combo2 : 171,28,20
Combo3 : 196,196,0
Combo4 : 128,64,0

[HitObjects]
121,174,1431,6,0,P|252:212|199:86,1,340,6|0,0:0|0:0,0:0:0:0:
367,107,2760,6,0,B|383:231|383:231|405:191,1,170,6|0,0:0|0:0,0:0:0:0:
421,45,3259,2,0,P|384:24|342:27,1,85,8|0,3:0|0:0,0:0:0:0:
273,95,3591,1,4,3:0:0:0:
404,191,3757,1,4,3:0:0:0:
404,191,4090,6,0,P|373:267|295:291,1,170,6|0,0:0|0:0,0:0:0:0:
207,253,4571,1,0,0:0:0:0:
207,253,4731,2,0,B|170:243|170:243|125:255,1,85,8|0,0:0|0:0,0:0:0:0:
59,165,5071,2,0,B|96:175|96:175|140:162,1,85
276,136,5412,5,6,0:0:0:0:
160,60,5583,1,0,0:0:0:0:
331,0,5753,2,0,P|345:39|336:81,1,85,2|0,0:0|0:0,0:0:0:0:
190,159,6094,1,2,0:0:0:0:
259,305,6265,1,8,0:0:0:0:
285,318,6348,1,8,0:0:0:0:
314,322,6431,1,8,0:0:0:0:
344,316,6515,1,8,0:0:0:0:
369,301,6598,1,8,0:0:0:0:
389,279,6681,1,8,0:0:0:0:
401,252,6765,6,0,P|390:209|399:168,1,85,4|0,0:0|0:0,0:0:0:0:
273,200,7098,2,0,P|284:157|274:116,1,85,8|0,0:0|0:0,0:0:0:0:
180,72,7431,1,2,0:0:0:0:
307,40,7598,1,2,0:0:0:0:
160,40,7764,1,8,0:0:0:0:
275,118,7931,1,0,0:0:0:0:
149,178,8098,6,0,B|138:217|138:217|154:258,1,85,2|0,0:0|0:0,0:0:0:0:
279,312,8431,1,8,0:0:0:0:
279,312,8598,2,0,B|290:273|290:273|274:232,1,85,0|2,0:0|0:0,0:0:0:0:
133,174,8931,2,0,B|122:213|122:213|138:254,1,85,2|8,0:0|0:0,0:0:0:0:
279,312,9264,1,0,0:0:0:0:
275,118,9431,6,0,B|376:90|352:151|440:125,1,170,6|8,0:0|0:0,0:0:0:0:
403,19,9931,1,0,0:0:0:0:
403,19,10098,2,0,L|318:31,1,85,2|2,0:0|0:0,0:0:0:0:
146,30,10420,2,0,L|230:42,1,85,8|0,0:0|0:0,0:0:0:0:
387,153,10743,5,8,0:0:0:0:
192,150,11076,1,8,0:0:0:0:
287,320,11409,5,8,0:0:0:0:
92,323,11576,1,8,0:0:0:0:
287,320,11742,1,8,0:0:0:0:
192,150,12076,5,8,0:0:0:0:
387,153,12242,1,8,0:0:0:0:
192,150,12409,1,8,0:0:0:0:
387,153,12576,1,8,0:0:0:0:
287,320,12909,5,2,0:0:0:0:
287,320,13076,2,0,B|245:334|245:334|206:321,1,85,8|0,0:0|0:0,0:0:0:0:
111,270,13409,6,0,B|94:224|94:224|115:173,1,101.999996887207,12|2,0:0|0:0,0:0:0:0:
285,227,13742,2,0,B|239:244|239:244|188:223,1,101.999996887207,8|2,0:0|0:0,0:0:0:0:
367,141,14076,1,8,0:0:0:0:
196,137,14242,1,8,0:0:0:0:
372,108,14409,1,8,0:0:0:0:
273,21,14576,1,2,0:0:0:0:
190,223,14742,6,0,B|239:244|239:244|285:227,1,101.999996887207,8|2,0:0|0:0,0:0:0:0:
114,175,15076,2,0,B|94:224|94:224|111:270,1,101.999996887207,8|2,0:0|0:0,0:0:0:0:
257,319,15409,1,8,0:0:0:0:
122,354,15576,1,8,0:0:0:0:
190,223,15742,2,0,L|236:124,1,101.999996887207,8|2,0:0|0:0,0:0:0:0:
414,92,16076,6,0,P|366:111|316:95,1,101.999996887207,8|2,0:0|0:0,0:0:0:0:
479,42,16409,2,0,P|497:91|482:139,1,101.999996887207,8|2,0:0|0:0,0:0:0:0:
382,220,16742,1,8,0:0:0:0:
435,334,16909,1,8,0:0:0:0:
255,207,17076,1,8,0:0:0:0:
309,323,17242,1,2,0:0:0:0:
178,312,17409,6,0,P|129:301|99:259,1,101.999996887207,8|2,0:0|0:0,0:0:0:0:
176,157,17742,2,0,P|224:167|255:207,1,101.999996887207,8|2,0:0|0:0,0:0:0:0:
104,116,18076,1,8,0:0:0:0:
177,236,18242,1,8,0:0:0:0:
215,72,18409,2,0,B|248:58|248:58|310:81,1,101.999996887207,8|2,0:0|0:0,0:0:0:0:
415,149,18742,6,0,P|423:199|417:249,1,101.999996887207,8|2,0:0|0:0,0:0:0:0:
258,307,19076,2,0,P|249:256|255:206,1,101.999996887207,8|2,0:0|0:0,0:0:0:0:
310,81,19409,1,8,0:0:0:0:
338,222,19576,1,8,0:0:0:0:
178,68,19742,1,8,0:0:0:0:
150,209,19909,1,2,0:0:0:0:
310,81,20076,6,0,P|360:79|411:72,1,101.999996887207,8|2,0:0|0:0,0:0:0:0:
251,217,20409,2,0,P|200:215|149:208,1,101.999996887207,8|2,0:0|0:0,0:0:0:0:
40,148,20742,1,8,0:0:0:0:
92,283,20909,1,8,0:0:0:0:
64,144,21076,2,0,P|58:93|75:46,1,101.999996887207,8|2,0:0|0:0,0:0:0:0:
208,52,21409,6,0,P|233:54|257:48,4,50.9999984436036,8|8|8|8|2,0:0|0:0|0:0|0:0|0:0,0:0:0:0:
231,136,21909,2,0,P|246:155|268:169,4,50.9999984436036,8|8|8|8|2,0:0|0:0|0:0|0:0|0:0,0:0:0:0:
187,211,22409,6,0,P|184:236|190:260,4,50.9999984436036,8|8|8|8|2,0:0|0:0|0:0|0:0|0:0,0:0:0:0:
102,232,22909,2,0,P|82:247|68:288,4,50.9999984436036,8|8|8|8|2,0:0|0:0|0:0|0:0|0:0,0:0:0:0:
208,52,23403,5,8,0:0:0:0:
225,81,23485,1,8,0:0:0:0:
232,114,23568,1,8,0:0:0:0:
230,147,23650,1,8,0:0:0:0:
217,179,23733,1,8,0:0:0:0:
196,205,23823,1,8,0:0:0:0:
168,224,23914,1,8,0:0:0:0:
135,233,24005,1,8,0:0:0:0:
102,232,24097,5,6,0:0:0:0:
161,333,24430,1,2,0:0:0:0:
336,232,24763,5,2,0:0:0:0:
278,333,25097,1,2,0:0:0:0:
161,131,25430,5,2,0:0:0:0:
278,131,25763,1,2,0:0:0:0:
278,333,26096,6,0,P|318:350|361:344,1,85,2|0,0:0|0:0,0:0:0:0:
339,189,26430,2,0,P|322:228|328:271,1,85,8|0,0:0|0:0,0:0:0:0:
448,248,26763,6,0,L|440:144,1,85,4|0,0:0|0:0,0:0:0:0:
402,48,27096,1,8,0:0:0:0:
391,174,27263,1,2,0:0:0:0:
302,40,27430,2,0,P|260:35|221:51,1,85,2|0,0:0|0:0,0:0:0:0:
149,162,27763,1,8,0:0:0:0:
149,162,27930,6,0,P|187:177|229:173,1,85,4|0,0:0|0:0,0:0:0:0:
361,265,28263,1,2,0:0:0:0:
361,265,28430,2,0,P|322:280|280:276,1,85,8|0,0:0|0:0,0:0:0:0:
172,200,28763,1,2,0:0:0:0:
188,340,28930,1,2,0:0:0:0:
54,196,29096,1,8,0:0:0:0:
83,197,29179,1,8,0:0:0:0:
113,198,29262,1,8,0:0:0:0:
143,199,29345,1,8,0:0:0:0:
172,200,29429,5,6,0:0:0:0:
288,172,29763,1,2,0:0:0:0:
140,84,30096,5,2,0:0:0:0:
256,56,30430,1,2,0:0:0:0:
172,200,30763,5,2,0:0:0:0:
288,172,31097,1,2,0:0:0:0:
140,84,31430,5,2,0:0:0:0:
72,192,31596,1,8,0:0:0:0:
60,62,31763,2,0,P|77:24|114:4,1,85,8|0,0:0|0:0,0:0:0:0:
224,75,32096,6,0,L|137:84,1,85,4|0,0:0|0:0,0:0:0:0:
72,192,32430,1,8,0:0:0:0:
199,196,32596,1,2,0:0:0:0:
131,302,32763,2,0,L|47:311,1,85,2|0,0:0|0:0,0:0:0:0:
258,306,33096,1,8,0:0:0:0:
258,306,33263,6,0,L|342:314,1,85,4|0,0:0|0:0,0:0:0:0:
409,207,33596,1,2,0:0:0:0:
409,207,33763,2,0,L|324:215,1,85,8|0,0:0|0:0,0:0:0:0:
225,102,34096,1,2,0:0:0:0:
177,243,34263,1,2,0:0:0:0:
343,98,34430,1,8,3:0:0:0:
314,99,34513,1,8,3:0:0:0:
284,100,34596,1,8,3:0:0:0:
254,101,34679,1,8,3:0:0:0:
225,102,34763,5,6,0:0:0:0:
79,131,35096,1,4,3:0:0:0:
79,131,35430,5,2,0:0:0:0:
225,102,35596,1,4,3:0:0:0:
177,243,35763,1,2,0:0:0:0:
79,131,36096,5,4,3:0:0:0:
177,243,36430,5,2,0:0:0:0:
324,215,36597,1,4,3:0:0:0:
274,356,36763,1,2,0:0:0:0:
176,243,36930,1,8,0:0:0:0:
192,217,37013,1,8,0:0:0:0:
214,198,37096,1,8,0:0:0:0:
242,188,37180,1,8,0:0:0:0:
272,187,37263,1,8,0:0:0:0:
300,197,37346,1,8,0:0:0:0:
323,214,37430,6,0,P|363:230|408:224,1,85,4|0,0:0|0:0,0:0:0:0:
495,137,37763,1,8,0:0:0:0:
382,58,37930,1,2,0:0:0:0:
253,107,38096,2,0,P|237:147|243:192,1,85,2|0,0:0|0:0,0:0:0:0:
164,323,38430,1,8,0:0:0:0:
164,323,38596,6,0,P|180:283|174:238,1,85,4|0,0:0|0:0,0:0:0:0:
109,114,38930,1,2,0:0:0:0:
109,114,39096,2,0,P|93:154|99:199,1,85,8|0,0:0|0:0,0:0:0:0:
164,323,39430,1,2,0:0:0:0:
241,187,39596,1,2,0:0:0:0:
320,321,39763,1,8,3:0:0:0:
349,320,39846,1,8,3:0:0:0:
379,319,39930,1,8,3:0:0:0:
409,318,40013,1,8,3:0:0:0:
438,317,40096,5,6,0:0:0:0:
376,217,40430,1,2,0:0:0:0:
164,323,40763,5,2,0:0:0:0:
102,224,41096,1,2,0:0:0:0:
376,217,41429,5,2,0:0:0:0:
314,117,41762,1,2,0:0:0:0:
102,224,42096,5,8,0:0:0:0:
102,224,42180,1,8,0:0:0:0:
102,224,42263,1,8,0:0:0:0:
65,97,42430,2,0,P|108:85|147:101,1,85,8|0,0:0|0:0,0:0:0:0:
216,211,42763,6,0,B|249:233|249:233|293:222,1,85,6|0,0:0|0:0,0:0:0:0:
380,135,43096,2,0,B|347:113|347:113|303:124,1,85,8|0,0:0|0:0,0:0:0:0:
333,311,43430,1,2,0:0:0:0:
333,311,43596,2,0,P|326:269|326:226,1,85,2|8,0:0|0:0,0:0:0:0:
203,336,43930,6,0,P|124:340|91:267,1,170,2|2,0:0|0:0,0:0:0:0:
172,135,44430,2,0,P|171:177|164:219,1,85,8|0,0:0|0:0,0:0:0:0:
114,69,44763,2,0,B|144:47|144:47|191:53,1,85,2|2,0:0|0:0,0:0:0:0:
280,132,45096,1,8,0:0:0:0:
376,64,45263,1,0,0:0:0:0:
436,168,45430,6,0,B|444:288|444:288|408:252,1,170,2|8,0:0|0:0,0:0:0:0:
280,179,45930,2,0,P|277:221|281:263,1,85,0|2,0:0|0:0,0:0:0:0:
149,323,46263,1,2,0:0:0:0:
149,323,46430,2,0,P|152:280|150:238,1,85,8|2,0:0|0:0,0:0:0:0:
55,117,46763,6,0,P|97:118|136:101,1,85,0|2,0:0|0:0,0:0:0:0:
197,31,47096,2,0,P|234:50|277:50,1,85,8|0,0:0|0:0,0:0:0:0:
362,13,47430,2,0,P|387:46|426:64,1,85,2|2,0:0|0:0,0:0:0:0:
479,141,47763,2,0,P|440:159|415:192,1,85,8|0,0:0|0:0,0:0:0:0:
319,350,48096,6,0,P|398:356|432:284,1,170,6|8,0:0|0:0,0:0:0:0:
289,187,48596,2,0,B|273:225|273:225|284:267,1,85,0|2,0:0|0:0,0:0:0:0:
334,113,48930,1,2,0:0:0:0:
334,113,49096,2,0,B|296:97|296:97|253:108,1,85,8|2,0:0|0:0,0:0:0:0:
112,187,49430,6,0,P|153:194|195:187,1,85,8|2,0:0|0:0,0:0:0:0:
289,187,49763,1,4,3:0:0:0:
168,108,49930,1,4,3:0:0:0:
289,187,50096,1,8,0:0:0:0:
168,108,50263,2,0,P|156:50|211:28,1,127.5,4|0,0:0|0:0,0:0:0:0:
280,72,50596,1,8,0:0:0:0:
280,72,50680,1,8,0:0:0:0:
280,72,50763,6,0,L|380:64,1,85,6|2,0:0|0:0,0:0:0:0:
481,162,51096,2,0,L|381:154,1,85,8|0,0:0|0:0,0:0:0:0:
289,187,51430,1,2,0:0:0:0:
289,187,51596,2,0,B|279:225|279:225|294:268,1,85,2|8,0:0|0:0,0:0:0:0:
189,357,51930,6,0,B|209:277|209:277|180:194,1,170,2|2,0:0|0:0,0:0:0:0:
124,101,52430,2,0,P|121:59|141:21,1,85,8|0,0:0|0:0,0:0:0:0:
288,77,52763,2,0,P|247:89|207:80,1,85,2|2,0:0|0:0,0:0:0:0:
369,31,53096,1,8,0:0:0:0:
357,143,53263,1,0,0:0:0:0:
480,18,53430,6,0,B|493:131|493:131|445:91,1,170,2|8,0:0|0:0,0:0:0:0:
357,143,53930,2,0,B|349:184|349:184|362:224,1,85,0|2,0:0|0:0,0:0:0:0:
274,307,54263,1,2,0:0:0:0:
274,307,54430,2,0,B|282:266|282:266|268:225,1,85,8|2,0:0|0:0,0:0:0:0:
207,151,54763,6,0,P|218:110|252:86,1,85,0|2,0:0|0:0,0:0:0:0:
131,100,55096,2,0,P|124:58|145:22,1,85,8|0,0:0|0:0,0:0:0:0:
56,137,55430,2,0,P|32:102|36:60,1,85,2|2,0:0|0:0,0:0:0:0:
109,261,55763,2,0,P|132:226|128:184,1,85,8|0,0:0|0:0,0:0:0:0:
84,352,56096,6,0,B|133:370|161:342|165:338|169:334|193:310|248:328,1,170,6|8,0:0|0:0,0:0:0:0:
346,368,56596,2,0,P|387:377|427:366,1,85,0|2,0:0|0:0,0:0:0:0:
427,246,56930,1,2,0:0:0:0:
427,246,57096,2,0,P|385:237|345:248,1,85,8|0,0:0|0:0,0:0:0:0:
228,236,57430,6,0,P|207:154|237:76,1,170,2|8,0:0|0:0,0:0:0:0:
344,16,57930,2,0,B|391:2|391:2|423:17,1,85,0|2,0:0|0:0,0:0:0:0:
427,152,58263,1,2,0:0:0:0:
427,152,58430,2,0,B|380:166|380:166|347:150,1,85,8|0,0:0|0:0,0:0:0:0:
236,76,58763,6,0,B|187:94|159:66|155:62|151:58|127:34|72:52,1,170,6|8,0:0|0:0,0:0:0:0:
54,194,59263,1,0,0:0:0:0:
54,194,59430,2,0,P|97:190|139:192,1,85,2|2,0:0|0:0,0:0:0:0:
337,287,59763,2,0,P|294:283|252:285,1,85,8|2,0:0|0:0,0:0:0:0:
138,191,60096,5,8,0:0:0:0:
276,139,60263,1,2,0:0:0:0:
252,284,60430,1,8,0:0:0:0:
193,127,60596,5,0,0:0:0:0:
307,220,60763,1,8,0:0:0:0:
307,220,60846,1,8,0:0:0:0:
307,220,60930,1,8,0:0:0:0:
331,75,61096,1,2,0:0:0:0:
422,223,61263,1,8,0:0:0:0:
422,223,61346,1,8,0:0:0:0:
422,223,61430,5,6,0:0:0:0:
401,336,61763,1,2,0:0:0:0:
307,220,62096,5,2,0:0:0:0:
286,333,62429,1,2,0:0:0:0:
192,217,62763,5,2,0:0:0:0:
171,330,63096,1,2,0:0:0:0:
401,336,63430,5,2,0:0:0:0:
286,333,63596,1,2,0:0:0:0:
171,330,63763,1,6,0:0:0:0:
56,327,63930,1,2,0:0:0:0:
141,192,64096,6,0,P|181:179|223:187,1,85,4|0,0:0|0:0,0:0:0:0:
296,275,64430,1,8,0:0:0:0:
335,167,64596,1,2,0:0:0:0:
409,254,64763,1,2,0:0:0:0:
409,254,64930,2,0,P|450:261|490:248,1,85,0|8,0:0|0:0,0:0:0:0:
473,100,65263,6,0,B|424:94|424:94|349:120|349:120|308:113,1,170,4|2,0:0|0:0,0:0:0:0:
211,132,65763,2,0,L|188:50,1,85,8|0,0:0|0:0,0:0:0:0:
114,143,66096,1,2,0:0:0:0:
71,33,66263,1,2,0:0:0:0:
17,219,66430,1,8,3:0:0:0:
46,220,66513,1,8,3:0:0:0:
76,221,66596,1,8,3:0:0:0:
106,222,66679,1,8,3:0:0:0:
135,223,66763,5,6,0:0:0:0:
258,225,67096,1,2,0:0:0:0:
381,227,67430,5,2,0:0:0:0:
258,225,67763,1,2,0:0:0:0:
135,137,68096,5,2,0:0:0:0:
199,32,68263,1,8,0:0:0:0:
258,139,68430,1,2,0:0:0:0:
322,34,68596,1,8,0:0:0:0:
381,141,68762,5,2,0:0:0:0:
258,139,68929,1,2,0:0:0:0:
317,246,69095,1,2,0:0:0:0:
195,244,69262,1,0,0:0:0:0:
398,220,69430,6,0,P|400:263|382:300,1,85,4|0,0:0|0:0,0:0:0:0:
268,328,69763,1,8,0:0:0:0:
195,244,69930,1,2,0:0:0:0:
86,278,70096,1,2,0:0:0:0:
86,278,70263,2,0,P|77:319|89:359,1,85,0|8,0:0|0:0,0:0:0:0:
223,348,70596,6,0,B|250:232|250:232|268:279,1,170,4|2,0:0|0:0,0:0:0:0:
405,316,71096,2,0,L|373:237,1,85,8|0,0:0|0:0,0:0:0:0:
299,147,71430,1,2,0:0:0:0:
414,128,71596,1,2,0:0:0:0:
208,3,71763,1,8,0:0:0:0:
207,32,71846,1,8,0:0:0:0:
206,62,71929,1,8,0:0:0:0:
205,92,72012,1,8,0:0:0:0:
204,121,72096,5,6,0:0:0:0:
200,239,72430,1,4,3:0:0:0:
196,357,72762,5,2,0:0:0:0:
200,239,72929,1,4,3:0:0:0:
204,121,73095,1,2,0:0:0:0:
196,357,73429,5,4,3:0:0:0:
318,243,73762,5,2,0:0:0:0:
200,239,73929,1,2,0:0:0:0:
82,235,74095,1,2,0:0:0:0:
144,138,74263,1,8,3:0:0:0:
167,112,74346,1,8,3:0:0:0:
197,96,74430,1,8,3:0:0:0:
230,91,74513,1,8,3:0:0:0:
263,96,74596,1,8,3:0:0:0:
293,113,74680,1,8,3:0:0:0:
315,138,74763,6,0,P|349:163|391:164,1,85,4|0,0:0|0:0,0:0:0:0:
481,214,75096,1,8,0:0:0:0:
393,267,75263,1,2,0:0:0:0:
284,238,75430,1,2,0:0:0:0:
284,238,75596,2,0,P|242:238|208:263,1,85,0|8,0:0|0:0,0:0:0:0:
73,227,75930,6,0,P|114:226|148:201,1,85,4|0,0:0|0:0,0:0:0:0:
63,73,76263,1,2,0:0:0:0:
63,73,76430,2,0,P|64:115|89:149,1,85,8|0,0:0|0:0,0:0:0:0:
241,187,76763,1,2,0:0:0:0:
191,68,76929,1,2,0:0:0:0:
384,67,77096,1,8,0:0:0:0:
372,95,77180,1,8,0:0:0:0:
359,125,77263,1,8,0:0:0:0:
347,155,77346,1,8,0:0:0:0:
334,186,77429,5,6,0:0:0:0:
449,236,77763,1,2,0:0:0:0:
253,281,78096,5,2,0:0:0:0:
368,331,78430,1,2,0:0:0:0:
449,236,78762,5,2,0:0:0:0:
334,186,78929,1,8,0:0:0:0:
219,136,79095,1,8,0:0:0:0:
440,64,79429,5,8,0:0:0:0:
440,64,79512,1,8,0:0:0:0:
440,64,79595,1,8,0:0:0:0:
449,236,79762,1,8,0:0:0:0:
421,224,79846,1,8,0:0:0:0:
391,211,79929,1,8,0:0:0:0:
362,200,80012,1,8,0:0:0:0:
334,186,80096,6,0,P|328:227|339:268,1,85,6|0,0:0|0:0,0:0:0:0:
219,136,80430,2,0,P|225:177|214:218,1,85,8|0,0:0|0:0,0:0:0:0:
98,294,80763,1,2,0:0:0:0:
98,294,80930,2,0,P|87:253|93:211,1,85,2|8,0:0|0:0,0:0:0:0:
94,67,81263,6,0,B|189:95|170:34|259:62,1,170,2|2,0:0|0:0,0:0:0:0:
446,72,81763,2,0,P|408:91|366:88,1,85,8|0,0:0|0:0,0:0:0:0:
226,183,82096,2,0,P|263:163|305:166,1,85,2|2,0:0|0:0,0:0:0:0:
366,288,82430,1,8,0:0:0:0:
441,174,82596,1,0,0:0:0:0:
509,314,82763,6,0,B|384:344|384:344|345:327,1,170,2|8,0:0|0:0,0:0:0:0:
176,285,83263,2,0,P|134:276|94:289,1,85,0|2,0:0|0:0,0:0:0:0:
258,320,83596,1,2,0:0:0:0:
258,320,83763,2,0,P|266:278|253:238,1,85,8|2,0:0|0:0,0:0:0:0:
143,78,84096,6,0,B|129:112|129:112|138:159,1,85,0|2,0:0|0:0,0:0:0:0:
253,49,84430,2,0,B|239:83|239:83|248:130,1,85,8|0,0:0|0:0,0:0:0:0:
363,20,84763,2,0,B|349:54|349:54|358:101,1,85,2|2,0:0|0:0,0:0:0:0:
464,49,85096,2,0,B|478:83|478:83|468:130,1,85,8|0,0:0|0:0,0:0:0:0:
336,223,85430,6,0,P|377:288|442:248,1,170,6|8,0:0|0:0,0:0:0:0:
332,120,85930,2,0,L|232:132,1,85,0|2,0:0|0:0,0:0:0:0:
122,39,86263,1,2,0:0:0:0:
122,39,86430,2,0,L|134:139,1,85,8|2,0:0|0:0,0:0:0:0:
148,252,86763,6,0,P|181:276|223:275,1,85,8|2,0:0|0:0,0:0:0:0:
344,232,87096,1,4,3:0:0:0:
203,198,87263,1,4,3:0:0:0:
344,232,87430,1,8,0:0:0:0:
203,198,87596,2,0,P|192:136|227:85,1,127.5,4|0,0:0|0:0,0:0:0:0:
308,51,87930,1,8,0:0:0:0:
308,51,88013,1,8,0:0:0:0:
308,51,88096,6,0,B|319:93|319:93|303:131,1,85,6|0,0:0|0:0,0:0:0:0:
392,214,88430,2,0,B|381:172|381:172|396:133,1,85,8|0,0:0|0:0,0:0:0:0:
471,296,88763,1,2,0:0:0:0:
471,296,88930,2,0,L|382:309,1,85,2|8,0:0|0:0,0:0:0:0:
204,324,89263,6,0,P|280:330|284:254,1,170,2|2,0:0|0:0,0:0:0:0:
190,222,89763,2,0,L|105:209,1,85,8|0,0:0|0:0,0:0:0:0:
56,116,90096,2,0,L|140:103,1,85,2|2,0:0|0:0,0:0:0:0:
256,132,90430,1,8,0:0:0:0:
191,15,90596,1,0,0:0:0:0:
363,14,90763,6,0,B|376:127|376:127|328:87,1,170,2|8,0:0|0:0,0:0:0:0:
256,132,91263,2,0,P|249:173|259:214,1,85,0|2,0:0|0:0,0:0:0:0:
379,218,91596,1,2,0:0:0:0:
379,218,91763,2,0,P|386:259|376:300,1,85,8|2,0:0|0:0,0:0:0:0:
249,320,92096,6,0,P|209:306|167:310,1,85,0|2,0:0|0:0,0:0:0:0:
36,246,92430,2,0,P|75:232|117:236,1,85,8|0,0:0|0:0,0:0:0:0:
249,172,92763,2,0,P|209:158|167:162,1,85,2|2,0:0|0:0,0:0:0:0:
14,92,93096,2,0,P|53:106|95:102,1,85,8|0,0:0|0:0,0:0:0:0:
249,24,93430,6,0,B|292:42|292:42|374:37|374:37|413:53,1,170,6|8,0:0|0:0,0:0:0:0:
454,169,93930,2,0,L|462:261,1,85,0|2,0:0|0:0,0:0:0:0:
344,306,94263,1,2,0:0:0:0:
344,306,94430,2,0,L|351:221,1,85,8|0,0:0|0:0,0:0:0:0:
229,162,94763,6,0,P|199:240|220:321,1,170,2|8,0:0|0:0,0:0:0:0:
102,363,95263,2,0,P|106:321|92:281,1,85,0|2,0:0|0:0,0:0:0:0:
48,178,95596,1,2,0:0:0:0:
48,178,95763,2,0,P|43:136|57:96,1,85,8|0,0:0|0:0,0:0:0:0:
189,40,96096,6,0,B|248:40|248:40|288:80|288:80|342:80,1,170,6|8,0:0|0:0,0:0:0:0:
469,174,96596,2,0,B|435:193|435:193|389:184,1,85,0|2,0:0|0:0,0:0:0:0:
283,170,96930,1,2,0:0:0:0:
283,170,97096,2,0,B|264:204|264:204|272:249,1,85,8|2,0:0|0:0,0:0:0:0:
172,337,97430,5,8,0:0:0:0:
147,206,97596,1,2,0:0:0:0:
71,343,97763,1,8,0:0:0:0:
46,212,97929,1,0,0:0:0:0:
172,337,98096,1,8,0:0:0:0:
172,337,98180,1,8,0:0:0:0:
172,337,98263,1,2,0:0:0:0:
248,200,98430,1,2,0:0:0:0:
374,325,98596,1,2,0:0:0:0:
374,325,98680,1,2,0:0:0:0:
374,325,98763,6,0,P|413:339|455:336,1,85,8|0,0:0|0:0,0:0:0:0:
468,220,99111,2,0,P|429:206|387:209,1,85
248,200,99445,1,0,0:0:0:0:
248,200,99611,2,0,B|264:80|264:80|226:111,1,170,0|0,0:0|0:0,0:0:0:0:
178,262,100096,6,0,P|219:291|269:293,1,101.999996887207,6|0,0:0|0:0,0:0:0:0:
118,189,100429,2,0,P|88:230|86:280,1,101.999996887207,8|0,0:0|0:0,0:0:0:0:
269,292,100762,2,0,P|298:250|300:200,1,101.999996887207,2|2,0:0|0:0,0:0:0:0:
204,68,101096,1,8,0:0:0:0:
117,188,101262,6,0,P|164:208|213:197,1,101.999996887207,0|2,0:0|0:0,0:0:0:0:
386,117,101596,2,0,P|339:97|290:108,1,101.999996887207,0|8,0:0|0:0,0:0:0:0:
362,251,101929,2,0,P|408:270|457:259,1,101.999996887207,0|2,0:0|0:0,0:0:0:0:
290,108,102262,1,2,0:0:0:0:
262,255,102429,2,0,L|284:354,1,101.999996887207,8|0,0:0|0:0,0:0:0:0:
117,188,102762,5,2,0:0:0:0:
156,360,102929,1,0,0:0:0:0:
262,255,103096,1,8,0:0:0:0:
80,272,103262,1,0,0:0:0:0:
222,143,103429,2,0,L|335:153,1,101.999996887207,2|2,0:0|0:0,0:0:0:0:
265,17,103762,1,8,0:0:0:0:
152,91,103929,6,0,P|135:138|144:187,1,101.999996887207,0|2,0:0|0:0,0:0:0:0:
314,248,104262,2,0,P|332:200|323:151,1,101.999996887207,0|8,0:0|0:0,0:0:0:0:
89,262,104596,2,0,P|137:279|186:270,1,101.999996887207,0|2,0:0|0:0,0:0:0:0:
248,98,104929,2,0,P|201:81|152:90,1,101.999996887207,2|8,0:0|0:0,0:0:0:0:
89,262,105262,1,0,0:0:0:0:
314,248,105429,6,0,B|347:144|271:168|306:50,1,203.999993774414,6|8,0:0|0:0,0:0:0:0:
392,106,105929,1,0,0:0:0:0:
197,40,106096,2,0,P|179:87|188:137,1,101.999996887207,2|2,0:0|0:0,0:0:0:0:
314,248,106429,2,0,P|322:198|307:149,1,101.999996887207,8|0,0:0|0:0,0:0:0:0:
112,347,106762,6,0,B|254:320|254:320|306:347,1,203.999993774414,2|8,0:0|0:0,0:0:0:0:
460,352,107262,1,0,0:0:0:0:
360,264,107429,1,2,0:0:0:0:
486,221,107595,1,2,0:0:0:0:
348,121,107762,2,0,P|298:108|251:123,1,101.999996887207,8|0,0:0|0:0,0:0:0:0:
144,191,108095,5,2,0:0:0:0:
301,208,108262,1,2,0:0:0:0:
178,373,108429,2,0,L|160:272,1,101.999996887207,12|0,0:0|0:0,0:0:0:0:
250,123,108762,1,2,0:0:0:0:
267,280,108929,1,2,0:0:0:0:
432,157,109096,2,0,L|331:139,1,101.999996887207,12|0,0:0|0:0,0:0:0:0:
169,107,109429,5,12,0:0:0:0:
186,264,109595,1,2,0:0:0:0:
186,264,109762,1,2,0:0:0:0:
88,91,109929,5,12,0:0:0:0:
105,248,110095,1,2,0:0:0:0:
41,17,110262,2,0,P|6:56|2:107,1,101.999996887207,8|0,0:0|0:0,0:0:0:0:
24,232,110595,1,8,0:0:0:0:
27,248,110679,1,8,0:0:0:0:
30,264,110762,6,0,B|44:328|44:328|79:338,1,101.999996887207,6|0,0:0|0:0,0:0:0:0:
208,295,111095,2,0,L|188:192,1,101.999996887207,8|0,0:0|0:0,0:0:0:0:
241,64,111429,2,0,B|305:78|305:78|315:113,1,101.999996887207,2|2,0:0|0:0,0:0:0:0:
320,272,111762,1,8,0:0:0:0:
455,281,111929,6,0,L|475:178,1,101.999996887207,0|2,0:0|0:0,0:0:0:0:
448,48,112262,2,0,B|377:31|377:31|351:45,1,101.999996887207,0|8,0:0|0:0,0:0:0:0:
239,192,112595,2,0,B|310:209|310:209|335:194,1,101.999996887207,0|2,0:0|0:0,0:0:0:0:
241,64,112929,1,2,0:0:0:0:
145,173,113095,2,0,L|158:274,1,101.999996887207,8|0,0:0|0:0,0:0:0:0:
280,352,113415,5,2,0:0:0:0:
392,240,113581,1,0,0:0:0:0:
239,192,113748,1,8,0:0:0:0:
376,320,113915,1,0,0:0:0:0:
414,157,114081,2,0,P|363:157|323:187,1,101.999996887207,2|2,0:0|0:0,0:0:0:0:
223,272,114415,1,8,0:0:0:0:
128,156,114581,6,0,P|119:106|139:60,1,101.999996887207,0|2,0:0|0:0,0:0:0:0:
305,54,114915,2,0,P|313:103|293:149,1,101.999996887207,0|8,0:0|0:0,0:0:0:0:
188,356,115248,2,0,P|179:306|199:260,1,101.999996887207,0|2,0:0|0:0,0:0:0:0:
393,175,115581,2,0,P|402:224|382:270,1,101.999996887207,2|8,0:0|0:0,0:0:0:0:
266,317,115915,1,0,0:0:0:0:
168,188,116081,6,0,B|89:167|25:207|25:207|77:225,1,203.999993774414,6|8,0:0|0:0,0:0:0:0:
266,317,116581,1,0,0:0:0:0:
343,200,116748,2,0,P|392:187|447:201,1,101.999996887207,2|2,0:0|0:0,0:0:0:0:
506,339,117081,2,0,P|456:351|401:337,1,101.999996887207,8|0,0:0|0:0,0:0:0:0:
266,317,117415,6,0,B|245:284|245:284|253:221,1,101.999996887207,2|0,0:0|0:0,0:0:0:0:
270,90,117748,1,8,0:0:0:0:
150,142,117915,2,0,B|129:175|129:175|138:237,1,101.999996887207,0|2,0:0|0:0,0:0:0:0:
165,359,118248,1,2,0:0:0:0:
46,324,118415,2,0,B|25:291|25:291|33:228,1,101.999996887207,8|0,0:0|0:0,0:0:0:0:
67,105,118748,5,2,0:0:0:0:
164,198,118915,1,2,0:0:0:0:
196,68,119081,2,0,P|245:56|292:75,1,101.999996887207,12|0,0:0|0:0,0:0:0:0:
276,262,119415,2,0,P|264:213|283:166,1,101.999996887207,2|2,0:0|0:0,0:0:0:0:
383,38,119748,2,0,P|394:86|375:133,1,101.999996887207,12|0,0:0|0:0,0:0:0:0:
164,198,120095,5,12,0:0:0:0:
351,219,120261,1,2,0:0:0:0:
351,219,120428,1,2,0:0:0:0:
169,288,120595,5,2,0:0:0:0:
356,309,120761,1,2,0:0:0:0:
257,207,120928,5,8,0:0:0:0:
255,177,121011,1,8,0:0:0:0:
253,147,121094,1,8,0:0:0:0:
251,117,121177,1,8,0:0:0:0:
250,88,121261,1,8,0:0:0:0:
248,58,121344,1,8,0:0:0:0:
246,28,121428,6,0,B|299:15|299:15|344:30,1,101.999996887207,6|0,0:0|0:0,0:0:0:0:
354,209,121761,2,0,B|301:222|301:222|256:206,1,101.999996887207,8|0,0:0|0:0,0:0:0:0:
174,126,122095,1,8,0:0:0:0:
145,237,122261,1,2,0:0:0:0:
63,156,122428,2,0,B|49:103|49:103|65:58,1,101.999996887207,8|0,0:0|0:0,0:0:0:0:
251,74,122761,6,0,P|269:120|255:172,1,101.999996887207,8|0,0:0|0:0,0:0:0:0:
122,263,123095,2,0,P|168:244|220:259,1,101.999996887207,8|0,0:0|0:0,0:0:0:0:
363,311,123428,1,8,0:0:0:0:
264,360,123595,1,2,0:0:0:0:
315,207,123761,2,0,P|361:188|413:203,1,101.999996887207,8|2,0:0|0:0,0:0:0:0:
179,353,124095,6,0,B|170:203|170:203|201:160,1,203.999993774414,8|8,0:0|0:0,0:0:0:0:
312,61,124595,1,0,0:0:0:0:
312,61,124761,2,0,P|361:56|405:82,1,101.999996887207,8|2,0:0|0:0,0:0:0:0:
236,93,125095,2,0,P|231:44|257:0,1,101.999996887207,8|2,0:0|0:0,0:0:0:0:
341,141,125428,6,0,L|244:174,1,101.999996887207,8|0,0:0|0:0,0:0:0:0:
119,53,125761,2,0,L|163:144,1,101.999996887207,8|0,0:0|0:0,0:0:0:0:
121,261,126095,1,8,0:0:0:0:
112,124,126261,1,2,0:0:0:0:
121,261,126428,2,0,B|126:333|126:333|147:312,1,101.999996887207,8|2,0:0|0:0,0:0:0:0:
243,174,126761,6,0,P|337:148|404:219,1,203.999993774414,12|8,0:0|0:0,0:0:0:0:
309,340,127261,1,0,0:0:0:0:
309,340,127428,2,0,P|307:289|312:239,1,101.999996887207,8|2,0:0|0:0,0:0:0:0:
241,72,127761,2,0,P|245:122|243:173,1,101.999996887207,8|2,0:0|0:0,0:0:0:0:
160,284,128094,6,0,P|110:293|59:296,1,101.999996887207,8|0,0:0|0:0,0:0:0:0:
29,152,128428,2,0,P|79:154|129:164,1,101.999996887207,8|0,0:0|0:0,0:0:0:0:
245,203,128761,1,8,0:0:0:0:
220,83,128928,1,2,0:0:0:0:
336,121,129094,2,0,B|381:134|381:134|444:116,1,101.999996887207,8|2,0:0|0:0,0:0:0:0:
509,243,129428,6,0,B|423:218|423:218|312:249,1,203.999993774414,8|8,0:0|0:0,0:0:0:0:
208,315,129928,1,0,0:0:0:0:
208,315,130094,2,0,P|158:326|111:308,1,101.999996887207,8|2,0:0|0:0,0:0:0:0:
132,155,130428,2,0,P|181:144|228:162,1,101.999996887207,8|2,0:0|0:0,0:0:0:0:
315,325,130761,6,0,B|362:342|362:342|412:332,1,101.999996887207,8|0,0:0|0:0,0:0:0:0:
426,182,131095,2,0,B|378:164|378:164|328:174,1,101.999996887207,8|2,0:0|0:0,0:0:0:0:
243,263,131428,1,8,0:0:0:0:
381,299,131595,1,2,0:0:0:0:
243,263,131761,2,0,B|172:249|172:249|186:275,1,101.999996887207,12|2,0:0|0:0,0:0:0:0:
381,299,132095,6,0,B|369:147|369:147|341:190,1,203.999993774414,8|8,0:0|0:0,0:0:0:0:
243,263,132595,1,2,0:0:0:0:
121,274,132761,1,8,0:0:0:0:
73,161,132928,1,2,0:0:0:0:
165,80,133095,1,8,0:0:0:0:
270,144,133261,1,2,0:0:0:0:
174,181,133428,6,0,P|186:84|274:41,1,203.999993774414,8|8,0:0|0:0,0:0:0:0:
382,93,133928,1,2,0:0:0:0:
464,181,134094,1,8,0:0:0:0:
405,288,134261,1,2,0:0:0:0:
284,267,134428,1,8,0:0:0:0:
270,144,134594,1,2,0:0:0:0:
356,197,134761,6,0,P|271:245|184:196,1,203.999993774414,12|8,0:0|0:0,0:0:0:0:
66,180,135261,1,2,0:0:0:0:
62,299,135428,2,0,B|89:333|89:333|147:328,1,101.999996887207,8|2,0:0|0:0,0:0:0:0:
319,293,135761,2,0,B|292:259|292:259|233:263,1,101.999996887207,8|2,0:0|0:0,0:0:0:0:
148,328,136094,5,12,0:0:0:0:
108,136,136428,1,8,0:0:0:0:
291,199,136761,5,8,0:0:0:0:
251,7,136928,1,8,0:0:0:0:
291,199,137094,1,8,0:0:0:0:
108,136,137428,5,8,0:0:0:0:
148,328,137594,1,8,0:0:0:0:
108,136,137761,1,8,0:0:0:0:
148,328,137927,1,8,0:0:0:0:
291,199,138261,5,2,0:0:0:0:
291,199,138344,1,2,0:0:0:0:
291,198,138428,2,0,P|302:156|288:114,1,89.2499972763062,2|0,0:0|0:0,0:0:0:0:
221,160,138761,6,0,L|117:148,1,101.999996887207,12|2,0:0|0:0,0:0:0:0:
53,267,139094,2,0,L|154:255,1,101.999996887207,8|2,0:0|0:0,0:0:0:0:
289,231,139428,1,8,0:0:0:0:
197,354,139594,1,8,0:0:0:0:
332,331,139761,1,8,0:0:0:0:
154,254,139928,1,2,0:0:0:0:
298,129,140094,6,0,L|288:240,1,101.999996887207,8|2,0:0|0:0,0:0:0:0:
241,68,140428,2,0,P|285:44|334:53,1,101.999996887207,8|2,0:0|0:0,0:0:0:0:
488,143,140761,1,8,0:0:0:0:
419,31,140928,1,8,0:0:0:0:
377,168,141094,2,0,L|387:279,1,101.999996887207,8|2,0:0|0:0,0:0:0:0:
271,337,141428,6,0,P|219:345|169:333,1,101.999996887207,12|2,0:0|0:0,0:0:0:0:
162,181,141761,2,0,P|211:169|261:177,1,101.999996887207,8|2,0:0|0:0,0:0:0:0:
271,337,142094,1,8,0:0:0:0:
198,219,142261,1,8,0:0:0:0:
133,342,142428,1,8,0:0:0:0:
60,224,142594,1,2,0:0:0:0:
133,106,142761,6,0,B|175:86|175:86|227:104,1,101.999996887207,8|2,0:0|0:0,0:0:0:0:
252,291,143094,2,0,B|232:249|232:249|250:196,1,101.999996887207,8|2,0:0|0:0,0:0:0:0:
348,84,143428,1,8,0:0:0:0:
398,220,143594,1,8,0:0:0:0:
281,39,143761,2,0,P|319:6|369:6,1,101.999996887207,8|2,0:0|0:0,0:0:0:0:
469,115,144094,6,0,L|481:216,1,101.999996887207,12|2,0:0|0:0,0:0:0:0:
327,325,144428,2,0,L|314:223,1,101.999996887207,12|2,0:0|0:0,0:0:0:0:
235,130,144761,1,8,0:0:0:0:
193,244,144928,1,8,0:0:0:0:
115,150,145094,1,8,0:0:0:0:
73,264,145261,1,2,0:0:0:0:
31,111,145428,6,0,B|54:73|54:73|111:66,1,101.999996887207,8|8,0:0|0:0,0:0:0:0:
316,86,145761,2,0,B|292:123|292:123|235:130,1,101.999996887207,8|2,0:0|0:0,0:0:0:0:
115,150,146094,5,8,0:0:0:0:
219,22,146261,1,8,0:0:0:0:
363,191,146428,2,0,B|329:225|329:225|336:281|336:281|298:241|298:241|235:238|235:238|287:206|287:206|316:85,1,407.999987548829
