osu file format v14

[General]
AudioFilename: audio.mp3
AudioLeadIn: 0
PreviewTime: 99945
Countdown: 0
SampleSet: Soft
StackLeniency: 0.7
Mode: 0
LetterboxInBreaks: 0
WidescreenStoryboard: 1

[Editor]
Bookmarks: 42763,61430,80096,132095
DistanceSpacing: 1.6
BeatDivisor: 4
GridSize: 4
TimelineZoom: 3.049996

[Metadata]
Title:We Can!
TitleUnicode:ウィーキャン!
Artist:Kishidan to Kitadani Hiroshi
ArtistUnicode:氣志團ときただにひろし
Creator:iYiyo
Version:Gomu Gomu no Mi
Source:ONE PIECE
Tags:opening 19 zou toei animation pirates Atsuro Hazu- Irohas MugiwaraSekai
BeatmapID:1249175
BeatmapSetID:588256

[Difficulty]
HPDrainRate:6
CircleSize:4
OverallDifficulty:9
ApproachRate:9.1
SliderMultiplier:1.9
SliderTickRate:1

[Events]
//Background and Video events
0,0,"luffy.jpg",0,0
Video,200,"One Piece Opening 19 'We Can!'.avi"
//Break Periods
//Storyboard Layer 0 (Background)
//Storyboard Layer 1 (Fail)
//Storyboard Layer 2 (Pass)
//Storyboard Layer 3 (Foreground)
//Storyboard Sound Samples

[TimingPoints]
1431,332.409972299169,4,2,1,60,1,0
4090,320.855614973262,4,2,1,60,1,0
4731,340.909090909091,4,2,1,60,1,0
6265,333.333333333333,4,2,1,60,1,0
6765,333.333333333333,4,2,1,60,1,0
10098,322.58064516129,4,2,1,60,1,0
10743,333.333333333333,4,2,1,60,1,0
13409,-83.3333333333333,4,2,1,60,0,0
22909,329.67032967033,4,2,1,60,1,0
23733,363.636363636364,4,2,1,60,1,0
24097,333.333333333333,4,2,1,60,1,0
50513,-100,4,2,1,5,0,0
50596,-100,4,2,1,60,0,0
87846,-100,4,2,1,5,0,0
87930,-100,4,2,1,60,0,0
98945,333.333333333333,4,2,1,60,1,0
99612,-178.571428571429,4,2,1,60,0,0
100096,333.333333333333,4,2,1,60,1,1
100096,-83.3333333333333,4,2,1,60,0,1
113415,333.333333333333,4,2,1,60,1,1
113415,-83.3333333333333,4,2,1,60,0,1
120095,333.333333333333,4,2,1,60,1,0
121428,-83.3333333333333,4,2,1,60,0,1
138428,-142.857142857143,4,2,1,60,0,1
138761,-83.3333333333333,4,2,1,60,0,0
146428,-100,4,2,1,60,0,0
147094,-100,4,2,1,5,0,0

[Colours]
Combo1 : 0,64,128
Combo2 : 171,28,20
Combo3 : 196,196,0
Combo4 : 128,64,0

[HitObjects]
426,286,1431,6,0,P|321:174|473:162,1,380,6|0,0:0|0:0,0:0:0:0:
210,211,2760,6,0,B|81:197|81:197|129:160,1,190,6|0,0:0|0:0,0:0:0:0:
245,107,3259,2,0,L|339:118,1,95,8|0,3:0|0:0,0:0:0:0:
164,76,3591,1,4,3:0:0:0:
345,27,3757,1,4,3:0:0:0:
295,279,4090,6,0,P|369:329|448:278,1,190,6|0,0:0|0:0,0:0:0:0:
456,88,4571,1,0,0:0:0:0:
383,150,4731,2,0,L|370:244,1,95,8|0,0:0|0:0,0:0:0:0:
307,104,5071,2,0,L|294:9,1,95
109,177,5412,5,6,0:0:0:0:
198,92,5583,1,0,0:0:0:0:
239,213,5753,2,0,L|226:307,1,95,2|0,0:0|0:0,0:0:0:0:
109,177,6094,1,2,0:0:0:0:
370,244,6265,1,8,0:0:0:0:
374,212,6348,1,8,0:0:0:0:
379,181,6431,1,8,0:0:0:0:
383,149,6515,1,8,0:0:0:0:
388,118,6598,1,8,0:0:0:0:
392,87,6681,1,8,0:0:0:0:
397,55,6765,6,0,B|348:78|322:112,1,95,4|0,0:0|0:0,0:0:0:0:
200,33,7098,2,0,B|181:83|187:126,1,95,8|0,0:0|0:0,0:0:0:0:
292,16,7431,1,2,0:0:0:0:
251,170,7598,1,2,0:0:0:0:
108,50,7764,1,8,0:0:0:0:
68,205,7931,1,0,0:0:0:0:
240,264,8098,6,0,B|251:170,1,95,2|0,0:0|0:0,0:0:0:0:
434,119,8431,1,8,0:0:0:0:
439,302,8598,2,0,B|403:316|403:316|348:303,1,95,0|2,0:0|0:0,0:0:0:0:
343,121,8931,2,0,B|379:107|379:107|433:119,1,95,2|8,0:0|0:0,0:0:0:0:
439,302,9264,1,0,0:0:0:0:
240,264,9431,6,0,B|184:232|147:263|143:267|139:271|104:300|59:267,1,190,6|8,0:0|0:0,0:0:0:0:
38,157,9931,1,0,0:0:0:0:
212,150,10098,2,0,P|258:138|289:103,1,95,2|2,0:0|0:0,0:0:0:0:
70,50,10420,2,0,P|116:56|162:35,1,95,8|0,0:0|0:0,0:0:0:0:
294,2,10743,5,8,0:0:0:0:
38,157,11076,1,8,0:0:0:0:
340,284,11409,5,8,0:0:0:0:
159,38,11576,1,8,0:0:0:0:
340,284,11742,1,8,0:0:0:0:
376,80,12076,5,8,0:0:0:0:
121,248,12242,1,8,0:0:0:0:
376,80,12409,1,8,0:0:0:0:
121,248,12576,1,8,0:0:0:0:
159,38,12909,5,8,0:0:0:0:
340,284,13076,1,8,0:0:0:0:
340,284,13409,6,0,L|362:165,1,113.999996520996,12|2,0:0|0:0,0:0:0:0:
242,52,13742,2,0,L|262:164,1,113.999996520996,8|2,0:0|0:0,0:0:0:0:
347,51,14076,1,8,0:0:0:0:
140,67,14242,1,8,0:0:0:0:
261,247,14409,1,8,0:0:0:0:
37,80,14576,6,0,P|85:53|139:66,1,113.999996520996,2|8,0:0|0:0,0:0:0:0:
284,152,14909,1,8,0:0:0:0:
168,272,15076,2,0,P|119:299|65:286,1,113.999996520996,8|2,0:0|0:0,0:0:0:0:
264,52,15409,1,8,0:0:0:0:
304,252,15576,1,8,0:0:0:0:
456,72,15742,2,0,P|401:59|353:86,1,113.999996520996,8|2,0:0|0:0,0:0:0:0:
223,223,16076,6,0,B|215:300|215:300|230:333,1,113.999996520996,8|2,0:0|0:0,0:0:0:0:
492,264,16409,2,0,B|500:187|500:187|484:153,1,113.999996520996,8|2,0:0|0:0,0:0:0:0:
360,0,16742,1,8,0:0:0:0:
394,191,16909,1,8,0:0:0:0:
211,124,17076,1,8,0:0:0:0:
360,0,17242,6,0,B|436:18|436:18|406:39,1,113.999996520996,2|8,0:0|0:0,0:0:0:0:
319,128,17576,1,8,0:0:0:0:
197,17,17742,2,0,B|121:35|121:35|151:56,1,113.999996520996,8|2,0:0|0:0,0:0:0:0:
240,291,18076,1,8,0:0:0:0:
211,124,18242,1,8,0:0:0:0:
151,318,18409,2,0,B|181:384|181:384|222:379,1,113.999996520996,8|2,0:0|0:0,0:0:0:0:
420,248,18742,6,0,P|371:220|317:234,1,113.999996520996,8|2,0:0|0:0,0:0:0:0:
445,330,19076,2,0,P|491:297|501:242,1,113.999996520996,8|2,0:0|0:0,0:0:0:0:
444,18,19409,1,8,0:0:0:0:
287,132,19576,1,8,0:0:0:0:
465,211,19742,1,8,0:0:0:0:
444,18,19909,6,0,P|390:11|320:12,1,113.999996520996,2|8,0:0|0:0,0:0:0:0:
416,144,20242,1,8,0:0:0:0:
221,62,20409,2,0,P|192:110|198:166,1,113.999996520996,8|2,0:0|0:0,0:0:0:0:
330,212,20742,1,8,0:0:0:0:
141,246,20909,1,8,0:0:0:0:
302,306,21076,2,0,P|366:303|423:299,1,113.999996520996,8|2,0:0|0:0,0:0:0:0:
420,121,21409,5,8,0:0:0:0:
416,97,21492,1,8,0:0:0:0:
412,73,21576,1,8,0:0:0:0:
408,49,21659,1,8,0:0:0:0:
404,25,21742,1,2,0:0:0:0:
236,160,21909,1,8,0:0:0:0:
232,186,21992,1,8,0:0:0:0:
228,213,22076,1,8,0:0:0:0:
224,240,22159,1,8,0:0:0:0:
220,267,22242,1,2,0:0:0:0:
45,135,22409,5,8,0:0:0:0:
41,105,22492,1,8,0:0:0:0:
37,77,22576,1,8,0:0:0:0:
33,49,22659,1,8,0:0:0:0:
29,21,22742,1,2,0:0:0:0:
256,29,22909,1,8,0:0:0:0:
251,61,22991,1,8,0:0:0:0:
246,94,23073,1,8,0:0:0:0:
241,127,23156,1,8,0:0:0:0:
236,160,23238,1,2,0:0:0:0:
332,297,23403,5,8,0:0:0:0:
364,292,23485,1,8,0:0:0:0:
386,268,23568,1,8,0:0:0:0:
388,235,23650,1,8,0:0:0:0:
372,204,23733,1,8,0:0:0:0:
352,245,23823,1,8,0:0:0:0:
364,292,23914,1,8,0:0:0:0:
399,320,24005,1,8,0:0:0:0:
445,320,24096,5,6,0:0:0:0:
388,235,24430,1,2,0:0:0:0:
332,71,24763,5,2,0:0:0:0:
275,156,25097,1,2,0:0:0:0:
247,317,25430,5,2,0:0:0:0:
190,232,25764,1,2,0:0:0:0:
332,71,26097,5,2,0:0:0:0:
164,71,26263,1,0,0:0:0:0:
417,71,26430,1,8,0:0:0:0:
249,71,26596,1,0,0:0:0:0:
249,252,26764,6,0,P|247:304|248:346,1,95,4|0,0:0|0:0,0:0:0:0:
363,184,27096,1,8,0:0:0:0:
400,332,27263,1,2,0:0:0:0:
407,114,27430,2,0,P|361:99|315:114,1,95,2|0,0:0|0:0,0:0:0:0:
249,252,27763,1,8,0:0:0:0:
75,282,27930,6,0,P|60:236|75:190,1,95,4|0,0:0|0:0,0:0:0:0:
172,108,28263,1,2,0:0:0:0:
249,252,28430,2,0,P|262:296|247:341,1,95,8|0,0:0|0:0,0:0:0:0:
73,192,28763,1,2,0:0:0:0:
248,164,28930,1,2,0:0:0:0:
75,282,29097,1,8,0:0:0:0:
120,268,29180,1,8,0:0:0:0:
165,254,29263,1,8,0:0:0:0:
211,267,29346,1,8,0:0:0:0:
256,280,29430,5,6,0:0:0:0:
348,306,29764,1,2,0:0:0:0:
347,68,30096,5,2,0:0:0:0:
369,154,30430,1,2,0:0:0:0:
142,290,30763,5,2,0:0:0:0:
206,228,31096,1,2,0:0:0:0:
347,68,31431,5,2,0:0:0:0:
182,36,31597,1,8,0:0:0:0:
430,84,31764,1,8,0:0:0:0:
267,53,31931,1,0,0:0:0:0:
206,228,32097,6,0,P|211:275|244:315,1,95,4|0,0:0|0:0,0:0:0:0:
453,220,32430,1,8,0:0:0:0:
293,241,32596,1,2,0:0:0:0:
340,82,32763,2,0,P|384:68|429:83,1,95,2|0,0:0|0:0,0:0:0:0:
453,220,33097,1,8,0:0:0:0:
293,241,33263,6,0,P|248:255|203:242,1,95,4|0,0:0|0:0,0:0:0:0:
228,88,33596,1,2,0:0:0:0:
364,197,33763,2,0,P|377:241|362:286,1,95,8|0,0:0|0:0,0:0:0:0:
167,314,34096,1,2,0:0:0:0:
249,176,34263,1,2,0:0:0:0:
54,96,34430,1,8,3:0:0:0:
84,131,34513,1,8,3:0:0:0:
129,141,34596,1,8,3:0:0:0:
172,123,34680,1,8,3:0:0:0:
196,82,34763,5,6,0:0:0:0:
249,176,35096,1,4,3:0:0:0:
383,47,35430,5,2,0:0:0:0:
354,150,35596,1,4,3:0:0:0:
249,176,35763,1,2,0:0:0:0:
459,124,36097,5,4,3:0:0:0:
249,176,36430,5,2,0:0:0:0:
325,254,36597,1,4,3:0:0:0:
219,280,36763,1,2,0:0:0:0:
218,71,36930,5,8,0:0:0:0:
261,53,37013,1,8,0:0:0:0:
308,55,37096,1,8,0:0:0:0:
349,78,37180,1,8,0:0:0:0:
390,102,37263,1,8,0:0:0:0:
437,104,37346,1,8,0:0:0:0:
481,87,37430,6,0,P|467:132|469:179,1,95,4|0,0:0|0:0,0:0:0:0:
325,254,37763,1,8,0:0:0:0:
390,102,37930,1,2,0:0:0:0:
239,159,38096,2,0,P|193:167|150:147,1,95,2|0,0:0|0:0,0:0:0:0:
8,124,38430,1,8,0:0:0:0:
58,305,38596,6,0,P|100:324|146:315,1,95,4|0,0:0|0:0,0:0:0:0:
344,336,38930,1,2,0:0:0:0:
328,171,39096,2,0,P|285:151|239:160,1,95,8|0,0:0|0:0,0:0:0:0:
146,314,39430,1,2,0:0:0:0:
72,172,39596,1,2,0:0:0:0:
325,254,39763,1,8,3:0:0:0:
369,237,39846,1,8,3:0:0:0:
398,200,39930,1,8,3:0:0:0:
407,154,40013,1,8,3:0:0:0:
390,110,40096,5,6,0:0:0:0:
475,39,40429,1,2,0:0:0:0:
476,255,40763,5,2,0:0:0:0:
369,237,41096,1,2,0:0:0:0:
203,65,41430,5,2,0:0:0:0:
199,182,41763,1,2,0:0:0:0:
452,65,42097,5,8,0:0:0:0:
452,65,42180,1,8,0:0:0:0:
452,65,42263,1,8,0:0:0:0:
203,65,42430,1,8,0:0:0:0:
348,144,42597,1,0,0:0:0:0:
127,237,42763,6,0,B|106:200|106:200|117:148,1,95,6|0,0:0|0:0,0:0:0:0:
294,264,43097,2,0,B|257:285|257:285|205:273,1,95,8|0,0:0|0:0,0:0:0:0:
203,65,43430,1,2,0:0:0:0:
348,144,43597,2,0,B|380:116|380:116|386:64,1,95,2|8,0:0|0:0,0:0:0:0:
240,202,43930,6,0,B|304:172|304:172|418:205,1,190,2|2,0:0|0:0,0:0:0:0:
351,334,44430,2,0,P|305:322|257:324,1,95,8|0,0:0|0:0,0:0:0:0:
71,329,44763,2,0,P|107:299|151:281,1,95,2|2,0:0|0:0,0:0:0:0:
240,202,45096,1,8,0:0:0:0:
72,180,45263,1,0,0:0:0:0:
240,202,45430,6,0,B|256:68|256:68|289:112,1,190,2|8,0:0|0:0,0:0:0:0:
394,265,45930,2,0,L|382:159,1,95,0|2,0:0|0:0,0:0:0:0:
313,340,46263,1,2,0:0:0:0:
313,340,46430,2,0,P|265:342|220:329,1,95,8|2,0:0|0:0,0:0:0:0:
150,204,46763,6,0,B|193:187|193:187|239:201,1,95,0|2,0:0|0:0,0:0:0:0:
74,269,47096,2,0,B|57:226|57:226|71:179,1,95,8|0,0:0|0:0,0:0:0:0:
194,106,47430,1,2,0:0:0:0:
88,43,47596,1,2,0:0:0:0:
236,20,47763,2,0,B|279:37|279:37|325:23,1,95,8|0,0:0|0:0,0:0:0:0:
492,109,48096,6,0,P|408:80|371:164,1,190,6|8,0:0|0:0,0:0:0:0:
448,324,48596,2,0,P|441:277|442:229,1,95,0|2,0:0|0:0,0:0:0:0:
327,117,48930,1,2,0:0:0:0:
327,117,49096,2,0,P|328:164|321:211,1,95,8|2,0:0|0:0,0:0:0:0:
241,292,49429,5,8,0:0:0:0:
201,72,49595,1,2,0:0:0:0:
219,277,49762,5,4,3:0:0:0:
179,57,49929,1,4,3:0:0:0:
28,248,50095,5,8,0:0:0:0:
273,207,50262,2,0,B|300:214|300:214|323:206|323:206|344:214|344:214|368:206|368:206|396:214|396:214|409:211,1,142.5,4|0,0:0|0:0,0:0:0:0:
410,112,50595,1,8,0:0:0:0:
410,112,50679,1,8,0:0:0:0:
410,112,50763,6,0,P|363:103|318:116,1,95,6|2,0:0|0:0,0:0:0:0:
182,204,51096,2,0,P|227:217|273:208,1,95,8|0,0:0|0:0,0:0:0:0:
189,59,51430,1,2,0:0:0:0:
97,153,51596,2,0,P|83:198|92:244,1,95,2|8,0:0|0:0,0:0:0:0:
214,305,51929,6,0,B|221:172|221:172|257:215,1,190,2|2,0:0|0:0,0:0:0:0:
387,347,52429,2,0,L|381:234,1,95,8|0,0:0|0:0,0:0:0:0:
408,54,52763,2,0,L|402:148,1,95,2|2,0:0|0:0,0:0:0:0:
257,215,53096,1,8,0:0:0:0:
464,216,53263,1,0,0:0:0:0:
250,235,53430,6,0,B|192:204|157:234|153:238|149:242|112:272|70:239,1,190,2|8,0:0|0:0,0:0:0:0:
128,86,53930,2,0,P|173:73|219:82,1,95,0|2,0:0|0:0,0:0:0:0:
338,203,54262,1,2,0:0:0:0:
338,203,54430,2,0,P|347:156|334:111,1,95,8|2,0:0|0:0,0:0:0:0:
481,50,54763,6,0,P|468:96|479:144,1,95,0|2,0:0|0:0,0:0:0:0:
335,294,55096,2,0,P|347:249|338:203,1,95,8|0,0:0|0:0,0:0:0:0:
242,93,55430,1,2,0:0:0:0:
208,247,55596,1,2,0:0:0:0:
186,36,55763,2,0,P|226:13|272:19,1,95,8|0,0:0|0:0,0:0:0:0:
459,154,56096,6,0,P|419:231|336:202,1,190,6|8,0:0|0:0,0:0:0:0:
144,110,56596,1,0,0:0:0:0:
243,215,56762,1,2,0:0:0:0:
102,248,56929,1,2,0:0:0:0:
252,309,57096,2,0,L|242:214,1,95,8|0,0:0|0:0,0:0:0:0:
345,107,57430,6,0,L|335:201,1,95,2|0,0:0|0:0,0:0:0:0:
300,36,57763,2,0,P|344:23|392:39,1,95,8|0,0:0|0:0,0:0:0:0:
471,123,58096,1,2,0:0:0:0:
345,107,58263,1,2,0:0:0:0:
461,217,58430,2,0,L|471:121,1,95,8|0,0:0|0:0,0:0:0:0:
300,36,58763,6,0,B|253:49|253:49|168:36|168:36|114:49,1,190,6|8,0:0|0:0,0:0:0:0:
72,180,59263,1,0,0:0:0:0:
204,128,59430,1,2,0:0:0:0:
238,262,59596,1,2,0:0:0:0:
65,274,59763,2,0,L|72:179,1,95,8|2,0:0|0:0,0:0:0:0:
340,232,60096,5,8,0:0:0:0:
113,196,60262,1,2,0:0:0:0:
257,17,60429,1,8,0:0:0:0:
238,262,60596,1,0,0:0:0:0:
458,170,60762,5,8,0:0:0:0:
458,170,60846,1,8,0:0:0:0:
458,170,60929,1,8,0:0:0:0:
216,140,61096,1,2,0:0:0:0:
430,63,61262,1,8,0:0:0:0:
430,63,61346,1,8,0:0:0:0:
430,63,61429,5,6,0:0:0:0:
458,170,61762,1,2,0:0:0:0:
231,260,62096,5,2,0:0:0:0:
259,153,62429,1,2,0:0:0:0:
458,170,62762,5,2,0:0:0:0:
430,277,63096,1,2,0:0:0:0:
146,236,63429,5,2,0:0:0:0:
152,68,63596,1,2,0:0:0:0:
139,318,63762,1,6,0:0:0:0:
149,152,63929,1,2,0:0:0:0:
308,288,64096,6,0,B|365:306|365:306|397:292,1,95,4|0,0:0|0:0,0:0:0:0:
456,156,64430,1,8,0:0:0:0:
268,144,64596,1,2,0:0:0:0:
364,0,64763,1,2,0:0:0:0:
456,156,64929,2,0,B|396:170|396:170|360:158,1,95,0|8,0:0|0:0,0:0:0:0:
192,103,65263,6,0,P|178:58|191:13,1,95,4|0,0:0|0:0,0:0:0:0:
364,0,65596,1,2,0:0:0:0:
456,156,65763,2,0,P|469:200|456:245,1,95,8|0,0:0|0:0,0:0:0:0:
280,332,66096,1,2,0:0:0:0:
300,152,66262,1,2,0:0:0:0:
87,43,66429,1,8,3:0:0:0:
76,89,66512,1,8,3:0:0:0:
66,135,66595,1,8,3:0:0:0:
79,181,66679,1,8,3:0:0:0:
93,226,66762,5,6,0:0:0:0:
51,327,67095,1,2,0:0:0:0:
195,175,67429,5,2,0:0:0:0:
199,284,67762,1,2,0:0:0:0:
265,85,68096,5,2,0:0:0:0:
374,92,68263,1,8,0:0:0:0:
314,182,68430,1,2,0:0:0:0:
265,85,68596,1,8,0:0:0:0:
464,149,68763,5,2,0:0:0:0:
404,239,68930,1,2,0:0:0:0:
374,92,69096,1,2,0:0:0:0:
314,182,69263,1,0,0:0:0:0:
193,32,69429,6,0,B|173:75|173:75|187:120,1,95,4|0,0:0|0:0,0:0:0:0:
265,279,69762,1,8,0:0:0:0:
265,85,69929,1,2,0:0:0:0:
97,182,70095,1,2,0:0:0:0:
265,279,70263,2,0,P|311:275|348:246,1,95,0|8,0:0|0:0,0:0:0:0:
97,182,70596,6,0,B|121:304|121:304|149:231,1,190,4|2,0:0|0:0,0:0:0:0:
189,5,71096,1,8,0:0:0:0:
313,181,71262,1,0,0:0:0:0:
144,108,71429,1,2,0:0:0:0:
358,78,71595,1,2,0:0:0:0:
268,314,71762,1,8,0:0:0:0:
313,301,71845,1,8,0:0:0:0:
341,264,71929,1,8,0:0:0:0:
341,217,72012,1,8,0:0:0:0:
313,181,72095,5,6,0:0:0:0:
358,78,72429,1,4,3:0:0:0:
371,329,72762,5,2,0:0:0:0:
268,284,72929,1,4,3:0:0:0:
165,239,73095,1,2,0:0:0:0:
358,78,73429,5,4,3:0:0:0:
268,284,73762,5,2,0:0:0:0:
313,181,73929,1,2,0:0:0:0:
358,78,74096,1,2,0:0:0:0:
104,31,74263,5,8,3:0:0:0:
77,70,74346,1,8,3:0:0:0:
76,117,74430,1,8,3:0:0:0:
101,157,74513,1,8,3:0:0:0:
125,196,74596,1,8,3:0:0:0:
125,243,74680,1,8,3:0:0:0:
98,282,74763,6,0,P|75:240|81:194,1,95,4|0,0:0|0:0,0:0:0:0:
248,16,75096,1,8,0:0:0:0:
77,70,75263,1,2,0:0:0:0:
209,190,75430,1,2,0:0:0:0:
335,33,75596,2,0,P|294:11|248:16,1,95,0|8,0:0|0:0,0:0:0:0:
122,174,75930,6,0,P|163:196|209:191,1,95,4|0,0:0|0:0,0:0:0:0:
374,274,76262,1,2,0:0:0:0:
480,116,76429,2,0,P|438:94|392:99,1,95,8|0,0:0|0:0,0:0:0:0:
209,190,76763,1,2,0:0:0:0:
424,175,76930,1,2,0:0:0:0:
263,45,77095,1,8,0:0:0:0:
220,63,77179,1,8,0:0:0:0:
192,101,77262,1,8,0:0:0:0:
188,147,77345,1,8,0:0:0:0:
209,190,77429,5,6,0:0:0:0:
228,302,77763,1,2,0:0:0:0:
37,291,78095,5,2,0:0:0:0:
57,179,78429,1,2,0:0:0:0:
190,78,78763,5,2,0:0:0:0:
297,118,78930,1,8,0:0:0:0:
209,190,79096,1,8,0:0:0:0:
385,46,79429,5,8,0:0:0:0:
385,46,79512,1,8,0:0:0:0:
385,46,79595,1,8,0:0:0:0:
444,256,79762,1,8,0:0:0:0:
400,238,79845,1,8,0:0:0:0:
355,250,79929,1,8,0:0:0:0:
311,267,80012,1,8,0:0:0:0:
266,255,80096,6,0,P|226:233|209:190,1,95,6|0,0:0|0:0,0:0:0:0:
354,109,80430,2,0,P|336:152|296:176,1,95,8|0,0:0|0:0,0:0:0:0:
212,76,80763,1,2,0:0:0:0:
70,109,80930,2,0,P|88:151|128:174,1,95,2|8,0:0|0:0,0:0:0:0:
56,315,81263,6,0,B|176:257|176:257|226:284,1,190,2|2,0:0|0:0,0:0:0:0:
353,329,81763,2,0,L|338:235,1,95,8|0,0:0|0:0,0:0:0:0:
446,75,82096,2,0,L|431:168,1,95,2|2,0:0|0:0,0:0:0:0:
291,154,82429,1,8,0:0:0:0:
449,272,82595,1,0,0:0:0:0:
291,154,82763,6,0,B|171:176|171:176|232:205,1,190,2|8,0:0|0:0,0:0:0:0:
353,329,83263,2,0,B|300:310|300:310|262:318,1,95,0|2,0:0|0:0,0:0:0:0:
72,269,83596,1,2,0:0:0:0:
72,269,83763,2,0,B|125:288|125:288|162:279,1,95,8|2,0:0|0:0,0:0:0:0:
235,116,84096,6,0,P|242:162|246:210,1,95,0|2,0:0|0:0,0:0:0:0:
388,96,84429,2,0,P|380:142|376:190,1,95,8|0,0:0|0:0,0:0:0:0:
326,348,84762,1,2,0:0:0:0:
482,314,84929,1,2,0:0:0:0:
375,190,85096,2,0,P|328:195|282:206,1,95,8|0,0:0|0:0,0:0:0:0:
85,304,85429,6,0,P|158:350|212:281,1,190,6|8,0:0|0:0,0:0:0:0:
131,121,85929,2,0,P|130:168|137:215,1,95,0|2,0:0|0:0,0:0:0:0:
312,214,86262,1,2,0:0:0:0:
312,214,86429,2,0,P|319:167|318:119,1,95,8|2,0:0|0:0,0:0:0:0:
218,21,86762,5,8,0:0:0:0:
429,97,86929,1,2,0:0:0:0:
194,33,87096,5,4,3:0:0:0:
405,108,87262,1,4,3:0:0:0:
133,153,87429,5,8,0:0:0:0:
308,350,87596,2,0,B|315:323|315:323|307:299|307:299|315:279|315:279|307:255|307:255|315:227|315:227|312:214,1,142.5,4|0,0:0|0:0,0:0:0:0:
220,191,87929,1,8,0:0:0:0:
220,191,88012,1,8,0:0:0:0:
220,191,88096,6,0,B|199:225|199:225|209:279,1,95,6|0,0:0|0:0,0:0:0:0:
279,101,88430,2,0,P|234:84|185:90,1,95,8|0,0:0|0:0,0:0:0:0:
44,144,88763,1,2,0:0:0:0:
88,280,88930,2,0,B|122:301|122:301|176:291,1,95,2|8,0:0|0:0,0:0:0:0:
364,210,89263,6,0,P|317:135|237:170,1,190,2|2,0:0|0:0,0:0:0:0:
267,347,89763,2,0,P|314:355|362:352,1,95,8|0,0:0|0:0,0:0:0:0:
458,246,90096,2,0,P|465:199|462:151,1,95,2|2,0:0|0:0,0:0:0:0:
293,58,90430,1,8,0:0:0:0:
337,266,90596,1,0,0:0:0:0:
293,58,90763,6,0,B|252:29|215:56|215:56|197:166,1,190,2|8,0:0|0:0,0:0:0:0:
130,308,91263,2,0,P|88:285|66:243,1,95,0|2,0:0|0:0,0:0:0:0:
61,82,91596,1,2,0:0:0:0:
61,82,91763,2,0,P|107:88|153:78,1,95,8|2,0:0|0:0,0:0:0:0:
319,139,92096,6,0,B|274:161|274:161|230:151,1,95,0|2,0:0|0:0,0:0:0:0:
477,177,92430,2,0,B|445:215|445:215|401:226,1,95,8|0,0:0|0:0,0:0:0:0:
264,64,92763,1,2,0:0:0:0:
301,247,92930,1,2,0:0:0:0:
264,64,93096,2,0,B|308:46|308:46|354:58,1,95,8|0,0:0|0:0,0:0:0:0:
195,248,93429,6,0,P|111:240|128:158,1,190,6|8,0:0|0:0,0:0:0:0:
280,164,93929,1,0,0:0:0:0:
174,64,94096,1,2,0:0:0:0:
313,22,94262,1,2,0:0:0:0:
373,180,94429,2,0,L|280:164,1,95,8|0,0:0|0:0,0:0:0:0:
195,248,94763,6,0,L|288:264,1,95,2|0,0:0|0:0,0:0:0:0:
111,221,95096,2,0,L|127:314,1,95,8|0,0:0|0:0,0:0:0:0:
288,264,95429,1,2,0:0:0:0:
202,146,95596,1,2,0:0:0:0:
346,130,95763,2,0,B|440:116,1,95,8|0,0:0|0:0,0:0:0:0:
202,146,96096,6,0,B|168:19|168:19|223:38,1,190,6|8,0:0|0:0,0:0:0:0:
446,71,96596,1,0,0:0:0:0:
385,235,96763,1,2,0:0:0:0:
340,25,96929,1,2,0:0:0:0:
452,160,97095,1,8,0:0:0:0:
279,189,97262,1,2,0:0:0:0:
446,71,97429,5,8,0:0:0:0:
142,71,97595,1,2,0:0:0:0:
324,325,97762,1,8,0:0:0:0:
372,121,97929,1,0,0:0:0:0:
115,162,98095,1,8,0:0:0:0:
115,162,98179,1,8,0:0:0:0:
115,162,98262,1,2,0:0:0:0:
377,253,98430,1,2,0:0:0:0:
294,34,98595,1,2,0:0:0:0:
294,34,98679,1,2,0:0:0:0:
294,34,98762,5,8,0:0:0:0:
190,216,98945,1,0,0:0:0:0:
293,237,99112,1,0,0:0:0:0:
260,136,99279,1,0,0:0:0:0:
190,216,99445,1,0,0:0:0:0:
293,237,99612,2,0,L|257:128,1,106.400001298828
294,34,100096,6,0,B|330:13|330:13|400:28,1,113.999996520996,6|0,0:0|0:0,0:0:0:0:
392,224,100429,2,0,B|371:188|371:188|386:118,1,113.999996520996,8|0,0:0|0:0,0:0:0:0:
468,272,100762,2,0,P|427:310|371:313,1,113.999996520996,2|2,0:0|0:0,0:0:0:0:
283,126,101096,1,8,0:0:0:0:
194,283,101262,6,0,P|234:321|290:323,1,113.999996520996,0|2,0:0|0:0,0:0:0:0:
379,167,101596,2,0,P|338:128|282:126,1,113.999996520996,0|8,0:0|0:0,0:0:0:0:
371,313,101929,2,0,P|427:310|468:272,1,113.999996520996,0|2,0:0|0:0,0:0:0:0:
476,132,102262,1,2,0:0:0:0:
302,208,102429,2,0,P|246:205|206:166,1,113.999996520996,8|0,0:0|0:0,0:0:0:0:
352,20,102762,5,2,0:0:0:0:
206,166,102929,1,0,0:0:0:0:
392,173,103096,1,8,0:0:0:0:
246,13,103262,1,0,0:0:0:0:
79,183,103429,2,0,P|130:205|183:189,1,113.999996520996,2|2,0:0|0:0,0:0:0:0:
289,106,103762,1,8,0:0:0:0:
79,183,103929,1,0,0:0:0:0:
311,244,104096,5,2,0:0:0:0:
246,13,104263,1,0,0:0:0:0:
79,183,104429,1,8,0:0:0:0:
289,106,104596,1,0,0:0:0:0:
151,297,104762,1,2,0:0:0:0:
51,83,104929,1,2,0:0:0:0:
311,244,105096,1,8,0:0:0:0:
189,86,105262,2,0,L|181:142,1,56.9999982604981
151,297,105429,6,0,B|128:143|128:143|182:190,1,227.999993041992,6|8,0:0|0:0,0:0:0:0:
251,335,105930,1,0,0:0:0:0:
314,137,106097,2,0,B|292:182|292:182|310:243,1,113.999996520996,2|2,0:0|0:0,0:0:0:0:
460,244,106429,2,0,B|482:199|482:199|463:137,1,113.999996520996,8|0,0:0|0:0,0:0:0:0:
314,137,106763,6,0,B|244:176|206:147|202:143|198:139|158:107|94:137,1,227.999993041992,2|8,0:0|0:0,0:0:0:0:
60,264,107263,1,0,0:0:0:0:
212,224,107429,1,2,0:0:0:0:
148,360,107595,1,2,0:0:0:0:
390,341,107763,2,0,P|353:297|308:262,1,113.999996520996,8|0,0:0|0:0,0:0:0:0:
190,178,108096,5,2,0:0:0:0:
386,162,108263,1,2,0:0:0:0:
170,65,108430,2,0,L|189:177,1,113.999996520996,12|0,0:0|0:0,0:0:0:0:
274,340,108763,1,2,0:0:0:0:
290,144,108930,1,2,0:0:0:0:
387,360,109095,2,0,L|274:340,1,113.999996520996,12|0,0:0|0:0,0:0:0:0:
121,304,109429,5,12,0:0:0:0:
421,246,109595,1,2,0:0:0:0:
107,178,109762,1,2,0:0:0:0:
334,304,109929,2,0,P|389:291|421:245,1,113.999996520996,12|2,0:0|0:0,0:0:0:0:
114,94,110262,2,0,P|59:107|27:153,1,113.999996520996,8|0,0:0|0:0,3:0:0:0:
421,246,110595,1,8,0:0:0:0:
421,246,110679,1,8,0:0:0:0:
421,246,110762,5,6,0:0:0:0:
263,323,110929,1,0,0:0:0:0:
275,147,111096,1,8,0:0:0:0:
115,224,111263,1,0,0:0:0:0:
256,44,111430,2,0,B|285:78|285:78|275:146,1,113.999996520996,2|2,0:0|0:0,0:0:0:0:
263,323,111763,1,8,0:0:0:0:
115,224,111930,6,0,B|86:190|86:190|95:121,1,113.999996520996,0|2,0:0|0:0,0:0:0:0:
335,203,112262,2,0,P|285:228|231:214,1,113.999996520996,0|8,0:0|0:0,0:0:0:0:
377,32,112595,2,0,P|402:81|388:135,1,113.999996520996,0|2,0:0|0:0,0:0:0:0:
231,214,112929,1,2,0:0:0:0:
322,91,113095,1,8,0:0:0:0:
170,74,113262,1,0,0:0:0:0:
335,203,113415,5,2,0:0:0:0:
124,172,113582,1,0,0:0:0:0:
256,4,113748,1,8,0:0:0:0:
231,214,113915,1,0,0:0:0:0:
322,91,114081,2,0,P|371:66|425:80,1,113.999996520996,2|2,0:0|0:0,0:0:0:0:
170,74,114415,1,8,0:0:0:0:
335,203,114581,1,0,0:0:0:0:
202,364,114748,5,2,0:0:0:0:
432,280,114915,1,0,0:0:0:0:
245,123,115081,1,8,0:0:0:0:
320,320,115248,1,0,0:0:0:0:
362,79,115415,1,2,0:0:0:0:
132,162,115581,1,2,0:0:0:0:
396,184,115748,1,8,0:0:0:0:
187,324,115915,2,0,L|243:315,1,56.9999982604981
375,354,116081,6,0,B|229:357|229:357|294:303,1,227.999993041992,6|8,0:0|0:0,0:0:0:0:
480,299,116581,1,0,0:0:0:0:
381,138,116748,1,2,0:0:0:0:
292,304,116916,1,2,0:0:0:0:
192,143,117082,1,8,0:0:0:0:
385,249,117249,1,0,0:0:0:0:
139,203,117416,6,0,P|111:154|122:99,1,113.999996520996,2|0,0:0|0:0,0:0:0:0:
252,20,117749,1,8,0:0:0:0:
381,138,117915,2,0,P|332:165|277:154,1,113.999996520996,0|2,0:0|0:0,0:0:0:0:
454,95,118248,2,0,P|465:149|438:198,1,113.999996520996,2|8,0:0|0:0,0:0:0:0:
277,154,118581,1,0,0:0:0:0:
373,315,118749,5,2,0:0:0:0:
185,317,118915,1,2,0:0:0:0:
211,85,119081,2,0,P|260:58|319:68,1,113.999996520996,12|0,0:0|0:0,0:0:0:0:
490,208,119415,1,2,0:0:0:0:
277,154,119581,1,2,0:0:0:0:
440,0,119748,2,0,P|466:49|456:104,1,113.999996520996,12|0,0:0|0:0,0:0:0:0:
425,282,120095,5,12,0:0:0:0:
200,118,120261,1,2,0:0:0:0:
440,0,120429,1,2,0:0:0:0:
425,282,120595,1,2,0:0:0:0:
200,118,120762,1,2,0:0:0:0:
93,313,120928,1,8,0:0:0:0:
127,329,121011,1,8,0:0:0:0:
161,345,121094,1,8,0:0:0:0:
198,337,121177,1,8,0:0:0:0:
235,329,121261,1,8,0:0:0:0:
272,320,121345,1,8,0:0:0:0:
309,311,121428,6,0,P|330:260|310:208,1,113.999996520996,6|0,0:0|0:0,0:0:0:0:
201,14,121761,2,0,P|179:65|199:117,1,113.999996520996,8|0,0:0|0:0,0:0:0:0:
388,192,122095,1,8,0:0:0:0:
271,67,122262,1,2,0:0:0:0:
205,310,122428,2,0,P|256:331|308:311,1,113.999996520996,8|2,0:0|0:0,0:0:0:0:
132,182,122761,6,0,B|65:164|65:164|23:181,1,113.999996520996,8|0,0:0|0:0,0:0:0:0:
279,191,123095,2,0,B|345:208|345:208|387:191,1,113.999996520996,8|0,0:0|0:0,0:0:0:0:
240,68,123428,1,8,0:0:0:0:
132,182,123594,1,2,0:0:0:0:
205,310,123761,2,0,P|256:331|308:311,1,113.999996520996,8|2,0:0|0:0,0:0:0:0:
140,76,124094,6,0,P|117:127|131:181,1,113.999996520996,8|0,0:0|0:0,0:0:0:0:
308,311,124428,2,0,P|330:259|316:205,1,113.999996520996,8|0,0:0|0:0,0:0:0:0:
45,156,124761,1,8,0:0:0:0:
216,14,124928,1,2,0:0:0:0:
162,229,125095,1,8,0:0:0:0:
79,23,125261,1,2,0:0:0:0:
268,141,125428,6,0,P|323:138|360:97,1,113.999996520996,8|0,0:0|0:0,0:0:0:0:
162,229,125761,2,0,P|164:284|205:321,1,113.999996520996,8|0,0:0|0:0,0:0:0:0:
426,201,126095,1,8,0:0:0:0:
236,249,126261,1,2,0:0:0:0:
360,97,126428,1,8,0:0:0:0:
345,299,126595,1,2,0:0:0:0:
212,56,126761,6,0,B|240:20|240:20|310:27,1,113.999996520996,12|0,0:0|0:0,0:0:0:0:
332,219,127095,2,0,B|304:255|304:255|234:248,1,113.999996520996,8|0,0:0|0:0,0:0:0:0:
212,56,127428,1,8,0:0:0:0:
360,97,127594,1,2,0:0:0:0:
368,323,127761,2,0,P|316:345|263:330,1,113.999996520996,8|2,0:0|0:0,0:0:0:0:
185,184,128094,6,0,L|298:174,1,113.999996520996,8|0,0:0|0:0,0:0:0:0:
173,351,128428,2,0,L|59:341,1,113.999996520996,8|0,0:0|0:0,0:0:0:0:
20,176,128761,1,8,0:0:0:0:
88,48,128928,1,2,0:0:0:0:
305,68,129095,2,0,B|319:145|319:145|298:174,1,113.999996520996,8|2,0:0|0:0,0:0:0:0:
376,368,129428,6,0,P|370:311|375:254,1,113.999996520996,8|0,0:0|0:0,0:0:0:0:
480,96,129761,2,0,B|494:173|494:173|473:202,1,113.999996520996,8|0,0:0|0:0,0:0:0:0:
268,310,130094,1,8,0:0:0:0:
154,118,130261,1,2,0:0:0:0:
357,204,130428,1,8,0:0:0:0:
139,255,130594,1,2,0:0:0:0:
286,86,130761,6,0,P|335:60|392:64,1,113.999996520996,8|0,0:0|0:0,0:0:0:0:
374,287,131095,2,0,P|323:312|267:309,1,113.999996520996,8|0,0:0|0:0,0:0:0:0:
120,56,131428,1,8,0:0:0:0:
139,255,131595,1,2,0:0:0:0:
248,110,131761,1,12,0:0:0:0:
267,309,131928,1,2,0:0:0:0:
485,189,132095,5,8,0:0:0:0:
219,371,132261,1,2,0:0:0:0:
392,164,132428,1,8,0:0:0:0:
127,347,132595,1,2,0:0:0:0:
370,81,132761,1,8,0:0:0:0:
105,263,132928,1,2,0:0:0:0:
461,105,133094,1,8,0:0:0:0:
195,287,133261,1,2,0:0:0:0:
443,340,133427,5,8,0:0:0:0:
171,195,133595,1,2,0:0:0:0:
510,277,133761,1,8,0:0:0:0:
239,133,133928,1,2,0:0:0:0:
485,189,134094,1,8,0:0:0:0:
212,44,134261,1,2,0:0:0:0:
418,253,134427,1,8,0:0:0:0:
147,110,134594,1,2,0:0:0:0:
355,319,134761,5,12,0:0:0:0:
322,46,134927,1,2,0:0:0:0:
90,359,135094,1,8,0:0:0:0:
56,86,135261,1,2,0:0:0:0:
443,340,135428,5,12,0:0:0:0:
67,220,135594,1,2,0:0:0:0:
443,340,135761,1,12,0:0:0:0:
67,220,135927,1,2,0:0:0:0:
440,93,136093,5,12,0:0:0:0:
67,220,136427,1,8,0:0:0:0:
443,340,136760,5,8,0:0:0:0:
254,81,136927,1,8,0:0:0:0:
66,340,137093,1,8,0:0:0:0:
442,220,137427,5,8,0:0:0:0:
67,220,137593,1,8,0:0:0:0:
442,220,137760,1,8,0:0:0:0:
67,220,137927,1,8,0:0:0:0:
266,267,138261,5,2,0:0:0:0:
266,267,138344,1,2,0:0:0:0:
266,267,138428,2,0,P|247:221|260:172,1,99.7499969558717,2|0,0:0|0:0,0:0:0:0:
434,220,138761,6,0,L|320:215,1,113.999996520996,12|2,0:0|0:0,0:0:0:0:
86,323,139094,2,0,L|200:331,1,113.999996520996,8|2,0:0|0:0,0:0:0:0:
308,344,139428,1,8,0:0:0:0:
132,248,139593,1,8,0:0:0:0:
303,143,139760,1,8,0:0:0:0:
414,340,139928,6,0,P|361:359|307:343,1,113.999996520996,2|8,0:0|0:0,0:0:0:0:
181,176,140261,1,8,0:0:0:0:
381,84,140428,2,0,P|399:137|383:191,1,113.999996520996,8|2,0:0|0:0,0:0:0:0:
181,176,140761,1,8,0:0:0:0:
359,276,140928,1,8,0:0:0:0:
232,100,141094,2,0,P|178:83|125:102,1,113.999996520996,8|2,0:0|0:0,0:0:0:0:
90,273,141428,6,0,P|90:329|122:375,1,113.999996520996,12|2,0:0|0:0,0:0:0:0:
302,358,141761,2,0,P|302:301|270:255,1,113.999996520996,8|2,0:0|0:0,0:0:0:0:
177,156,142094,1,8,0:0:0:0:
340,44,142261,1,8,0:0:0:0:
355,241,142428,1,8,0:0:0:0:
177,156,142594,6,0,B|169:73|169:73|192:93,1,113.999996520996,2|8,0:0|0:0,0:0:0:0:
432,80,142928,1,8,0:0:0:0:
265,240,143094,2,0,B|272:156|272:156|292:179,1,113.999996520996,8|2,0:0|0:0,0:0:0:0:
499,293,143427,1,8,0:0:0:0:
296,337,143594,1,8,0:0:0:0:
468,195,143761,2,0,P|474:140|444:93,1,113.999996520996,8|2,0:0|0:0,0:0:0:0:
159,240,144095,6,0,P|211:259|264:240,1,113.999996520996,12|2,0:0|0:0,0:0:0:0:
444,93,144428,2,0,P|391:73|339:92,1,113.999996520996,12|2,0:0|0:0,0:0:0:0:
213,170,144761,1,8,0:0:0:0:
384,276,144928,1,8,0:0:0:0:
390,74,145094,1,8,0:0:0:0:
267,272,145261,1,2,0:0:0:0:
147,52,145427,5,8,0:0:0:0:
141,253,145594,1,8,0:0:0:0:
320,153,145761,1,8,0:0:0:0:
84,149,145928,1,2,0:0:0:0:
198,357,146094,5,8,0:0:0:0:
257,56,146261,1,8,0:0:0:0:
492,255,146428,2,0,B|446:251|446:251|416:270|416:270|379:257|379:257|348:276|348:276|307:263|307:263|269:283|269:283|227:271|227:271|217:224|217:224|260:202,1,380,12|0,0:0|0:0,0:0:0:0:
