osu file format v14

[General]
AudioFilename: audio.mp3
AudioLeadIn: 0
PreviewTime: 99945
Countdown: 0
SampleSet: Soft
StackLeniency: 0.7
Mode: 0
LetterboxInBreaks: 0
WidescreenStoryboard: 0

[Editor]
Bookmarks: 42763,61430,80096
DistanceSpacing: 1.1
BeatDivisor: 4
GridSize: 4
TimelineZoom: 1.35

[Metadata]
Title:We Can!
TitleUnicode:ウィーキャン!
Artist:Kishidan to Kitadani Hiroshi
ArtistUnicode:氣志團ときただにひろし
Creator:iYiyo
Version:Easy
Source:ONE PIECE
Tags:opening 19 zou toei animation pirates Atsuro Hazu- Irohas MugiwaraSekai
BeatmapID:1250176
BeatmapSetID:588256

[Difficulty]
HPDrainRate:3
CircleSize:2.5
OverallDifficulty:3
ApproachRate:3
SliderMultiplier:0.799999999999999
SliderTickRate:1

[Events]
//Background and Video events
0,0,"luffy.jpg",0,0
Video,200,"One Piece Opening 19 'We Can!'.avi"
//Break Periods
2,21609,22657
//Storyboard Layer 0 (Background)
//Storyboard Layer 1 (Fail)
//Storyboard Layer 2 (Pass)
//Storyboard Layer 3 (Foreground)
//Storyboard Sound Samples

[TimingPoints]
1431,332.409972299169,4,2,1,60,1,0
4090,320.855614973262,4,2,1,60,1,0
4731,340.909090909091,4,2,1,60,1,0
6265,333.333333333333,4,2,1,60,1,0
6765,333.333333333333,4,2,1,60,1,0
10098,322.58064516129,4,2,1,60,1,0
10743,333.333333333333,4,2,1,60,1,0
13409,-100,4,2,1,60,0,0
22909,329.67032967033,4,2,1,60,1,0
23733,363.636363636364,4,2,1,60,1,0
24097,333.333333333333,4,2,1,60,1,0
98945,333.333333333333,4,2,1,60,1,0
100096,333.333333333333,4,2,1,60,1,1
100096,-100,4,2,1,60,0,1
113415,333.333333333333,4,2,1,60,1,1
113415,-100,4,2,1,60,0,1
120095,333.333333333333,4,2,1,60,1,0
121428,-100,4,2,1,60,0,1
138761,-100,4,2,1,60,0,0
147094,-100,4,2,1,5,0,0

[Colours]
Combo1 : 0,64,128
Combo2 : 171,28,20
Combo3 : 196,196,0
Combo4 : 128,64,0

[HitObjects]
458,274,1431,6,0,P|376:197|281:255,1,240,6|0,0:0|0:0,0:0:0:0:
244,336,2760,2,0,B|123:338|123:338|123:219,1,240,6|4,0:0|3:0,0:0:0:0:
208,200,4090,6,0,P|283:208|324:144,1,160,6|8,0:0|0:0,0:0:0:0:
316,56,5071,1,0,0:0:0:0:
232,28,5412,2,0,B|129:56|129:56|88:98,1,160,6|2,0:0|0:0,0:0:0:0:
80,184,6431,1,8,0:0:0:0:
124,260,6764,6,0,P|164:264|204:260,1,79.9999999999999,4|8,0:0|0:0,0:0:0:0:
272,204,7431,2,0,P|266:164|270:124,1,79.9999999999999,2|8,0:0|0:0,0:0:0:0:
308,44,8097,2,0,P|348:40|388:44,1,79.9999999999999,2|8,0:0|0:0,0:0:0:0:
420,124,8764,2,0,P|423:163|418:203,1,79.9999999999999,2|8,0:0|0:0,0:0:0:0:
332,200,9431,6,0,B|286:195|286:195|237:244|237:244|189:238,1,160,6|2,0:0|0:0,0:0:0:0:
104,244,10420,1,8,0:0:0:0:
128,328,10743,6,0,B|249:352|249:352|361:322,1,240,8|8,0:0|0:0,0:0:0:0:
355,237,12076,2,0,B|242:266|242:266|121:242,1,240,8|8,0:0|0:0,0:0:0:0:
64,176,13409,6,0,P|91:106|167:107,1,160,12|8,0:0|0:0,0:0:0:0:
240,156,14409,1,8,0:0:0:0:
328,156,14742,2,0,P|366:155|398:132,1,79.9999999999999,8|8,0:0|0:0,0:0:0:0:
354,53,15409,2,0,P|314:52|281:75,1,79.9999999999999,8|8,0:0|0:0,0:0:0:0:
240,156,16076,6,0,P|241:235|225:313,1,160,8|8,0:0|0:0,0:0:0:0:
144,344,17076,1,8,0:0:0:0:
68,296,17409,2,0,P|66:256|72:216,1,79.9999999999999,8|8,0:0|0:0,0:0:0:0:
152,180,18076,2,0,P|153:140|147:100,1,79.9999999999999,8|8,0:0|0:0,0:0:0:0:
196,28,18742,6,0,B|272:52|272:52|355:35,1,160,8|8,0:0|0:0,0:0:0:0:
432,76,19742,1,8,0:0:0:0:
424,164,20076,2,0,L|420:244,1,79.9999999999999,8|8,0:0|0:0,0:0:0:0:
368,316,20742,2,0,P|332:333|293:328,1,79.9999999999999,8|8,0:0|0:0,0:0:0:0:
212,292,21409,1,6,0:0:0:0:
409,135,24097,5,6,0:0:0:0:
233,135,24763,1,2,0:0:0:0:
192,308,25430,1,2,0:0:0:0:
368,308,26096,1,2,0:0:0:0:
409,135,26763,6,0,P|410:174|408:214,1,79.9999999999999,4|8,0:0|0:0,0:0:0:0:
321,212,27430,2,0,P|319:172|321:132,1,79.9999999999999,2|8,0:0|0:0,0:0:0:0:
296,95,27930,2,0,P|212:53|138:111,1,200,4|2,0:0|0:0,0:0:0:0:
140,202,29096,1,8,0:0:0:0:
140,290,29430,5,6,0:0:0:0:
315,290,30096,1,2,0:0:0:0:
315,113,30763,1,2,0:0:0:0:
138,113,31430,1,2,0:0:0:0:
140,290,32096,6,0,B|99:301|99:301|63:288,1,79.9999999999999,4|8,0:0|0:0,0:0:0:0:
24,208,32763,2,0,B|13:167|13:167|25:131,1,79.9999999999999,2|8,0:0|0:0,0:0:0:0:
64,112,33263,2,0,L|272:120,1,200,4|2,0:0|3:0,0:0:0:0:
352,124,34430,1,8,0:0:0:0:
441,129,34763,5,6,0:0:0:0:
496,296,35430,1,2,0:0:0:0:
324,340,36096,1,4,3:0:0:0:
269,173,36763,1,2,0:0:0:0:
441,129,37430,6,0,P|403:142|364:136,1,79.9999999999999,4|8,0:0|0:0,0:0:0:0:
298,72,38096,2,0,P|259:66|222:80,1,79.9999999999999,2|8,0:0|0:0,0:0:0:0:
196,116,38596,2,0,B|248:208|248:208|157:234,1,200,4|2,0:0|3:0,0:0:0:0:
92,292,39763,1,8,0:0:0:0:
32,228,40096,5,6,0:0:0:0:
120,76,40763,1,2,0:0:0:0:
272,168,41430,1,2,0:0:0:0:
96,160,42096,1,8,0:0:0:0:
252,76,42763,6,0,P|329:65|399:101,1,160,6|2,0:0|0:0,0:0:0:0:
448,176,43763,1,8,0:0:0:0:
452,264,44096,2,0,P|374:275|304:239,1,160,0|2,0:0|0:0,0:0:0:0:
244,172,45096,1,8,0:0:0:0:
199,95,45430,6,0,P|101:46|36:135,1,240,2|8,0:0|0:0,0:0:0:0:
36,222,46763,2,0,L|36:314,1,79.9999999999999,0|8,0:0|0:0,0:0:0:0:
124,302,47430,2,0,L|124:222,1,79.9999999999999,2|8,0:0|0:0,0:0:0:0:
188,164,48096,6,0,B|256:209|256:209|249:289|249:289|316:331,1,240,6|8,0:0|0:0,0:0:0:0:
392,284,49430,2,0,P|407:247|400:209,1,79.9999999999999,8|4,0:0|3:0,0:0:0:0:
336,152,50096,2,0,P|320:115|327:77,1,79.9999999999999,8|0,0:0|0:0,0:0:0:0:
248,40,50763,6,0,P|176:73|96:60,1,160,6|2,0:0|0:0,0:0:0:0:
73,147,51763,1,8,0:0:0:0:
128,216,52096,2,0,P|199:182|280:196,1,160,0|2,0:0|0:0,0:0:0:0:
355,236,53096,1,8,0:0:0:0:
436,199,53430,6,0,P|424:86|318:45,1,240,2|8,0:0|0:0,0:0:0:0:
227,48,54763,2,0,P|218:86|215:126,1,79.9999999999999,0|8,0:0|0:0,0:0:0:0:
144,180,55430,2,0,P|153:218|156:258,1,79.9999999999999,2|8,0:0|0:0,0:0:0:0:
228,308,56096,6,0,L|400:299,1,160,6|2,0:0|0:0,0:0:0:0:
404,212,57096,1,8,0:0:0:0:
328,168,57430,2,0,B|169:160|169:160|196:84,1,240,2|8,0:0|0:0,0:0:0:0:
112,60,58763,6,0,L|56:216,1,160,6|2,0:0|0:0,0:0:0:0:
108,284,59763,1,8,0:0:0:0:
196,292,60096,2,0,P|235:295|272:280,1,79.9999999999999,8|8,0:0|0:0,0:0:0:0:
352,248,60763,2,0,P|359:209|347:171,1,79.9999999999999,8|2,0:0|0:0,0:0:0:0:
267,138,61430,5,6,0:0:0:0:
92,152,62096,1,2,0:0:0:0:
104,328,62763,1,2,0:0:0:0:
279,314,63430,1,2,0:0:0:0:
267,137,64096,6,0,P|275:99|266:60,1,79.9999999999999,4|8,0:0|0:0,0:0:0:0:
178,60,64763,2,0,P|169:98|178:137,1,79.9999999999999,2|8,0:0|0:0,0:0:0:0:
186,180,65263,2,0,P|221:269|315:290,1,200,4|2,0:0|3:0,0:0:0:0:
404,276,66430,1,8,0:0:0:0:
467,212,66763,5,6,0:0:0:0:
300,192,67430,1,2,0:0:0:0:
300,16,68096,1,2,0:0:0:0:
467,35,68763,1,2,0:0:0:0:
467,212,69430,6,0,B|426:221|388:213,1,79.9999999999999,4|8,0:0|0:0,0:0:0:0:
300,192,70096,2,0,B|291:151|298:113,1,79.9999999999999,2|8,0:0|0:0,0:0:0:0:
275,75,70596,2,0,P|183:51|114:117,1,200,4|2,0:0|0:0,0:0:0:0:
44,172,71763,1,8,0:0:0:0:
44,259,72096,5,6,0:0:0:0:
220,259,72763,1,2,0:0:0:0:
220,82,73430,1,4,3:0:0:0:
44,82,74096,1,2,0:0:0:0:
44,259,74763,6,0,L|44:175,1,79.9999999999999,4|8,0:0|0:0,0:0:0:0:
120,136,75430,2,0,L|200:136,1,79.9999999999999,2|8,0:0|0:0,0:0:0:0:
240,145,75930,2,0,B|241:266|241:266|319:264,1,200,4|2,0:0|0:0,0:0:0:0:
407,263,77096,1,0,0:0:0:0:
407,174,77430,5,6,0:0:0:0:
288,44,78096,1,2,0:0:0:0:
235,212,78763,1,2,0:0:0:0:
367,91,79430,1,8,0:0:0:0:
191,108,80096,6,0,P|140:168|128:246,1,160,6|2,0:0|0:0,0:0:0:0:
152,332,81096,1,8,0:0:0:0:
240,320,81430,2,0,P|291:259|303:181,1,160,0|2,0:0|0:0,0:0:0:0:
280,96,82430,1,8,0:0:0:0:
276,8,82763,6,0,B|356:8|356:8|412:64|412:64|504:64,1,240,2|8,0:0|0:0,0:0:0:0:
492,152,84096,2,0,P|489:191|496:231,1,79.9999999999999,0|8,0:0|0:0,0:0:0:0:
412,252,84763,2,0,P|372:248|332:255,1,79.9999999999999,2|8,0:0|0:0,0:0:0:0:
268,196,85430,6,0,P|303:92|202:50,1,240,6|8,0:0|0:0,0:0:0:0:
120,80,86763,2,0,L|40:128,1,79.9999999999999,8|4,0:0|3:0,0:0:0:0:
51,209,87430,2,0,L|131:257,1,79.9999999999999,8|0,0:0|0:0,0:0:0:0:
204,228,88096,6,0,B|316:180|324:280|435:231,1,240,6|8,0:0|0:0,0:0:0:0:
478,153,89430,2,0,P|432:54|330:91,1,240,0|8,0:0|0:0,0:0:0:0:
276,164,90763,6,0,B|218:188|218:188|123:166,1,160,2|2,0:0|0:0,0:0:0:0:
49,218,91763,1,8,0:0:0:0:
116,276,92096,2,0,L|209:298,1,79.9999999999999,0|8,0:0|0:0,0:0:0:0:
282,294,92763,2,0,L|359:276,1,79.9999999999999,2|8,0:0|0:0,0:0:0:0:
432,224,93430,6,0,P|447:148|397:88,1,160,6|2,0:0|0:0,0:0:0:0:
313,65,94430,1,8,0:0:0:0:
228,88,94763,2,0,B|184:154|184:154|220:310,1,240,2|8,0:0|0:0,0:0:0:0:
144,356,96096,6,0,P|67:364|13:308,1,160,6|2,0:0|0:0,0:0:0:0:
13,220,97096,1,8,0:0:0:0:
13,131,97430,2,0,L|27:52,1,79.9999999999999,8|8,0:0|0:0,0:0:0:0:
116,68,98096,2,0,L|99:146,1,79.9999999999999,8|2,0:0|0:0,0:0:0:0:
99,234,98763,5,8,0:0:0:0:
388,164,100096,6,0,L|396:252,1,79.9999999999999,6|8,0:0|0:0,0:0:0:0:
344,316,100762,2,0,L|264:308,1,79.9999999999999,2|8,0:0|0:0,0:0:0:0:
192,260,101429,2,0,L|177:100,1,160,2|2,0:0|0:0,0:0:0:0:
116,40,102429,1,8,0:0:0:0:
56,104,102762,6,0,L|70:263,1,160,2|2,0:0|0:0,0:0:0:0:
124,332,103762,1,8,0:0:0:0:
208,300,104096,2,0,B|284:280|284:280|360:307,2,160,2|2|6,0:0|0:0|0:0,0:0:0:0:
164,128,106096,6,0,L|257:106,1,79.9999999999999,2|8,0:0|0:0,0:0:0:0:
324,75,106762,2,0,P|395:145|300:176,1,240,2|8,0:0|0:0,0:0:0:0:
241,109,108095,6,0,L|222:31,1,79.9999999999999,2|12,0:0|0:0,0:0:0:0:
134,31,108762,2,0,L|115:108,1,79.9999999999999,2|12,0:0|0:0,0:0:0:0:
88,192,109429,2,0,P|86:250|123:295,2,120,12|12|0,0:0|0:0|0:0,0:0:0:0:
176,180,110762,6,0,L|255:187,1,79.9999999999999,6|8,0:0|0:0,0:0:0:0:
316,120,111429,2,0,L|395:127,1,79.9999999999999,2|8,0:0|0:0,0:0:0:0:
468,180,112095,2,0,L|482:339,1,160,0|2,0:0|0:0,0:0:0:0:
396,336,113095,1,8,0:0:0:0:
312,324,113415,6,0,L|152:306,1,160,2|2,0:0|0:0,0:0:0:0:
64,296,114414,1,8,0:0:0:0:
44,212,114748,2,0,P|55:134|115:84,2,160,2|2|6,0:0|0:0|0:0,0:0:0:0:
216,176,116748,6,0,P|252:167|295:181,1,79.9999999999999,2|8,0:0|0:0,0:0:0:0:
376,212,117415,2,0,B|448:116|448:116|339:67,1,240,2|8,0:0|0:0,0:0:0:0:
251,76,118748,2,0,P|212:80|175:66,1,79.9999999999999,2|12,0:0|0:0,0:0:0:0:
86,83,119415,6,0,P|71:120|76:159,1,79.9999999999999,2|12,0:0|0:0,0:0:0:0:
148,212,120095,2,0,B|227:228|227:228|263:211,2,120,12|2|8,0:0|0:0|0:0,0:0:0:0:
164,127,121428,6,0,P|215:69|293:70,1,160,6|8,0:0|0:0,0:0:0:0:
368,120,122428,1,8,0:0:0:0:
384,208,122761,2,0,P|332:266|254:265,1,160,8|8,0:0|0:0,0:0:0:0:
180,215,123761,1,8,0:0:0:0:
164,127,124095,6,0,B|238:98|238:98|288:168,1,160,8|8,0:0|0:0,0:0:0:0:
336,236,125095,1,8,0:0:0:0:
408,188,125428,2,0,B|473:141|473:141|444:67,1,160,8|8,0:0|0:0,0:0:0:0:
360,44,126428,1,8,0:0:0:0:
284,84,126761,6,0,P|209:111|136:79,1,160,12|8,0:0|0:0,0:0:0:0:
72,140,127761,1,8,0:0:0:0:
92,224,128094,2,0,P|169:230|223:287,1,160,8|8,0:0|0:0,0:0:0:0:
292,340,129094,1,8,0:0:0:0:
376,320,129428,6,0,B|407:281|407:281|383:173,1,160,8|8,0:0|0:0,0:0:0:0:
332,104,130428,1,8,0:0:0:0:
248,80,130761,2,0,B|217:119|217:119|240:226,1,160,8|8,0:0|0:0,0:0:0:0:
252,316,131761,1,12,0:0:0:0:
164,332,132095,6,0,L|72:328,1,79.9999999999999,8|8,0:0|0:0,0:0:0:0:
56,244,132761,2,0,L|60:152,1,79.9999999999999,8|8,0:0|0:0,0:0:0:0:
140,128,133428,2,0,P|177:140|216:132,1,79.9999999999999,8|8,0:0|0:0,0:0:0:0:
256,212,134095,2,0,P|243:249|251:288,1,79.9999999999999,8|8,0:0|0:0,0:0:0:0:
328,328,134761,6,0,L|420:324,1,79.9999999999999,8|8,0:0|0:0,0:0:0:0:
460,256,135428,2,0,L|464:164,2,79.9999999999999,8|8|8,0:0|0:0|0:0,0:0:0:0:
407,324,136428,5,8,0:0:0:0:
372,244,136761,2,0,L|368:152,1,79.9999999999999,8|8,0:0|0:0,0:0:0:0:
343,79,137428,2,0,P|228:62|132:129,1,240,8|8,0:0|0:0,0:0:0:0:
156,216,138761,6,0,B|231:241|231:241|328:216,1,160,12|8,0:0|0:0,0:0:0:0:
392,188,139761,1,8,0:0:0:0:
380,100,140094,2,0,L|284:88,1,79.9999999999999,8|8,0:0|0:0,0:0:0:0:
224,48,140761,2,0,L|144:57,1,79.9999999999999,8|8,0:0|0:0,0:0:0:0:
80,120,141428,6,0,L|120:284,1,160,12|8,0:0|0:0,0:0:0:0:
180,340,142428,1,8,0:0:0:0:
260,303,142761,2,0,P|297:288|337:293,1,79.9999999999999,8|8,0:0|0:0,0:0:0:0:
420,320,143428,2,0,P|424:280|409:243,1,79.9999999999999,8|8,0:0|0:0,0:0:0:0:
372,164,144094,6,0,L|208:168,1,160,12|8,0:0|0:0,0:0:0:0:
148,104,145094,1,8,0:0:0:0:
232,76,145428,2,0,L|311:74,1,79.9999999999999,8|8,0:0|0:0,0:0:0:0:
392,40,146094,1,8,0:0:0:0:
472,76,146428,1,12,0:0:0:0:
