osu file format v14

[General]
AudioFilename: audio.mp3
AudioLeadIn: 0
PreviewTime: 100080
Countdown: 0
SampleSet: Soft
StackLeniency: 0.5
Mode: 0
LetterboxInBreaks: 0
WidescreenStoryboard: 1

[Editor]
Bookmarks: 7229,8063,42830
DistanceSpacing: 0.6
BeatDivisor: 4
GridSize: 4
TimelineZoom: 1.6

[Metadata]
Title:We Can!
TitleUnicode:We Can!
Artist:Kishidan and Hiroshi Kitadani
ArtistUnicode:Kishidan and Hiroshi Kitadani
Creator:Acnos
Version:Insane
Source:One Piece
Tags:One piece we can
BeatmapID:1021857
BeatmapSetID:478441

[Difficulty]
HPDrainRate:7
CircleSize:4.6
OverallDifficulty:8
ApproachRate:8.3
SliderMultiplier:1.5
SliderTickRate:2

[Events]
//Background and Video events
Video,0,"Video.avi"
0,0,"Background.jpg",0,0
//Break Periods
//Storyboard Layer 0 (Background)
//Storyboard Layer 1 (Fail)
//Storyboard Layer 2 (Pass)
//Storyboard Layer 3 (Foreground)
//Storyboard Sound Samples

[TimingPoints]
1414,333.333333333333,4,2,1,70,1,0
13747,-100,4,3,1,80,0,0
24080,-100,4,2,1,70,0,0
43080,-100,4,3,1,80,0,0
61413,-100,4,2,1,70,0,0
80413,-100,4,3,1,80,0,0
98747,-66.6666666666667,4,2,1,80,0,1
121747,-66.6666666666667,4,3,1,90,0,1
138747,-100,4,2,1,90,0,0

[Colours]
Combo1 : 79,79,255
Combo2 : 0,236,255
Combo3 : 0,187,47
Combo4 : 221,34,34
Combo5 : 255,215,0
Combo6 : 255,128,0

[HitObjects]
52,96,1413,5,2,0:0:0:0:
44,180,1580,2,0,L|84:260,1,75,2|2,0:0|0:0,0:0:0:0:
77,247,1913,2,0,L|156:244,1,75,2|2,0:0|0:0,0:0:0:0:
80,64,2413,1,8,0:0:0:0:
252,48,2747,1,8,0:0:0:0:
276,128,2913,2,8,L|292:188,2,37.5
216,200,3247,1,8,0:0:0:0:
320,312,3580,1,8,0:0:0:0:
324,316,3747,1,8,0:0:0:0:
436,272,4080,5,2,0:0:0:0:
432,244,4247,2,0,L|412:160,1,75,2|2,0:0|0:0,0:0:0:0:
420,169,4580,2,0,L|340:168,1,75,2|2,0:0|0:0,0:0:0:0:
348,48,5080,1,8,0:0:0:0:
132,52,5413,2,8,L|184:128,1,75
404,192,5913,1,8,0:0:0:0:
280,296,6247,1,8,0:0:0:0:
164,304,6580,2,4,L|164:344,2,37.5
56,336,7080,1,8,0:0:0:0:
56,336,7413,5,2,0:0:0:0:
76,200,7580,1,2,0:0:0:0:
164,108,7747,1,2,0:0:0:0:
164,108,7830,1,2,0:0:0:0:
164,108,7913,1,2,0:0:0:0:
248,144,8080,5,2,0:0:0:0:
308,56,8413,1,2,0:0:0:0:
416,64,8580,1,2,0:0:0:0:
416,64,8663,1,2,0:0:0:0:
416,64,8747,2,0,L|432:224,1,150,2|2,0:0|0:0,0:0:0:0:
430,213,9247,1,2,0:0:0:0:
364,212,9413,1,8,0:0:0:0:
292,192,9580,1,8,0:0:0:0:
220,168,9747,1,8,0:0:0:0:
380,340,10080,5,10,0:0:0:0:
68,340,10413,1,10,0:0:0:0:
120,32,10747,5,2,0:0:0:0:
460,92,11080,1,2,0:0:0:0:
408,332,11413,2,8,B|460:324|460:324|464:356,2,75
256,140,12080,5,2,0:0:0:0:
256,220,12247,1,2,0:0:0:0:
256,300,12413,1,2,0:0:0:0:
256,300,12580,1,2,0:0:0:0:
256,192,12747,12,8,13413,0:0:0:0:
96,56,13747,6,8,P|121:85|165:73,1,75
224,76,14080,1,8,0:0:0:0:
176,150,14247,1,8,0:0:0:0:
68,308,14580,1,8,0:0:0:0:
256,272,14913,1,2,0:0:0:0:
256,272,15080,1,2,0:0:0:0:
392,244,15413,2,4,L|472:284,2,75
388,168,15913,1,4,0:0:0:0:
368,96,16080,5,4,0:0:0:0:
256,60,16413,2,0,B|200:40|200:40|156:64,1,75,2|2,0:0|0:0,0:0:0:0:
128,96,16747,1,2,0:0:0:0:
72,168,16913,1,2,0:0:0:0:
76,336,17247,1,8,0:0:0:0:
244,276,17580,1,4,0:0:0:0:
312,300,17747,1,4,0:0:0:0:
440,228,18080,2,4,L|448:144,1,75
447,153,18413,1,4,0:0:0:0:
376,144,18580,1,4,0:0:0:0:
268,56,18747,5,8,0:0:0:0:
80,140,19080,1,2,0:0:0:0:
344,284,19413,1,2,0:0:0:0:
236,260,19580,2,2,B|216:164|216:164|268:104|268:104,1,150
296,92,20080,1,2,0:0:0:0:
368,64,20247,1,2,0:0:0:0:
424,124,20413,1,2,0:0:0:0:
328,192,20747,1,4,0:0:0:0:
328,192,20913,1,4,0:0:0:0:
328,192,21080,1,4,0:0:0:0:
240,328,21413,6,8,L|196:328,2,37.5
272,328,21663,1,8,0:0:0:0:
272,240,21913,2,8,L|312:240,2,37.5
240,240,22163,1,8,0:0:0:0:
240,140,22413,2,8,L|192:140,2,37.5
272,140,22663,1,8,0:0:0:0:
268,56,22913,2,8,L|308:56,2,37.5
256,164,23413,5,12,0:0:0:0:
224,188,23497,1,12,0:0:0:0:
176,204,23580,1,12,0:0:0:0:
136,196,23663,1,12,0:0:0:0:
104,180,23747,1,12,0:0:0:0:
68,156,23830,1,12,0:0:0:0:
40,132,23913,1,12,0:0:0:0:
48,56,24080,6,4,L|124:56,1,75
216,56,24413,1,2,0:0:0:0:
288,180,24747,1,2,0:0:0:0:
288,180,24913,1,2,0:0:0:0:
288,180,25080,1,2,0:0:0:0:
432,88,25413,1,2,0:0:0:0:
424,256,25747,2,4,L|464:324,2,75
312,160,26413,1,2,0:0:0:0:
296,308,26747,6,8,P|192:308|168:344,3,150
136,252,28080,2,8,P|188:224|288:212,2,150
156,152,29080,1,8,0:0:0:0:
184,124,29163,1,8,0:0:0:0:
204,96,29247,1,8,0:0:0:0:
288,64,29413,6,4,L|368:80,1,75
424,108,29747,1,2,0:0:0:0:
368,240,30080,2,4,L|304:288,1,75
280,304,30413,1,2,0:0:0:0:
240,40,30747,1,2,0:0:0:0:
152,164,31080,5,2,0:0:0:0:
136,196,31163,1,2,0:0:0:0:
116,228,31247,1,2,0:0:0:0:
96,260,31330,1,2,0:0:0:0:
76,292,31413,1,2,0:0:0:0:
292,232,31747,1,2,0:0:0:0:
236,336,32080,6,8,P|304:308|364:260,3,150
424,160,33413,2,0,P|352:184|268:196,1,150
348,92,34080,1,0,0:0:0:0:
312,76,34163,1,0,0:0:0:0:
276,64,34247,1,0,0:0:0:0:
240,48,34330,1,0,0:0:0:0:
204,36,34413,1,0,0:0:0:0:
96,40,34747,6,4,B|52:84|116:120|52:204,1,150
120,248,35413,1,2,0:0:0:0:
72,340,35580,1,2,0:0:0:0:
188,156,35913,1,2,0:0:0:0:
300,272,36247,1,2,0:0:0:0:
400,264,36413,5,2,0:0:0:0:
476,212,36580,1,2,0:0:0:0:
432,140,36747,1,2,0:0:0:0:
348,192,36913,2,4,L|336:108,1,75
276,56,37247,1,2,0:0:0:0:
196,76,37413,6,8,B|128:140|128:140|112:168|100:196,3,150
112,272,38747,2,8,P|168:236|204:160,1,150
64,208,39413,1,8,0:0:0:0:
80,176,39497,1,8,0:0:0:0:
100,144,39580,1,8,0:0:0:0:
120,112,39663,1,8,0:0:0:0:
140,80,39747,1,8,0:0:0:0:
244,56,40080,5,2,0:0:0:0:
436,68,40413,5,2,0:0:0:0:
444,144,40747,2,4,P|384:276|92:308,1,450
172,240,42080,2,8,L|212:232,4,37.5
48,96,42747,1,8,0:0:0:0:
216,40,43080,5,2,0:0:0:0:
288,40,43247,1,2,0:0:0:0:
364,40,43413,1,2,0:0:0:0:
448,184,43747,5,8,0:0:0:0:
368,344,44080,1,2,0:0:0:0:
292,344,44247,1,2,0:0:0:0:
216,344,44413,1,2,0:0:0:0:
88,272,44747,6,4,B|100:204|60:224|84:120,1,150
216,52,45413,1,2,0:0:0:0:
384,60,45747,2,8,L|432:60,4,37.5
240,80,46413,5,2,0:0:0:0:
168,196,46747,1,4,0:0:0:0:
428,188,47080,1,4,0:0:0:0:
292,196,47413,1,4,0:0:0:0:
424,308,47747,1,4,0:0:0:0:
308,308,48080,2,8,B|256:336|96:316|72:180,1,300
144,60,49080,1,8,0:0:0:0:
280,84,49413,5,2,0:0:0:0:
336,136,49580,1,2,0:0:0:0:
280,196,49747,1,2,0:0:0:0:
176,148,50080,2,4,L|84:148,1,75
92,224,50580,2,4,L|36:224,2,37.5
68,336,51080,5,0,0:0:0:0:
192,336,51413,1,2,0:0:0:0:
264,336,51580,1,2,0:0:0:0:
456,192,51913,1,2,0:0:0:0:
420,40,52247,1,2,0:0:0:0:
344,40,52413,1,2,0:0:0:0:
268,40,52580,1,2,0:0:0:0:
128,40,52913,6,2,B|136:80|80:116|128:184,1,150
252,308,53413,1,2,0:0:0:0:
160,188,53747,1,4,0:0:0:0:
120,120,53913,1,4,0:0:0:0:
88,64,54080,5,6,0:0:0:0:
176,128,54247,1,4,0:0:0:0:
256,192,54413,1,0,0:0:0:0:
404,312,54747,1,8,0:0:0:0:
256,192,55080,1,8,0:0:0:0:
440,48,55413,1,8,0:0:0:0:
256,192,55747,1,8,0:0:0:0:
256,332,56080,5,2,0:0:0:0:
164,312,56247,1,2,0:0:0:0:
76,276,56413,6,4,P|100:128|100:128,1,150
112,96,56913,1,2,0:0:0:0:
160,44,57080,1,2,0:0:0:0:
236,48,57247,1,2,0:0:0:0:
240,120,57413,1,2,0:0:0:0:
404,76,57747,5,8,0:0:0:0:
412,196,58080,1,8,0:0:0:0:
320,296,58413,6,8,P|316:296|168:276,1,150
136,264,58913,1,2,0:0:0:0:
60,224,59080,1,2,0:0:0:0:
112,76,59413,1,4,0:0:0:0:
256,88,59747,5,2,0:0:0:0:
336,136,59913,1,2,0:0:0:0:
412,200,60080,1,2,0:0:0:0:
96,276,60413,1,0,0:0:0:0:
120,152,60747,2,0,L|80:152,4,37.5
68,80,61413,5,2,0:0:0:0:
68,176,61580,1,2,0:0:0:0:
64,272,61747,1,2,0:0:0:0:
258,280,62080,1,2,0:0:0:0:
344,248,62247,2,4,B|382:206|400:200|371:185,1,75
248,100,62747,1,2,0:0:0:0:
160,268,63080,1,2,0:0:0:0:
248,312,63247,1,2,0:0:0:0:
344,312,63413,2,4,B|372:282|372:282|382:246|382:246,1,75
381,249,63747,1,2,0:0:0:0:
232,224,64080,6,8,B|264:316|148:304|200:356,3,150
60,336,65413,1,8,0:0:0:0:
128,280,65580,1,8,0:0:0:0:
64,232,65747,1,8,0:0:0:0:
32,40,66080,1,8,0:0:0:0:
192,68,66413,1,8,0:0:0:0:
220,96,66497,1,8,0:0:0:0:
248,120,66580,1,8,0:0:0:0:
276,144,66663,1,8,0:0:0:0:
300,168,66747,1,8,0:0:0:0:
300,40,67080,5,2,0:0:0:0:
356,88,67247,1,2,0:0:0:0:
420,140,67413,1,2,0:0:0:0:
408,240,67747,6,4,L|345:292,3,75
291,324,68413,1,4,0:0:0:0:
197,192,68747,1,2,0:0:0:0:
196,117,68913,1,2,0:0:0:0:
200,268,69080,1,2,0:0:0:0:
120,320,69413,6,8,P|96:244|80:160,3,150
76,140,70580,1,8,0:0:0:0:
116,80,70747,1,8,0:0:0:0:
232,204,71080,1,8,0:0:0:0:
392,144,71413,1,8,0:0:0:0:
344,64,71580,1,8,0:0:0:0:
240,52,71747,1,8,0:0:0:0:
200,56,71830,1,8,0:0:0:0:
160,60,71913,1,8,0:0:0:0:
128,64,71997,1,8,0:0:0:0:
88,64,72080,5,2,0:0:0:0:
36,136,72247,1,2,0:0:0:0:
32,228,72413,1,2,0:0:0:0:
176,280,72747,2,4,B|168:336|132:344|164:360,2,75
176,236,73247,1,2,0:0:0:0:
216,216,73413,1,2,0:0:0:0:
312,44,73747,5,2,0:0:0:0:
456,180,74080,1,2,0:0:0:0:
392,228,74247,1,2,0:0:0:0:
320,232,74413,1,2,0:0:0:0:
272,176,74580,1,2,0:0:0:0:
200,212,74747,6,8,B|256:320|148:324,3,150
64,236,76080,1,8,0:0:0:0:
64,56,76413,1,8,0:0:0:0:
168,148,76747,1,8,0:0:0:0:
256,144,76913,1,8,0:0:0:0:
224,56,77080,2,8,L|180:56,2,37.5
216,168,77413,1,10,0:0:0:0:
460,88,77747,5,2,0:0:0:0:
468,184,77913,1,2,0:0:0:0:
376,156,78080,1,2,0:0:0:0:
408,248,78247,2,4,B|364:292|336:300|268:264,1,150
280,204,78747,1,2,0:0:0:0:
344,148,78913,1,2,0:0:0:0:
292,88,79080,2,4,B|168:88|168:88|164:136,1,150
116,216,79747,2,8,L|72:216,4,37.5
96,120,80413,5,2,0:0:0:0:
160,56,80580,2,2,L|236:56,1,75
235,56,80913,1,2,0:0:0:0:
408,48,81247,2,2,L|408:132,1,75
400,160,81580,1,2,0:0:0:0:
376,208,81747,1,2,0:0:0:0:
304,200,81913,2,2,B|200:188|200:188|152:140,1,150
60,184,82580,6,8,L|104:244,1,75
136,328,82913,1,8,0:0:0:0:
240,340,83080,1,8,0:0:0:0:
256,248,83247,1,8,0:0:0:0:
328,304,83413,1,8,0:0:0:0:
416,264,83580,2,8,B|456:228|456:228|452:184,1,75
456,44,84080,6,4,L|296:52,1,150
176,56,84747,2,4,L|204:136,1,75
224,180,85080,2,4,L|244:272,1,75
144,340,85413,1,4,0:0:0:0:
68,248,85747,6,8,L|84:156,1,75
88,160,86080,1,2,0:0:0:0:
96,44,86413,2,8,L|176:48,1,75
204,52,86747,1,2,0:0:0:0:
312,64,87080,2,8,L|392:64,1,75
420,64,87413,1,2,0:0:0:0:
416,112,87580,1,2,0:0:0:0:
432,184,87913,6,8,L|396:244,2,37.5
268,352,88413,2,4,L|188:296,1,75
120,252,88747,1,2,0:0:0:0:
192,200,88913,2,4,B|264:184|304:224|308:280,1,150
404,248,89413,5,2,0:0:0:0:
248,68,89747,2,6,L|188:120,1,75
120,176,90080,1,2,0:0:0:0:
328,344,90413,1,2,0:0:0:0:
408,88,90747,1,2,0:0:0:0:
132,312,91080,2,8,L|200:236,1,75
256,184,91413,1,10,0:0:0:0:
344,264,91580,1,8,0:0:0:0:
432,336,91747,1,8,0:0:0:0:
124,56,92080,5,2,0:0:0:0:
124,192,92413,1,2,0:0:0:0:
120,344,92747,1,2,0:0:0:0:
244,248,93080,1,2,0:0:0:0:
328,332,93413,6,12,B|400:332|400:332|464:240,1,150
424,224,93913,1,8,0:0:0:0:
400,192,94080,2,8,L|292:76,1,150
260,72,94580,1,8,0:0:0:0:
176,72,94747,6,8,P|112:124|112:124,1,75
132,256,95080,1,8,0:0:0:0:
308,260,95247,1,8,0:0:0:0:
252,120,95413,1,8,0:0:0:0:
32,348,95747,1,0,0:0:0:0:
216,344,96080,6,4,B|288:320|288:320|380:284,1,150
388,280,96580,1,2,0:0:0:0:
424,248,96747,2,4,L|408:92,1,150
360,116,97247,1,2,0:0:0:0:
296,148,97413,2,4,P|196:144|164:104,1,150,4|12,0:0|0:0,0:0:0:0:
100,216,98080,1,8,0:0:0:0:
48,328,98413,1,8,0:0:0:0:
264,340,100080,6,2,L|264:196,1,112.500004291535
268,188,100413,1,2,0:0:0:0:
296,160,100580,1,2,0:0:0:0:
316,132,100747,1,10,0:0:0:0:
436,172,101080,1,8,0:0:0:0:
432,264,101413,6,2,L|328:320,1,112.500004291535
176,336,101913,1,2,0:0:0:0:
56,228,102247,1,2,0:0:0:0:
64,148,102413,1,10,0:0:0:0:
188,200,102747,6,2,L|268:116,1,112.500004291535
288,104,103080,1,2,0:0:0:0:
320,112,103247,1,2,0:0:0:0:
356,128,103413,1,10,0:0:0:0:
200,308,103747,1,8,0:0:0:0:
452,340,104080,6,2,L|436:220,1,112.500004291535
452,120,104580,2,4,P|308:64|240:80,1,225.000008583069
92,240,105247,2,8,L|72:292,2,56.2500021457673
180,112,105747,1,2,0:0:0:0:
56,40,106080,5,2,0:0:0:0:
92,112,106247,1,2,0:0:0:0:
144,184,106413,1,2,0:0:0:0:
200,120,106580,1,2,0:0:0:0:
248,40,106747,2,2,B|324:112|324:112|324:224|324:224,1,209.999993591309
320,300,107247,1,2,0:0:0:0:
436,264,107413,1,2,0:0:0:0:
420,156,107580,1,2,0:0:0:0:
320,192,107747,1,2,0:0:0:0:
428,48,108080,5,8,0:0:0:0:
60,308,108413,1,8,0:0:0:0:
456,216,108747,1,8,0:0:0:0:
72,40,109080,1,8,0:0:0:0:
412,304,109413,1,8,0:0:0:0:
280,176,109747,5,8,0:0:0:0:
220,228,109913,1,8,0:0:0:0:
72,336,110247,1,8,0:0:0:0:
96,56,110747,5,2,0:0:0:0:
96,56,110913,1,2,0:0:0:0:
96,56,111080,1,2,0:0:0:0:
96,56,111247,1,2,0:0:0:0:
96,56,111413,1,2,0:0:0:0:
320,84,111747,6,8,L|392:176,1,112.500004291535
320,252,112247,1,8,0:0:0:0:
152,304,112580,1,8,0:0:0:0:
204,132,112913,1,10,0:0:0:0:
204,132,113080,1,8,0:0:0:0:
396,148,113413,5,10,0:0:0:0:
396,148,113580,1,10,0:0:0:0:
396,148,113747,1,10,0:0:0:0:
396,148,113913,1,2,0:0:0:0:
396,148,114080,1,2,0:0:0:0:
272,304,114413,2,12,B|200:196|200:196,1,112.500004291535,10|10,0:0|0:0,0:0:0:0:
96,132,114913,1,8,0:0:0:0:
200,48,115247,5,8,0:0:0:0:
336,76,115580,1,8,0:0:0:0:
380,180,115913,1,4,0:0:0:0:
352,200,115997,1,4,0:0:0:0:
320,220,116080,1,4,0:0:0:0:
176,356,116413,1,8,0:0:0:0:
32,152,116747,5,10,0:0:0:0:
56,84,116913,1,2,0:0:0:0:
124,48,117080,1,2,0:0:0:0:
144,120,117247,1,2,0:0:0:0:
220,92,117413,6,2,P|312:36|424:120,1,225.000008583069
424,128,117913,1,2,0:0:0:0:
352,240,118247,1,8,0:0:0:0:
276,288,118413,1,8,0:0:0:0:
260,208,118580,1,8,0:0:0:0:
256,192,119080,12,14,121413,0:0:0:0:
260,344,121747,5,8,0:0:0:0:
260,188,122080,1,8,0:0:0:0:
216,40,122413,5,2,0:0:0:0:
300,100,122580,1,2,0:0:0:0:
216,156,122747,1,2,0:0:0:0:
72,108,123080,2,8,L|72:220,1,112.500004291535
76,248,123413,1,8,0:0:0:0:
216,344,123747,5,2,0:0:0:0:
296,288,123913,1,2,0:0:0:0:
216,232,124080,1,2,0:0:0:0:
160,92,124413,1,8,0:0:0:0:
256,44,124747,5,14,0:0:0:0:
256,144,125080,1,6,0:0:0:0:
256,44,125413,1,6,0:0:0:0:
256,236,125747,1,14,0:0:0:0:
256,144,126080,1,6,0:0:0:0:
256,344,126413,1,14,0:0:0:0:
256,236,126747,1,6,0:0:0:0:
256,344,127080,1,8,0:0:0:0:
56,344,127413,1,8,0:0:0:0:
56,232,127747,5,2,0:0:0:0:
112,152,127913,1,2,0:0:0:0:
160,236,128080,1,2,0:0:0:0:
192,344,128413,2,8,L|320:344,1,112.500004291535
336,348,128747,1,8,0:0:0:0:
464,232,129080,5,2,0:0:0:0:
412,148,129247,1,2,0:0:0:0:
356,232,129413,1,2,0:0:0:0:
116,304,129747,1,8,0:0:0:0:
48,192,130080,5,12,0:0:0:0:
184,188,130413,1,12,0:0:0:0:
48,192,130747,1,4,0:0:0:0:
324,192,131080,1,12,0:0:0:0:
184,188,131413,1,4,0:0:0:0:
456,192,131747,1,4,0:0:0:0:
324,192,132080,1,4,0:0:0:0:
320,80,132413,5,8,0:0:0:0:
212,80,132747,1,8,0:0:0:0:
71,59,133080,6,4,L|279:207,1,225.000008583069
90,343,133747,2,2,L|262:183,1,225.000008583069
429,47,134413,2,4,L|237:203,1,225.000008583069
435,326,135080,2,2,L|243:182,1,225.000008583069
256,192,135413,12,14,138747,0:0:0:0:
