osu file format v14

[General]
AudioFilename: GATE II OP.mp3
AudioLeadIn: 2000
PreviewTime: 51396
Countdown: 0
SampleSet: Soft
StackLeniency: 0.7
Mode: 0
LetterboxInBreaks: 0
WidescreenStoryboard: 0

[Editor]
Bookmarks: 133,33337,42658
DistanceSpacing: 1
BeatDivisor: 4
GridSize: 4
TimelineZoom: 1.9

[Metadata]
Title:Gate ~Sekai wo Koete~
TitleUnicode:Gate ~世界を超えて~
Artist:Kishida kyoudan & Myousei rockets
ArtistUnicode:岸田教団&THE明星ロケッツ
Creator:-Yuzuriha
Version:Gate
Source:Gate2
Tags:
BeatmapID:916668
BeatmapSetID:424314

[Difficulty]
HPDrainRate:7
CircleSize:4
OverallDifficulty:7.5
ApproachRate:9.2
SliderMultiplier:1.9
SliderTickRate:2

[Events]
//Background and Video events
0,0,"BG.jpg",0,0
//Break Periods
//Storyboard Layer 0 (Background)
//Storyboard Layer 1 (Fail)
//Storyboard Layer 2 (Pass)
//Storyboard Layer 3 (Foreground)
//Storyboard Sound Samples

[TimingPoints]
-303,291.26213592233,4,2,1,70,1,0
3774,-100,4,2,1,50,0,0
4211,-100,4,2,1,70,0,0
5230,-100,4,2,1,5,0,0
5376,-100,4,2,2,70,0,0
9308,-100,4,2,2,50,0,0
9453,-100,4,2,2,70,0,0
9599,-100,4,2,2,50,0,0
10036,-100,4,2,2,70,0,0
14696,-133.333333333333,4,2,3,60,0,0
23143,-133.333333333333,4,2,2,60,0,0
24017,-100,4,2,2,70,0,0
42658,-100,4,2,1,70,0,0
47755,-100,4,2,2,40,0,0
48046,-100,4,2,2,50,0,0
48629,-100,4,2,2,60,0,0
49211,-100,4,2,1,70,0,0
51395,-133.333333333333,4,2,2,70,0,0
51978,-100,4,2,2,80,0,1
60716,-100,4,2,2,80,0,0
61298,-100,4,2,2,80,0,1
70619,-100,4,2,2,70,0,0
79939,-100,4,2,3,70,0,0
82269,-100,4,2,2,70,0,0
84526,-100,4,2,3,70,0,0
86638,-100,4,2,2,70,0,0

[Colours]
Combo1 : 255,255,128
Combo2 : 255,0,128
Combo3 : 128,0,255
Combo4 : 255,128,64

[HitObjects]
355,109,133,5,8,0:0:0:0:
331,79,206,1,0,0:0:0:0:
297,60,279,1,8,0:0:0:0:
260,52,352,1,0,0:0:0:0:
222,57,425,1,8,0:0:0:0:
190,78,497,1,0,0:0:0:0:
172,112,570,1,8,0:0:0:0:
165,149,643,1,0,0:0:0:0:
176,185,716,6,0,L|210:259,1,47.5,2|0,0:0|0:0,0:0:0:0:
241,100,862,2,0,L|207:26,1,47.5,2|0,0:0|0:0,0:0:0:0:
159,220,1007,2,0,L|193:294,1,47.5,2|0,0:0|0:0,0:0:0:0:
205,90,1153,2,0,L|171:16,1,47.5,2|0,0:0|0:0,0:0:0:0:
76,92,1298,5,8,0:0:0:0:
95,124,1371,1,0,0:0:0:0:
105,160,1444,1,8,0:0:0:0:
106,198,1517,1,0,0:0:0:0:
99,234,1590,1,8,0:0:0:0:
84,269,1663,1,0,0:0:0:0:
54,292,1735,6,0,L|76:180,1,95,8|2,0:0|0:0,0:0:0:0:
285,84,2027,2,0,L|263:196,1,95,8|2,0:0|0:0,0:0:0:0:
139,371,2318,1,8,0:0:0:0:
187,162,2463,2,0,P|196:214|233:251,1,95,8|2,0:0|0:0,0:0:0:0:
428,150,2755,1,10,0:0:0:0:
199,79,2900,6,0,P|152:88|109:125,1,95,8|0,0:0|0:0,0:0:0:0:
233,358,3192,1,8,0:0:0:0:
266,177,3337,1,2,0:0:0:0:
77,285,3483,2,0,P|129:296|180:287,1,95,8|2,0:0|0:0,0:0:0:0:
478,214,3774,1,8,0:0:0:0:
441,203,3847,1,8,0:0:0:0:
405,192,3920,1,8,0:0:0:0:
368,181,3993,1,8,0:0:0:0:
331,168,4065,1,8,0:0:0:0:
294,156,4138,1,8,0:0:0:0:
257,144,4211,6,0,B|342:66|453:145|402:253|402:253|350:244|350:244|324:335|242:293|242:293|207:305|207:305|189:203|56:237,1,665,4|0,0:1|0:0,0:0:0:0:
232,106,5376,6,0,P|292:70|388:81,1,142.5,6|0,0:0|0:0,0:0:0:0:
430,99,5667,1,2,0:0:0:0:
304,305,5813,1,8,0:0:0:0:
302,99,5959,1,0,0:0:0:0:
438,272,6104,1,2,0:0:0:0:
446,260,6177,1,0,0:0:0:0:
453,248,6250,1,2,0:0:0:0:
220,142,6396,1,8,0:0:0:0:
460,233,6541,6,0,B|403:245|403:245|362:243|362:243|301:258,1,142.5,2|0,0:0|0:0,0:0:0:0:
256,304,6832,1,2,0:0:0:0:
416,123,6978,1,8,0:0:0:0:
367,346,7124,1,0,0:0:0:0:
274,143,7269,1,2,0:0:0:0:
282,154,7342,1,0,0:0:0:0:
290,165,7415,1,2,0:0:0:0:
178,361,7561,1,8,0:0:0:0:
296,173,7706,6,0,B|238:169|238:169|195:193|152:163,1,142.5,6|0,0:0|0:0,0:0:0:0:
105,113,7997,1,2,0:0:0:0:
258,348,8143,1,8,0:0:0:0:
200,98,8289,1,0,0:0:0:0:
129,282,8434,1,2,0:0:0:0:
143,279,8507,1,0,0:0:0:0:
157,276,8580,1,2,0:0:0:0:
419,138,8726,2,0,L|427:186,1,47.5,8|0,0:0|0:0,0:0:0:0:
383,98,8871,6,0,L|408:245,1,142.5,2|0,0:0|0:0,0:0:0:0:
385,313,9163,1,2,0:0:0:0:
184,195,9308,1,12,0:0:0:0:
354,335,9454,1,0,0:0:0:0:
303,93,9599,1,8,0:0:0:0:
300,130,9672,1,8,0:0:0:0:
297,168,9745,1,8,0:0:0:0:
296,205,9818,1,8,0:0:0:0:
292,242,9891,1,8,0:0:0:0:
289,280,9963,1,8,0:0:0:0:
286,317,10036,6,0,P|312:241|392:219,1,142.5,6|0,0:0|0:0,0:0:0:0:
439,222,10328,1,2,0:0:0:0:
197,266,10473,1,8,0:0:0:0:
420,306,10619,1,0,0:0:0:0:
216,178,10764,1,2,0:0:0:0:
229,174,10837,1,0,0:0:0:0:
242,170,10910,1,2,0:0:0:0:
110,327,11056,1,8,0:0:0:0:
251,167,11201,6,0,L|100:158,1,142.5,2|0,0:0|0:0,0:0:0:0:
43,117,11493,1,2,0:0:0:0:
193,302,11638,1,8,0:0:0:0:
180,76,11784,1,0,0:0:0:0:
87,252,11930,1,2,0:0:0:0:
87,252,12002,1,0,0:0:0:0:
87,252,12075,1,2,0:0:0:0:
192,48,12221,1,8,0:0:0:0:
401,215,12366,6,0,P|356:187|263:200,1,142.5,6|0,0:0|0:0,0:0:0:0:
250,269,12658,1,2,0:0:0:0:
467,144,12803,1,8,0:0:0:0:
251,167,12949,1,0,0:0:0:0:
430,292,13095,1,2,0:0:0:0:
430,292,13167,1,0,0:0:0:0:
430,292,13240,1,2,0:0:0:0:
357,67,13386,1,8,0:0:0:0:
155,149,13531,6,0,P|164:207|166:264,1,95,6|0,0:0|0:0,0:0:0:0:
338,115,13823,2,0,P|329:57|327:0,1,95
166,243,14114,1,6,0:0:0:0:
285,39,14260,1,0,0:0:0:0:
273,298,14405,1,0,0:0:0:0:
285,39,14696,6,0,L|280:193,1,142.500005435944,2|0,0:0|0:0,0:0:0:0:
195,345,15133,1,2,0:0:0:0:
188,169,15279,1,0,0:0:0:0:
303,274,15425,1,0,0:0:0:0:
160,234,15570,2,0,P|177:188|194:159,1,71.2500027179719,2|0,0:0|0:0,0:0:0:0:
319,38,15862,6,0,L|314:192,1,142.500005435944,2|0,0:0|0:0,0:0:0:0:
405,313,16298,1,2,0:0:0:0:
314,180,16444,1,0,0:0:0:0:
324,349,16590,1,0,0:0:0:0:
482,205,16735,2,0,P|434:195|382:192,1,71.2500027179719,2|0,0:0|0:0,0:0:0:0:
180,270,17027,6,0,P|243:281|332:260,1,142.500005435944,2|0,0:0|0:0,0:0:0:0:
381,115,17463,1,2,0:0:0:0:
211,85,17609,1,0,0:0:0:0:
352,194,17755,1,0,0:0:0:0:
174,46,17900,2,0,L|181:135,1,71.2500027179719,2|0,0:0|0:0,0:0:0:0:
315,257,18192,6,0,L|326:106,1,142.500005435944,2|0,0:0|0:0,0:0:0:0:
100,89,18629,2,0,L|107:178,1,71.2500027179719,2|0,0:0|0:0,0:0:0:0:
223,363,18920,1,0,0:0:0:0:
245,212,19065,1,2,0:0:0:0:
135,307,19211,1,0,0:0:0:0:
315,257,19357,6,0,P|320:172|276:133,1,142.500005435944,2|0,0:0|0:0,0:0:0:0:
93,234,19794,1,2,0:0:0:0:
245,212,19939,1,0,0:0:0:0:
87,146,20085,1,0,0:0:0:0:
238,281,20230,2,0,P|238:231|252:196,1,71.2500027179719,2|0,0:0|0:0,0:0:0:0:
463,76,20522,6,0,B|410:74|410:74|380:62|380:62|338:73|294:53,1,142.500005435944,2|0,0:0|0:0,0:0:0:0:
87,146,20959,2,0,P|139:136|166:125,1,71.2500027179719,2|0,0:0|0:0,0:0:0:0:
313,227,21250,2,0,P|261:217|234:206,1,71.2500027179719,2|0,0:0|0:0,0:0:0:0:
103,58,21541,1,0,0:0:0:0:
11,206,21687,6,0,P|50:238|86:245,1,71.2500027179719,2|0,0:0|0:0,0:0:0:0:
282,135,21978,2,0,P|243:103|207:96,1,71.2500027179719,2|0,0:0|0:0,0:0:0:0:
149,310,22269,1,2,0:0:0:0:
214,181,22415,1,0,0:0:0:0:
227,354,22561,1,2,0:0:0:0:
140,213,22706,1,0,0:0:0:0:
310,81,22852,6,0,L|324:216,1,106.875004076958,2|0,0:0|0:0,0:0:0:0:
286,252,23143,1,2,0:0:0:0:
228,93,23289,1,8,0:0:0:0:
209,263,23434,1,2,0:0:0:0:
258,22,23580,1,8,0:0:0:0:
251,280,23726,1,2,0:0:0:0:
410,109,23871,1,8,0:0:0:0:
158,60,24017,6,0,P|131:105|134:163,1,95,6|0,0:0|0:0,0:0:0:0:
321,324,24308,1,2,0:0:0:0:
309,133,24454,1,8,0:0:0:0:
206,345,24599,1,0,0:0:0:0:
392,209,24745,2,0,L|496:222,1,95,2|2,0:0|0:0,0:0:0:0:
321,324,25036,1,8,0:0:0:0:
214,137,25182,6,0,P|270:129|339:140,1,95,2|0,0:0|0:0,0:0:0:0:
132,231,25473,2,0,P|130:289|160:334,1,95,2|8,0:0|0:0,0:0:0:0:
312,227,25764,1,2,0:0:0:0:
227,36,25910,1,0,0:0:0:0:
220,268,26056,1,2,0:0:0:0:
337,49,26201,1,8,0:0:0:0:
169,188,26347,6,0,P|201:246|236:283,1,95,2|0,0:0|0:0,0:0:0:0:
443,185,26638,1,2,0:0:0:0:
235,113,26784,1,8,0:0:0:0:
493,145,26930,2,0,L|373:160,1,95,2|0,0:0|0:0,0:0:0:0:
162,255,27221,1,2,0:0:0:0:
368,232,27366,1,8,0:0:0:0:
236,83,27512,6,0,P|172:88|123:100,1,95,2|0,0:0|0:0,0:0:0:0:
217,333,27803,1,2,0:0:0:0:
294,171,27949,1,8,0:0:0:0:
87,305,28095,1,0,0:0:0:0:
322,291,28240,1,2,0:0:0:0:
322,291,28313,1,0,0:0:0:0:
322,291,28386,1,2,0:0:0:0:
149,153,28531,1,8,0:0:0:0:
336,375,28677,6,0,P|312:313|415:252,1,190,6|2,0:0|0:0,0:0:0:0:
191,240,29114,1,8,0:0:0:0:
388,321,29260,1,0,0:0:0:0:
186,323,29405,2,0,P|141:305|110:257,1,95,2|2,0:0|0:0,0:0:0:0:
222,77,29696,1,8,0:0:0:0:
35,151,29842,6,0,L|46:262,1,95,2|0,0:0|0:0,0:0:0:0:
307,136,30133,2,0,L|296:25,1,95,2|8,0:0|0:0,0:0:0:0:
73,200,30425,2,0,L|84:311,1,95,2|0,0:0|0:0,0:0:0:0:
301,229,30716,1,2,0:0:0:0:
134,118,30862,1,8,0:0:0:0:
274,305,31007,6,0,P|331:307|380:234,1,142.5,2|0,0:0|0:0,0:0:0:0:
367,167,31298,1,2,0:0:0:0:
362,336,31444,1,8,0:0:0:0:
232,174,31590,1,0,0:0:0:0:
447,202,31735,1,2,0:0:0:0:
215,99,31881,2,0,P|163:136|153:181,1,95,2|8,0:0|0:0,0:0:0:0:
258,370,32172,6,0,P|214:316|204:232,1,142.5,6|0,0:0|0:0,0:0:0:0:
232,174,32463,1,0,0:0:0:0:
428,291,32609,1,8,0:0:0:0:
177,325,32755,1,8,0:0:0:0:
189,318,32828,1,0,0:0:0:0:
202,313,32900,1,10,0:0:0:0:
395,142,33046,1,10,0:0:0:0:
137,209,33192,1,8,0:0:0:0:
464,148,33337,6,0,L|311:138,1,142.5,6|0,0:0|0:0,0:0:0:0:
253,108,33629,1,2,0:0:0:0:
426,49,33774,1,8,0:0:0:0:
303,242,33920,1,0,0:0:0:0:
198,40,34065,2,0,P|239:25|308:44,1,95,2|2,0:0|0:0,0:0:0:0:
437,226,34357,1,8,0:0:0:0:
205,280,34502,6,0,P|215:219|216:177,1,95,2|0,0:0|0:0,0:0:0:0:
198,40,34794,1,2,0:0:0:0:
114,216,34939,1,8,0:0:0:0:
98,64,35085,1,2,0:0:0:0:
125,294,35230,1,2,0:0:0:0:
157,120,35376,1,2,0:0:0:0:
56,336,35522,1,8,0:0:0:0:
315,241,35667,6,0,P|294:178|267:131,1,95,2|0,0:0|0:0,0:0:0:0:
270,341,35959,1,2,0:0:0:0:
334,182,36104,1,8,0:0:0:0:
181,357,36250,1,2,0:0:0:0:
415,345,36396,2,0,L|402:243,1,95,0|2,0:0|0:0,0:0:0:0:
157,120,36687,2,0,P|161:142|185:175,1,47.5,8|0,0:0|0:0,0:0:0:0:
256,244,36832,6,0,P|259:172|243:126,1,95,2|0,0:0|0:0,0:0:0:0:
225,359,37124,2,0,P|268:305|290:221,1,142.5,8|0,0:0|0:0,0:0:0:0:
296,165,37415,1,2,0:0:0:0:
161,272,37561,1,8,0:0:0:0:
272,74,37706,1,8,0:0:0:0:
299,325,37852,1,8,0:0:0:0:
80,172,37997,6,0,P|133:127|183:116,1,95,6|0,0:0|0:0,0:0:0:0:
358,228,38289,1,2,0:0:0:0:
369,219,38362,1,0,0:0:0:0:
380,210,38434,1,8,0:0:0:0:
212,338,38580,1,0,0:0:0:0:
387,204,38726,1,2,0:0:0:0:
159,304,38871,2,0,L|287:315,1,95,2|8,0:0|0:0,0:0:0:0:
294,98,39163,1,2,0:0:0:0:
364,313,39308,5,0,0:0:0:0:
205,212,39454,2,0,L|82:220,1,95,2|8,0:0|0:0,0:0:0:0:
313,48,39745,2,0,P|286:132|284:180,1,95,2|0,0:0|0:0,0:0:0:0:
289,350,40036,1,2,0:0:0:0:
397,176,40182,1,8,0:0:0:0:
172,158,40328,6,0,L|184:278,1,95,6|0,0:0|0:0,0:0:0:0:
351,304,40619,1,2,0:0:0:0:
102,215,40764,1,8,0:0:0:0:
293,170,40910,1,0,0:0:0:0:
102,215,41056,1,2,0:0:0:0:
288,76,41201,2,0,P|293:146|294:188,1,95,2|8,0:0|0:0,0:0:0:0:
156,359,41493,1,2,0:0:0:0:
79,142,41638,6,0,P|147:149|192:167,1,95,6|2,0:0|0:0,0:0:0:0:
365,276,41930,1,8,0:0:0:0:
395,44,42075,1,4,0:0:0:0:
71,223,42366,1,4,0:0:0:0:
421,348,42658,6,0,P|423:291|395:237,1,95,6|0,0:0|0:0,0:0:0:0:
282,129,42949,1,0,0:0:0:0:
340,306,43095,1,2,0:0:0:0:
453,170,43240,1,2,0:0:0:0:
265,260,43386,1,8,0:0:0:0:
424,92,43531,2,0,P|385:124|370:175,1,95
228,322,43823,6,0,P|259:273|261:185,1,142.5,2|0,0:0|0:0,0:0:0:0:
171,144,44114,2,0,L|187:254,1,95,8|0,0:0|0:0,0:0:0:0:
379,352,44405,1,2,0:0:0:0:
184,238,44551,1,8,0:0:0:0:
365,137,44696,1,2,0:0:0:0:
379,352,44842,1,8,0:0:0:0:
184,238,44988,6,0,P|127:230|80:230,1,95,6|0,0:0|0:0,0:0:0:0:
214,74,45279,1,0,0:0:0:0:
89,229,45425,1,0,0:0:0:0:
45,33,45570,1,2,0:0:0:0:
200,194,45716,1,8,0:0:0:0:
28,152,45862,1,2,0:0:0:0:
202,29,46007,1,0,0:0:0:0:
293,215,46153,6,0,P|244:207|179:186,1,95,2|0,0:0|0:0,0:0:0:0:
386,78,46444,1,8,0:0:0:0:
468,220,46590,1,2,0:0:0:0:
323,303,46735,2,0,P|310:247|283:201,1,95,8|2,0:0|0:0,0:0:0:0:
92,76,47027,2,0,P|105:132|132:178,1,95,8|2,0:0|0:0,0:0:0:0:
386,78,47318,6,0,B|340:97|340:97|283:79|181:95,1,190,4|0,0:0|0:0,0:0:0:0:
205,257,47755,1,8,0:0:0:0:
332,176,47900,1,8,0:0:0:0:
210,115,48046,5,8,0:0:0:0:
190,284,48192,1,8,0:0:0:0:
306,187,48337,1,8,0:0:0:0:
177,102,48483,1,8,0:0:0:0:
175,317,48629,5,8,0:0:0:0:
365,166,48774,1,8,0:0:0:0:
146,83,48920,1,8,0:0:0:0:
164,352,49065,1,8,0:0:0:0:
398,154,49211,5,8,0:0:0:0:
116,63,49357,1,8,0:0:0:0:
150,378,49502,1,8,0:0:0:0:
423,133,49648,6,0,B|383:65|310:69|277:116|277:116|231:134|231:134|229:184|222:235|132:246|132:246|191:356|271:293|271:293|319:313,1,617.5,4|0,0:0|0:0,0:0:0:0:
379,286,50667,1,2,0:0:0:0:
379,286,50740,1,2,0:0:0:0:
379,286,50813,6,0,B|377:242|377:242|325:214|347:136,1,142.5,2|0,0:0|0:0,0:0:0:0:
340,83,51104,1,2,0:0:0:0:
292,272,51250,1,2,0:0:0:0:
415,46,51396,1,0,0:0:0:0:
206,155,51541,6,0,P|257:174|354:149,1,142.500005435944
135,157,51978,6,0,P|217:205|345:200,1,190,6|2,0:0|0:0,0:0:0:0:
66,292,52415,1,10,0:0:0:0:
169,79,52561,1,0,0:0:0:0:
181,85,52633,1,0,0:0:0:0:
193,90,52706,1,2,0:0:0:0:
179,314,52852,1,2,0:0:0:0:
157,75,52997,1,8,0:0:0:0:
465,199,53143,6,0,B|418:208|418:208|359:199,1,95,2|0,0:0|0:0,0:0:0:0:
364,56,53434,1,2,0:0:0:0:
465,199,53580,1,8,0:0:0:0:
259,296,53726,1,0,0:0:0:0:
273,294,53798,1,0,0:0:0:0:
287,292,53871,1,2,0:0:0:0:
118,230,54017,1,2,0:0:0:0:
393,282,54163,1,8,0:0:0:0:
81,301,54308,6,0,P|40:248|78:161,1,142.5,6|0,0:0|0:0,0:0:0:0:
134,148,54599,1,2,0:0:0:0:
191,328,54745,1,8,0:0:0:0:
213,85,54891,1,0,0:0:0:0:
16,280,55036,1,2,0:0:0:0:
253,175,55182,1,2,0:0:0:0:
64,56,55328,1,8,0:0:0:0:
281,261,55473,6,0,P|326:224|340:180,1,95,2|0,0:0|0:0,0:0:0:0:
100,184,55764,1,2,0:0:0:0:
336,80,55910,1,8,0:0:0:0:
288,344,56056,1,0,0:0:0:0:
137,71,56201,2,0,P|191:48|235:49,1,95,10|2,0:0|0:0,0:0:0:0:
436,175,56493,1,8,0:0:0:0:
208,350,56638,6,0,B|190:295|190:295|202:241|202:241|183:196|192:141,1,190,6|2,0:0|0:0,0:0:0:0:
348,293,57075,1,8,0:0:0:0:
113,241,57221,1,0,0:0:0:0:
314,67,57366,1,2,0:0:0:0:
96,147,57512,2,0,P|107:220|126:274,1,95,2|8,0:0|0:0,0:0:0:0:
417,216,57803,6,0,L|315:191,1,95,2|0,0:0|0:0,0:0:0:0:
133,60,58095,1,2,0:0:0:0:
412,68,58240,1,8,0:0:0:0:
218,245,58386,1,0,0:0:0:0:
211,232,58459,1,0,0:0:0:0:
204,219,58531,1,2,0:0:0:0:
338,344,58677,1,2,0:0:0:0:
255,124,58823,1,8,0:0:0:0:
127,327,58968,6,0,B|177:356|177:356|286:350,1,142.5,6|0,0:0|0:0,0:0:0:0:
338,344,59260,1,2,0:0:0:0:
255,124,59405,1,8,0:0:0:0:
190,356,59551,1,0,0:0:0:0:
207,46,59696,1,2,0:0:0:0:
107,227,59842,1,2,0:0:0:0:
107,227,59915,1,0,0:0:0:0:
107,227,59988,1,8,0:0:0:0:
399,112,60133,6,0,L|233:100,1,142.5,2|0,0:0|0:0,0:0:0:0:
188,140,60425,1,2,0:0:0:0:
403,277,60570,1,8,0:0:0:0:
396,32,60716,1,0,0:0:0:0:
167,218,60862,1,10,0:0:0:0:
205,245,60934,1,0,0:0:0:0:
252,249,61007,1,2,0:0:0:0:
296,231,61080,1,0,0:0:0:0:
316,188,61153,1,8,0:0:0:0:
314,140,61226,1,0,0:0:0:0:
293,96,61298,6,0,L|303:307,1,190,6|2,0:0|0:0,0:0:0:0:
413,132,61735,1,8,0:0:0:0:
178,82,61881,1,0,0:0:0:0:
191,77,61954,1,0,0:0:0:0:
204,73,62027,1,2,0:0:0:0:
42,284,62172,1,2,0:0:0:0:
213,69,62318,1,8,0:0:0:0:
42,284,62463,6,0,P|57:192|62:123,1,142.5,2|0,0:0|0:0,0:0:0:0:
42,68,62755,1,2,0:0:0:0:
168,267,62900,1,8,0:0:0:0:
341,116,63046,1,0,0:0:0:0:
327,111,63119,1,0,0:0:0:0:
313,105,63192,1,2,0:0:0:0:
408,300,63337,1,2,0:0:0:0:
301,101,63483,1,8,0:0:0:0:
479,257,63629,6,0,P|430:221|345:243,1,142.5,6|0,0:0|0:0,0:0:0:0:
315,304,63920,1,2,0:0:0:0:
474,125,64065,1,8,0:0:0:0:
223,158,64211,1,0,0:0:0:0:
228,171,64284,1,0,0:0:0:0:
231,184,64357,1,2,0:0:0:0:
404,60,64502,1,2,0:0:0:0:
123,76,64648,1,8,0:0:0:0:
316,280,64794,6,0,P|324:223|322:164,1,95,2|0,0:0|0:0,0:0:0:0:
304,108,65012,1,0,0:0:0:0:
315,121,65085,2,0,P|371:134|428:143,1,95,2|8,0:0|0:0,0:0:0:0:
198,212,65376,1,0,0:0:0:0:
259,38,65522,1,10,0:0:0:0:
209,315,65667,1,2,0:0:0:0:
459,218,65813,1,8,0:0:0:0:
259,38,65959,6,0,L|251:192,1,142.5,6|0,0:0|0:0,0:0:0:0:
330,166,66250,2,0,L|337:282,1,95,2|8,0:0|0:0,0:0:0:0:
163,86,66541,1,0,0:0:0:0:
150,79,66614,1,0,0:0:0:0:
137,73,66687,1,2,0:0:0:0:
388,88,66832,1,2,0:0:0:0:
164,193,66978,1,8,0:0:0:0:
341,340,67124,6,0,P|326:278|312:192,1,142.5,2|0,0:0|0:0,0:0:0:0:
234,236,67415,2,0,P|240:187|237:127,1,95,2|8,0:0|0:0,0:0:0:0:
444,330,67706,1,0,0:0:0:0:
439,316,67779,1,0,0:0:0:0:
437,302,67852,1,2,0:0:0:0:
223,197,67997,1,2,0:0:0:0:
448,343,68143,1,8,0:0:0:0:
213,340,68289,6,0,L|225:172,1,142.5,6|0,0:0|0:0,0:0:0:0:
188,126,68580,1,2,0:0:0:0:
345,226,68726,1,8,0:0:0:0:
102,220,68871,1,0,0:0:0:0:
314,34,69017,1,2,0:0:0:0:
218,308,69163,1,2,0:0:0:0:
217,45,69308,1,8,0:0:0:0:
297,308,69454,6,0,P|236:324|214:205,1,190,2|2,0:0|0:0,0:0:0:0:
438,32,69891,2,0,P|428:100|407:148,1,95,8|0,0:0|0:0,0:0:0:0:
124,151,70182,1,10,0:0:0:0:
158,182,70255,1,0,0:0:0:0:
203,194,70328,1,2,0:0:0:0:
249,185,70400,1,0,0:0:0:0:
290,161,70473,1,8,0:0:0:0:
337,158,70546,1,0,0:0:0:0:
379,178,70619,6,0,L|211:169,1,142.5,6|0,0:0|0:0,0:0:0:0:
194,110,70910,1,2,0:0:0:0:
312,283,71056,1,8,0:0:0:0:
315,47,71201,1,0,0:0:0:0:
140,203,71347,1,2,0:0:0:0:
334,317,71493,2,0,P|375:273|399:231,1,95,2|8,0:0|0:0,0:0:0:0:
223,50,71784,6,0,L|234:170,1,95,2|0,0:0|0:0,0:0:0:0:
334,317,72075,1,2,0:0:0:0:
329,131,72221,1,8,0:0:0:0:
180,232,72366,1,0,0:0:0:0:
361,333,72512,1,2,0:0:0:0:
147,216,72658,2,0,P|93:221|47:228,1,95,2|8,0:0|0:0,0:0:0:0:
395,180,72949,6,0,P|334:177|217:157,1,142.5,2|0,0:0|0:0,0:0:0:0:
189,115,73240,1,2,0:0:0:0:
361,333,73386,1,8,0:0:0:0:
325,150,73531,1,0,0:0:0:0:
225,329,73677,1,2,0:0:0:0:
394,213,73823,1,2,0:0:0:0:
222,105,73968,1,8,0:0:0:0:
225,329,74114,6,0,L|254:170,1,142.5,2|0,0:0|0:0,0:0:0:0:
144,95,74405,2,0,P|143:145|170:210,1,95,2|8,0:0|0:0,0:0:0:0:
354,269,74696,1,0,0:0:0:0:
139,294,74842,1,10,0:0:0:0:
298,109,74988,1,2,0:0:0:0:
67,69,75133,1,8,0:0:0:0:
139,294,75279,6,0,P|192:285|232:267,1,95,6|0,0:0|0:0,0:0:0:0:
416,111,75570,1,2,0:0:0:0:
208,109,75716,1,8,0:0:0:0:
318,301,75862,1,0,0:0:0:0:
485,156,76007,1,2,0:0:0:0:
317,25,76153,2,0,L|329:141,1,95,2|8,0:0|0:0,0:0:0:0:
296,353,76444,6,0,L|284:237,1,95,2|0,0:0|0:0,0:0:0:0:
317,25,76735,1,2,0:0:0:0:
179,184,76881,1,10,0:0:0:0:
403,219,77027,1,0,0:0:0:0:
289,35,77172,1,10,0:0:0:0:
264,255,77318,1,10,0:0:0:0:
399,38,77463,1,8,0:0:0:0:
225,206,77609,6,0,L|235:314,1,95,6|0,0:0|0:0,0:0:0:0:
339,198,77900,1,2,0:0:0:0:
159,101,78046,1,8,0:0:0:0:
348,164,78192,1,0,0:0:0:0:
123,170,78337,2,0,P|86:138|81:78,1,95,2|2,0:0|0:0,0:0:0:0:
312,71,78629,1,8,0:0:0:0:
421,296,78774,6,0,B|367:273|367:273|324:278|324:278|273:244|219:256,1,190,6|0,0:0|0:0,0:0:0:0:
264,135,79211,1,8,0:0:0:0:
357,355,79357,1,2,0:0:0:0:
396,169,79502,1,8,0:0:0:0:
265,363,79648,1,2,0:0:0:0:
460,227,79794,2,0,P|472:204|480:170,1,47.5,8|0,0:0|0:0,0:0:0:0:
453,89,79939,5,6,0:0:0:0:
421,66,80012,1,2,0:0:0:0:
384,56,80085,1,2,0:0:0:0:
349,72,80158,1,2,0:0:0:0:
328,104,80230,1,6,0:0:0:0:
295,124,80303,1,2,0:0:0:0:
258,133,80376,2,2,L|174:117,1,47.5,10|0,0:0|0:0,0:0:0:0:
104,162,80522,2,0,L|0:142,1,95,2|4,0:0|0:0,0:0:0:0:
335,215,80813,1,6,0:0:0:0:
104,162,80959,2,0,L|39:149,1,47.5,8|0,0:0|0:0,0:0:0:0:
66,253,81104,1,6,0:0:0:0:
66,253,81177,1,2,0:0:0:0:
66,253,81250,6,0,P|112:280|165:295,1,95,2|4,0:0|0:0,0:0:0:0:
387,157,81541,1,8,0:0:0:0:
183,73,81687,1,0,0:0:0:0:
241,302,81832,1,4,0:0:0:0:
159,127,81978,2,0,L|147:24,1,95,4|8,0:0|0:0,0:0:0:0:
265,181,82269,6,0,P|263:241|248:285,1,95,6|0,0:0|0:0,0:0:0:0:
451,267,82561,1,2,0:0:0:0:
145,209,82706,1,8,0:0:0:0:
344,72,82852,1,0,0:0:0:0:
355,317,82997,1,2,0:0:0:0:
441,122,83143,1,2,0:0:0:0:
450,132,83216,1,0,0:0:0:0:
459,142,83289,1,8,0:0:0:0:
346,347,83434,6,0,B|358:282|358:282|339:236|352:181,1,142.5,2|0,0:0|0:0,0:0:0:0:
290,144,83726,2,0,P|295:80|302:43,1,95,2|8,0:0|0:0,0:0:0:0:
437,229,84017,1,0,0:0:0:0:
227,203,84163,1,2,0:0:0:0:
378,53,84308,1,2,0:0:0:0:
378,53,84381,1,0,0:0:0:0:
378,53,84454,1,8,0:0:0:0:
111,129,84599,5,2,0:0:0:0:
126,174,84672,1,2,0:0:0:0:
151,213,84745,1,2,0:0:0:0:
191,237,84818,1,2,0:0:0:0:
237,246,84891,1,2,0:0:0:0:
283,244,84963,1,2,0:0:0:0:
329,233,85036,1,2,0:0:0:0:
362,198,85109,1,2,0:0:0:0:
391,159,85182,2,2,P|421:147|456:141,1,47.5,2|0,0:0|0:0,0:0:0:0:
318,96,85328,2,0,P|281:115|205:111,1,95,2|0,0:0|0:0,0:0:0:0:
59,53,85619,1,8,0:0:0:0:
97,304,85764,6,0,P|157:275|108:173,1,190,4|12,0:0|0:0,0:0:0:0:
285,125,86201,1,0,0:0:0:0:
225,318,86347,1,4,0:0:0:0:
227,61,86493,1,4,0:0:0:0:
301,362,86638,1,8,0:0:0:0:
345,44,86930,6,0,B|375:94|375:94|373:152|373:152|397:182|395:234,1,190,4|2,0:0|0:0,0:0:0:0:
301,362,87366,1,8,0:0:0:0:
285,125,87512,1,2,0:0:0:0:
441,287,87658,1,2,0:0:0:0:
215,171,87803,2,0,B|158:168|158:168|104:180|104:180|62:172|62:172|18:178,1,190,8|10,0:0|0:0,0:0:0:0:
294,236,88240,5,2,0:0:0:0:
180,78,88386,1,8,0:0:0:0:
217,298,88531,1,2,0:0:0:0:
255,30,88677,1,6,0:0:0:0:
41,346,88968,1,6,0:0:0:0:
