osu file format v14

[General]
AudioFilename: audio.mp3
AudioLeadIn: 0
PreviewTime: 57279
Countdown: 0
SampleSet: Normal
StackLeniency: 0.7
Mode: 0
LetterboxInBreaks: 1
WidescreenStoryboard: 0

[Editor]
Bookmarks: 25441
DistanceSpacing: 0.8
BeatDivisor: 4
GridSize: 8
TimelineZoom: 1.9

[Metadata]
Title:Seventh World
TitleUnicode:Seventh World
Artist:Kishida Kyoudan & The Akeboshi Rockets
ArtistUnicode:Kishida Kyoudan & The Akeboshi Rockets
Creator:october
Version:Ambiguity
Source:
Tags:
BeatmapID:1743799
BeatmapSetID:832335

[Difficulty]
HPDrainRate:6
CircleSize:4
OverallDifficulty:8.6
ApproachRate:9.6
SliderMultiplier:2
SliderTickRate:1

[Events]
//Background and Video events
0,0,"bgxd.jpg",0,0
//Break Periods
//Storyboard Layer 0 (Background)
//Storyboard Layer 1 (Fail)
//Storyboard Layer 2 (Pass)
//Storyboard Layer 3 (Foreground)
//Storyboard Sound Samples

[TimingPoints]
294,294.117647058824,4,1,0,70,1,0
4999,-83.3333333333333,4,1,0,70,0,0
5146,-100,4,1,0,70,0,0
9705,-83.3333333333333,4,1,0,70,0,1
9852,-100,4,1,0,70,0,1
26176,-100,4,1,0,70,0,0
26470,-100,4,1,0,5,0,0
26617,-100,4,1,0,70,0,0
26911,-100,4,1,0,5,0,0
27058,-100,4,1,0,70,0,0
27499,-133.333333333333,4,1,0,70,0,0
27941,-100,4,1,0,70,0,0
33085,-133.333333333333,4,1,0,70,0,0
34411,-105.263157894737,4,1,0,70,0,0
34852,-83.3333333333333,4,1,0,70,0,0
35294,-100,4,1,0,70,0,0
35588,-133.333333333333,4,1,0,70,0,0
36176,-105.263157894737,4,1,0,70,0,0
36470,-100,4,1,0,70,0,0
37941,-86.9565217391304,4,1,0,70,0,0
42941,-100,4,1,0,70,0,0
60294,-74.0740740740741,4,1,0,70,0,1
76176,-74.0740740740741,4,1,0,70,0,0
76764,-100,4,1,0,70,0,1
93235,-100,4,1,0,70,0,0

[HitObjects]
168,280,294,5,0,0:0:0:0:
256,104,441,1,0,0:0:0:0:
336,184,588,5,0,0:0:0:0:
168,280,735,1,0,0:0:0:0:
168,280,808,1,0,0:0:0:0:
168,280,882,1,0,0:0:0:0:
104,96,1029,5,0,0:0:0:0:
281,209,1176,2,0,P|361:203|420:94,1,200
312,104,1617,1,0,0:0:0:0:
216,136,1764,1,0,0:0:0:0:
184,104,1911,1,0,0:0:0:0:
120,192,2058,2,0,L|40:112,1,100
224,264,2352,2,0,L|336:264,1,100
344,112,2646,6,0,P|240:96|160:136,1,100
120,208,2941,1,0,0:0:0:0:
96,64,3088,1,0,0:0:0:0:
132,97,3161,1,0,0:0:0:0:
169,131,3235,2,0,B|201:162|201:162|264:248,1,100
448,184,3529,2,0,B|408:192|408:192|344:240,1,100
272,336,3823,5,4,0:0:0:0:
272,112,3970,1,0,0:0:0:0:
272,336,4117,5,4,0:0:0:0:
120,224,4264,1,0,0:0:0:0:
272,336,4411,5,4,0:0:0:0:
160,112,4558,1,0,0:0:0:0:
160,112,4632,1,0,0:0:0:0:
160,112,4705,1,0,0:0:0:0:
160,112,4999,6,0,P|216:128|328:104,1,119.999996337891
432,32,5294,1,0,0:0:0:0:
360,280,5441,1,0,0:0:0:0:
360,280,5514,1,0,0:0:0:0:
360,280,5588,1,0,0:0:0:0:
408,144,5735,1,0,0:0:0:0:
248,224,5882,1,0,0:0:0:0:
472,232,6029,1,0,0:0:0:0:
248,224,6176,1,0,0:0:0:0:
360,320,6323,6,0,P|304:336|224:320,1,100
149,225,6617,1,0,0:0:0:0:
149,225,6764,2,0,P|205:217|253:225,1,100
280,104,7058,2,0,P|230:110|181:102,1,100
64,40,7352,5,0,0:0:0:0:
56,176,7499,1,0,0:0:0:0:
92,209,7572,1,0,0:0:0:0:
139,224,7646,1,0,0:0:0:0:
184,96,7794,5,0,0:0:0:0:
104,304,7941,2,0,P|208:320|248:312,1,100
416,224,8235,2,0,P|312:240|272:232,1,100
160,216,8529,5,8,0:0:0:0:
256,88,8676,1,0,0:0:0:0:
217,362,8823,1,8,0:0:0:0:
320,240,8970,1,0,0:0:0:0:
56,336,9117,1,4,0:0:0:0:
184,160,9705,6,0,P|240:176|304:224,1,119.999996337891,4|0,0:0|0:0,0:0:0:0:
248,328,9999,1,0,0:0:0:0:
328,128,10146,1,0,0:0:0:0:
392,272,10294,1,0,0:0:0:0:
424,168,10441,5,0,0:0:0:0:
328,344,10588,1,8,0:0:0:0:
240,208,10735,1,0,0:0:0:0:
328,344,10882,1,8,0:0:0:0:
360,240,11029,1,0,0:0:0:0:
328,344,11176,2,0,B|281:343|281:343|264:352|264:352|248:344|248:344|224:336|224:336|208:344|208:344|128:344,1,200,4|0,0:0|0:0,0:0:0:0:
80,240,11617,5,0,0:0:0:0:
80,240,11764,2,0,L|200:240,1,100
144,144,12058,5,0,0:0:0:0:
134,344,12205,1,0,0:0:0:0:
312,232,12352,1,0,0:0:0:0:
240,320,12499,1,0,0:0:0:0:
272,120,12646,1,0,0:0:0:0:
440,240,12794,1,0,0:0:0:0:
180,240,12941,1,0,0:0:0:0:
440,240,13088,2,0,P|408:192|344:152,1,100,4|0,0:0|0:0,0:0:0:0:
248,88,13382,5,0,0:0:0:0:
296,320,13529,1,0,0:0:0:0:
256,184,13676,1,0,0:0:0:0:
128,352,13823,1,0,0:0:0:0:
168,144,13970,1,0,0:0:0:0:
264,256,14117,2,0,P|368:208|384:192,1,100
264,32,14411,6,0,P|144:40|112:56,1,100
96,184,14705,1,0,0:0:0:0:
256,144,14852,1,0,0:0:0:0:
32,64,14999,1,0,0:0:0:0:
208,272,15146,1,0,0:0:0:0:
160,104,15294,1,0,0:0:0:0:
88,320,15441,1,0,0:0:0:0:
312,272,15588,5,0,0:0:0:0:
80,192,15735,1,0,0:0:0:0:
312,272,15882,1,0,0:0:0:0:
80,192,16029,1,0,0:0:0:0:
240,64,16176,2,0,P|344:120|360:152,1,100
232,192,16470,1,0,0:0:0:0:
448,184,16617,1,0,0:0:0:0:
455,232,16690,1,0,0:0:0:0:
438,279,16764,5,0,0:0:0:0:
352,216,16911,1,0,0:0:0:0:
456,88,17058,1,0,0:0:0:0:
448,187,17205,1,0,0:0:0:0:
288,72,17352,1,0,0:0:0:0:
438,279,17499,1,0,0:0:0:0:
184,280,17646,1,0,0:0:0:0:
438,279,17794,6,0,B|394:252|394:252|312:224,1,100
96,232,18088,2,0,P|100:340|124:368,1,100
240,192,18382,1,0,0:0:0:0:
136,96,18529,1,0,0:0:0:0:
192,304,18676,1,0,0:0:0:0:
368,152,18823,2,0,P|328:120|280:104,1,100
188,86,19117,5,4,0:0:0:0:
240,248,19264,1,0,0:0:0:0:
88,208,19411,1,0,0:0:0:0:
360,144,19558,1,0,0:0:0:0:
88,208,19705,2,0,B|120:240|120:240|208:288,1,100
192,144,19999,5,0,0:0:0:0:
56,328,20146,1,0,0:0:0:0:
272,256,20294,1,0,0:0:0:0:
64,112,20441,1,0,0:0:0:0:
272,256,20588,1,0,0:0:0:0:
64,112,20735,1,0,0:0:0:0:
224,64,20882,5,0,0:0:0:0:
80,288,21029,1,0,0:0:0:0:
319,344,21176,2,0,B|304:296|304:296|255:224,1,100
144,160,21470,5,0,0:0:0:0:
392,264,21617,1,0,0:0:0:0:
328,152,21764,1,0,0:0:0:0:
168,352,21911,1,0,0:0:0:0:
299,343,22058,1,0,0:0:0:0:
299,343,22132,1,0,0:0:0:0:
299,343,22205,1,0,0:0:0:0:
192,192,22352,5,0,0:0:0:0:
448,256,22499,1,0,0:0:0:0:
344,96,22646,1,0,0:0:0:0:
299,343,22794,1,0,0:0:0:0:
344,96,22941,1,0,0:0:0:0:
299,343,23088,1,0,0:0:0:0:
344,96,23235,1,0,0:0:0:0:
192,192,23382,1,0,0:0:0:0:
456,240,23529,2,0,P|432:192|392:144,1,100
264,56,23823,5,0,0:0:0:0:
320,248,23970,1,0,0:0:0:0:
216,288,24117,1,0,0:0:0:0:
312,144,24264,1,0,0:0:0:0:
80,256,24411,1,0,0:0:0:0:
216,288,24558,1,0,0:0:0:0:
176,112,24705,5,0,0:0:0:0:
134,334,24852,1,0,0:0:0:0:
344,256,24999,1,0,0:0:0:0:
80,152,25146,1,0,0:0:0:0:
344,256,25294,1,0,0:0:0:0:
160,240,25441,1,0,0:0:0:0:
160,240,25514,1,0,0:0:0:0:
160,240,25588,1,0,0:0:0:0:
264,96,25735,1,0,0:0:0:0:
256,312,25882,2,0,L|152:360,1,100
152,240,26176,5,8,0:0:0:0:
360,248,26323,2,0,L|432:344,1,100,4|0,0:0|0:0,0:0:0:0:
256,208,26617,5,8,0:0:0:0:
384,64,26764,2,0,L|520:112,1,100,4|0,0:0|0:0,0:0:0:0:
368,232,27058,5,8,0:0:0:0:
240,80,27205,2,0,L|96:160,1,100,4|0,0:0|0:0,0:0:0:0:
248,312,27499,2,0,B|296:248|296:248|368:232,1,150.000005722046,4|0,0:0|0:0,0:0:0:0:
120,320,27941,5,0,0:0:0:0:
108,274,28014,1,0,0:0:0:0:
114,223,28088,1,0,0:0:0:0:
131,172,28161,1,0,0:0:0:0:
159,133,28235,1,0,0:0:0:0:
301,212,28382,5,0,0:0:0:0:
258,230,28455,1,0,0:0:0:0:
208,240,28529,2,0,P|152:240|88:216,1,100
61,132,28823,2,0,P|175:142|199:166,1,100
264,88,29117,1,0,0:0:0:0:
376,160,29264,1,0,0:0:0:0:
248,216,29411,1,0,0:0:0:0:
248,216,29485,1,0,0:0:0:0:
248,216,29558,2,0,P|272:256|352:296,1,100,4|0,0:0|0:0,0:0:0:0:
176,344,29852,5,0,0:0:0:0:
176,344,29999,2,0,P|168:264|136:216,1,100
48,160,30294,1,0,0:0:0:0:
32,288,30441,1,0,0:0:0:0:
184,144,30588,2,0,P|242:181|264:248,1,100
176,344,30882,6,0,B|233:343|233:343|320:304,1,100
376,256,31176,1,0,0:0:0:0:
368,352,31323,1,0,0:0:0:0:
336,160,31470,1,0,0:0:0:0:
440,176,31617,1,0,0:0:0:0:
264,232,31764,1,0,0:0:0:0:
264,232,31911,2,0,B|216:224|216:224|144:184,1,100,4|0,0:0|0:0,0:0:0:0:
68,173,32205,5,0,0:0:0:0:
68,173,32352,2,0,B|101:124|101:124|152:96,1,100
240,64,32646,1,0,0:0:0:0:
232,176,32794,1,0,0:0:0:0:
320,264,32941,2,0,B|368:280|368:280|456:272,1,100
376,184,33235,2,0,P|256:168|192:208,1,150.000005722046,4|0,0:0|0:0,0:0:0:0:
144,264,33676,1,0,0:0:0:0:
80,160,33823,5,0,0:0:0:0:
144,264,33970,1,0,0:0:0:0:
272,304,34117,2,0,B|304:296|304:296|376:240,1,75.0000028610231
240,176,34411,1,0,0:0:0:0:
240,176,34558,2,0,B|279:150|279:150|328:88,1,94.9999974632264
144,80,34852,5,0,0:0:0:0:
144,80,34926,1,0,0:0:0:0:
144,80,34999,2,0,B|80:112|80:112|40:184,1,119.999996337891,8|0,0:0|0:0,0:0:0:0:
112,272,35294,2,0,B|162:283|162:283|224:280,1,100,8|0,0:0|0:0,0:0:0:0:
316,302,35588,2,0,P|282:200|216:176,1,150.000005722046,4|0,0:0|0:0,0:0:0:0:
144,160,36029,1,0,0:0:0:0:
144,160,36176,2,0,B|168:112|168:112|184:24,1,94.9999974632264
72,264,36470,5,0,0:0:0:0:
276,279,36617,2,0,B|240:312|240:312|192:328,1,100,4|0,0:0|0:0,0:0:0:0:
400,192,36911,2,0,B|448:216|448:216|512:272,1,100,4|0,0:0|0:0,0:0:0:0:
239,130,37205,2,0,B|184:136|184:136|111:170,1,100,4|0,0:0|0:0,0:0:0:0:
64,280,37499,1,8,0:0:0:0:
40,64,37646,1,8,0:0:0:0:
240,128,37794,1,8,0:0:0:0:
168,317,37941,6,0,P|111:311|56:272,1,115.000002193451,8|0,0:0|0:0,0:0:0:0:
152,200,38235,2,0,P|252:226|272:248,1,115.000002193451
344,336,38529,1,0,0:0:0:0:
352,144,38676,1,0,0:0:0:0:
432,240,38823,1,0,0:0:0:0:
240,120,38970,2,0,P|184:104|96:128,1,115.000002193451
256,240,39264,5,0,0:0:0:0:
352,144,39411,2,0,P|400:184|432:248,1,115.000002193451
344,344,39705,1,0,0:0:0:0:
448,136,39852,1,0,0:0:0:0:
304,240,39999,2,0,P|248:208|208:144,1,115.000002193451
424,232,40294,6,0,P|408:288|336:344,1,115.000002193451
152,352,40588,2,0,P|272:328|312:352,1,115.000002193451
176,224,40882,5,0,0:0:0:0:
304,208,41029,1,0,0:0:0:0:
376,104,41176,1,0,0:0:0:0:
304,208,41323,2,0,B|240:224|240:224|168:224,1,115.000002193451
96,128,41617,1,0,0:0:0:0:
264,328,41764,1,0,0:0:0:0:
240,160,41911,1,0,0:0:0:0:
104,280,42058,2,0,B|152:304|152:304|224:320,1,115.000002193451,8|0,0:0|0:0,0:0:0:0:
384,208,42352,2,0,B|336:232|336:232|264:248,1,115.000002193451,8|0,0:0|0:0,0:0:0:0:
128,120,42646,6,0,B|176:144|176:144|248:160,1,115.000002193451,4|0,0:0|0:0,0:0:0:0:
336,136,42941,2,0,P|264:56|192:64,1,100
363,238,43235,2,0,P|407:216|436:176,1,100
248,216,43529,1,0,0:0:0:0:
176,304,43676,1,0,0:0:0:0:
120,200,43823,2,0,P|99:142|57:98,1,100
148,22,44117,2,0,P|169:80|211:124,1,100
281,198,44411,5,0,0:0:0:0:
407,181,44558,1,0,0:0:0:0:
320,80,44705,2,0,P|270:79|222:92,1,100
55,176,44999,2,0,P|105:172|153:185,1,100
280,208,45294,1,0,0:0:0:0:
200,296,45441,1,0,0:0:0:0:
304,304,45588,1,0,0:0:0:0:
153,185,45735,1,0,0:0:0:0:
107,266,45882,1,0,0:0:0:0:
233,103,46029,5,0,0:0:0:0:
80,112,46176,1,0,0:0:0:0:
80,112,46249,1,0,0:0:0:0:
80,112,46323,1,0,0:0:0:0:
216,224,46470,1,0,0:0:0:0:
32,296,46617,1,0,0:0:0:0:
152,320,46764,1,0,0:0:0:0:
80,112,46911,1,0,0:0:0:0:
112,216,47058,2,0,L|224:168,1,100
328,104,47352,5,0,0:0:0:0:
288,312,47499,1,0,0:0:0:0:
432,176,47646,1,0,0:0:0:0:
184,248,47794,1,0,0:0:0:0:
432,304,48088,6,0,B|400:264|400:264|328:224,1,100
104,184,48382,2,0,P|88:231|89:280,1,100
200,304,48676,5,0,0:0:0:0:
288,240,48823,1,0,0:0:0:0:
240,144,48970,1,0,0:0:0:0:
344,336,49117,5,0,0:0:0:0:
448,152,49264,1,0,0:0:0:0:
344,336,49411,1,0,0:0:0:0:
448,152,49558,1,0,0:0:0:0:
336,208,49705,5,0,0:0:0:0:
448,280,49852,1,0,0:0:0:0:
240,144,49999,1,0,0:0:0:0:
288,352,50146,1,0,0:0:0:0:
240,144,50294,1,0,0:0:0:0:
448,280,50441,2,0,P|462:228|448:157,1,100
408,48,50735,2,0,P|313:147|314:196,1,100
264,280,51029,5,0,0:0:0:0:
360,208,51176,1,0,0:0:0:0:
160,208,51323,5,0,0:0:0:0:
248,152,51470,1,0,0:0:0:0:
248,152,51544,1,0,0:0:0:0:
248,152,51617,1,0,0:0:0:0:
144,96,51764,1,0,0:0:0:0:
96,107,51837,1,0,0:0:0:0:
63,144,51911,1,0,0:0:0:0:
48,256,52058,5,0,0:0:0:0:
144,184,52205,1,0,0:0:0:0:
176,352,52352,1,0,0:0:0:0:
320,192,52499,1,0,0:0:0:0:
120,272,52646,1,0,0:0:0:0:
320,328,52794,2,0,P|368:320|424:288,1,100
247,175,53088,2,0,P|199:183|151:215,1,100
312,240,53382,5,0,0:0:0:0:
312,240,53529,2,0,B|344:224|344:224|400:168,1,100
312,64,53823,1,0,0:0:0:0:
264,160,53970,1,0,0:0:0:0:
424,80,54117,1,0,0:0:0:0:
200,40,54264,1,0,0:0:0:0:
264,264,54411,5,0,0:0:0:0:
304,104,54558,1,0,0:0:0:0:
304,104,54632,1,0,0:0:0:0:
304,104,54705,1,0,0:0:0:0:
144,168,54852,1,0,0:0:0:0:
127,214,54925,1,0,0:0:0:0:
132,263,54999,1,0,0:0:0:0:
158,305,55072,1,0,0:0:0:0:
199,334,55146,1,0,0:0:0:0:
328,272,55294,5,0,0:0:0:0:
287,243,55367,1,0,0:0:0:0:
239,229,55441,1,0,0:0:0:0:
189,232,55514,1,0,0:0:0:0:
144,252,55588,1,0,0:0:0:0:
72,328,55735,5,0,0:0:0:0:
184,368,55882,1,0,0:0:0:0:
288,296,56029,1,0,0:0:0:0:
328,264,56102,1,0,0:0:0:0:
360,224,56176,1,0,0:0:0:0:
376,176,56249,1,0,0:0:0:0:
376,128,56323,1,0,0:0:0:0:
352,88,56396,1,0,0:0:0:0:
304,72,56470,1,0,0:0:0:0:
256,88,56544,1,0,0:0:0:0:
224,128,56617,1,0,0:0:0:0:
184,152,56691,1,0,0:0:0:0:
136,160,56764,2,0,P|80:160|24:96,1,100
133,52,57352,5,0,0:0:0:0:
224,128,57646,1,0,0:0:0:0:
192,256,57941,2,0,P|142:246|76:199,1,100
323,214,58235,2,0,P|370:259|387:322,1,100
231,132,58529,2,0,P|267:101|331:81,1,100
323,214,58823,6,0,P|282:241|226:248,1,100
107,287,59117,2,0,P|123:177|150:150,1,100
263,157,59411,2,0,P|211:263|195:270,1,100
406,309,59705,6,0,P|379:267|374:218,1,100
360,86,59999,1,0,0:0:0:0:
318,57,60072,1,0,0:0:0:0:
270,45,60146,1,0,0:0:0:0:
221,50,60219,1,0,0:0:0:0:
176,71,60294,2,0,B|136:98|136:98|62:196,1,135.000000514984
282,271,60588,2,0,B|279:240|262:217|262:217|209:196|189:160,1,135.000000514984
149,295,60882,1,0,0:0:0:0:
291,117,61029,1,0,0:0:0:0:
280,272,61176,5,0,0:0:0:0:
136,104,61323,1,0,0:0:0:0:
115,132,61396,1,0,0:0:0:0:
91,163,61470,2,0,B|61:207|61:207|80:256|51:313,1,135.000000514984
184,216,61764,5,0,0:0:0:0:
40,80,61911,1,0,0:0:0:0:
64,288,62058,1,0,0:0:0:0:
192,96,62205,1,0,0:0:0:0:
296,248,62352,1,0,0:0:0:0:
96,176,62499,1,0,0:0:0:0:
85,206,62573,1,0,0:0:0:0:
71,242,62646,2,0,B|72:280|72:280|112:312|112:312|128:368,1,135.000000514984
192,232,62941,5,0,0:0:0:0:
288,344,63088,1,0,0:0:0:0:
288,136,63235,5,0,0:0:0:0:
200,320,63382,1,0,0:0:0:0:
400,248,63529,1,0,0:0:0:0:
400,248,63602,1,0,0:0:0:0:
400,248,63676,1,0,0:0:0:0:
160,184,63823,2,0,B|104:224|104:224|48:304,1,135.000000514984
248,288,64117,2,0,B|256:256|256:256|280:224|280:224|288:136,1,135.000000514984
200,80,64411,5,0,0:0:0:0:
400,160,64558,1,0,0:0:0:0:
248,288,64705,1,0,0:0:0:0:
304,96,64852,1,0,0:0:0:0:
400,320,64999,2,0,B|352:360|352:360|272:376,1,135.000000514984
112,288,65294,2,0,B|176:272|176:272|256:288,1,135.000000514984
336,200,65588,5,0,0:0:0:0:
184,96,65735,1,0,0:0:0:0:
166,132,65808,1,0,0:0:0:0:
143,177,65882,1,0,0:0:0:0:
120,221,65955,1,0,0:0:0:0:
102,262,66029,2,0,L|64:336,1,67.5000002574921
240,288,66176,5,0,0:0:0:0:
208,248,66249,1,0,0:0:0:0:
160,216,66323,1,0,0:0:0:0:
104,208,66396,1,0,0:0:0:0:
56,224,66470,1,0,0:0:0:0:
120,328,66617,5,0,0:0:0:0:
120,328,66691,1,0,0:0:0:0:
120,328,66764,1,0,0:0:0:0:
248,152,66911,1,0,0:0:0:0:
200,120,66985,1,0,0:0:0:0:
144,120,67058,1,0,0:0:0:0:
96,152,67132,1,0,0:0:0:0:
80,200,67205,1,0,0:0:0:0:
93,258,67279,1,0,0:0:0:0:
136,296,67352,2,0,B|192:312|192:312|224:288|288:280,1,135.000000514984
408,278,67646,5,0,0:0:0:0:
289,138,67794,1,0,0:0:0:0:
198,308,67941,2,0,B|261:324|261:324|347:306,1,135.000000514984
191,186,68235,5,0,0:0:0:0:
94,362,68382,1,0,0:0:0:0:
273,234,68529,5,0,0:0:0:0:
34,214,68676,1,0,0:0:0:0:
246,342,68823,2,0,B|314:342|314:342|388:317,1,135.000000514984
444,202,69117,5,0,0:0:0:0:
444,202,69191,1,0,0:0:0:0:
444,202,69264,1,0,0:0:0:0:
296,118,69411,2,0,B|253:174|253:174|251:255,1,135.000000514984
408,80,69705,2,0,B|342:32|342:32|252:18,1,135.000000514984
173,111,69999,1,0,0:0:0:0:
321,229,70146,1,0,0:0:0:0:
297,121,70294,1,0,0:0:0:0:
139,271,70441,5,0,0:0:0:0:
297,121,70588,1,0,0:0:0:0:
464,272,70735,1,0,0:0:0:0:
432,312,70808,1,0,0:0:0:0:
403,341,70882,2,0,B|356:370|356:370|311:342|229:363,1,135.000000514984
186,188,71176,2,0,B|251:202|251:202|331:260,1,135.000000514984
179,310,71470,1,0,0:0:0:0:
339,136,71617,5,0,0:0:0:0:
179,310,71764,1,0,0:0:0:0:
116,96,71911,1,0,0:0:0:0:
116,96,71985,1,0,0:0:0:0:
116,96,72058,2,0,B|181:86|181:86|264:108,1,135.000000514984
339,237,72352,5,0,0:0:0:0:
196,228,72499,1,0,0:0:0:0:
404,105,72646,2,0,B|451:153|451:153|473:245,1,135.000000514984
343,323,72941,5,0,0:0:0:0:
471,341,73088,1,0,0:0:0:0:
355,187,73235,2,0,B|295:215|295:215|238:293,1,135.000000514984
134,215,73529,2,0,B|194:187|194:187|251:109,1,135.000000514984
109,87,73823,5,0,0:0:0:0:
61,313,73970,1,0,0:0:0:0:
273,232,74117,1,0,0:0:0:0:
140,200,74264,1,0,0:0:0:0:
140,200,74338,1,0,0:0:0:0:
140,200,74411,1,0,0:0:0:0:
193,332,74558,5,0,0:0:0:0:
285,129,74705,1,0,0:0:0:0:
65,300,74852,1,0,0:0:0:0:
321,261,74999,1,0,0:0:0:0:
159,63,75147,1,0,0:0:0:0:
183,254,75294,2,0,B|241:214|241:214|278:152,1,135.000000514984
85,157,75588,5,0,0:0:0:0:
321,261,75735,1,0,0:0:0:0:
67,317,75882,1,0,0:0:0:0:
275,157,76029,1,0,0:0:0:0:
67,317,76176,1,0,0:0:0:0:
337,155,76764,6,0,P|278:157|205:190,1,119.999996337891,4|0,0:0|0:0,0:0:0:0:
236,304,77058,1,0,0:0:0:0:
203,91,77205,1,0,0:0:0:0:
109,217,77353,1,0,0:0:0:0:
101,108,77500,5,0,0:0:0:0:
155,301,77647,1,8,0:0:0:0:
271,189,77794,1,0,0:0:0:0:
155,301,77941,1,8,0:0:0:0:
147,193,78088,1,0,0:0:0:0:
155,301,78235,2,0,B|201:310|201:310|215:323|215:323|232:318|232:318|258:316|258:316|271:327|271:327|349:345,1,200,4|0,0:0|0:0,0:0:0:0:
420,256,78676,5,0,0:0:0:0:
420,256,78823,2,0,L|303:229,1,100
379,148,79117,5,0,0:0:0:0:
344,345,79264,1,0,0:0:0:0:
196,196,79411,1,0,0:0:0:0:
246,298,79558,1,0,0:0:0:0:
260,96,79705,1,0,0:0:0:0:
69,175,79853,1,0,0:0:0:0:
322,233,80000,1,0,0:0:0:0:
69,175,80147,2,0,P|110:135|182:110,1,100,4|0,0:0|0:0,0:0:0:0:
290,70,80441,5,0,0:0:0:0:
191,285,80588,1,0,0:0:0:0:
261,162,80735,1,0,0:0:0:0:
348,354,80882,1,0,0:0:0:0:
356,143,81029,1,0,0:0:0:0:
237,230,81176,2,0,P|146:159|134:140,1,100
287,12,81470,6,0,P|402:46|429:69,1,100
417,198,81764,1,0,0:0:0:0:
270,123,81911,1,0,0:0:0:0:
506,95,82058,1,0,0:0:0:0:
288,258,82205,1,0,0:0:0:0:
372,105,82353,1,0,0:0:0:0:
394,332,82500,1,0,0:0:0:0:
187,235,82647,5,0,0:0:0:0:
431,209,82794,1,0,0:0:0:0:
187,235,82941,1,0,0:0:0:0:
431,209,83088,1,0,0:0:0:0:
304,48,83235,2,0,P|190:79|167:106,1,100
283,175,83529,1,0,0:0:0:0:
74,118,83676,1,0,0:0:0:0:
56,164,83749,1,0,0:0:0:0:
62,213,83823,5,0,0:0:0:0:
160,171,83970,1,0,0:0:0:0:
88,23,84117,1,0,0:0:0:0:
73,121,84264,1,0,0:0:0:0:
255,45,84411,1,0,0:0:0:0:
62,213,84558,1,0,0:0:0:0:
310,271,84705,1,0,0:0:0:0:
62,213,84853,6,0,B|110:196|110:196|197:187,1,100
406,244,85147,2,0,P|377:348|348:370,1,100
275,173,85441,1,0,0:0:0:0:
398,103,85588,1,0,0:0:0:0:
296,293,85735,1,0,0:0:0:0:
159,105,85882,2,0,P|205:82|255:78,1,100
349,81,86176,5,4,0:0:0:0:
262,228,86323,1,0,0:0:0:0:
419,223,86470,1,0,0:0:0:0:
169,99,86617,1,0,0:0:0:0:
419,223,86764,2,0,B|380:246|380:246|284:273,1,100
332,137,87058,5,0,0:0:0:0:
423,347,87205,1,0,0:0:0:0:
229,228,87353,1,0,0:0:0:0:
464,135,87500,1,0,0:0:0:0:
229,228,87647,1,0,0:0:0:0:
464,135,87794,1,0,0:0:0:0:
319,52,87941,5,0,0:0:0:0:
409,303,88088,1,0,0:0:0:0:
164,303,88235,2,0,B|189:259|189:259|253:200,1,100
375,163,88529,5,0,0:0:0:0:
110,209,88676,1,0,0:0:0:0:
198,114,88823,1,0,0:0:0:0:
309,345,88970,1,0,0:0:0:0:
183,307,89117,1,0,0:0:0:0:
183,307,89191,1,0,0:0:0:0:
183,307,89264,1,0,0:0:0:0:
322,184,89411,5,0,0:0:0:0:
58,189,89558,1,0,0:0:0:0:
195,56,89705,1,0,0:0:0:0:
183,307,89853,1,0,0:0:0:0:
195,56,90000,1,0,0:0:0:0:
183,307,90147,1,0,0:0:0:0:
195,56,90294,1,0,0:0:0:0:
322,184,90441,1,0,0:0:0:0:
53,171,90588,2,0,P|87:129|136:91,1,100
282,35,90882,5,0,0:0:0:0:
184,210,91029,1,0,0:0:0:0:
277,272,91176,1,0,0:0:0:0:
215,110,91323,1,0,0:0:0:0:
416,271,91470,1,0,0:0:0:0:
277,272,91617,1,0,0:0:0:0:
355,110,91764,5,0,0:0:0:0:
346,335,91911,1,0,0:0:0:0:
159,212,92058,1,0,0:0:0:0:
440,170,92205,1,0,0:0:0:0:
159,212,92353,1,0,0:0:0:0:
342,238,92500,1,0,0:0:0:0:
342,238,92573,1,0,0:0:0:0:
342,238,92647,1,0,0:0:0:0:
273,74,92794,5,0,0:0:0:0:
232,286,92941,2,0,L|322:356,1,100
429,196,93235,1,0,0:0:0:0:
151,159,93382,1,0,0:0:0:0:
423,328,93676,5,0,0:0:0:0:
236,40,93823,1,0,0:0:0:0:
123,324,94117,5,0,0:0:0:0:
375,130,94264,1,0,0:0:0:0:
81,58,94411,1,0,0:0:0:0:
81,58,94485,1,0,0:0:0:0:
81,58,94558,2,0,P|44:143|84:250,1,200
329,188,94999,6,0,P|269:138|150:151,1,200,0|4,0:0|0:0,0:0:0:0:
