osu file format v14

[General]
AudioFilename: audio.mp3
AudioLeadIn: 0
PreviewTime: 57515
Countdown: 0
SampleSet: None
StackLeniency: 0.4
Mode: 0
LetterboxInBreaks: 0
WidescreenStoryboard: 1

[Editor]
Bookmarks: 5315,10265,19865,29465,39065,48665,58265,67865,77465,87065,96665,106265,115865,125465,135065,144665,154265,163865,173465,183065,192665,202265,211865,221465,231065,235865,245465,255065,267065
DistanceSpacing: 1.4
BeatDivisor: 4
GridSize: 16
TimelineZoom: 2.000001

[Metadata]
Title:Secret Philosophy
TitleUnicode:Secret Philosophy
Artist:Kishida Kyoudan & The Akeboshi Rockets
ArtistUnicode:岸田教団&THE明星ロケッツ
Creator:Criss
Version:Extra Stage
Source:Touhou Project
Tags:ANCIENT FLOWER ichigo Last Remote ZUN Hartmann's Youkai Girl Reitaisai 14
BeatmapID:1331038
BeatmapSetID:630509

[Difficulty]
HPDrainRate:6
CircleSize:4.2
OverallDifficulty:9
ApproachRate:9.5
SliderMultiplier:1.4
SliderTickRate:1

[Events]
//Background and Video events
0,0,"bg.png",0,0
//Break Periods
//Storyboard Layer 0 (Background)
//Storyboard Layer 1 (Fail)
//Storyboard Layer 2 (Pass)
//Storyboard Layer 3 (Foreground)
Sprite,Foreground,Centre,"SB\SilentSpica.png",320,240 M,0,5005,,574.3484,391.1226 S,0,5005,,0.4714837 F,0,5005,5305,0,1 F,0,5305,9355,1 F,0,9355,9955,1,0
Sprite,Foreground,Centre,"SB\Crissaegrim.png",320,240 S,0,205,,0.471484 F,0,205,505,0,0.9992258 F,0,505,4555,0.9992258 M,0,2097,,576.8258,389.471 F,0,4555,5005,0.9992258,0
Sprite,Foreground,Centre,"SB\Criss.png",320,240 M,0,9955,,574.3484,391.1226 S,0,9955,,0.4714837 F,0,9955,10255,0,1 F,0,10255,19255,1 F,0,19255,19555,1,0
Sprite,Foreground,Centre,"SB\Crissaegrim.png",320,240 M,0,19555,,577.6516,393.6 S,0,19555,,0.4714841 F,0,19555,19855,0,0.9992258 F,0,19855,28855,0.9992258 F,0,28855,29155,0.9992258,0
Sprite,Foreground,Centre,"SB\Squishi.png",320,240 M,0,29155,,574.3484,391.1226 S,0,29155,,0.4714841 F,0,29155,29455,0,1 F,0,29455,38455,1 F,0,38455,38755,1,0
Sprite,Foreground,Centre,"SB\Mathi.png",320,240 M,0,38755,,574.3484,391.1226 S,0,38755,,0.4714837 F,0,38755,39055,0,1 F,0,39055,48055,1 F,0,48055,48355,1,0
Sprite,Foreground,Centre,"SB\Sakurasaki.png",320,240 S,0,48355,,0.463226 F,0,48355,48655,0,1 F,0,48655,57055,1 M,0,49126,,577.6516,393.6 F,0,57055,57355,1,0
Sprite,Foreground,Centre,"SB\SilentSpica.png",320,240 M,0,57355,,577.6516,393.6 S,0,57355,,0.463226 F,0,57355,57655,0,1 F,0,57655,61705,1 F,0,61705,66655,1 F,0,66655,67255,1 F,0,67255,67555,1,0
Sprite,Foreground,Centre,"SB\Shadow.png",320,240 M,0,67555,,577.6516,393.6 S,0,67555,,0.4632262 F,0,67555,67855,0,1 F,0,67855,76855,1,0.99 F,0,76855,77155,0.99,0
Sprite,Foreground,Centre,"SB\Crissaegrim.png",320,240 M,0,77155,,577.6516,393.6 S,0,77155,,0.463226 F,0,77155,77455,0,0.9992258 F,0,77455,86455,0.9992258 F,0,86455,86755,0.9992258,0
Sprite,Foreground,Centre,"SB\Shiny.png",320,240 M,0,86755,,577.6517,393.6 S,0,86755,,0.463226 F,0,86755,87055,0,1 F,0,87055,96055,1,0.9933333 F,0,96055,96355,0.9933333,0
Sprite,Foreground,Centre,"SB\Neru.png",320,240 M,0,96355,,577.6516,393.6 S,0,96355,,0.463226 F,0,96355,96655,0,1 F,0,96655,105655,1,0.9933333 F,0,105655,105955,0.9933333,0
Sprite,Foreground,Centre,"SB\NyaNeko.png",320,240 M,0,105955,,577.6516,393.6 S,0,105955,,0.4632257 F,0,105955,106255,0,1 F,0,106255,115255,1,0.99 F,0,115255,115555,0.99,0
Sprite,Foreground,Centre,"SB\SilentSpica.png",320,240 M,0,115555,,577.6516,393.6 S,0,115555,,0.463226 F,0,115555,115855,0,1 F,0,115855,119905,1 F,0,119905,124855,1 F,0,124855,,1 F,0,124855,125155,1,0
Sprite,Foreground,Centre,"SB\Sakurasaki.png",320,240 M,0,125155,,577.6516,393.6 S,0,125155,,0.4632262 F,0,125155,125455,0,1 F,0,125455,134455,1 F,0,134455,134755,1,0.003333333
Sprite,Foreground,Centre,"SB\SoiPlox.png",320,240 S,0,134736,,0.4632259 M,0,134755,,577.6516,393.6 F,0,134755,135055,0,1 F,0,135055,144055,1 F,0,144055,144355,1,0
Sprite,Foreground,Centre,"SB\Squishi.png",320,240 M,0,144355,,577.6516,393.6 S,0,144355,,0.463226 F,0,144355,144655,0,1 F,0,144655,153655,1 F,0,153655,153955,1,0
Sprite,Foreground,Centre,"SB\Shadow.png",320,240 M,0,163555,,577.6516,393.6 S,0,163555,,0.463226 F,0,163555,163855,0,1 F,0,163855,172855,1,0.99 F,0,172855,173155,0.99,0
Sprite,Foreground,Centre,"SB\Crissaegrim.png",320,240 M,0,153955,,577.6516,393.6 S,0,153955,,0.463226 F,0,153955,154255,0,0.9992258 F,0,154255,163255,0.9992258 F,0,163255,163555,0.9992258,0
Sprite,Foreground,Centre,"SB\SoiPlox.png",320,240 M,0,173155,,577.6516,393.6 S,0,173155,,0.4632259 F,0,173155,173455,0,1 F,0,173455,182455,1 F,0,182455,182755,1,0
Sprite,Foreground,Centre,"SB\NyaNeko.png",320,240 M,0,182755,,577.6516,393.6 S,0,182755,,0.463226 F,0,182755,183055,0,1 F,0,183055,192055,1,0.99 F,0,192055,192355,0.99,0
Sprite,Foreground,Centre,"SB\Neru.png",320,240 M,0,192355,,577.6516,393.6 S,0,192355,,0.4632259 F,0,192355,192655,0,1 F,0,192655,201655,1,0.9933333 F,0,201655,201955,0.9933333,0
Sprite,Foreground,Centre,"SB\Mathi.png",320,240 M,0,201955,,577.6516,393.6 S,0,201955,,0.463226 F,0,201955,202255,0,1 F,0,202255,211255,1 F,0,211255,211555,1,0
Sprite,Foreground,Centre,"SB\Criss.png",320,240 M,0,211555,,577.6516,393.6 S,0,211555,,0.4632259 F,0,211555,211855,0,1 F,0,211855,220855,1 F,0,220855,221155,1,0
Sprite,Foreground,Centre,"SB\Shiny.png",320,240 M,0,221155,,577.6516,393.6 S,0,221155,,0.463226 F,0,221155,221455,0,1 F,0,221455,230455,1,0.9933333 F,0,230455,230755,0.9933333,0
Sprite,Foreground,Centre,"SB\NyaNeko.png",320,240 M,0,230755,,577.6516,393.6 S,0,230755,,0.4632259 F,0,230755,231055,0,1 F,0,231055,235255,1,0.9953333 F,0,235255,235555,0.9953333,0 F,0,235555,,0
Sprite,Foreground,Centre,"SB\Mathi.png",320,240 M,0,235555,,577.6516,393.6 S,0,235555,,0.4632257 F,0,235555,235855,0,1 F,0,235855,244855,1 F,0,244855,245155,1,0
Sprite,Foreground,Centre,"SB\Criss.png",320,240 M,0,245155,,577.6516,393.6 S,0,245155,,0.463226 F,0,245155,245455,0,1 F,0,245455,254455,1 F,0,254455,254755,1,0
Sprite,Foreground,Centre,"SB\We Are Legit.png",320,240 M,0,254755,,296.8774,403.5097 F,0,254755,255055,0,1 S,0,254755,255466,0.4054193,0.3723871 F,0,255055,257905,1,0.9966667 F,0,257905,267055,0.9966667,0
//Storyboard Sound Samples

[TimingPoints]
505,300,4,3,5,40,1,0
4555,-80,4,3,5,40,0,0
5305,-71.4285714285714,4,3,5,40,0,0
6205,-80,4,3,5,40,0,0
7105,-66.6666666666667,4,3,5,40,0,0
7405,-57.1428571428571,4,3,5,40,0,0
7705,-80,4,3,5,40,0,0
9355,-80,4,3,5,40,0,0
10255,300,4,3,5,60,1,0
19855,-200,4,1,5,60,0,0
20005,-200,4,1,5,30,0,0
27055,-166.666666666667,4,1,5,30,0,0
29155,-125,4,1,5,30,0,0
34555,-100,4,1,5,30,0,0
34855,-83.3333333333333,4,1,5,40,0,0
35155,-66.6666666666667,4,1,5,50,0,0
35455,-58.8235294117647,4,1,5,60,0,0
35758,-50,4,1,5,70,0,0
36055,-50,4,1,5,70,0,0
36655,-50,4,3,5,70,0,0
38905,-66.6666666666667,4,3,5,70,0,0
39580,-62.5,4,3,5,70,0,0
40030,-66.6666666666667,4,3,5,70,0,0
40330,-62.5,4,3,5,70,0,0
42430,-55.5555555555556,4,3,5,70,0,0
43630,-62.5,4,3,5,70,0,0
48655,-83.3333333333333,4,3,5,70,0,0
55855,-71.4285714285714,4,3,5,70,0,0
57655,-200,4,1,5,20,0,0
58255,-83.3333333333333,4,3,5,60,0,1
60655,-83.3333333333333,4,3,5,60,0,1
61255,-74.0740740740741,4,3,5,60,0,1
61705,-83.3333333333333,4,3,5,60,0,1
61855,-74.0740740740741,4,3,5,60,0,1
63055,-83.3333333333333,4,3,5,60,0,1
67105,-100,4,3,5,60,0,1
67255,-74.0740740740741,4,3,5,60,0,1
67855,-83.3333333333333,4,3,5,60,0,1
68155,-71.4285714285714,4,3,5,60,0,1
68455,-76.9230769230769,4,3,5,60,0,1
69205,-71.4285714285714,4,3,5,60,0,1
69655,-76.9230769230769,4,3,5,60,0,1
70255,-83.3333333333333,4,3,5,60,0,1
70330,-83.3333333333333,4,3,5,5,0,1
70405,-83.3333333333333,4,3,5,60,0,1
70480,-83.3333333333333,4,3,5,5,0,1
70555,-100,4,3,5,60,0,1
71455,-133.333333333333,4,3,5,60,0,1
71905,-133.333333333333,4,3,5,5,0,1
72055,-111.111111111111,4,3,5,60,0,1
72280,-100,4,3,5,5,0,1
72355,-100,4,3,5,60,0,1
72655,-76.9230769230769,4,3,5,60,0,1
72955,-71.4285714285714,4,3,5,60,0,1
73255,-66.6666666666667,4,3,5,60,0,1
73555,-62.5,4,3,5,60,0,1
73855,-100,4,3,5,60,0,1
73930,-100,4,3,5,5,0,1
74005,-100,4,3,5,60,0,1
74080,-100,4,3,5,5,0,1
74155,-76.9230769230769,4,3,5,60,0,1
74455,-100,4,3,5,60,0,1
74530,-100,4,3,5,5,0,1
74605,-100,4,3,5,60,0,1
74680,-100,4,3,5,5,0,1
74755,-100,4,3,5,60,0,1
75055,-76.9230769230769,4,3,5,60,0,1
75355,-83.3333333333333,4,3,5,60,0,1
76855,-71.4285714285714,4,3,5,60,0,0
77455,-66.6666666666667,4,3,5,60,0,1
87055,-66.6666666666667,4,3,5,60,0,1
96655,-100,4,3,5,60,0,0
115855,-66.6666666666667,4,3,5,70,0,0
116155,-100,4,3,5,60,0,0
116255,-100,4,3,5,5,0,0
116305,-100,4,3,5,60,0,0
116405,-100,4,3,5,5,0,0
116455,-100,4,3,5,60,0,0
117155,-100,4,3,5,5,0,0
117205,-100,4,3,5,60,0,0
117305,-100,4,3,5,5,0,0
117355,-200,4,3,5,70,0,0
117655,-100,4,3,5,70,0,0
117755,-100,4,3,5,5,0,0
117805,-100,4,3,5,60,0,0
117905,-100,4,3,5,5,0,0
117955,-100,4,3,5,60,0,0
118055,-100,4,3,5,5,0,0
118105,-200,4,3,5,70,0,0
118205,-100,4,3,5,5,0,0
118255,-66.6666666666667,4,3,5,70,0,0
118555,-100,4,3,5,70,0,0
118655,-100,4,3,5,5,0,0
118705,-100,4,3,5,70,0,0
118805,-100,4,3,5,5,0,0
118855,-100,4,3,5,70,0,0
119555,-100,4,3,5,5,0,0
119605,-100,4,3,5,70,0,0
119705,-100,4,3,5,5,0,0
119755,-100,4,3,5,70,0,0
120155,-100,4,3,5,5,0,0
120205,-100,4,3,5,70,0,0
120305,-100,4,3,5,5,0,0
120355,-100,4,3,5,70,0,0
120655,-66.6666666666667,4,3,5,70,0,0
120955,-100,4,3,5,70,0,0
121055,-100,4,3,5,5,0,0
121105,-100,4,3,5,70,0,0
121205,-100,4,3,5,5,0,0
121255,-100,4,3,5,70,0,0
121955,-100,4,3,5,5,0,0
122005,-100,4,3,5,70,0,0
122105,-100,4,3,5,5,0,0
122155,-200,4,3,5,70,0,0
122455,-100,4,3,5,70,0,0
122555,-100,4,3,5,5,0,0
122605,-100,4,3,5,70,0,0
122705,-100,4,3,5,5,0,0
122755,-100,4,3,5,70,0,0
122855,-100,4,3,5,5,0,0
122905,-100,4,3,5,70,0,0
123005,-100,4,3,5,5,0,0
123055,-50,4,3,5,70,0,1
124555,-66.6666666666667,4,3,5,70,0,0
124855,-133.333333333333,4,3,5,70,0,0
125155,-200,4,1,5,70,0,0
125230,-200,4,3,5,5,0,0
125455,-125,4,3,5,65,0,0
127255,-125,4,1,5,65,0,0
127555,-125,4,3,5,65,0,0
134455,-125,4,3,5,5,0,0
134755,-125,4,3,5,65,0,0
135055,-100,4,3,5,65,0,0
143455,-90.9090909090909,4,3,5,65,0,0
144655,-83.3333333333333,4,3,5,60,0,1
148255,-133.333333333333,4,3,5,30,0,1
149455,-83.3333333333333,4,3,5,60,0,1
154255,-133.333333333333,4,1,5,60,0,0
154330,-133.333333333333,4,2,5,5,0,0
156655,-133.333333333333,4,2,5,20,0,0
156730,-133.333333333333,4,2,5,5,0,0
157705,-133.333333333333,4,2,2,20,0,0
158605,-133.333333333333,4,2,5,5,0,0
158755,-133.333333333333,4,2,5,20,0,0
158905,-133.333333333333,4,2,2,20,0,0
159055,-133.333333333333,4,3,5,20,0,0
159205,-133.333333333333,4,2,2,20,0,0
159355,-133.333333333333,4,2,2,5,0,0
160705,-133.333333333333,4,2,2,20,0,0
161455,-133.333333333333,4,1,5,20,0,0
161755,-117.647058823529,4,1,5,25,0,0
162055,-105.263157894737,4,1,5,30,0,0
162355,-86.9565217391304,4,1,5,35,0,0
162655,-80,4,1,5,40,0,0
162955,-74.0740740740741,4,1,5,50,0,0
163180,-74.0740740740741,4,1,5,55,0,0
163255,-74.0740740740741,4,1,5,60,0,0
163555,-74.0740740740741,4,3,5,60,0,0
163630,-74.0740740740741,4,1,5,20,0,0
163855,-66.6666666666667,4,3,5,20,0,0
164755,-66.6666666666667,4,3,5,30,0,0
165055,-66.6666666666667,4,3,5,20,0,0
165655,-66.6666666666667,4,3,5,30,0,0
165955,-66.6666666666667,4,3,5,40,0,0
166255,-100,4,3,5,20,0,0
166555,-66.6666666666667,4,3,5,20,0,0
167305,-66.6666666666667,4,3,5,40,0,0
167342,-66.6666666666667,4,3,5,5,0,0
167605,-66.6666666666667,4,3,5,40,0,0
167642,-66.6666666666667,4,3,5,5,0,0
167755,-66.6666666666667,4,3,5,20,0,0
168055,-66.6666666666667,4,3,5,30,0,0
168355,-66.6666666666667,4,3,5,40,0,0
168655,-66.6666666666667,4,3,5,30,0,0
169855,-76.9230769230769,4,3,5,40,0,0
170155,-71.4285714285714,4,3,5,50,0,0
170455,-66.6666666666667,4,3,5,60,0,0
170755,-62.5,4,3,5,70,0,0
171055,-62.5,4,3,5,80,0,0
171205,-62.5,4,3,5,60,0,0
171505,-62.5,4,3,5,80,0,0
171655,-62.5,4,3,5,60,0,0
171955,-62.5,4,3,5,80,0,0
172105,-62.5,4,3,5,60,0,0
172255,-62.5,4,3,5,80,0,0
172405,-62.5,4,3,5,60,0,0
172555,-62.5,4,3,5,80,0,0
172705,-62.5,4,3,5,60,0,0
172855,-62.5,4,3,5,80,0,0
173005,-62.5,4,3,5,60,0,0
173455,-62.5,4,3,5,60,0,0
174355,-66.6666666666667,4,3,5,60,0,0
175855,-83.3333333333333,4,3,5,60,0,0
176596,-66.6666666666667,4,3,5,60,0,0
177955,-66.6666666666667,4,3,5,60,0,0
178255,-66.6666666666667,4,3,5,60,0,0
191455,-250,4,2,5,60,0,0
192655,-75.187969924812,4,3,5,60,0,0
192730,-75.187969924812,4,3,5,5,0,0
194455,-75.187969924812,4,3,5,60,0,0
196855,-75.187969924812,4,3,5,70,0,0
196955,-75.187969924812,4,3,5,55,0,0
197055,-75.187969924812,4,3,5,40,0,0
197155,-75.187969924812,4,3,5,65,0,0
197255,-75.187969924812,4,3,5,50,0,0
197355,-75.187969924812,4,3,5,35,0,0
197455,-100,4,3,5,70,0,1
205180,-71.4285714285714,4,3,5,70,0,1
205780,-100,4,3,5,70,0,1
206980,-90.9090909090909,4,3,5,70,0,1
207280,-83.3333333333333,4,3,5,70,0,1
207580,-76.9230769230769,4,3,5,70,0,1
207880,-71.4285714285714,4,3,5,70,0,1
209680,-100,4,3,5,70,0,1
210130,-76.9230769230769,4,3,5,70,0,1
211405,-100,4,3,5,70,0,0
211855,-66.6666666666667,4,3,5,70,0,1
230455,-66.6666666666667,4,3,5,70,0,1
230555,-66.6666666666667,4,3,5,55,0,1
230655,-66.6666666666667,4,3,5,40,0,1
230755,-66.6666666666667,4,3,5,65,0,1
230855,-66.6666666666667,4,3,5,50,0,1
230955,-66.6666666666667,4,3,5,35,0,1
231055,-100,4,3,5,60,0,0
234055,-100,4,3,5,30,0,0
234205,-100,4,3,5,20,0,0
234355,-100,4,3,5,40,0,0
234505,-100,4,3,5,30,0,0
234655,-100,4,3,5,55,0,0
234805,-100,4,3,5,40,0,0
234955,-100,4,3,5,70,0,0
235105,-100,4,3,5,55,0,0
235255,-100,4,3,5,70,0,0
241705,-66.6666666666667,4,3,5,60,0,0
245455,-80,4,3,5,60,0,0
249955,-80,4,1,5,60,0,0
250105,-80,4,3,5,60,0,0
254455,-80,4,1,5,60,0,0
254530,-80,4,1,5,30,0,0
254755,-80,4,1,5,60,0,0
255055,600,4,1,5,40,1,0
255055,-208.333333333333,4,3,5,100,0,0
255130,-208.333333333333,4,1,5,5,0,0

[Colours]
Combo1 : 235,210,255
Combo2 : 255,132,150
Combo3 : 255,243,202
Combo4 : 217,254,180

[HitObjects]
304,108,505,6,0,P|320:156|292:224,1,105,4|0,0:0|0:0,0:0:0:0:
305,207,805,1,0,0:0:0:0:
156,172,955,2,0,P|188:160|236:164,1,70,8|0,0:0|0:0,0:0:0:0:
223,160,1180,1,0,0:0:0:0:
223,160,1255,1,0,0:0:0:0:
224,254,1405,1,0,0:0:0:0:
388,168,1555,1,8,0:0:0:0:
388,261,1705,1,0,0:0:0:0:
512,100,1855,6,0,L|436:116,1,70
308,144,2155,1,8,0:0:0:0:
512,200,2305,2,0,L|436:216,1,70
400,348,2605,2,0,L|476:332,1,70,0|8,0:0|0:0,0:0:0:0:
308,144,2905,6,0,B|296:212|296:212|312:288,1,140,4|0,0:0|0:0,0:0:0:0:
376,160,3355,2,0,P|372:116|352:88,1,70,10|0,0:0|0:0,0:0:0:0:
358,94,3580,1,0,0:0:0:0:
358,94,3655,1,2,0:0:0:0:
232,152,3805,2,0,L|216:248,1,70,0|10,0:0|0:0,0:0:0:0:
160,348,4105,2,0,P|123:322|109:291,1,70
220,221,4405,1,0,0:0:0:0:
84,112,4555,6,0,L|96:216,1,87.5,10|0,0:0|0:0,0:0:0:0:
216,28,4855,2,0,L|228:132,1,87.5,10|0,0:0|0:0,0:0:0:0:
32,32,5155,1,8,0:0:0:0:
156,360,5305,6,0,P|86:375|31:329,1,146.999995513916,4|0,0:0|0:0,0:0:0:0:
30,329,5605,1,0,0:0:0:0:
77,222,5755,2,0,P|124:217|164:243,1,97.9999970092774,8|0,0:0|0:0,0:0:0:0:
164,243,5980,1,0,0:0:0:0:
164,243,6055,1,2,0:0:0:0:
108,300,6205,5,0,0:0:0:0:
28,112,6355,1,8,0:0:0:0:
324,224,6505,6,0,P|288:208|232:216,1,87.5,0|2,0:0|0:0,0:0:0:0:
248,16,6805,2,0,P|291:20|331:4,1,87.5,0|8,0:0|0:0,0:0:0:0:
252,116,7105,6,0,L|100:96,1,105.000004005432,2|0,0:0|0:0,0:0:0:0:
364,232,7405,6,0,L|201:209,1,122.500001168251,2|8,0:0|0:0,0:0:0:0:
484,24,7705,6,0,B|504:72|504:72|471:222,1,175,4|0,0:0|0:0,0:0:0:0:
364,232,8155,2,0,L|376:322,1,87.5,10|0,0:0|0:0,0:0:0:0:
289,361,8380,1,0,0:0:0:0:
289,361,8455,5,8,0:0:0:0:
248,338,8530,1,0,0:0:0:0:
226,292,8605,1,0,0:0:0:0:
245,243,8680,1,0,0:0:0:0:
291,212,8755,5,8,0:0:0:0:
309,157,8830,5,0,0:0:0:0:
269,111,8905,5,2,0:0:0:0:
218,99,9355,6,0,L|125:117,1,87.5
121,130,9580,1,0,0:0:0:0:
121,130,9655,1,8,0:0:0:0:
142,279,9805,6,0,B|181:257|181:257|195:104,1,175
128,176,10255,6,0,P|176:208|256:176,1,140,6|2,0:0|0:0,0:0:0:0:
208,48,10705,1,0,0:0:0:0:
121,247,10855,2,0,P|157:266|207:263,1,70,10|0,0:0|0:0,0:0:0:0:
289,187,11155,2,0,P|245:186|205:214,1,70,2|0,0:0|0:0,0:0:0:0:
195,351,11455,2,0,P|234:338|262:295,1,70,2|8,0:0|0:0,0:0:0:0:
268,207,11755,1,2,0:0:0:0:
185,135,11905,1,0,0:0:0:0:
64,144,12055,6,0,P|65:99|85:65,1,70,10|0,0:0|0:0,0:0:0:0:
192,40,12355,1,10,0:0:0:0:
138,186,12505,1,0,0:0:0:0:
91,39,12655,2,0,B|123:69|123:69|130:48|130:48|169:69|224:53,1,140,6|2,0:0|0:0,0:0:0:0:
288,26,13105,1,0,0:0:0:0:
375,37,13255,2,0,P|416:83|421:116,1,70,10|0,0:0|0:0,0:0:0:0:
306,208,13555,1,2,0:0:0:0:
306,208,13705,2,0,P|367:208|395:226,1,70,0|2,0:0|0:0,0:0:0:0:
445,257,14005,5,8,0:0:0:0:
362,82,14155,1,2,0:0:0:0:
362,82,14305,1,0,0:0:0:0:
471,96,14455,5,10,0:0:0:0:
289,148,14605,1,0,0:0:0:0:
416,160,14755,1,10,0:0:0:0:
261,61,14905,1,0,0:0:0:0:
352,272,15055,6,0,P|353:221|328:271,1,140,6|2,0:0|0:0,0:0:0:0:
323,346,15505,1,0,0:0:0:0:
440,229,15655,2,0,P|421:183|395:165,1,70,10|0,0:0|0:0,0:0:0:0:
304,127,15955,1,2,0:0:0:0:
217,176,16105,1,0,0:0:0:0:
197,283,16255,6,0,P|240:281|276:260,1,70,2|8,0:0|0:0,0:0:0:0:
200,80,16555,2,0,P|162:77|123:91,1,70,2|0,0:0|0:0,0:0:0:0:
71,198,16855,6,0,B|85:211|85:211|140:203,1,70,10|0,0:0|0:0,0:0:0:0:
256,178,17155,1,2,0:0:0:0:
256,178,17305,1,0,0:0:0:0:
206,35,17455,6,0,B|173:52|173:52|190:85|190:85|154:103|150:148,1,140,6|2,0:0|0:0,0:0:0:0:
245,270,17905,1,0,0:0:0:0:
245,270,18055,2,0,P|274:242|282:212,1,70,10|0,0:0|0:0,0:0:0:0:
278,55,18355,1,2,0:0:0:0:
278,55,18505,2,0,P|268:99|282:135,1,70,0|2,0:0|0:0,0:0:0:0:
340,220,18805,5,8,0:0:0:0:
337,91,18955,1,0,0:0:0:0:
239,195,19105,1,0,0:0:0:0:
239,195,19180,1,0,0:0:0:0:
239,195,19255,1,8,0:0:0:0:
233,65,19405,5,0,0:0:0:0:
238,281,19555,1,8,0:0:0:0:
321,195,19705,1,0,0:0:0:0:
105,199,19855,6,0,B|84:132|132:132|104:60,1,140,4|0,0:0|0:0,0:0:0:0:
40,100,20605,1,0,0:0:0:0:
172,168,20755,1,0,0:0:0:0:
48,249,20905,2,0,P|124:272|180:192,1,175
179,206,21955,1,0,0:0:0:0:
228,320,22105,1,0,0:0:0:0:
251,136,22255,6,0,P|280:188|256:272,1,140,8|0,0:0|0:0,0:0:0:0:
263,263,23005,1,0,0:0:0:0:
372,212,23155,1,0,0:0:0:0:
363,333,23305,2,0,B|432:356|432:320|500:336|500:336|464:292|476:232,1,245
404,272,24505,1,0,0:0:0:0:
444,96,24655,2,0,P|396:76|428:160,1,210,8|0,0:0|0:0,0:0:0:0:
406,120,25705,2,0,B|318:92|318:152|230:120,1,175
264,24,26605,1,0,0:0:0:0:
264,24,26755,2,0,L|284:68,1,35
344,240,27055,6,0,B|296:204|224:204|224:204|176:248|92:232,1,251.999992309571,8|0,0:0|0:0,0:0:0:0:
246,132,28105,2,0,P|272:133|294:140,1,41.9999987182618,2|2,0:0|0:0,0:0:0:0:
356,311,28405,2,0,P|330:310|308:303,1,41.9999987182618,2|0,0:0|0:0,0:0:0:0:
384,144,28705,2,0,P|410:145|432:152,1,41.9999987182618,2|0,0:0|0:0,0:0:0:0:
396,224,29005,1,2,0:0:0:0:
240,132,29155,6,0,P|208:139|180:164,1,56,2|0,0:0|0:0,0:0:0:0:
312,275,29455,5,4,0:0:0:0:
244,217,29605,1,0,0:0:0:0:
244,217,29755,1,0,0:0:0:0:
319,174,29905,1,0,0:0:0:0:
396,224,30055,2,0,P|440:256|444:256,1,56,2|0,0:0|0:0,0:0:0:0:
468,143,30355,2,0,P|420:143|400:151,1,56
356,308,30655,5,2,0:0:0:0:
250,267,30955,1,0,0:0:0:0:
239,273,31105,1,2,0:0:0:0:
316,208,31255,1,2,0:0:0:0:
333,185,31555,5,2,0:0:0:0:
293,85,31705,1,0,0:0:0:0:
182,170,31855,6,0,P|218:160|244:160,1,56,8|0,0:0|0:0,0:0:0:0:
333,185,32155,1,2,0:0:0:0:
277,97,32305,1,2,0:0:0:0:
373,101,32455,1,2,0:0:0:0:
305,201,32605,1,0,0:0:0:0:
415,132,32755,1,2,0:0:0:0:
356,308,32905,6,0,P|297:291|245:307,1,112,0|2,0:0|0:0,0:0:0:0:
300,220,33355,5,0,0:0:0:0:
292,200,33505,1,0,0:0:0:0:
328,324,33655,1,2,0:0:0:0:
336,340,33805,1,0,0:0:0:0:
438,255,33955,1,2,0:0:0:0:
384,144,34105,1,0,0:0:0:0:
408,120,34255,5,8,0:0:0:0:
352,56,34555,1,8,0:0:0:0:
438,255,34855,1,8,0:0:0:0:
300,220,35155,1,8,0:0:0:0:
336,340,35455,1,8,0:0:0:0:
352,56,35755,1,8,0:0:0:0:
336,340,36055,1,8,0:0:0:0:
292,200,36205,1,0,0:0:0:0:
460,96,36355,1,8,0:0:0:0:
336,176,36505,1,0,0:0:0:0:
352,32,36655,5,8,0:0:0:0:
352,32,36805,1,0,0:0:0:0:
460,96,36955,1,0,0:0:0:0:
336,176,37105,5,8,0:0:0:0:
336,176,37255,1,0,0:0:0:0:
352,32,37405,1,0,0:0:0:0:
336,176,37555,5,8,0:0:0:0:
468,136,37705,1,0,0:0:0:0:
352,32,37855,1,8,0:0:0:0:
352,32,38005,1,0,0:0:0:0:
400,228,38155,1,8,0:0:0:0:
260,292,38305,1,0,0:0:0:0:
312,164,38455,1,8,0:0:0:0:
107,234,38605,1,0,0:0:0:0:
136,268,38680,1,0,0:0:0:0:
180,272,38755,1,0,0:0:0:0:
216,284,38830,1,0,0:0:0:0:
260,292,38905,6,0,B|276:224|276:224|316:196|316:196|336:96,1,210.000008010865,12|0,0:0|0:0,0:0:0:0:
82,89,39355,1,8,0:0:0:0:
164,342,39505,1,0,0:0:0:0:
312,80,39655,6,0,B|361:59|361:59|415:84,1,112
112,196,39955,1,8,0:0:0:0:
379,331,40105,2,0,P|320:347|275:319,1,105.000004005432
88,75,40405,2,0,L|99:191,1,112,0|8,0:0|0:0,0:0:0:0:
408,232,40705,5,0,0:0:0:0:
168,328,40855,2,0,P|112:320|80:272,1,112
168,48,41155,1,8,0:0:0:0:
336,352,41305,6,0,B|352:304|344:280|344:280|384:272|400:240|400:240|376:200|392:136,1,224
121,247,41755,1,8,0:0:0:0:
103,58,41905,1,0,0:0:0:0:
257,193,42055,1,0,0:0:0:0:
34,160,42205,1,0,0:0:0:0:
229,84,42355,1,8,0:0:0:0:
173,303,42505,6,0,P|237:335|301:303,1,125.999996154785
448,64,42805,2,0,P|384:48|320:64,1,125.999996154785,0|8,0:0|0:0,0:0:0:0:
96,136,43105,1,0,0:0:0:0:
96,136,43180,1,0,0:0:0:0:
96,136,43255,1,8,0:0:0:0:
312,228,43405,1,0,0:0:0:0:
88,344,43555,1,8,0:0:0:0:
240,80,43705,6,0,B|288:64|312:28|312:28|336:32|368:48|368:48|400:16|488:44,1,224
273,350,44155,1,8,0:0:0:0:
84,196,44305,1,0,0:0:0:0:
381,140,44455,6,0,B|393:171|393:171|418:190|418:190|444:250,1,112
167,240,44755,1,8,0:0:0:0:
55,73,44905,2,0,P|115:45|179:69,1,112
306,353,45205,2,0,P|251:360|203:334,1,112,0|8,0:0|0:0,0:0:0:0:
157,54,45505,5,0,0:0:0:0:
362,150,45655,1,0,0:0:0:0:
208,212,45805,1,0,0:0:0:0:
396,312,45955,1,8,0:0:0:0:
176,344,46105,6,0,B|128:272|128:272|80:256|80:256|32:176,1,224
412,204,46555,1,8,0:0:0:0:
256,68,46705,1,0,0:0:0:0:
100,220,46855,6,0,P|64:272|101:339,1,112
404,136,47155,1,8,0:0:0:0:
43,258,47305,2,0,P|59:319|134:333,1,112
376,340,47605,5,0,0:0:0:0:
236,136,47755,1,8,0:0:0:0:
456,208,47905,1,0,0:0:0:0:
215,325,48055,6,0,L|225:352,1,28,8|0,0:0|0:0,0:0:0:0:
148,234,48205,1,0,0:0:0:0:
311,188,48355,1,8,0:0:0:0:
423,236,48655,6,0,P|398:269|363:292,1,83.9999974365235,4|0,0:0|0:0,0:0:0:0:
192,276,48955,1,0,0:0:0:0:
184,292,49030,1,0,0:0:0:0:
172,308,49105,2,0,P|112:280|88:244,1,83.9999974365235
148,80,49405,1,2,0:0:0:0:
76,180,49555,1,0,0:0:0:0:
204,80,49705,1,2,0:0:0:0:
276,192,49855,6,0,P|356:224|432:192,1,167.999994873047,4|0,0:0|0:0,0:0:0:0:
348,64,50305,1,0,0:0:0:0:
327,64,50380,1,0,0:0:0:0:
306,64,50455,1,0,0:0:0:0:
285,64,50530,1,0,0:0:0:0:
264,64,50605,1,0,0:0:0:0:
76,64,50755,1,8,0:0:0:0:
140,212,50905,1,0,0:0:0:0:
216,88,51055,2,0,B|236:140|236:140|280:180|340:132,1,167.999994873047,4|0,0:0|0:0,0:0:0:0:
436,104,51505,5,0,0:0:0:0:
436,125,51580,1,0,0:0:0:0:
436,146,51655,1,0,0:0:0:0:
436,167,51730,1,0,0:0:0:0:
436,192,51805,2,0,L|436:280,1,83.9999974365235,0|8,0:0|0:0,0:0:0:0:
284,204,52105,1,0,0:0:0:0:
336,52,52255,6,0,P|276:56|248:64,1,83.9999974365235,8|0,0:0|0:0,0:0:0:0:
132,152,52555,1,8,0:0:0:0:
288,208,52705,1,0,0:0:0:0:
247,202,52780,1,0,0:0:0:0:
208,209,52855,1,0,0:0:0:0:
169,220,52930,5,0,0:0:0:0:
128,222,53005,1,0,0:0:0:0:
90,209,53080,1,0,0:0:0:0:
55,188,53155,1,8,0:0:0:0:
136,64,53305,1,4,0:0:0:0:
32,156,53455,6,0,P|60:188|116:192,1,83.9999974365235
264,80,53755,1,10,0:0:0:0:
76,80,53905,1,0,0:0:0:0:
148,240,54055,1,2,0:0:0:0:
155,70,54205,2,0,P|103:66|67:86,1,83.9999974365235,0|10,0:0|0:0,0:0:0:0:
40,192,54505,1,0,0:0:0:0:
236,276,54655,6,0,P|192:312|144:320,1,83.9999974365235,2|0,0:0|0:0,0:0:0:0:
124,160,54955,1,10,0:0:0:0:
236,76,55105,1,0,0:0:0:0:
416,136,55255,1,2,0:0:0:0:
312,324,55405,1,8,0:0:0:0:
160,84,55555,2,0,L|128:164,1,83.9999974365235,10|4,0:0|0:0,0:0:0:0:
92,304,55855,5,2,0:0:0:0:
288,236,56005,2,0,P|252:268|196:280,1,97.9999970092774,0|10,0:0|0:0,0:0:0:0:
52,128,56305,2,0,L|64:176,1,48.9999985046387
88,200,56455,5,8,0:0:0:0:
128,220,56530,1,0,0:0:0:0:
176,224,56605,1,0,0:0:0:0:
224,200,56680,1,0,0:0:0:0:
248,148,56755,1,8,0:0:0:0:
236,84,56830,1,0,0:0:0:0:
188,36,56905,1,8,0:0:0:0:
36,76,57655,6,0,B|96:52|84:104|164:68,1,122.5
168,72,58255,6,0,L|144:248,1,167.999994873047,4|2,0:0|0:0,0:0:0:0:
48,172,58705,1,0,0:0:0:0:
232,276,58855,2,0,L|220:372,1,83.9999974365235,10|0,0:0|0:0,0:0:0:0:
176,220,59155,6,0,P|232:196|296:228,1,125.999996154785,2|0,0:0|0:0,0:0:0:0:
440,280,59455,2,0,P|399:289|359:277,1,83.9999974365235,2|8,0:0|0:0,0:0:0:0:
296,112,59755,1,2,0:0:0:0:
400,192,59905,1,0,0:0:0:0:
232,276,60055,1,10,0:0:0:0:
224,288,60355,6,0,L|236:152,1,125.999996154785,10|0,0:0|0:0,0:0:0:0:
168,63,60655,6,0,B|107:35|100:95|11:30,1,125.999996154785,4|0,0:0|0:0,0:0:0:0:
45,51,60955,2,0,P|46:99|41:147,1,83.9999974365235,2|0,0:0|0:0,0:0:0:0:
267,234,61255,6,0,P|298:192|227:169,1,141.750000540733,10|0,0:0|0:0,0:0:0:0:
234,162,61555,2,0,P|287:162|334:157,1,94.5000003604889,2|0,0:0|0:0,0:0:0:0:
472,70,61855,6,0,B|506:38|506:38|495:171,1,141.750000540733,2|0,0:0|0:0,0:0:0:0:
470,151,62155,2,0,L|482:248,1,94.5000003604889,2|0,0:0|0:0,0:0:0:0:
390,365,62455,5,10,0:0:0:0:
294,303,62605,1,2,0:0:0:0:
199,304,62755,1,2,0:0:0:0:
134,343,62905,1,2,0:0:0:0:
35,252,63055,6,0,B|17:208|33:183|33:183|67:175|87:122,1,125.999996154785,12|0,0:0|0:0,0:0:0:0:
14,36,63355,2,0,P|-5:80|10:111,1,83.9999974365235,2|0,0:0|0:0,0:0:0:0:
73,149,63655,1,10,0:0:0:0:
189,63,63805,1,0,0:0:0:0:
326,108,63955,6,0,B|398:137|383:81|473:118,1,125.999996154785,2|0,0:0|0:0,0:0:0:0:
462,110,64255,2,0,P|458:81|459:19,1,83.9999974365235,2|8,0:0|0:0,0:0:0:0:
336,227,64555,2,0,P|337:268|332:310,1,83.9999974365235,2|0,0:0|0:0,0:0:0:0:
216,256,64855,5,10,0:0:0:0:
432,219,65005,1,0,0:0:0:0:
196,382,65155,5,10,0:0:0:0:
490,335,65305,1,0,0:0:0:0:
206,34,65455,6,0,B|188:63|188:63|204:172,1,125.999996154785,4|0,0:0|0:0,0:0:0:0:
122,172,65755,2,0,P|75:167|31:171,1,83.9999974365235,2|0,0:0|0:0,0:0:0:0:
22,280,66055,6,0,P|82:264|150:315,1,125.999996154785,10|0,0:0|0:0,0:0:0:0:
269,358,66355,2,0,P|228:367|188:355,1,83.9999974365235,2|0,0:0|0:0,0:0:0:0:
335,283,66655,6,0,B|408:306|389:252|482:282,1,125.999996154785,2|0,0:0|0:0,0:0:0:0:
501,211,66955,2,0,P|494:182|491:120,1,83.9999974365235,2|0,0:0|0:0,0:0:0:0:
333,32,67255,6,0,P|345:84|385:105,1,94.5000003604889,8|0,0:0|0:0,0:0:0:0:
388,96,67555,2,0,P|342:91|306:120,1,94.5000003604889,8|0,0:0|0:0,0:0:0:0:
254,73,67855,6,0,P|230:49|251:86,1,125.999996154785,4|0,0:0|0:0,0:0:0:0:
336,144,68155,2,0,B|352:96|318:94|352:32,1,97.9999970092774,2|0,0:0|0:0,0:0:0:0:
385,209,68455,2,0,P|352:224|288:208,1,90.9999958343508,10|0,0:0|0:0,0:0:0:0:
163,140,68755,2,0,P|186:112|250:98,1,90.9999958343508,2|0,0:0|0:0,0:0:0:0:
414,110,69055,5,2,0:0:0:0:
366,294,69205,2,0,P|323:328|276:323,2,97.9999970092774,8|2|0,0:0|0:0|0:0,0:0:0:0:
315,142,69655,6,0,B|308:247|308:247|341:198,1,136.499993751526,10|0,0:0|0:0,0:0:0:0:
320,128,69955,6,0,P|272:128|224:112,1,90.9999958343508,10|0,0:0|0:0,0:0:0:0:
107,53,70255,6,0,L|43:72,1,41.9999987182618,4|0,0:0|0:0,0:0:0:0:
201,211,70405,2,0,L|252:191,1,41.9999987182618
70,165,70555,6,0,B|57:182|57:182|64:238,1,70,2|0,0:0|0:0,0:0:0:0:
246,370,70855,2,0,B|259:353|259:353|252:297,1,70,10|0,0:0|0:0,0:0:0:0:
236,112,71155,1,2,0:0:0:0:
129,306,71305,1,0,0:0:0:0:
357,249,71455,6,0,P|412:240|362:259,1,157.500006008148,2|0,0:0|0:0,0:0:0:0:
172,124,72055,2,0,B|225:107|196:135|273:117,1,94.499997116089,2|0,0:0|0:0,0:0:0:0:
298,115,72355,1,10,0:0:0:0:
140,352,72655,6,0,P|130:304|146:243,1,90.9999958343508,4|0,0:0|0:0,0:0:0:0:
281,21,72955,2,0,P|302:82|290:133,1,97.9999970092774,2|0,0:0|0:0,0:0:0:0:
43,113,73255,2,0,P|102:102|164:116,1,105.000004005432,10|0,0:0|0:0,0:0:0:0:
395,266,73555,2,0,P|332:276|271:269,1,112,2|0,0:0|0:0,0:0:0:0:
160,188,73855,6,0,L|115:149,1,35,2|0,0:0|0:0,0:0:0:0:
230,70,74005,2,0,L|275:109,1,35,8|0,0:0|0:0,0:0:0:0:
102,243,74155,2,0,L|21:168,1,90.9999958343508,2|0,0:0|0:0,0:0:0:0:
24,131,74455,6,0,L|20:177,1,35,10|0,0:0|0:0,0:0:0:0:
101,319,74605,2,0,L|105:273,1,35
202,170,74755,2,0,P|154:161|107:182,1,70,2|0,0:0|0:0,0:0:0:0:
284,271,75055,6,0,B|299:192|299:192|294:174,1,90.9999958343508,2|0,0:0|0:0,0:0:0:0:
146,84,75355,2,0,B|132:155|132:155|136:170,1,83.9999974365235,8|0,0:0|0:0,0:0:0:0:
284,271,75655,1,0,0:0:0:0:
285,37,75805,2,0,P|221:26|193:38,1,83.9999974365235,8|0,0:0|0:0,0:0:0:0:
291,28,76255,5,8,0:0:0:0:
184,258,76405,1,0,0:0:0:0:
296,19,76555,5,8,0:0:0:0:
84,230,76705,1,0,0:0:0:0:
303,8,76855,6,0,P|380:-2|424:22,1,97.9999970092774,8|0,0:0|0:0,0:0:0:0:
436,26,77080,1,0,0:0:0:0:
464,59,77155,1,8,0:0:0:0:
477,100,77230,1,0,0:0:0:0:
483,143,77305,1,0,0:0:0:0:
478,186,77380,1,0,0:0:0:0:
459,226,77455,6,0,B|376:260|376:200|287:238,1,157.500006008148,12|0,0:0|0:0,0:0:0:0:
256,256,77755,1,10,0:0:0:0:
412,156,77905,1,0,0:0:0:0:
184,200,78055,2,0,P|164:256|192:328,1,105.000004005432,2|0,0:0|0:0,0:0:0:0:
240,132,78355,2,0,P|184:112|112:140,1,105.000004005432,10|0,0:0|0:0,0:0:0:0:
256,256,78655,5,2,0:0:0:0:
332,152,78805,1,0,0:0:0:0:
332,320,78955,2,0,P|283:353|206:345,1,105.000004005432,10|0,0:0|0:0,0:0:0:0:
392,240,79255,2,0,P|425:288|417:365,1,105.000004005432,2|0,0:0|0:0,0:0:0:0:
238,356,79555,1,10,0:0:0:0:
392,240,79705,1,0,0:0:0:0:
215,165,79855,6,0,B|184:196|184:196|156:264|156:264|112:304,1,157.500006008148,4|0,0:0|0:0,0:0:0:0:
96,316,80155,1,10,0:0:0:0:
248,236,80305,1,0,0:0:0:0:
64,24,80455,2,0,B|36:100|88:100|56:192,1,157.500006008148,2|0,0:0|0:0,0:0:0:0:
48,216,80755,1,8,0:0:0:0:
152,66,80905,1,0,0:0:0:0:
248,236,81055,6,0,P|192:240|144:196,1,105.000004005432,2|0,0:0|0:0,0:0:0:0:
320,204,81355,2,0,P|324:260|280:308,1,105.000004005432,10|0,0:0|0:0,0:0:0:0:
244,316,81580,1,8,0:0:0:0:
244,316,81655,1,10,0:0:0:0:
256,157,81805,1,0,0:0:0:0:
144,356,81955,1,10,0:0:0:0:
153,212,82105,1,0,0:0:0:0:
368,132,82255,6,0,P|400:180|396:232,1,105.000004005432,4|0,0:0|0:0,0:0:0:0:
300,84,82555,2,0,P|348:52|400:56,1,105.000004005432,10|0,0:0|0:0,0:0:0:0:
464,272,82855,2,0,P|416:304|364:300,1,105.000004005432,2|0,0:0|0:0,0:0:0:0:
153,212,83155,2,0,P|201:180|253:184,1,105.000004005432,10|0,0:0|0:0,0:0:0:0:
280,384,83455,1,2,0:0:0:0:
224,272,83605,1,0,0:0:0:0:
415,177,83755,6,0,P|408:120|368:72,1,105.000004005432,10|0,0:0|0:0,0:0:0:0:
336,44,83980,1,8,0:0:0:0:
336,44,84055,1,10,0:0:0:0:
332,184,84205,1,0,0:0:0:0:
200,8,84355,1,10,0:0:0:0:
196,148,84505,1,0,0:0:0:0:
332,184,84655,6,0,B|348:240|348:240|348:312,1,105.000004005432,4|0,0:0|0:0,0:0:0:0:
132,312,84955,1,10,0:0:0:0:
268,252,85105,1,0,0:0:0:0:
104,144,85255,2,0,P|84:200|100:264,1,105.000004005432,2|0,0:0|0:0,0:0:0:0:
268,252,85555,1,10,0:0:0:0:
336,112,85705,2,0,P|280:92|216:108,1,105.000004005432,0|2,0:0|0:0,0:0:0:0:
268,252,86005,1,0,0:0:0:0:
440,176,86155,2,0,P|458:224|452:276,1,105.000004005432,10|0,0:0|0:0,0:0:0:0:
268,252,86455,1,10,0:0:0:0:
336,112,86605,5,0,0:0:0:0:
287,92,86680,1,0,0:0:0:0:
236,98,86755,1,8,0:0:0:0:
192,124,86830,1,0,0:0:0:0:
140,129,86905,1,0,0:0:0:0:
92,110,86980,1,0,0:0:0:0:
64,68,87055,5,12,0:0:0:0:
64,68,87355,6,0,L|64:184,1,105.000004005432,10|0,0:0|0:0,0:0:0:0:
156,224,87655,2,0,P|152:275|181:317,1,105.000004005432,2|0,0:0|0:0,0:0:0:0:
256,244,87955,2,0,B|306:264|306:264|354:248,1,105.000004005432,10|0,0:0|0:0,0:0:0:0:
420,168,88255,2,0,B|372:152|372:152|321:172,1,105.000004005432,2|0,0:0|0:0,0:0:0:0:
252,96,88555,1,10,0:0:0:0:
152,72,88705,1,0,0:0:0:0:
96,160,88855,5,2,0:0:0:0:
204,188,89005,1,0,0:0:0:0:
96,160,89155,1,10,0:0:0:0:
120,308,89305,1,0,0:0:0:0:
224,316,89455,2,0,B|284:300|288:216|288:216|336:264|404:224,1,210.000008010865,2|10,0:0|0:0,0:0:0:0:
352,136,89905,1,0,0:0:0:0:
252,108,90055,2,0,B|281:48|281:48|153:112,1,210.000008010865,2|10,0:0|0:0,0:0:0:0:
84,188,90505,1,0,0:0:0:0:
112,288,90655,2,0,B|183:271|183:271|235:290|235:290|326:270,2,210.000008010865,0|8|2,0:0|0:0|0:0,0:0:0:0:
112,284,91555,5,2,0:0:0:0:
236,116,91855,6,0,L|332:64,1,105.000004005432,4|0,0:0|0:0,0:0:0:0:
432,40,92155,2,0,P|444:92|432:144,1,105.000004005432,10|0,0:0|0:0,0:0:0:0:
332,176,92455,2,0,P|321:226|333:277,1,105.000004005432,2|0,0:0|0:0,0:0:0:0:
232,304,92755,2,0,L|128:256,1,105.000004005432,10|0,0:0|0:0,0:0:0:0:
32,116,93055,2,0,P|120:28|216:28,2,210.000008010865,6|10|2,0:0|0:0|0:0,0:0:0:0:
72,212,93805,1,0,0:0:0:0:
140,296,93955,2,0,L|248:312,1,105.000004005432,10|0,0:0|0:0,0:0:0:0:
376,236,94255,6,0,L|456:164,1,105.000004005432,4|0,0:0|0:0,0:0:0:0:
392,80,94555,2,0,P|340:68|280:80,1,105.000004005432,10|0,0:0|0:0,0:0:0:0:
136,236,94855,2,0,L|56:164,1,105.000004005432,2|0,0:0|0:0,0:0:0:0:
108,64,95155,2,0,P|160:52|220:64,1,105.000004005432,10|0,0:0|0:0,0:0:0:0:
256,176,95455,6,0,B|286:277|209:271|252:388,1,210.000008010865,4|8,0:0|0:0,0:0:0:0:
446,296,95905,6,0,L|484:263,2,39.3750015020371,0|0|8,0:0|0:0|0:0,0:0:0:0:
478,233,96130,1,0,0:0:0:0:
442,197,96205,1,0,0:0:0:0:
390,197,96280,1,0,0:0:0:0:
346,225,96355,1,0,0:0:0:0:
310,261,96430,1,0,0:0:0:0:
262,285,96505,1,0,0:0:0:0:
210,273,96580,1,0,0:0:0:0:
176,240,96655,6,0,B|165:205|165:205|178:160,1,70,4|0,0:0|0:0,0:0:0:0:
208,80,96955,1,2,0:0:0:0:
303,122,97105,2,0,B|336:137|336:137|361:177,1,70,0|10,0:0|0:0,0:0:0:0:
460,264,97405,1,0,0:0:0:0:
372,320,97555,1,2,0:0:0:0:
292,256,97705,1,0,0:0:0:0:
208,304,97855,1,2,0:0:0:0:
64,240,98005,6,0,P|56:210|61:164,1,70,8|2,0:0|0:0,0:0:0:0:
128,96,98305,1,0,0:0:0:0:
272,40,98455,1,8,0:0:0:0:
410,127,98605,2,0,L|481:115,1,70,0|10,0:0|0:0,0:0:0:0:
400,224,98905,2,0,L|329:212,1,70,0|4,0:0|0:0,0:0:0:0:
244,286,99205,5,0,0:0:0:0:
175,153,99355,1,2,0:0:0:0:
147,297,99505,1,0,0:0:0:0:
258,197,99655,1,10,0:0:0:0:
108,215,99805,1,0,0:0:0:0:
244,286,99955,2,0,P|275:298|322:286,1,70,2|0,0:0|0:0,0:0:0:0:
422,315,100255,2,0,P|415:281|406:248,1,70,2|8,0:0|0:0,0:0:0:0:
484,98,100555,2,0,P|477:132|467:165,1,70,2|0,0:0|0:0,0:0:0:0:
296,104,100855,5,10,0:0:0:0:
160,104,101005,1,0,0:0:0:0:
296,104,101155,1,10,0:0:0:0:
184,184,101305,1,0,0:0:0:0:
366,51,101455,2,0,P|378:86|376:128,1,70,4|0,0:0|0:0,0:0:0:0:
335,180,101755,2,0,P|335:214|346:247,1,70,2|0,0:0|0:0,0:0:0:0:
382,337,102055,2,0,P|416:327|451:312,2,70,10|0|2,0:0|0:0|0:0,0:0:0:0:
255,370,102505,1,0,0:0:0:0:
152,312,102655,5,2,0:0:0:0:
160,192,102805,1,8,0:0:0:0:
84,244,102955,1,2,0:0:0:0:
232,144,103105,1,0,0:0:0:0:
184,76,103255,1,10,0:0:0:0:
260,40,103405,2,0,P|291:44|332:43,2,70,0|2|8,0:0|0:0|0:0,0:0:0:0:
403,96,103855,5,2,0:0:0:0:
464,176,104005,1,0,0:0:0:0:
448,288,104155,1,4,0:0:0:0:
368,352,104305,1,0,0:0:0:0:
272,336,104455,5,2,0:0:0:0:
224,240,104605,1,8,0:0:0:0:
272,144,104755,1,0,0:0:0:0:
256,48,104905,5,2,0:0:0:0:
144,192,105205,1,2,0:0:0:0:
256,328,105505,1,2,0:0:0:0:
348,192,105805,5,0,0:0:0:0:
256,48,105955,1,2,0:0:0:0:
144,192,106255,5,4,0:0:0:0:
144,192,106405,2,0,L|84:112,1,70,0|10,0:0|0:0,0:0:0:0:
144,192,106705,2,0,L|48:200,1,70,0|2,0:0|0:0,0:0:0:0:
144,192,107005,2,0,L|92:264,1,70,0|10,0:0|0:0,0:0:0:0:
144,192,107305,2,0,L|200:268,1,70,0|2,0:0|0:0,0:0:0:0:
312,252,107605,6,0,L|384:192,1,70,0|10,0:0|0:0,0:0:0:0:
391,279,107905,2,0,L|363:183,1,70,0|2,0:0|0:0,0:0:0:0:
448,212,108205,2,0,L|354:203,1,70,0|10,0:0|0:0,0:0:0:0:
372,200,108430,1,0,0:0:0:0:
372,200,108505,1,0,0:0:0:0:
352,116,108655,1,4,0:0:0:0:
288,52,108805,1,0,0:0:0:0:
200,36,108955,5,10,0:0:0:0:
112,60,109105,2,0,L|56:124,1,70,0|2,0:0|0:0,0:0:0:0:
60,120,109405,2,0,L|112:196,1,70,0|10,0:0|0:0,0:0:0:0:
100,200,109705,2,0,L|36:256,1,70,0|2,0:0|0:0,0:0:0:0:
44,268,110005,2,0,L|92:336,1,70,0|10,0:0|0:0,0:0:0:0:
164,344,110305,1,0,0:0:0:0:
244,328,110455,1,0,0:0:0:0:
272,312,110530,5,0,0:0:0:0:
296,296,110605,1,0,0:0:0:0:
312,280,110680,1,0,0:0:0:0:
330,262,110755,2,0,B|383:211|328:202|408:129,1,140,8|4,0:0|0:0,0:0:0:0:
394,141,111130,1,0,0:0:0:0:
394,141,111205,1,0,0:0:0:0:
336,68,111355,1,10,0:0:0:0:
252,48,111505,5,0,0:0:0:0:
216,56,111580,1,0,0:0:0:0:
180,64,111655,1,2,0:0:0:0:
104,120,111805,1,0,0:0:0:0:
156,176,111955,1,10,0:0:0:0:
196,188,112030,1,0,0:0:0:0:
244,208,112105,1,0,0:0:0:0:
332,248,112255,5,2,0:0:0:0:
404,180,112405,2,0,L|444:112,1,70,0|10,0:0|0:0,0:0:0:0:
460,240,112705,2,0,L|432:324,1,70,0|2,0:0|0:0,0:0:0:0:
344,336,113005,2,0,L|248:336,1,70,0|10,0:0|0:0,0:0:0:0:
156,332,113305,2,0,L|88:280,1,70,0|2,0:0|0:0,0:0:0:0:
84,256,113605,1,2,0:0:0:0:
68,176,113755,5,10,0:0:0:0:
84,96,113905,1,2,0:0:0:0:
152,48,114055,1,2,0:0:0:0:
160,48,114130,1,0,0:0:0:0:
160,48,114205,1,0,0:0:0:0:
228,84,114355,1,10,0:0:0:0:
248,168,114505,5,0,0:0:0:0:
264,200,114580,1,0,0:0:0:0:
296,232,114655,1,0,0:0:0:0:
332,252,114730,1,0,0:0:0:0:
368,256,114805,1,0,0:0:0:0:
400,240,114880,1,0,0:0:0:0:
420,212,114955,5,8,0:0:0:0:
416,168,115030,1,0,0:0:0:0:
388,132,115105,1,0,0:0:0:0:
356,104,115180,1,0,0:0:0:0:
344,64,115255,1,8,0:0:0:0:
360,28,115330,1,0,0:0:0:0:
392,8,115405,5,0,0:0:0:0:
428,4,115480,1,0,0:0:0:0:
464,8,115555,1,8,0:0:0:0:
496,32,115630,1,0,0:0:0:0:
512,80,115705,1,8,0:0:0:0:
512,128,115780,1,0,0:0:0:0:
496,160,115855,6,0,B|488:192|488:192|488:208|488:208|476:224|476:224|460:276,1,105.000004005432,4|0,1:0|0:0,0:0:0:0:
400,172,116155,6,0,P|376:172|353:176,1,46.6666666666667,8|0,1:0|0:0,0:0:0:0:
230,227,116305,2,0,P|252:230|276:230,1,46.6666666666667
168,92,116455,6,0,P|163:129|160:172,1,70,2|0,1:0|0:0,0:0:0:0:
32,264,116755,2,0,P|29:229|24:194,1,70,10|0,1:0|0:0,0:0:0:0:
104,328,117055,2,0,L|156:320,1,46.6666666666667,2|0,1:0|0:0,0:0:0:0:
284,384,117205,2,0,L|232:376,1,46.6666666666667
160,328,117355,6,0,L|156:364,1,35,10|2,1:3|1:0,0:0:0:0:
232,276,117655,6,0,P|255:273|276:263,1,46.6666666666667,2|0,0:0|0:0,0:0:0:0:
180,168,117805,6,0,P|171:189|169:212,1,46.6666666666667,0|0,1:3|0:0,0:0:0:0:
300,176,117956,6,0,P|286:157|267:143,1,46.6666666666667,12|0,0:0|0:0,0:0:0:0:
272,60,118105,6,0,L|244:64,1,23.3333333333333
236,64,118255,6,0,B|295:48|275:88|359:56,1,105.000004005432,4|0,1:0|0:0,0:0:0:0:
412,16,118555,6,0,P|424:44|428:72,1,46.6666666666667,10|0,1:0|0:0,0:0:0:0:
475,164,118705,2,0,P|465:185|460:208,1,46.6666666666667
468,244,118855,6,0,L|456:328,1,70,2|0,0:0|0:0,0:0:0:0:
328,308,119155,2,0,L|340:392,1,70,10|0,1:0|0:0,0:0:0:0:
220,208,119455,6,0,P|248:200|284:200,1,46.6666666666667,2|0,1:0|0:0,0:0:0:0:
467,243,119605,2,0,P|446:231|425:224,1,46.6666666666667,0|0,0:0|1:0,0:0:0:0:
336,252,119755,6,0,L|346:182,1,70,10|0,1:0|0:0,0:0:0:0:
264,56,120055,6,0,P|236:48|200:48,1,46.6666666666667,2|0,1:0|0:0,0:0:0:0:
15,90,120205,2,0,P|35:78|58:72,1,46.6666666666667,0|0,0:0|1:0,0:0:0:0:
132,32,120355,6,0,L|142:101,1,70,10|0,1:0|0:0,0:0:0:0:
172,284,120655,6,0,L|157:180,1,105.000004005432,4|0,0:0|0:0,0:0:0:0:
260,328,120955,6,0,L|266:374,1,46.6666666666667,10|0,1:0|1:0,0:0:0:0:
276,244,121105,2,0,L|269:197,1,46.6666666666667
481,179,121255,6,0,P|447:186|414:176,1,70,2|0,0:0|0:0,0:0:0:0:
207,150,121555,2,0,P|231:125|265:117,1,70,10|0,1:0|0:0,0:0:0:0:
351,262,121855,6,0,P|355:238|352:215,1,46.6666666666667,2|0,0:0|0:0,0:0:0:0:
260,328,122005,2,0,L|271:380,1,46.6666666666667
244,260,122155,6,0,L|252:300,1,35,10|0,1:0|0:0,0:0:0:0:
110,220,122455,6,0,P|133:218|156:212,1,46.6666666666667,2|0,0:0|0:0,0:0:0:0:
350,179,122605,2,0,P|327:183|304:184,1,46.6666666666667
143,96,122755,6,0,P|155:116|168:136,1,46.6666666666667,10|0,1:0|0:0,0:0:0:0:
343,308,122905,2,0,P|330:288|320:268,1,46.6666666666667
260,47,123055,6,0,B|269:11|307:-2|307:-2|340:39|333:88,1,140.000005340576,4|0,1:0|0:0,0:0:0:0:
166,324,123355,6,0,B|138:348|99:337|99:337|96:284|132:249,1,140.000005340576,8|4,0:0|0:0,0:0:0:0:
408,165,123655,6,0,B|445:164|468:197|468:197|437:240|387:246,1,140.000005340576
107,159,123955,6,0,B|74:141|71:101|71:101|119:79|165:99,1,140.000005340576,12|0,1:0|0:0,0:0:0:0:
348,329,124255,6,0,B|356:358|331:395|331:395|292:387|278:352,1,140.000005340576,10|0,1:0|0:0,0:0:0:0:
416,32,124555,5,10,1:0:0:0:
390,302,124705,1,0,0:0:0:0:
253,68,124855,6,0,L|243:64,1,6.56250025033952,10|0,1:0|1:0,0:0:0:0:
503,178,125005,1,0,0:0:0:0:
238,237,125155,6,0,L|248:288,1,52.5,8|0,1:0|0:0,0:0:0:0:
176,192,125455,6,0,P|224:160|288:176,1,126,4|0,0:0|0:0,0:0:0:0:
384,292,125905,1,0,0:0:0:0:
464,160,126055,2,0,P|473:136|480:96,2,56,8|8|0,0:0|0:0|0:0,0:0:0:0:
464,160,126505,1,4,0:0:0:0:
173,59,126655,6,0,P|137:95|141:160,1,112,0|8,0:0|0:0,0:0:0:0:
211,291,127105,1,0,0:0:0:0:
320,104,127255,2,0,L|329:162,1,56,8|0,0:0|0:0,0:0:0:0:
460,328,127555,2,0,L|460:256,1,56,8|0,0:0|0:0,0:0:0:0:
440,72,127855,5,4,0:0:0:0:
424,96,127930,1,0,0:0:0:0:
408,112,128005,1,0,0:0:0:0:
316,184,128155,2,0,P|276:196|244:188,1,56
128,80,128455,1,8,0:0:0:0:
216,272,128605,1,0,0:0:0:0:
304,128,128755,1,8,0:0:0:0:
144,336,128905,1,4,0:0:0:0:
48,240,129055,6,0,L|51:211,3,28
64,256,129355,1,8,0:0:0:0:
99,251,129430,1,0,0:0:0:0:
134,257,129505,1,0,0:0:0:0:
169,270,129580,1,0,0:0:0:0:
200,287,129655,5,0,0:0:0:0:
230,309,129730,1,0,0:0:0:0:
264,322,129805,1,8,0:0:0:0:
300,326,129880,1,8,0:0:0:0:
336,325,129955,5,8,0:0:0:0:
372,316,130030,1,8,0:0:0:0:
405,302,130105,1,12,0:0:0:0:
468,216,130255,6,0,L|472:272,1,56,2|0,0:0|0:0,0:0:0:0:
372,136,130555,2,0,L|368:76,1,56,10|0,0:0|0:0,0:0:0:0:
260,260,130855,1,2,0:0:0:0:
144,140,131005,2,0,L|144:60,1,56,0|10,0:0|0:0,0:0:0:0:
324,36,131305,1,0,0:0:0:0:
468,120,131455,2,0,L|436:176,1,56,2|0,0:0|0:0,0:0:0:0:
288,240,131755,5,10,0:0:0:0:
156,136,131905,1,0,0:0:0:0:
156,136,131980,1,0,0:0:0:0:
156,136,132055,1,2,0:0:0:0:
132,304,132205,1,0,0:0:0:0:
224,208,132355,1,10,0:0:0:0:
336,304,132505,2,0,P|384:304|432:256,1,112,4|0,0:0|0:0,0:0:0:0:
393,61,132955,2,0,B|380:92|380:92|393:141,1,84,10|0,0:0|0:0,0:0:0:0:
368,176,133255,5,8,0:0:0:0:
328,196,133330,1,0,0:0:0:0:
280,200,133405,1,8,0:0:0:0:
232,176,133480,1,0,0:0:0:0:
208,124,133555,5,8,0:0:0:0:
220,60,133630,1,0,0:0:0:0:
268,12,133705,1,10,0:0:0:0:
256,192,133855,12,0,134605,0:0:0:0:
412,332,135055,6,0,L|328:344,1,70,4|0,0:0|0:0,0:0:0:0:
268,264,135355,2,0,L|337:254,1,70,2|0,0:0|0:0,0:0:0:0:
432,136,135655,1,2,0:0:0:0:
400,288,135805,2,0,L|352:156,1,140,8|0,0:0|0:0,0:0:0:0:
312,36,136255,2,0,P|240:28|172:52,1,140,2|2,0:0|0:0,0:0:0:0:
72,128,136705,2,0,L|80:200,1,70,0|2,0:0|0:0,0:0:0:0:
176,288,137005,1,0,0:0:0:0:
276,148,137155,2,0,L|264:240,1,70,10|0,0:0|0:0,0:0:0:0:
188,156,137455,6,0,P|200:96|292:52,1,140,4|2,0:0|0:0,0:0:0:0:
336,192,137905,2,0,L|288:344,1,140,8|0,0:0|0:0,0:0:0:0:
236,236,138355,1,2,0:0:0:0:
272,88,138505,1,0,0:0:0:0:
456,164,138655,2,0,L|364:156,2,70,2|2|2,0:0|0:0|0:0,0:0:0:0:
276,248,139105,2,0,L|345:254,2,70,10|2|2,0:0|0:0|0:0,0:0:0:0:
144,312,139555,2,0,P|104:252|124:160,1,140,8|4,0:0|0:0,0:0:0:0:
164,64,140005,5,0,0:0:0:0:
192,212,140155,1,2,0:0:0:0:
300,80,140305,2,0,L|216:116,1,70,8|2,0:0|0:0,0:0:0:0:
332,176,140605,2,0,L|412:140,2,70,0|2|0,0:0|0:0|0:0,0:0:0:0:
228,248,141055,5,2,0:0:0:0:
308,344,141205,1,0,0:0:0:0:
328,160,141355,1,2,0:0:0:0:
172,104,141505,2,0,L|316:80,1,140,8|0,0:0|0:0,0:0:0:0:
424,148,141955,2,0,L|340:164,1,70,10|0,0:0|0:0,0:0:0:0:
212,196,142255,1,4,0:0:0:0:
340,248,142405,1,0,0:0:0:0:
164,312,142555,1,2,0:0:0:0:
76,200,142705,6,0,P|64:128|104:72,1,140,8|0,0:0|0:0,0:0:0:0:
264,96,143155,2,0,L|196:116,1,70,2|0,0:0|0:0,0:0:0:0:
156,224,143455,2,0,P|136:276|144:316,2,77.0000023498536,2|8|2,0:0|0:0|0:0,0:0:0:0:
260,140,143905,1,2,0:0:0:0:
236,352,144055,2,0,P|280:304|284:268,1,77.0000023498536,10|0,0:0|0:0,0:0:0:0:
184,128,144355,2,0,P|188:176|216:208,1,77.0000023498536,10|0,0:0|0:0,0:0:0:0:
294,63,144655,6,0,L|246:171,1,83.9999974365235,6|0,0:0|0:0,0:0:0:0:
362,318,144955,2,0,L|258:286,1,83.9999974365235,10|0,3:0|0:0,0:0:0:0:
264,28,145255,1,2,0:0:0:0:
156,224,145405,1,0,0:0:0:0:
264,28,145555,2,0,P|256:84|288:108,1,83.9999974365235,10|0,0:0|0:0,0:0:0:0:
52,88,145855,5,2,0:0:0:0:
156,224,146005,1,0,0:0:0:0:
264,28,146155,2,0,P|321:28|376:28,1,83.9999974365235,10|0,0:0|0:0,0:0:0:0:
12,252,146455,5,0,0:0:0:0:
232,316,146605,1,0,0:0:0:0:
264,28,146755,2,0,L|368:28,1,83.9999974365235,10|0,0:0|0:0,0:0:0:0:
18,335,147055,6,0,L|10:231,1,83.9999974365235,2|0,0:0|0:0,0:0:0:0:
264,28,147355,2,0,L|144:52,1,83.9999974365235,10|0,0:0|0:0,0:0:0:0:
232,316,147655,1,2,0:0:0:0:
332,176,147805,1,0,0:0:0:0:
348,16,147955,2,0,L|388:100,1,83.9999974365235,10|0,0:0|0:0,0:0:0:0:
232,316,148255,6,0,P|180:324|168:320,1,52.5000020027161,2|0,0:0|0:0,0:0:0:0:
220,300,148555,2,0,P|168:308|156:304,1,52.5000020027161,12|0,0:0|0:0,0:0:0:0:
208,284,148855,2,0,P|156:292|144:288,1,52.5000020027161,2|0,0:0|0:0,0:0:0:0:
196,268,149155,2,0,P|144:276|132:272,1,52.5000020027161,14|0,0:0|0:0,0:0:0:0:
184,252,149455,5,6,0:0:0:0:
52,88,149605,1,0,0:0:0:0:
184,252,149755,6,0,L|274:261,1,83.9999974365235,10|0,0:0|0:0,0:0:0:0:
364,320,150055,1,2,0:0:0:0:
184,252,150205,1,0,0:0:0:0:
364,320,150355,2,0,L|450:346,1,83.9999974365235,10|0,0:0|0:0,0:0:0:0:
384,91,150655,1,6,0:0:0:0:
267,260,150805,1,0,0:0:0:0:
384,91,150955,2,0,L|457:38,1,83.9999974365235,10|0,0:0|0:0,0:0:0:0:
184,252,151255,1,2,0:0:0:0:
52,88,151405,1,0,0:0:0:0:
184,252,151555,2,0,L|285:262,1,83.9999974365235,10|0,0:0|0:0,0:0:0:0:
364,320,151855,5,6,0:0:0:0:
451,41,152005,1,0,0:0:0:0:
267,260,152155,1,10,0:0:0:0:
264,28,152305,1,0,0:0:0:0:
184,252,152455,1,2,0:0:0:0:
52,88,152605,1,0,0:0:0:0:
348,16,152755,6,0,P|308:120|372:168,1,167.999994873047,10|2,0:0|0:0,0:0:0:0:
184,252,153205,1,0,0:0:0:0:
353,90,153355,1,10,0:0:0:0:
190,272,153505,1,0,0:0:0:0:
52,88,153655,1,10,0:0:0:0:
196,288,153805,1,0,0:0:0:0:
335,154,153955,5,0,0:0:0:0:
308,226,154030,1,0,0:0:0:0:
234,212,154105,1,0,0:0:0:0:
190,272,154180,1,0,0:0:0:0:
128,228,154255,6,0,B|88:208|84:176|84:176|156:168|201:106|201:106|264:140|336:144|380:112|392:8|304:4|244:4|232:60|228:168|240:188|240:188|312:216|332:152|416:208,1,787.500030040742,4|0,0:0|0:0,0:0:0:0:
394,195,156655,2,0,B|424:212|432:248|425:296|368:312|336:288|320:264|320:264|252:280|188:244,1,315.000012016297
368,240,157705,5,0,0:0:0:0:
296,340,157855,1,0,0:0:0:0:
271,150,158005,1,0,0:0:0:0:
199,250,158155,1,0,0:0:0:0:
368,240,158305,2,0,B|344:192|344:192|372:124|316:80,1,157.500006008148
271,150,158905,5,0,0:0:0:0:
296,340,159055,1,4,0:0:0:0:
199,250,159205,2,0,B|178:193|124:164|36:120|48:28|112:44|168:-8|224:88|112:240,1,472.500018024445
180,320,160705,2,0,P|228:316|272:256,1,105.000004005432
292,176,161155,1,0,0:0:0:0:
266,277,161305,1,0,0:0:0:0:
226,127,161455,6,0,P|248:108|288:96,1,52.5000020027161,2|2,0:0|0:0,0:0:0:0:
244,24,161755,6,0,P|272:18|313:28,1,59.5000011348725,2|2,0:0|0:0,0:0:0:0:
257,231,162055,6,0,P|266:203|295:173,1,66.4999982242585,2|2,0:0|0:0,0:0:0:0:
244,24,162355,6,0,P|284:20|322:32,1,80.5000015354157,2|2,0:0|0:0,0:0:0:0:
336,324,162655,6,0,P|328:284|341:229,1,87.5,2|2,0:0|0:0,0:0:0:0:
244,24,162955,6,0,P|284:20|352:64,1,94.5000003604889
376,96,163180,1,0,0:0:0:0:
376,96,163255,1,8,0:0:0:0:
272,108,163405,1,0,0:0:0:0:
512,180,163555,6,0,P|488:188|464:212,1,47.2500001802444,8|0,0:0|0:0,0:0:0:0:
250,262,163855,6,0,L|350:334,1,105.000004005432,2|0,0:0|0:0,0:0:0:0:
144,284,164155,2,0,L|244:356,1,105.000004005432,2|0,0:0|0:0,0:0:0:0:
40,312,164455,2,0,L|140:384,1,105.000004005432,2|0,0:0|0:0,0:0:0:0:
229,345,164755,1,2,0:0:0:0:
160,108,164905,1,0,0:0:0:0:
40,312,165055,6,0,L|160:232,1,105.000004005432,2|0,0:0|0:0,0:0:0:0:
40,216,165355,2,0,L|160:136,1,105.000004005432,2|0,0:0|0:0,0:0:0:0:
272,72,165655,1,2,0:0:0:0:
260,248,165805,1,0,0:0:0:0:
276,68,165955,1,2,0:0:0:0:
127,253,166105,1,0,0:0:0:0:
280,64,166255,6,0,B|317:56|308:75|363:60,1,70,4|0,0:0|0:0,0:0:0:0:
472,104,166555,2,0,P|492:168|460:232,1,105.000004005432,2|0,0:0|0:0,0:0:0:0:
260,240,166855,2,0,P|240:176|272:112,1,105.000004005432,2|0,0:0|0:0,0:0:0:0:
428,316,167155,1,2,0:0:0:0:
280,64,167305,6,0,L|272:40,1,26.2500010013581,2|0,0:0|0:0,0:0:0:0:
477,78,167605,2,0,L|472:104,1,26.2500010013581,2|0,0:0|0:0,0:0:0:0:
364,241,167755,6,0,B|292:229|316:253|248:237,1,105.000004005432,2|0,0:0|0:0,0:0:0:0:
75,276,168055,1,2,0:0:0:0:
246,355,168205,1,0,0:0:0:0:
154,190,168355,1,2,0:0:0:0:
131,378,168505,1,2,0:0:0:0:
259,239,168655,6,0,P|319:245|361:275,1,105.000004005432,4|0,0:0|0:0,0:0:0:0:
282,156,168955,2,0,P|342:162|384:192,1,105.000004005432,2|0,0:0|0:0,0:0:0:0:
472,327,169255,1,2,0:0:0:0:
279,261,169405,2,0,B|287:199|269:221|284:147,1,105.000004005432,0|2,0:0|0:0,0:0:0:0:
378,26,169705,1,0,0:0:0:0:
444,211,169855,6,0,P|385:219|327:204,1,90.9999958343508,2|0,0:0|0:0,0:0:0:0:
139,103,170155,2,0,P|199:93|248:105,1,97.9999970092774,2|0,0:0|0:0,0:0:0:0:
448,218,170455,2,0,P|386:226|328:211,1,105.000004005432,2|0,0:0|0:0,0:0:0:0:
134,95,170755,2,0,P|205:84|276:114,1,112,2|0,0:0|0:0,0:0:0:0:
454,230,171055,5,10,0:0:0:0:
378,26,171205,1,0,0:0:0:0:
378,26,171355,1,0,0:0:0:0:
345,272,171505,5,10,0:0:0:0:
483,51,171655,1,0,0:0:0:0:
483,51,171805,1,0,0:0:0:0:
228,235,171955,5,10,0:0:0:0:
507,150,172105,1,0,0:0:0:0:
197,101,172255,5,10,0:0:0:0:
462,245,172405,1,0,0:0:0:0:
243,0,172555,5,10,0:0:0:0:
345,272,172705,1,0,0:0:0:0:
483,51,172855,6,0,B|409:43|446:64|365:47,1,112,2|0,0:0|0:0,0:0:0:0:
327,43,173080,1,0,0:0:0:0:
282,34,173155,1,8,0:0:0:0:
237,30,173230,1,0,0:0:0:0:
192,35,173305,1,8,0:0:0:0:
150,52,173380,1,0,0:0:0:0:
120,96,173455,6,0,P|104:160|124:208,1,112,12|2,0:0|0:0,0:0:0:0:
192,352,173755,2,0,P|232:280|224:236,1,112,2|2,0:0|0:0,0:0:0:0:
236,120,174055,2,0,B|288:64|388:112|396:180|396:180|400:200,1,224,10|2,0:0|0:0,0:0:0:0:
348,348,174505,1,0,0:0:0:0:
464,235,174655,1,2,0:0:0:0:
302,129,174805,2,0,L|165:144,2,105.000004005432,10|2|2,0:0|0:0|0:0,0:0:0:0:
120,239,175255,2,0,P|156:294|211:310,1,105.000004005432,10|2,0:0|0:0,0:0:0:0:
352,216,175555,1,2,0:0:0:0:
136,144,175705,1,0,0:0:0:0:
304,88,175855,6,0,P|392:64|496:100,2,167.999994873047,4|2|10,0:0|0:0|0:0,0:0:0:0:
478,167,176605,1,0,0:0:0:0:
224,248,176755,2,0,L|327:230,1,105.000004005432,2|0,0:0|0:0,0:0:0:0:
197,359,177055,1,2,0:0:0:0:
281,160,177205,1,8,0:0:0:0:
152,288,177355,2,0,L|48:336,1,105.000004005432,2|0,0:0|0:0,0:0:0:0:
80,200,177655,6,0,L|184:152,1,105.000004005432,10|0,0:0|0:0,0:0:0:0:
280,280,177955,2,0,P|328:320|424:224,1,210.000008010865,10|4,0:0|0:0,0:0:0:0:
348,107,178555,1,2,0:0:0:0:
352,244,178705,1,0,0:0:0:0:
128,112,178855,2,0,L|248:128,1,105.000004005432,10|0,0:0|0:0,0:0:0:0:
280,320,179155,5,2,0:0:0:0:
304,160,179305,1,0,0:0:0:0:
216,264,179455,1,2,0:0:0:0:
408,160,179605,1,8,0:0:0:0:
224,64,179755,2,0,P|200:128|216:184,1,105.000004005432,2|0,0:0|0:0,0:0:0:0:
288,344,180055,2,0,L|320:232,1,105.000004005432,10|0,0:0|0:0,0:0:0:0:
280,48,180355,2,0,L|248:168,1,105.000004005432,10|0,0:0|0:0,0:0:0:0:
167,272,180655,6,0,P|70:270|50:175,2,210.000008010865,4|2|10,0:0|0:0|0:0,0:0:0:0:
160,120,181555,2,0,P|208:96|280:104,1,105.000004005432,2|0,0:0|0:0,0:0:0:0:
384,216,181855,2,0,L|360:328,1,105.000004005432,2|8,0:0|0:0,0:0:0:0:
328,128,182155,2,0,P|248:176|224:296,1,210.000008010865,2|0,0:0|0:0,0:0:0:0:
200,304,182530,5,0,0:0:0:0:
168,288,182605,1,0,0:0:0:0:
160,248,182680,1,0,0:0:0:0:
168,208,182755,2,0,P|208:152|192:88,1,105.000004005432,10|0,0:0|0:0,0:0:0:0:
132,112,183055,6,0,B|108:104|80:120|80:120|104:148|140:136,1,105.000004005432,4|0,0:0|0:0,0:0:0:0:
213,90,183355,6,0,B|234:82|258:110|258:110|230:126|206:118,1,105.000004005432,2|0,0:0|0:0,0:0:0:0:
157,178,183655,5,2,0:0:0:0:
208,224,183730,1,0,0:0:0:0:
280,240,183805,1,0,0:0:0:0:
352,224,183880,1,0,0:0:0:0:
408,176,183955,2,0,B|425:142|425:142|441:134|441:134|463:83,1,105.000004005432,10|0,0:0|0:0,0:0:0:0:
464,76,184255,5,2,0:0:0:0:
424,24,184330,1,0,0:0:0:0:
360,16,184405,1,0,0:0:0:0:
320,64,184480,1,0,0:0:0:0:
344,128,184555,1,2,0:0:0:0:
320,192,184630,1,0,0:0:0:0:
256,216,184705,6,0,B|205:228|205:228|155:197,1,105.000004005432,8|2,0:0|0:0,0:0:0:0:
112,64,185005,1,0,0:0:0:0:
24,232,185155,5,10,0:0:0:0:
40,296,185230,1,0,0:0:0:0:
88,336,185305,1,0,0:0:0:0:
144,344,185380,1,0,0:0:0:0:
192,320,185455,6,0,B|224:312|224:312|256:320|256:320|304:312,1,105.000004005432,4|0,0:0|0:0,0:0:0:0:
440,304,185755,2,0,B|453:325|464:358|464:358|471:339|466:307,1,105.000004005432,2|8,0:0|0:0,0:0:0:0:
393,131,186055,6,0,B|368:180|368:180|381:229,1,105.000004005432,2|0,0:0|0:0,0:0:0:0:
119,188,186355,2,0,B|132:139|132:139|106:90,1,105.000004005432,10|0,0:0|0:0,0:0:0:0:
192,48,186655,5,8,0:0:0:0:
328,44,186805,1,0,0:0:0:0:
424,120,186955,1,0,0:0:0:0:
408,252,187105,1,8,0:0:0:0:
308,304,187255,1,8,0:0:0:0:
256,240,187405,5,0,0:0:0:0:
240,192,187480,1,0,0:0:0:0:
264,144,187555,1,8,0:0:0:0:
240,104,187630,1,0,0:0:0:0:
256,48,187705,1,4,0:0:0:0:
160,40,187855,6,0,P|173:62|117:77,1,105.000004005432,2|0,0:0|0:0,0:0:0:0:
121,229,188155,6,0,P|74:250|23:244,1,105.000004005432,10|0,0:0|0:0,0:0:0:0:
351,40,188455,6,0,P|347:85|393:79,1,105.000004005432,2|0,0:0|0:0,0:0:0:0:
390,229,188754,6,0,P|437:250|488:244,1,105.000004005432,10|0,0:0|0:0,0:0:0:0:
448,164,189055,5,2,0:0:0:0:
196,357,189205,1,0,0:0:0:0:
202,8,189355,6,0,P|176:24|240:88,1,157.500006008148,10|0,0:0|0:0,0:0:0:0:
115,222,189655,6,0,B|82:213|72:191|72:191|52:210|16:208,1,105.000004005432,2|0,0:0|0:0,0:0:0:0:
397,222,189955,6,0,B|430:213|440:191|440:191|460:210|496:208,1,105.000004005432,10|0,0:0|0:0,0:0:0:0:
256,25,190255,6,0,B|254:43|254:43|261:67|261:67|252:94|252:94|253:128,1,105.000004005432,4|0,0:0|0:0,0:0:0:0:
120,320,190555,6,0,B|100:310|80:308|80:308|109:309|148:292,1,105.000004005432,8|0,0:0|0:0,0:0:0:0:
176,272,190855,5,8,0:0:0:0:
208,232,190930,1,0,0:0:0:0:
264,224,191005,1,0,0:0:0:0:
320,256,191080,1,0,0:0:0:0:
336,320,191155,1,8,0:0:0:0:
288,376,191230,1,0,0:0:0:0:
216,376,191305,1,8,0:0:0:0:
256,304,191455,6,0,B|208:208|304:208|256:96,1,210,2|0,0:0|0:0,0:0:0:0:
258,102,192655,6,0,B|225:-5|49:-37|-63:235|161:235|257:347|257:347|337:235|561:251|465:-37|289:-5|257:107,1,1117.19995397278,4|2,0:0|0:0,0:0:0:0:
176,160,194755,5,0,0:0:0:0:
214,185,194830,1,0,0:0:0:0:
260,193,194905,1,0,0:0:0:0:
305,182,194980,1,0,0:0:0:0:
342,155,195055,1,8,0:0:0:0:
384,224,196105,5,0,0:0:0:0:
384,224,196180,1,0,0:0:0:0:
384,224,196255,1,12,0:0:0:0:
272,312,196405,1,0,0:0:0:0:
204,184,196555,1,10,0:0:0:0:
120,312,196705,1,0,0:0:0:0:
92,236,196855,5,8,0:0:0:0:
69,209,196955,1,8,0:0:0:0:
57,176,197055,1,8,0:0:0:0:
56,142,197155,1,8,0:0:0:0:
67,108,197255,1,8,0:0:0:0:
88,81,197355,1,8,0:0:0:0:
152,37,197455,6,0,P|185:31|242:50,1,70,12|0,0:0|0:0,0:0:0:0:
417,111,197755,1,2,0:0:0:0:
293,122,197905,1,0,0:0:0:0:
394,266,198055,2,0,L|403:357,1,70,10|0,0:0|0:0,0:0:0:0:
168,268,198355,1,2,0:0:0:0:
300,248,198505,1,0,0:0:0:0:
217,370,198655,1,2,0:0:0:0:
81,172,198805,6,0,P|84:137|87:94,1,70,8|2,0:0|0:0,0:0:0:0:
214,45,199105,2,0,B|248:35|248:35|306:52,1,70,2|8,0:0|0:0,0:0:0:0:
241,191,199405,2,0,B|206:182|206:182|165:137,1,70,0|10,0:0|0:0,0:0:0:0:
350,106,199705,5,0,0:0:0:0:
477,246,199855,1,4,0:0:0:0:
307,236,200005,1,0,0:0:0:0:
477,154,200155,1,2,0:0:0:0:
319,357,200305,1,0,0:0:0:0:
96,234,200455,6,0,L|177:221,1,70,10|0,0:0|0:0,0:0:0:0:
189,126,200755,2,0,P|175:94|180:59,1,70,2|0,0:0|0:0,0:0:0:0:
367,186,201055,2,0,L|353:269,1,70,2|8,0:0|0:0,0:0:0:0:
263,217,201355,5,2,0:0:0:0:
466,182,201505,1,0,0:0:0:0:
367,364,201655,1,10,0:0:0:0:
310,120,201805,1,0,0:0:0:0:
263,217,201955,6,0,P|228:210|188:205,2,70,2|2|4,0:0|0:0|0:0,0:0:0:0:
359,172,202405,1,0,0:0:0:0:
403,81,202555,2,0,P|435:81|476:76,2,70,2|0|8,0:0|0:0|0:0,0:0:0:0:
203,107,203005,6,0,B|171:99|171:99|118:114,1,70
206,323,203305,2,0,B|238:331|238:331|291:316,1,70,0|2,0:0|0:0,0:0:0:0:
386,61,203605,5,8,0:0:0:0:
228,202,203755,1,2,0:0:0:0:
448,183,203905,1,0,0:0:0:0:
264,77,204055,1,10,0:0:0:0:
344,267,204205,1,0,0:0:0:0:
156,136,204355,1,10,0:0:0:0:
396,160,204505,1,0,0:0:0:0:
160,352,204655,2,0,P|160:304|176:256,1,70,4|0,0:0|0:0,0:0:0:0:
368,88,204955,5,2,0:0:0:0:
260,240,205105,1,0,0:0:0:0:
96,96,205255,2,0,B|139:75|139:75|208:96,1,97.9999970092774,10|0,0:0|0:0,0:0:0:0:
392,272,205555,5,2,0:0:0:0:
144,228,205705,1,0,0:0:0:0:
304,92,205855,2,0,B|383:66|365:127|461:92,1,140,2|2,0:0|0:0,0:0:0:0:
48,276,206305,1,0,0:0:0:0:
124,72,206455,1,10,0:0:0:0:
356,192,206605,1,0,0:0:0:0:
356,192,206680,1,0,0:0:0:0:
356,192,206755,1,10,0:0:0:0:
33,155,206905,1,0,0:0:0:0:
400,340,207055,6,0,P|432:300|444:248,1,77.0000023498536,4|0,0:0|0:0,0:0:0:0:
344,116,207355,2,0,P|312:156|296:212,1,83.9999974365235,2|0,0:0|0:0,0:0:0:0:
128,328,207655,2,0,P|160:288|172:232,1,90.9999958343508,10|0,0:0|0:0,0:0:0:0:
108,88,207955,2,0,P|76:128|56:184,1,97.9999970092774,2|0,0:0|0:0,0:0:0:0:
396,292,208255,5,2,0:0:0:0:
336,92,208405,1,8,0:0:0:0:
288,316,208555,1,2,0:0:0:0:
204,104,208705,1,0,0:0:0:0:
112,316,208855,1,10,0:0:0:0:
116,320,209155,1,2,0:0:0:0:
412,152,209305,1,8,0:0:0:0:
192,256,209755,6,0,L|140:240,2,35,8|0|0,0:0|0:0|0:0,0:0:0:0:
192,256,210055,1,2,0:0:0:0:
296,338,210205,2,0,B|357:316|361:366|435:324,1,136.499993751526,8|0,0:0|0:0,0:0:0:0:
40,72,210655,5,10,0:0:0:0:
116,324,210805,1,0,0:0:0:0:
292,152,210955,1,10,0:0:0:0:
16,208,211105,1,0,0:0:0:0:
312,40,211255,2,0,P|367:44|404:95,1,90.9999958343508,10|0,0:0|0:0,0:0:0:0:
404,96,211480,1,0,0:0:0:0:
422,139,211555,1,8,0:0:0:0:
421,187,211630,1,0,0:0:0:0:
401,230,211705,1,0,0:0:0:0:
365,261,211780,1,0,0:0:0:0:
319,275,211855,6,0,P|296:228|360:136,1,157.500006008148,12|0,0:0|0:0,0:0:0:0:
472,232,212155,2,0,P|416:236|372:216,1,105.000004005432,8|0,0:0|0:0,0:0:0:0:
232,40,212455,2,0,B|248:96|248:96|236:160,1,105.000004005432,2|0,0:0|0:0,0:0:0:0:
44,152,212755,1,10,0:0:0:0:
67,120,212830,1,0,0:0:0:0:
100,100,212905,1,0,0:0:0:0:
139,93,212980,1,0,0:0:0:0:
177,102,213055,6,0,P|236:112|288:100,1,105.000004005432,2|0,0:0|0:0,0:0:0:0:
436,236,213355,2,0,P|376:228|320:240,1,105.000004005432,10|0,0:0|0:0,0:0:0:0:
256,340,213655,5,2,0:0:0:0:
400,332,213805,1,0,0:0:0:0:
376,76,213955,5,10,0:0:0:0:
337,84,214030,1,0,0:0:0:0:
298,87,214105,1,0,0:0:0:0:
259,86,214180,1,0,0:0:0:0:
220,79,214255,6,0,B|176:112|176:112|156:172,1,105.000004005432,4|0,0:0|0:0,0:0:0:0:
220,336,214555,2,0,P|232:280|216:224,1,105.000004005432,10|0,0:0|0:0,0:0:0:0:
100,120,214855,1,2,0:0:0:0:
72,272,215005,1,0,0:0:0:0:
312,200,215155,6,0,B|252:176|252:176|200:176,1,105.000004005432,10|0,0:0|0:0,0:0:0:0:
232,288,215455,5,2,0:0:0:0:
256,80,215605,1,0,0:0:0:0:
128,285,215755,6,0,B|184:277|184:277|256:293,1,105.000004005432,10|0,0:0|0:0,0:0:0:0:
312,332,215980,1,0,0:0:0:0:
408,316,216055,2,0,P|440:264|444:208,1,105.000004005432,2|0,0:0|0:0,0:0:0:0:
292,40,216355,2,0,P|304:104|344:144,1,105.000004005432,10|0,0:0|0:0,0:0:0:0:
364,244,216655,6,0,B|340:212|340:212|316:240|316:240|268:224|216:248,1,157.500006008148,4|0,0:0|0:0,0:0:0:0:
72,328,216955,2,0,P|144:340|192:324,1,105.000004005432,10|0,0:0|0:0,0:0:0:0:
232,172,217255,1,2,0:0:0:0:
128,256,217405,1,0,0:0:0:0:
384,296,217555,6,0,L|392:144,1,105.000004005432,10|0,0:0|0:0,0:0:0:0:
276,48,217780,1,0,0:0:0:0:
276,48,217855,2,0,L|288:160,1,105.000004005432,2|0,0:0|0:0,0:0:0:0:
300,272,218155,1,10,0:0:0:0:
372,112,218305,1,0,0:0:0:0:
144,224,218455,6,0,B|200:232|200:232|256:224,1,105.000004005432,2|0,0:0|0:0,0:0:0:0:
428,48,218755,2,0,B|372:40|372:40|316:48,1,105.000004005432,10|0,0:0|0:0,0:0:0:0:
232,72,218980,1,0,0:0:0:0:
136,72,219055,2,0,P|104:128|140:228,1,157.500006008148,4|0,0:0|0:0,0:0:0:0:
168,324,219355,2,0,B|220:296|220:296|236:240,1,105.000004005432,10|0,0:0|0:0,0:0:0:0:
48,88,219655,2,0,P|36:148|44:200,1,105.000004005432
312,136,219955,5,10,0:0:0:0:
274,124,220030,1,0,0:0:0:0:
236,113,220105,1,0,0:0:0:0:
198,121,220180,1,0,0:0:0:0:
160,132,220255,1,10,0:0:0:0:
220,268,220405,1,0,0:0:0:0:
252,32,220555,1,10,0:0:0:0:
296,220,220705,1,0,0:0:0:0:
136,40,220855,5,10,0:0:0:0:
182,64,220930,1,0,0:0:0:0:
233,72,221005,1,0,0:0:0:0:
285,63,221080,1,0,0:0:0:0:
332,40,221155,5,8,0:0:0:0:
375,69,221230,1,0,0:0:0:0:
402,113,221305,1,0,0:0:0:0:
410,165,221380,1,0,0:0:0:0:
397,215,221455,1,12,0:0:0:0:
397,215,221755,6,0,L|272:236,1,105.000004005432,10|0,0:0|0:0,0:0:0:0:
12,88,222055,2,0,P|76:64|132:64,1,105.000004005432,2|0,0:0|0:0,0:0:0:0:
216,360,222355,1,10,0:0:0:0:
308,184,222505,1,0,0:0:0:0:
208,352,222655,1,2,0:0:0:0:
224,92,222805,1,0,0:0:0:0:
200,348,222955,1,10,0:0:0:0:
68,60,223105,1,0,0:0:0:0:
320,252,223255,6,0,P|380:192|380:72,2,210.000008010865,2|8|2,0:0|0:0|0:0,0:0:0:0:
72,44,224155,2,0,L|84:182,1,105.000004005432,10|0,0:0|0:0,0:0:0:0:
380,296,224455,2,0,P|328:272|272:276,1,105.000004005432,2|0,0:0|0:0,0:0:0:0:
464,36,224755,2,0,B|445:82|394:96|394:96|433:130|421:209,1,210.000008010865,10|0,0:0|0:0,0:0:0:0:
136,256,225355,2,0,L|160:128,1,105.000004005432,10|0,0:0|0:0,0:0:0:0:
356,64,225655,1,2,0:0:0:0:
380,92,225955,1,2,0:0:0:0:
380,92,226255,6,0,L|292:148,1,105.000004005432,4|0,0:0|0:0,0:0:0:0:
20,308,226555,2,0,B|56:256|56:256|56:196,1,105.000004005432,2|0,0:0|0:0,0:0:0:0:
308,28,226855,2,0,B|272:80|272:80|272:140,1,105.000004005432,2|0,0:0|0:0,0:0:0:0:
435,329,227155,6,0,B|414:314|399:292|399:292|377:320|338:329,1,105.000004005432,10|0,0:0|0:0,0:0:0:0:
77,329,227455,2,0,B|98:314|113:292|113:292|135:320|174:329,1,105.000004005432,4|0,0:0|0:0,0:0:0:0:
368,48,227755,5,10,0:0:0:0:
178,107,227905,1,0,0:0:0:0:
368,59,228055,1,2,0:0:0:0:
172,231,228205,1,0,0:0:0:0:
370,67,228355,1,10,0:0:0:0:
260,364,228505,1,8,0:0:0:0:
188,56,228655,6,0,B|104:40|104:40|128:72,1,105.000004005432,4|0,0:0|0:0,0:0:0:0:
324,56,228955,2,0,B|408:40|408:40|384:72,1,105.000004005432,10|0,0:0|0:0,0:0:0:0:
116,320,229255,2,0,P|129:276|113:320,1,105.000004005432,2|8,0:0|0:0,0:0:0:0:
395,320,229555,2,0,P|382:276|398:320,1,105.000004005432,2|0,0:0|0:0,0:0:0:0:
32,80,229855,6,0,B|208:4|208:152|396:64,1,367.500014019013,2|0,0:0|0:0,0:0:0:0:
420,136,230455,6,0,P|460:140|500:172,2,70.0000026702882,8|8|8,0:0|0:0|0:0,0:0:0:0:
372,196,230755,2,0,P|332:200|292:232,2,70.0000026702882,8|8|8,0:0|0:0|0:0,0:0:0:0:
464,256,231055,1,4,0:0:0:0:
64,64,232255,5,4,0:0:0:0:
256,192,233455,5,0,0:0:0:0:
224,224,233605,1,0,0:0:0:0:
288,160,233755,1,0,0:0:0:0:
208,272,233905,1,0,0:0:0:0:
304,112,234055,5,8,0:0:0:0:
224,320,234205,1,8,0:0:0:0:
288,64,234355,1,8,0:0:0:0:
256,368,234505,1,8,0:0:0:0:
256,16,234655,5,8,0:0:0:0:
304,384,234805,1,8,0:0:0:0:
208,0,234955,1,8,0:0:0:0:
352,368,235105,1,8,0:0:0:0:
148,13,235255,5,8,0:0:0:0:
108,49,235330,1,0,0:0:0:0:
98,99,235405,1,0,0:0:0:0:
110,146,235480,1,0,0:0:0:0:
144,181,235555,1,10,0:0:0:0:
161,229,235630,1,0,0:0:0:0:
147,276,235705,1,0,0:0:0:0:
109,308,235780,1,0,0:0:0:0:
64,304,235855,5,4,0:0:0:0:
64,304,236005,2,0,L|96:224,1,70,0|2,0:0|0:0,0:0:0:0:
288,160,236305,1,0,0:0:0:0:
457,338,236455,2,0,B|405:326|383:301|383:301|361:329|321:333,1,140,10|0,0:0|0:0,0:0:0:0:
160,320,236905,2,0,P|108:272|96:204,1,140,0|8,0:0|0:0,0:0:0:0:
185,229,237355,5,2,0:0:0:0:
368,160,237505,1,0,0:0:0:0:
185,229,237655,1,10,0:0:0:0:
368,160,237805,1,0,0:0:0:0:
48,80,237955,6,0,L|128:64,1,70,2|0,0:0|0:0,0:0:0:0:
256,48,238255,1,4,0:0:0:0:
256,272,238555,1,2,0:0:0:0:
464,96,238705,1,0,0:0:0:0:
176,48,238855,1,10,0:0:0:0:
384,240,239155,5,2,0:0:0:0:
35,179,239305,2,0,B|82:169|82:169|122:181|122:181|194:161,1,140,0|10,0:0|0:0,0:0:0:0:
289,233,239755,5,2,0:0:0:0:
480,176,239905,1,0,0:0:0:0:
347,346,240055,1,10,0:0:0:0:
361,104,240205,1,0,0:0:0:0:
509,347,240355,1,2,0:0:0:0:
183,182,240505,5,0,0:0:0:0:
263,366,240655,1,4,0:0:0:0:
352,64,240805,1,0,0:0:0:0:
76,194,240955,1,2,0:0:0:0:
347,346,241105,5,0,0:0:0:0:
281,24,241255,1,10,0:0:0:0:
94,359,241405,1,0,0:0:0:0:
402,196,241555,1,2,0:0:0:0:
32,96,241705,6,0,B|193:47|130:158|350:102,1,315.000012016297,2|0,0:0|0:0,0:0:0:0:
64,320,242305,5,0,0:0:0:0:
432,304,242455,1,10,0:0:0:0:
96,192,242605,1,0,0:0:0:0:
464,192,242755,1,2,0:0:0:0:
160,96,242905,6,0,P|208:48|336:96,1,210.000008010865
256,124,243355,1,2,0:0:0:0:
256,124,243430,1,0,0:0:0:0:
256,124,243505,1,0,0:0:0:0:
112,320,243655,5,10,0:0:0:0:
336,256,243805,1,0,0:0:0:0:
144,224,243955,1,2,0:0:0:0:
224,304,244105,1,0,0:0:0:0:
256,208,244255,2,0,B|290:152|290:152|358:137|358:137|406:73,1,210.000008010865,2|2,0:0|0:0,0:0:0:0:
234,93,244705,1,0,0:0:0:0:
64,112,244855,6,0,P|80:48|96:128,1,210.000008010865,10|0,0:0|0:0,0:0:0:0:
84,240,245305,5,0,0:0:0:0:
84,240,245455,6,0,B|201:222|201:222|154:263|154:263,1,175,4|0,0:0|0:0,0:0:0:0:
82,325,245905,1,0,0:0:0:0:
123,70,246055,1,10,0:0:0:0:
192,153,246205,6,0,L|134:160,1,43.75
75,168,246355,1,2,0:0:0:0:
211,52,246505,1,0,0:0:0:0:
126,300,246655,6,0,B|87:286|87:286|57:242,2,87.5,2|8|2,0:0|0:0|0:0,0:0:0:0:
255,222,247105,1,0,0:0:0:0:
239,65,247255,2,0,P|187:68|141:94,1,87.5,10|0,0:0|0:0,0:0:0:0:
272,318,247555,2,0,P|316:318|356:301,1,87.5,2|0,0:0|0:0,0:0:0:0:
453,196,247855,6,0,B|419:175|419:175|404:212|404:212|342:189|290:240,1,175,4|0,0:0|0:0,0:0:0:0:
360,298,248305,1,0,0:0:0:0:
388,88,248455,1,10,0:0:0:0:
388,88,248530,1,0,0:0:0:0:
388,88,248605,1,0,0:0:0:0:
234,56,248755,5,2,0:0:0:0:
303,228,248905,1,0,0:0:0:0:
335,96,249055,1,2,0:0:0:0:
196,154,249205,1,8,0:0:0:0:
326,102,249355,1,2,0:0:0:0:
189,68,249505,5,0,0:0:0:0:
268,249,249655,2,0,B|365:258|365:258|335:281,1,131.25,4|0,0:0|0:0,0:0:0:0:
190,278,249955,2,0,P|186:239|214:192,1,87.5,8|0,0:0|0:0,0:0:0:0:
394,74,250255,6,0,B|417:109|417:109|385:122|385:122|408:183|358:228,1,175,4|2,0:0|0:0,0:0:0:0:
301,152,250705,1,0,0:0:0:0:
480,212,250855,1,10,0:0:0:0:
480,212,251005,1,0,0:0:0:0:
379,289,251155,5,2,0:0:0:0:
411,84,251305,1,0,0:0:0:0:
449,241,251455,1,2,0:0:0:0:
311,68,251605,1,8,0:0:0:0:
257,223,251755,6,0,B|302:233|302:233|349:220,1,87.5,2|0,0:0|0:0,0:0:0:0:
255,95,252055,2,0,B|215:86|215:86|118:106,1,131.25,10|0,0:0|0:0,0:0:0:0:
57,234,252355,6,0,P|102:214|152:214,1,87.5,10|0,0:0|0:0,0:0:0:0:
221,335,252655,2,0,P|179:316|157:266,1,87.5,4|0,0:0|0:0,0:0:0:0:
88,154,252880,1,0,0:0:0:0:
88,154,252955,2,0,P|141:133|183:145,1,87.5,2|0,0:0|0:0,0:0:0:0:
280,97,253180,1,0,0:0:0:0:
280,97,253255,2,0,P|297:147|278:194,1,87.5,10|0,0:0|0:0,0:0:0:0:
188,145,253555,5,2,0:0:0:0:
374,72,253705,2,0,B|414:56|414:56|387:121|417:198,1,175,8|0,0:0|0:0,0:0:0:0:
468,249,254080,1,0,0:0:0:0:
468,249,254155,1,10,0:0:0:0:
479,132,254305,1,0,0:0:0:0:
479,132,254380,1,0,0:0:0:0:
479,132,254455,6,8,L|426:138,3,43.75
299,81,254755,6,0,L|407:71,1,87.5,8|0,0:0|0:0,0:0:0:0:
206,91,255055,6,0,B|211:92|168:90|131:114|131:114|69:66|69:66|56:142|56:142|-7:187|-7:187|59:221|59:221|83:300|83:300|136:240|136:240|218:243|218:243|181:174|181:174|256:148|303:174|300:205|307:225|324:231|335:258|358:275|386:288|416:302|456:300|483:280|500:252|518:216|523:180|511:151|491:116|459:89|402:101|362:116|353:147|369:189|415:197,1,1344.0000328125,4|0,0:0|2:0,0:0:0:0:
